osu file format v14

[General]
AudioFilename: audio.mp3
AudioLeadIn: 0
PreviewTime: 84151
Countdown: 0
SampleSet: Soft
StackLeniency: 0.2
Mode: 0
LetterboxInBreaks: 0
WidescreenStoryboard: 1

[Editor]
Bookmarks: 2626,21826,41026,45826,65026,84226,103426,113026,132226
DistanceSpacing: 0.2
BeatDivisor: 4
GridSize: 32
TimelineZoom: 2.699999

[Metadata]
Title:Symmetric
TitleUnicode:Symmetric
Artist:ISOMERZ (DJ Raisei + seatrus)
ArtistUnicode:ISOMERZ (DJ Raisei + seatrus)
Creator:Realazy
Version:Enantiomorphs
Source:
Tags:Ayyri eiri- BOUYAAA captin1 toybot vikala Ishtiaq Sing Amateurre Dailycare 200step j-core hardcore psystyle electronic instrumental fa featured artist
BeatmapID:2855075
BeatmapSetID:1381824

[Difficulty]
HPDrainRate:5
CircleSize:4
OverallDifficulty:9.2
ApproachRate:9.8
SliderMultiplier:2
SliderTickRate:1

[Events]
//Background and Video events
0,0,"symmetric.jpg",0,0
//Break Periods
2,65226,72717
//Storyboard Layer 0 (Background)
//Storyboard Layer 1 (Fail)
//Storyboard Layer 2 (Pass)
//Storyboard Layer 3 (Foreground)
//Storyboard Layer 4 (Overlay)
//Storyboard Sound Samples

[TimingPoints]
2626,300,4,2,1,40,1,0
9826,-100,4,2,1,50,0,0
10126,-100,4,2,1,55,0,0
10426,-100,4,2,1,60,0,0
10726,-100,4,2,1,65,0,0
11026,-100,4,2,11,70,0,0
12226,-57.1428571428571,4,2,1,90,0,0
12676,-54.6448087431694,4,2,1,90,0,0
13426,-50,4,2,1,90,0,0
13876,-40,4,2,1,90,0,0
14326,-66.6666666666667,4,2,1,90,0,0
14626,-57.1428571428571,4,2,1,90,0,0
15076,-47.6190476190476,4,2,1,90,0,0
15526,-166.666666666667,4,2,11,90,0,0
15826,-57.1428571428571,4,2,1,90,0,0
16126,-200,4,2,1,90,0,0
16276,-28.5714285714286,4,2,1,90,0,0
16576,-100,4,2,1,90,0,0
17026,-66.6666666666667,4,2,1,90,0,0
18226,-57.1428571428571,4,2,1,90,0,0
19426,-50,4,2,1,90,0,0
20626,-166.666666666667,4,2,1,90,0,0
21451,-166.666666666667,4,2,1,5,0,0
21526,-50,4,2,1,90,0,0
21751,-50,4,2,1,5,0,0
21826,-44.4444444444445,4,2,1,90,0,0
22126,-100,4,2,1,90,0,0
22276,-57.1428571428571,4,2,1,90,0,0
22426,-44.4444444444445,4,2,1,90,0,0
22876,-80,4,2,1,90,0,0
23326,-44.4444444444445,4,2,1,90,0,0
23626,-40,4,2,1,90,0,0
23926,-200,4,2,1,90,0,0
24376,-100,4,2,1,90,0,0
24526,-66.6666666666667,4,2,1,90,0,0
24676,-50,4,2,1,90,0,0
24826,-80,4,2,1,90,0,0
25726,-57.1428571428571,4,2,1,90,0,0
26326,-40,4,2,1,90,0,0
26551,-40,4,2,1,5,0,0
26626,-66.6666666666667,4,2,1,90,0,0
26926,-133.333333333333,4,2,1,90,0,0
27676,-100,4,2,1,90,0,0
27976,-66.6666666666667,4,2,1,90,0,0
28276,-44.4444444444445,4,2,1,90,0,0
28426,-133.333333333333,4,2,1,90,0,0
28576,-44.4444444444445,4,2,1,90,0,0
28726,-66.6666666666667,4,2,1,90,0,0
29026,-40,4,2,1,90,0,0
29176,-57.1428571428571,4,2,1,90,0,0
29626,-40,4,2,1,90,0,0
29776,-50,4,2,1,90,0,0
30076,-40,4,2,1,90,0,0
30376,-40,4,2,1,5,0,0
30451,-40,4,2,1,90,0,0
30601,-40,4,2,1,5,0,0
30676,-40,4,2,1,90,0,0
30826,-40,4,2,1,5,0,0
30901,-40,4,2,1,90,0,0
31051,-40,4,2,1,5,0,0
31126,-40,4,2,1,90,0,0
31426,-33.3333333333333,4,2,1,90,0,0
31651,-33.3333333333333,4,2,1,5,0,0
31726,-44.4444444444445,4,2,1,90,0,0
32176,-66.6666666666667,4,2,11,90,0,0
33226,-200,4,2,11,90,0,0
33526,-50,4,2,1,90,0,0
33751,-50,4,2,1,5,0,0
33826,-44.4444444444445,4,2,1,90,0,0
34126,-100,4,2,1,90,0,0
34426,-44.4444444444445,4,2,1,90,0,0
34801,-66.6666666666667,4,2,1,90,0,0
35326,-100,4,2,1,90,0,0
35626,-50,4,2,1,90,0,0
35926,-44.4444444444445,4,2,1,90,0,0
36151,-44.4444444444445,4,2,1,5,0,0
36226,-44.4444444444445,4,2,1,90,0,0
36676,-57.1428571428571,4,2,1,90,0,0
37126,-80,4,2,1,90,0,0
37576,-100,4,2,1,90,0,0
37876,-57.1428571428571,4,2,1,90,0,0
38176,-40,4,2,1,90,0,0
38551,-40,4,2,1,5,0,0
38626,-50,4,2,2,90,0,0
39226,-40,4,2,2,90,0,0
39826,-44.4444444444445,4,2,1,90,0,0
41176,-80,4,2,11,80,0,0
43126,-50,4,2,1,80,0,0
43426,-40,4,2,1,80,0,0
43726,-100,4,2,11,80,0,0
44626,-66.6666666666667,4,2,11,80,0,0
45526,-50,4,2,1,90,0,0
45826,-50,4,2,3,100,0,1
49726,-100,4,2,3,100,0,1
50626,-50,4,2,3,100,0,0
50926,-50,4,2,3,100,0,1
53101,-50,4,2,3,5,0,1
53176,-50,4,2,3,100,0,1
53326,-50,4,2,3,5,0,1
53401,-50,4,2,3,100,0,1
53551,-50,4,2,3,5,0,1
53626,-50,4,2,3,100,0,1
53776,-50,4,2,3,5,0,1
53851,-50,4,2,3,100,0,1
54001,-50,4,2,3,5,0,1
54076,-50,4,2,3,100,0,1
54226,-100,4,2,3,90,0,1
55126,-50,4,2,1,90,0,1
55426,-303.030303030303,4,2,1,90,0,0
55651,-303.030303030303,4,2,1,5,0,0
55726,-50,4,2,3,100,0,1
56626,-100,4,2,3,100,0,1
56776,-33.3333333333333,4,2,3,100,0,1
56926,-66.6666666666667,4,2,3,100,0,1
57376,-33.3333333333333,4,2,3,100,0,1
58426,-50,4,2,3,100,0,1
59026,-40,4,2,3,100,0,1
59176,-40,4,2,3,5,0,1
59251,-40,4,2,3,100,0,1
59401,-40,4,2,3,5,0,1
59476,-40,4,2,3,100,0,1
59626,-50,4,2,3,100,0,1
60226,-100,4,2,3,100,0,0
60526,-50,4,2,3,100,0,1
61126,-100,4,2,3,100,0,1
61426,-50,4,2,3,100,0,1
61726,-40,4,2,3,100,0,1
62026,-133.333333333333,4,2,3,100,0,1
62176,-33.3333333333333,4,2,3,100,0,1
62363,-33.3333333333333,4,2,3,5,0,1
62401,-40,4,2,3,100,0,1
62551,-40,4,2,3,5,0,1
62626,-35.0877192982456,4,2,3,100,0,1
62776,-35.0877192982456,4,2,3,5,0,1
62851,-33.3333333333333,4,2,3,100,0,1
63001,-33.3333333333333,4,2,3,5,0,1
63076,-28.5714285714286,4,2,3,100,0,1
63226,-28.5714285714286,4,2,3,5,0,1
63301,-33.3333333333333,4,2,3,100,0,1
63451,-33.3333333333333,4,2,3,5,0,1
63526,-33.3333333333333,4,2,3,100,0,1
63826,-100,4,2,3,80,0,1
65026,-50,4,2,1,90,0,0
73426,-100,4,2,11,90,0,0
74626,-57.1428571428571,4,2,1,90,0,0
75076,-50,4,2,1,90,0,0
75826,-57.1428571428571,4,2,1,90,0,0
76276,-40,4,2,1,90,0,0
76726,-66.6666666666667,4,2,1,90,0,0
77026,-58.8235294117647,4,2,1,90,0,0
77476,-50,4,2,1,90,0,0
77926,-200,4,2,11,90,0,0
78226,-66.6666666666667,4,2,1,90,0,0
78526,-200,4,2,1,90,0,0
78676,-28.5714285714286,4,2,1,90,0,0
78976,-66.6666666666667,4,2,1,90,0,0
79426,-50,4,2,1,90,0,0
80626,-40,4,2,1,90,0,0
81826,-66.6666666666667,4,2,1,90,0,0
83926,-25,4,2,1,90,0,0
84226,-50,4,2,4,100,0,1
85426,-44.4444444444445,4,2,4,100,0,1
86626,-50,4,2,4,100,0,1
87001,-100,4,2,4,100,0,1
87226,-44.4444444444445,4,2,4,100,0,1
87826,-66.6666666666667,4,2,4,100,0,1
88276,-100,4,2,4,100,0,1
89026,-50,4,2,4,100,0,1
90226,-40,4,2,4,100,0,1
91651,-57.1428571428571,4,2,4,100,0,1
92026,-40,4,2,4,100,0,1
92251,-57.1428571428571,4,2,4,100,0,1
92626,-40,4,2,4,100,0,1
93076,-54.054054054054,4,2,4,100,0,1
93826,-54.054054054054,4,2,4,100,0,0
94126,-50,4,2,4,100,0,1
95026,-44.4444444444445,4,2,4,100,0,1
96226,-50,4,2,4,100,0,1
98626,-40,4,2,2,90,0,1
99226,-40,4,2,2,100,0,0
99826,-36.3636363636364,4,2,2,90,0,1
100426,-36.3636363636364,4,2,2,100,0,0
101026,-66.6666666666667,4,2,4,100,0,1
102226,-36.3636363636364,4,2,4,100,0,1
102376,-36.3636363636364,4,2,4,5,0,1
102451,-36.3636363636364,4,2,4,100,0,1
102601,-36.3636363636364,4,2,4,5,0,1
102676,-36.3636363636364,4,2,4,100,0,1
102826,-36.3636363636364,4,2,4,5,0,1
102901,-36.3636363636364,4,2,4,100,0,1
103051,-36.3636363636364,4,2,4,5,0,1
103126,-36.3636363636364,4,2,4,100,0,1
103426,-57.1428571428571,4,2,1,90,0,0
103876,-50,4,2,1,90,0,0
104626,-57.1428571428571,4,2,1,90,0,0
105076,-40,4,2,1,90,0,0
105526,-66.6666666666667,4,2,1,90,0,0
105826,-57.1428571428571,4,2,1,90,0,0
106276,-50,4,2,1,90,0,0
107026,-57.1428571428571,4,2,1,90,0,0
107251,-57.1428571428571,4,2,1,5,0,0
107326,-57.1428571428571,4,2,1,90,0,0
107476,-40,4,2,1,90,0,0
107776,-100,4,2,1,90,0,0
107926,-40,4,2,11,90,0,0
108226,-40,4,2,1,90,0,0
109126,-33.3333333333333,4,2,1,90,0,0
110176,-100,4,2,1,90,0,0
110626,-66.6666666666667,4,2,1,90,0,0
111826,-40,4,2,1,90,0,0
112951,-40,4,2,1,5,0,0
113026,-33.3333333333333,4,2,4,100,0,1
113326,-86.9565217391304,4,2,4,90,0,0
113626,-50,4,2,4,100,0,1
114226,-66.6666666666667,4,2,4,100,0,1
114526,-44.4444444444445,4,2,4,100,0,1
114826,-33.3333333333333,4,2,4,100,0,1
115126,-36.3636363636364,4,2,4,100,0,1
115576,-80,4,2,4,100,0,1
115726,-57.1428571428571,4,2,4,100,0,1
115876,-40,4,2,4,100,0,1
116026,-50,4,2,4,100,0,1
116926,-40,4,2,4,100,0,1
117376,-36.3636363636364,4,2,4,100,0,1
117751,-36.3636363636364,4,2,4,5,0,1
117826,-66.6666666666667,4,2,4,100,0,0
117976,-40,4,2,4,100,0,1
118126,-50,4,2,4,100,0,1
119626,-66.6666666666667,4,2,4,100,0,1
119926,-40,4,2,4,100,0,1
120226,-33.3333333333333,4,2,4,100,0,1
120376,-66.6666666666667,4,2,4,100,0,1
120601,-100,4,2,4,100,0,1
120826,-40,4,2,4,100,0,1
121576,-40,4,2,4,5,0,1
121651,-40,4,2,4,100,0,1
121801,-40,4,2,4,5,0,1
121876,-40,4,2,4,100,0,1
122026,-40,4,2,4,5,0,1
122101,-40,4,2,4,100,0,1
122251,-40,4,2,4,5,0,1
122326,-40,4,2,4,100,0,1
122626,-33.3333333333333,4,2,1,90,0,0
122851,-33.3333333333333,4,2,1,5,0,0
122926,-33.3333333333333,4,2,1,90,0,0
123451,-33.3333333333333,4,2,1,5,0,0
123526,-100,4,2,1,90,0,0
123638,-100,4,2,1,5,0,0
123676,-50,4,2,1,90,0,0
123826,-40,4,2,1,90,0,0
123976,-40,4,2,1,5,0,0
124051,-50,4,2,1,90,0,0
124201,-50,4,2,1,5,0,0
124276,-57.1428571428571,4,2,1,85,0,0
124426,-57.1428571428571,4,2,1,5,0,0
124501,-80,4,2,1,80,0,0
124651,-80,4,2,1,5,0,0
124726,-33.3333333333333,4,2,1,100,0,0
125026,-50,4,2,3,100,0,1
127126,-66.6666666666667,4,2,1,100,0,0
127426,-33.3333333333333,4,2,1,100,0,1
127726,-66.6666666666667,4,2,1,100,0,1
128026,-33.3333333333333,4,2,1,100,0,1
128176,-40,4,2,1,100,0,1
128326,-36.3636363636364,4,2,1,100,0,1
129001,-36.3636363636364,4,2,1,5,0,1
129076,-66.6666666666667,4,2,1,100,0,1
129226,-40,4,2,1,100,0,1
129751,-40,4,2,1,5,0,1
129826,-33.3333333333333,4,2,1,100,0,1
129976,-33.3333333333333,4,2,1,5,0,1
130051,-33.3333333333333,4,2,1,100,0,1
130201,-33.3333333333333,4,2,1,5,0,1
130276,-33.3333333333333,4,2,1,100,0,1
130351,-33.3333333333333,4,2,1,5,0,1
130426,-33.3333333333333,4,2,1,100,0,1
130576,-33.3333333333333,4,2,1,5,0,1
130651,-33.3333333333333,4,2,1,100,0,1
130801,-33.3333333333333,4,2,1,5,0,1
130876,-33.3333333333333,4,2,1,100,0,1
131026,-40,4,2,1,100,0,1
131626,-66.6666666666667,4,2,1,100,0,1
132226,-100,4,2,1,100,0,0

[Colours]
Combo1 : 221,108,159
Combo2 : 170,181,191
Combo3 : 255,26,26
Combo4 : 115,141,174
Combo5 : 241,86,86
Combo6 : 255,99,23
Combo7 : 250,58,125
Combo8 : 251,183,142

[HitObjects]
44,362,2626,5,2,0:0:0:0:
120,370,2776,1,0,0:0:0:0:
183,322,2926,1,0,0:0:0:0:
196,246,3076,1,0,0:0:0:0:
76,165,3226,21,0,0:0:0:0:
76,165,3376,1,0,0:0:0:0:
0,149,3526,85,2,0:0:0:0:
153,180,3676,1,0,0:0:0:0:
306,211,3826,21,2,0:0:0:0:
384,195,3976,1,0,0:0:0:0:
368,116,4126,1,0,0:0:0:0:
289,133,4276,1,0,0:0:0:0:
394,201,4426,85,2,0:0:0:0:
412,123,4576,1,0,0:0:0:0:
413,118,4651,1,2,0:0:0:0:
414,113,4726,1,0,0:0:0:0:
432,35,4876,1,2,0:0:0:0:
489,303,5026,21,2,0:0:0:0:
507,381,5176,1,0,0:0:0:0:
430,357,5326,1,0,0:0:0:0:
412,279,5476,1,0,0:0:0:0:
489,303,5626,1,0,0:0:0:0:
507,381,5776,1,0,0:0:0:0:
394,201,5926,85,2,0:0:0:0:
349,384,6076,1,0,0:0:0:0:
335,255,6226,21,2,0:0:0:0:
259,278,6376,1,0,0:0:0:0:
183,301,6526,1,0,0:0:0:0:
107,324,6676,1,2,0:0:0:0:
97,321,6751,1,2,0:0:0:0:
87,318,6826,85,2,0:0:0:0:
60,291,6901,1,0,0:0:0:0:
56,255,6976,1,0,0:0:0:0:
77,224,7051,1,0,0:0:0:0:
111,212,7126,1,2,0:0:0:0:
146,201,7201,1,2,0:0:0:0:
166,170,7276,1,2,0:0:0:0:
163,133,7351,1,2,0:0:0:0:
136,107,7426,21,2,0:0:0:0:
60,94,7576,1,0,0:0:0:0:
134,95,7726,1,0,0:0:0:0:
58,82,7876,1,0,0:0:0:0:
198,30,8026,85,0,0:0:0:0:
198,30,8176,1,0,0:0:0:0:
111,212,8326,21,2,0:0:0:0:
313,141,8476,1,0,0:0:0:0:
213,177,8626,85,2,0:0:0:0:
286,181,8776,1,0,0:0:0:0:
358,205,8926,1,0,0:0:0:0:
421,246,9076,1,0,0:0:0:0:
479,153,9226,21,2,0:0:0:0:
358,205,9376,1,0,0:0:0:0:
353,210,9451,1,2,0:0:0:0:
346,216,9526,1,0,0:0:0:0:
257,314,9676,1,2,0:0:0:0:
428,380,9826,85,2,0:0:0:0:
418,372,9976,1,0,0:0:0:0:
402,354,10126,1,0,0:0:0:0:
380,324,10276,1,0,0:0:0:0:
358,278,10426,1,0,0:0:0:0:
346,216,10576,1,0,0:0:0:0:
354,143,10726,1,2,0:0:0:0:
396,59,10876,1,0,0:0:0:0:
248,269,11026,53,2,3:0:0:0:
86,225,11176,1,0,1:0:0:0:
179,200,11326,1,8,0:0:0:0:
162,303,11476,1,8,0:0:0:0:
162,303,11551,1,0,1:0:0:0:
162,303,11626,1,2,1:2:0:0:
129,310,11701,1,2,0:0:0:0:
97,320,11776,1,10,0:0:0:0:
67,333,11851,1,2,0:0:0:0:
5,284,11926,21,2,1:2:0:0:
76,304,12001,1,2,0:0:0:0:
146,332,12076,1,10,0:0:0:0:
213,369,12151,1,2,0:0:0:0:
337,312,12226,38,2,B|353:177|353:177|349:180|349:180|363:60,1,262.500002503395,6|0,1:0|0:0,1:0:0:0:
363,60,12676,2,0,B|375:75|375:75|364:168|364:168|337:189|337:189|324:296|324:296|336:311,1,274.499995078468,4|0,1:0|0:0,0:0:0:0:
404,356,12976,101,0,0:0:0:0:
404,356,13126,1,0,0:0:0:0:
404,356,13276,1,0,0:0:0:0:
502,160,13426,38,0,B|450:245|450:245|431:147,2,200,4|0|0,1:0|0:0|0:0,0:0:0:0:
477,87,13876,2,0,B|497:63|497:63|486:34|486:34|465:57|465:57|477:87,1,125,4|0,1:0|0:0,0:0:0:0:
477,87,14176,1,0,0:0:0:0:
378,0,14326,22,0,P|374:36|354:68,1,75.0000028610231,2|0,0:1|0:0,0:0:0:0:
298,124,14476,2,0,P|264:139|227:137,1,75.0000028610231,2|0,0:0|0:0,0:0:0:0:
34,63,14626,54,2,B|188:30|188:30|128:116,1,262.500002503395,6|0,1:0|0:0,1:0:0:0:
128,116,15076,2,2,B|144:111|144:111|201:29|201:29|192:19|192:19|24:55|24:55|-1:171|-1:171|15:187|15:187|25:268,1,524.999983978272,6|0,1:0|0:0,1:0:0:0:
58,372,15526,101,8,0:0:0:0:
58,372,15676,2,0,L|65:343,1,29.9999990844727,0|0,1:0|3:0,0:0:0:0:
100,201,15826,38,0,B|191:184|191:184|235:123|235:123|329:106,1,262.500002503395,6|0,1:0|0:0,0:0:0:0:
328,106,16126,2,0,L|312:86,1,25,0|0,3:0|0:0,0:0:0:0:
100,201,16276,86,0,B|51:136|51:136|176:114|176:114|254:192|254:192|377:171|377:171|328:107,1,525.00000500679,4|0,1:0|0:0,0:0:0:0:
184,31,16576,69,2,1:2:0:0:
194,78,16651,1,2,0:0:0:0:
206,126,16726,1,2,0:0:0:0:
217,174,16801,1,2,0:0:0:0:
229,222,16876,1,2,0:0:0:0:
240,270,16951,1,2,0:0:0:0:
155,287,17026,86,0,L|296:336,1,150.000005722046,6|0,1:2|0:0,0:0:0:0:
360,384,17251,1,2,0:0:0:0:
376,369,17326,1,2,1:2:0:0:
392,354,17401,1,2,0:0:0:0:
409,339,17476,1,2,0:0:0:0:
147,380,17626,21,2,1:2:0:0:
118,370,17701,1,0,0:0:0:0:
90,360,17776,1,0,0:0:0:0:
62,350,17851,1,0,0:0:0:0:
155,287,17926,85,2,1:2:0:0:
174,280,18001,1,0,0:0:0:0:
194,273,18076,1,0,0:0:0:0:
213,266,18151,1,0,0:0:0:0:
99,212,18226,22,0,B|69:181|69:181|93:51,1,175.00000166893,6|0,1:2|0:0,0:0:0:0:
20,19,18451,1,2,0:0:0:0:
13,48,18526,1,2,1:2:0:0:
6,77,18601,1,2,0:0:0:0:
0,106,18676,1,2,0:0:0:0:
332,161,18826,85,2,1:2:0:0:
349,174,18901,1,0,0:0:0:0:
367,185,18976,1,0,0:0:0:0:
387,193,19051,1,0,0:0:0:0:
271,227,19126,21,2,1:2:0:0:
243,239,19201,1,0,0:0:0:0:
217,254,19276,1,0,0:0:0:0:
194,273,19351,1,0,0:0:0:0:
258,109,19426,86,0,P|245:61|226:15,1,100,4|0,1:0|0:0,0:0:0:0:
344,278,19576,2,0,P|357:326|376:372,1,100,0|0,1:0|0:0,0:0:0:0:
399,107,19726,22,0,P|447:93|493:74,1,100,0|0,1:0|0:0,0:0:0:0:
194,273,19876,2,0,P|145:286|99:305,1,100,0|0,1:0|0:0,0:0:0:0:
64,41,20026,85,0,1:0:0:0:
93,42,20101,1,0,1:0:0:0:
123,47,20176,1,0,1:0:0:0:
152,54,20251,1,0,1:0:0:0:
180,64,20326,1,0,1:0:0:0:
208,76,20401,1,0,1:0:0:0:
234,91,20476,1,0,1:0:0:0:
258,109,20551,1,0,1:0:0:0:
334,35,20626,86,0,B|406:7|456:47|419:77|473:128|542:102|575:28|502:-40|434:14|444:59,1,329.9999899292,4|0,1:2|0:0,0:0:0:0:
444,55,21526,86,2,B|460:195|460:195|463:190|463:190|481:341,1,300,8|0,0:0|0:0,1:0:0:0:
481,342,21826,6,2,B|537:250|537:250|421:277|421:277|424:281|424:281|322:304,1,337.500012874604,4|0,1:0|0:0,1:0:0:0:
248,276,22126,2,0,B|244:245|244:245|253:263,1,50,2|0,0:0|0:0,0:0:0:0:
394,330,22276,22,0,B|403:379|403:379|381:348,1,87.500000834465,2|0,0:3|0:0,0:0:0:0:
348,115,22426,86,0,L|323:225,1,112.500004291535,10|0,1:0|0:0,0:0:0:0:
43,363,22576,21,2,0:0:0:0:
67,376,22651,2,2,B|130:354|130:354|96:199,1,225.000008583069,2|0,0:1|0:0,1:0:0:0:
40,144,22876,2,0,P|14:143|32:154,1,62.5,2|0,0:3|0:0,0:0:0:0:
206,298,23026,69,2,0:3:0:0:
211,273,23101,1,2,0:3:0:0:
224,198,23176,21,2,1:3:0:0:
229,173,23251,1,2,0:3:0:0:
178,103,23326,102,2,B|130:37|42:54|42:54|78:61|101:92,1,225.000008583069,2|0,0:1|1:0,1:0:0:0:
185,45,23551,1,0,1:0:0:0:
271,0,23626,54,2,B|395:19|395:19|422:109|422:109|510:120|510:120|449:78,1,375,10|0,1:0|0:0,1:0:0:0:
328,92,23926,38,0,B|253:80,1,75,0|0,0:0|0:0,1:0:0:0:
179,69,24226,5,0,1:0:0:0:
179,68,24376,2,0,P|203:63|227:56,1,50,2|0,0:1|0:0,0:0:0:0:
278,175,24526,2,0,P|312:188|343:210,1,75.0000028610231,2|0,0:1|0:0,0:0:0:0:
382,13,24676,2,0,P|413:52|454:82,1,100,2|0,0:1|0:0,0:0:0:0:
503,348,24826,85,10,1:3:0:0:
434,382,24901,1,2,0:3:0:0:
361,359,24976,1,2,0:3:0:0:
327,290,25051,1,2,0:3:0:0:
352,218,25126,2,0,L|414:204,1,62.5,2|0,0:3|0:0,0:0:0:0:
317,34,25276,85,2,1:3:0:0:
248,0,25351,1,2,0:3:0:0:
175,23,25426,1,2,0:3:0:0:
141,92,25501,1,2,0:3:0:0:
166,163,25576,2,0,L|227:176,1,62.5,2|0,0:3|0:0,0:0:0:0:
90,361,25726,22,0,P|63:378|80:355,1,87.500000834465,2|0,0:0|0:0,0:0:0:0:
173,170,25876,85,0,1:0:0:0:
173,170,25951,1,0,1:0:0:0:
173,170,26026,2,0,P|201:202|200:244,1,87.500000834465,8|0,1:0|0:0,0:0:0:0:
123,268,26176,2,0,P|94:235|95:193,1,87.500000834465,2|0,0:0|1:0,0:0:0:0:
11,88,26326,54,2,P|147:217|261:366,1,375,0|0,0:0|0:0,1:0:0:0:
272,378,26626,6,0,P|372:354|362:251,1,225.000008583069,6|0,1:2|0:0,0:0:0:0:
362,251,26926,86,0,L|288:264,1,75.0000028610231,0|0,1:0|0:0,0:0:0:0:
107,85,27226,2,0,L|181:72,1,75.0000028610231,0|0,1:0|0:0,0:0:0:0:
252,0,27451,1,2,0:3:0:0:
266,7,27526,2,0,P|262:24|258:43,1,37.5000014305115,2|0,1:3|0:0,0:0:0:0:
179,260,27676,21,2,0:0:0:0:
158,249,27751,1,2,0:0:0:0:
139,237,27826,2,0,P|145:212|150:186,1,50,2|0,1:2|0:0,0:0:0:0:
348,55,27976,85,2,0:0:0:0:
342,91,28051,1,2,0:0:0:0:
332,124,28126,2,0,P|296:133|260:146,1,75.0000028610231,2|0,1:2|0:0,0:0:0:0:
0,118,28276,22,0,P|54:104|107:85,1,112.500004291535,2|0,0:1|0:0,0:0:0:0:
266,251,28426,86,0,L|259:287,1,37.5000014305115,0|0,1:0|0:0,0:0:0:0:
201,340,28576,2,0,B|243:379|243:379|294:358,1,112.500004291535,2|0,0:3|0:0,0:0:0:0:
410,202,28726,22,0,B|445:191|445:191|471:220,1,75.0000028610231,0|0,1:0|0:0,0:0:0:0:
447,293,28876,2,0,B|412:304|412:304|387:276,1,75.0000028610231,2|0,0:3|0:0,0:0:0:0:
473,109,29026,38,0,B|496:84|489:51|489:51|466:73|473:109,1,125,4|0,1:2|0:0,0:0:0:0:
266,251,29176,21,2,0:0:0:0:
266,251,29251,2,0,P|255:208|237:168,1,87.500000834465,2|0,0:0|1:0,0:0:0:0:
402,10,29401,1,2,0:0:0:0:
402,10,29476,2,0,P|383:49|373:92,1,87.500000834465,2|0,0:0|0:0,0:0:0:0:
201,315,29626,86,0,B|177:339|184:372|184:372|207:350|201:315,1,125,4|0,1:2|0:0,0:0:0:0:
131,38,29776,21,2,0:0:0:0:
86,47,29851,1,2,0:0:0:0:
41,56,29926,2,0,P|-1:80|0:126,1,100,2|0,1:2|0:0,0:0:0:0:
237,168,30076,21,2,1:2:0:0:
295,179,30151,1,2,1:2:0:0:
352,191,30226,2,0,B|429:135|429:135|277:101,1,250,4|0,1:0|0:0,0:0:0:0:
196,234,30451,2,0,B|44:200|44:200|121:144,1,250,4|0,1:0|0:0,0:0:0:0:
190,324,30676,22,0,B|341:354|341:354|294:272,1,250,4|0,1:0|0:0,0:0:0:0:
183,65,30901,2,0,B|135:-17|135:-17|287:13,1,250,4|0,1:0|0:0,0:0:0:0:
237,168,31126,69,8,0:0:0:0:
237,168,31276,1,0,0:0:0:0:
34,205,31426,6,2,B|244:180|244:180|239:175|239:175|469:147,1,450.000017166138,2|0,1:0|0:0,1:0:0:0:
512,214,31726,5,2,0:3:0:0:
511,218,31801,1,2,0:3:0:0:
510,222,31876,1,2,0:3:0:0:
509,226,31951,1,2,0:3:0:0:
468,147,32026,102,0,B|459:88|459:88|479:136,1,112.500004291535,4|0,1:0|0:0,0:0:0:0:
464,301,32176,5,2,0:0:0:0:
464,301,32251,1,2,0:0:0:0:
464,301,32326,2,0,P|429:286|392:280,3,75.0000028610231,2|2|2|2,0:3|0:3|0:3|0:3,0:0:0:0:
317,346,32626,2,0,P|335:364|323:344,3,75.0000028610231,2|2|2|2,0:3|0:3|0:3|0:3,0:0:0:0:
262,254,32926,69,2,1:3:0:0:
366,174,33026,85,2,1:3:0:0:
298,109,33126,21,2,1:3:0:0:
358,36,33226,86,0,P|356:23|351:11,2,25,0|0|8,1:0|1:0|0:0,0:0:0:0:
474,48,33526,38,0,P|327:75|190:135,1,300,8|0,0:0|0:0,0:0:0:0:
351,12,33826,6,2,P|263:146|101:142,1,337.500012874604,6|0,1:0|0:0,1:0:0:0:
129,18,34126,21,2,0:0:0:0:
144,14,34201,1,2,0:0:0:0:
159,10,34276,2,0,P|155:34|141:55,1,50,2|0,0:0|0:0,0:0:0:0:
49,236,34426,86,0,B|0:201|0:201|49:220,1,112.500004291535,8|0,1:0|0:0,0:0:0:0:
218,381,34576,21,2,0:0:0:0:
240,384,34651,2,0,P|280:348|273:294,1,112.500004291535,2|0,0:1|0:0,0:0:0:0:
102,310,34801,1,2,0:0:0:0:
116,325,34876,2,0,P|153:319|188:308,1,75.0000028610231,2|0,1:2|0:0,0:0:0:0:
339,177,35026,69,2,0:3:0:0:
343,192,35101,1,2,0:3:0:0:
363,269,35176,21,2,0:3:0:0:
367,285,35251,1,2,0:3:0:0:
389,362,35326,101,2,0:0:0:0:
465,340,35401,1,2,1:2:0:0:
445,264,35476,2,0,L|432:215,1,50,2|0,0:0|0:0,0:0:0:0:
273,68,35626,22,0,B|216:85|216:85|186:141|186:141|111:162,1,200,8|0,1:0|0:0,0:0:0:0:
111,161,35851,1,0,1:0:0:0:
209,8,35926,22,0,B|145:94|212:171|268:132|336:209|272:293,1,337.500012874604,2|0,0:1|0:0,0:0:0:0:
15,56,36226,54,2,P|231:114|432:216,1,450.000017166138,6|0,1:0|0:0,1:0:0:0:
482,70,36676,86,0,P|497:43|488:72,1,87.500000834465,2|0,0:1|0:0,0:0:0:0:
359,296,36826,86,0,P|350:254|335:213,1,87.500000834465,8|0,1:0|0:0,0:0:0:0:
512,291,36976,2,0,P|471:308|432:329,1,87.500000834465,2|0,0:3|0:0,0:0:0:0:
280,371,37126,21,2,0:3:0:0:
204,384,37201,1,2,0:3:0:0:
139,342,37276,1,2,0:3:0:0:
121,268,37351,1,2,0:3:0:0:
158,201,37426,2,0,L|220:211,1,62.5
344,63,37576,86,0,L|332:13,1,50,0|0,1:0|0:0,0:0:0:0:
316,8,37726,2,0,L|327:56,1,50,2|0,0:3|0:0,0:0:0:0:
512,184,37876,21,0,1:0:0:0:
435,164,37951,1,0,1:0:0:0:
359,145,38026,2,0,B|331:178|331:178|343:220,1,87.500000834465,8|0,1:0|0:0,0:0:0:0:
426,379,38176,86,2,B|535:414|586:269|474:179|356:218|344:316|406:355|307:449|148:410|120:274|241:226|279:273,1,625,2|0,1:0|0:0,1:0:0:0:
343,220,38626,54,0,P|305:189|257:177,1,100,0|0,1:0|0:0,0:0:0:0:
4,269,38776,2,0,P|33:228|76:204,1,100,0|0,1:0|0:0,0:0:0:0:
146,59,38926,22,0,B|155:35|155:35|140:15|140:15|131:38|131:38|146:59,1,100,8|0,1:2|0:0,0:0:0:0:
178,260,39076,1,0,1:0:0:0:
0,48,39226,86,0,B|125:69|125:69|118:73|118:73|231:92,1,250,8|0,1:2|1:0,0:0:0:0:
76,204,39451,22,0,B|201:225|201:225|194:229|194:229|307:248,1,250,8|0,1:2|1:0,0:0:0:0:
216,5,39676,86,0,B|278:15|278:15|275:17|275:17|331:27,1,125,8|0,1:2|0:0,0:0:0:0:
279,384,39826,54,0,B|261:180|261:180|413:121|413:121|431:325|431:325|354:354|354:354|329:68|329:68|334:58|334:58|341:64|341:64|345:53|345:53|352:59|352:59|356:48|356:48|364:55|364:55|368:44|368:44|375:51|375:51|379:40|379:40|387:46|387:46|391:35|391:35|397:42|397:42|402:31|402:31|409:38|409:38|414:27|414:27|420:33|420:33|424:22|424:22|432:29|432:29|436:18|436:18|443:25|443:25|447:14|447:14|455:19|455:19|459:9|459:9|466:15|466:15|470:5|470:5|478:10|478:10|481:2|481:2|493:8|493:8|483:15|483:15|494:21|494:21|484:26|484:26|495:33|495:33|485:39|485:39|496:46|496:46|486:52|486:52|497:58|497:58|487:65|487:65|498:71|498:71|488:77|488:77|499:84|499:84|489:89|489:89|501:96|501:96|490:102|490:102|502:108|502:108|491:115|491:115|503:121|503:121|492:127|492:127|504:134|504:134|493:140|493:140|505:146|505:146|495:152|495:152|506:158|506:158|496:165|496:165|507:170|507:170|497:176|497:176|508:182|508:182|498:188|498:188|509:195|509:195|499:201|499:201|510:206|510:206|500:213|500:213|511:219|511:219|501:225|501:225|512:231|512:231|502:238|502:238|514:245|514:245|503:251|503:251|515:257|515:257|504:263|504:263|516:269|516:269|505:275|505:275|517:281|517:281|506:287,1,1800.00006866455,4|4,1:0|1:0,1:0:0:0:
243,224,41176,37,2,0:0:0:0:
119,358,41326,2,0,P|175:342|181:283,1,125,2|0,0:0|0:0,0:0:0:0:
302,276,41626,2,0,P|212:247|120:234,1,187.5,2|0,0:0|0:0,0:0:0:0:
104,234,41926,1,8,0:0:0:0:
243,224,42076,1,0,0:0:0:0:
174,103,42226,54,0,L|235:94,1,62.5,0|0,1:0|0:0,0:0:0:0:
452,66,42376,1,0,1:0:0:0:
452,66,42451,1,0,1:0:0:0:
452,66,42526,1,8,1:2:0:0:
202,5,42676,22,0,P|231:14|262:16,1,62.5,0|0,1:0|0:0,0:0:0:0:
228,187,42826,2,0,P|253:169|282:158,1,62.5,0|0,1:0|0:0,0:0:0:0:
452,66,42976,86,0,L|390:74,1,62.5,8|0,1:2|0:0,0:0:0:0:
78,77,43126,5,0,1:0:0:0:
98,81,43201,2,0,P|193:111|281:157,1,200,2|0,1:0|0:0,0:0:0:0:
390,74,43426,54,2,P|212:133|55:235,1,375,2|0,1:0|0:0,1:0:0:0:
0,297,43726,101,8,0:0:0:0:
162,127,43876,1,0,1:0:0:0:
162,127,43951,1,0,1:0:0:0:
162,127,44026,2,0,P|144:173|129:221,1,100,0|0,1:0|0:0,0:0:0:0:
10,74,44326,2,0,P|57:66|74:22,1,100,8|0,0:0|0:0,0:0:0:0:
102,370,44626,22,0,P|170:338|242:320,1,150.000005722046,2|0,1:3|1:0,0:0:0:0:
81,286,44851,1,0,1:0:0:0:
81,286,44926,2,0,P|149:254|221:236,1,150.000005722046,10|0,1:3|1:0,0:0:0:0:
267,171,45151,1,0,1:0:0:0:
265,164,45226,1,0,1:0:0:0:
263,158,45301,1,0,1:0:0:0:
261,151,45376,1,0,1:0:0:0:
259,144,45451,1,0,1:0:0:0:
319,258,45526,38,0,B|222:237|222:237|255:39,1,300,8|0,1:2|0:0,0:0:0:0:
162,123,45826,54,0,B|259:144,1,100,4|0,1:0|0:0,0:0:0:0:
461,187,45976,1,0,0:0:0:0:
478,184,46051,1,0,0:0:0:0:
495,105,46126,53,10,1:0:0:0:
417,118,46201,1,0,0:0:0:0:
338,131,46276,1,0,0:0:0:0:
259,144,46351,1,0,0:0:0:0:
162,123,46426,53,2,1:0:0:0:
158,108,46501,1,0,0:0:0:0:
154,93,46576,1,0,0:0:0:0:
151,79,46651,1,0,0:0:0:0:
195,206,46726,53,10,1:0:0:0:
191,221,46801,1,0,0:0:0:0:
187,236,46876,1,0,0:0:0:0:
184,250,46951,1,0,0:0:0:0:
100,191,47026,54,0,B|51:201|51:201|95:178,1,100,0|0,1:0|0:0,0:0:0:0:
203,358,47176,1,0,0:0:0:0:
189,362,47251,1,0,0:0:0:0:
125,309,47326,53,10,1:0:0:0:
202,329,47401,1,0,0:0:0:0:
279,349,47476,1,0,0:0:0:0:
356,370,47551,1,0,0:0:0:0:
432,322,47626,53,2,1:0:0:0:
447,318,47701,1,0,0:0:0:0:
462,314,47776,1,0,0:0:0:0:
476,311,47851,1,0,0:0:0:0:
358,286,47926,53,10,1:2:0:0:
340,245,48001,1,2,0:0:0:0:
351,203,48076,1,2,0:0:0:0:
387,177,48151,1,2,0:0:0:0:
431,180,48226,2,0,P|477:172|488:126,1,100,0|0,1:0|0:0,0:0:0:0:
284,88,48376,1,0,0:0:0:0:
281,76,48451,1,0,0:0:0:0:
312,5,48526,53,10,1:0:0:0:
295,83,48601,1,0,0:0:0:0:
277,161,48676,1,0,0:0:0:0:
259,239,48751,1,0,0:0:0:0:
320,298,48826,53,2,1:0:0:0:
334,293,48901,1,0,0:0:0:0:
349,288,48976,1,0,0:0:0:0:
363,284,49051,1,0,0:0:0:0:
262,362,49126,53,10,1:0:0:0:
248,358,49201,1,0,0:0:0:0:
233,353,49276,1,0,0:0:0:0:
219,349,49351,1,0,0:0:0:0:
145,383,49426,54,0,P|99:370|97:324,1,100,2|0,1:3|0:0,0:0:0:0:
259,239,49576,2,0,P|301:219|295:172,1,100,2|0,0:3|0:0,0:0:0:0:
174,18,49726,53,10,1:2:0:0:
170,67,49801,1,2,0:0:0:0:
140,106,49876,1,2,0:0:0:0:
94,122,49951,1,2,0:0:0:0:
46,109,50026,2,0,P|22:99|0:89,3,50,2|0|0|0,1:2|0:0|0:0|0:0,0:0:0:0:
172,226,50326,2,0,P|182:203|194:181,3,50,10|0|0|0,1:2|0:0|0:0|0:0,0:0:0:0:
0,372,50626,5,0,1:0:0:0:
93,353,50701,1,0,1:0:0:0:
186,334,50776,2,0,L|283:311,1,100,0|0,1:0|0:0,0:0:0:0:
411,365,50926,101,10,1:0:0:0:
427,286,51001,1,0,0:0:0:0:
443,208,51076,1,0,0:0:0:0:
460,130,51151,1,0,0:0:0:0:
390,62,51226,53,2,1:0:0:0:
385,48,51301,1,0,0:0:0:0:
380,33,51376,1,0,0:0:0:0:
375,18,51451,1,0,0:0:0:0:
306,116,51526,53,10,1:0:0:0:
257,124,51601,1,0,0:0:0:0:
212,103,51676,1,0,0:0:0:0:
188,61,51751,1,0,0:0:0:0:
191,11,51826,2,0,P|238:25|288:31,1,100,2|0,1:0|0:0,0:0:0:0:
250,210,51976,2,0,P|297:196|347:190,1,100,2|0,0:0|0:0,0:0:0:0:
477,52,52126,53,10,1:0:0:0:
460,130,52201,1,0,0:0:0:0:
444,208,52276,1,0,0:0:0:0:
428,287,52351,1,0,0:0:0:0:
468,365,52426,53,0,1:0:0:0:
482,360,52501,1,0,0:0:0:0:
497,355,52576,1,0,0:0:0:0:
512,350,52651,1,0,0:0:0:0:
428,287,52726,53,10,1:0:0:0:
413,282,52801,1,0,0:0:0:0:
398,277,52876,1,0,0:0:0:0:
383,272,52951,1,0,0:0:0:0:
323,323,53026,54,0,B|286:287|286:287|309:243,1,100,2|0,1:0|0:0,0:0:0:0:
416,118,53176,2,0,B|441:255|441:255|383:271,1,200,0|0,1:0|0:0,0:0:0:0:
210,199,53401,2,0,B|312:213|312:213|314:218|314:218|406:233,1,200,0|0,1:0|0:0,0:0:0:0:
509,57,53626,2,0,B|471:93|471:93|374:80|374:80|351:36,1,200,0|0,1:0|0:0,0:0:0:0:
144,69,53851,2,0,B|287:85|287:85|313:135,1,200,0|0,1:0|0:0,0:0:0:0:
252,277,54076,5,0,1:0:0:0:
153,261,54151,1,0,1:0:0:0:
54,245,54226,2,0,L|43:196,1,50,2|0,1:3|0:0,0:0:0:0:
32,192,54376,2,0,L|21:143,1,50,2|0,0:3|0:0,0:0:0:0:
10,139,54526,2,0,L|-1:90,1,50,2|0,0:3|0:0,0:0:0:0:
153,261,54676,102,0,L|163:212,1,50,0|0,1:0|0:0,0:0:0:0:
156,115,54826,5,2,0:3:0:0:
153,102,54901,1,2,0:3:0:0:
150,90,54976,1,2,0:3:0:0:
148,78,55051,1,2,0:3:0:0:
162,212,55126,86,0,L|202:16,1,200,8|0,1:0|0:0,0:0:0:0:
62,315,55426,22,0,L|13:303,1,49.499999848938,0|0,1:0|0:0,0:0:0:0:
0,297,55726,101,14,1:0:0:0:
74,266,55801,1,0,0:0:0:0:
148,294,55876,1,0,0:0:0:0:
183,365,55951,1,0,0:0:0:0:
261,302,56026,53,2,1:0:0:0:
289,308,56101,1,0,0:0:0:0:
319,315,56176,1,0,0:0:0:0:
348,321,56251,1,0,0:0:0:0:
426,258,56326,54,0,B|473:237|473:237|433:265,1,100,10|0,1:0|0:0,0:0:0:0:
183,365,56476,2,0,B|135:385|135:385|175:357,1,100,2|0,0:1|0:0,0:0:0:0:
310,339,56626,2,0,L|296:290,1,50,0|0,1:0|0:0,0:0:0:0:
432,22,56776,54,0,P|494:4|492:69,1,150.000005722046,2|0,0:1|0:0,0:0:0:0:
409,117,56926,1,10,1:0:0:0:
409,117,57001,1,0,0:0:0:0:
409,117,57076,1,0,0:0:0:0:
409,117,57151,1,0,0:0:0:0:
408,117,57226,2,0,P|371:107|335:99,1,75.0000028610231,0|0,1:0|0:0,0:0:0:0:
121,64,57376,54,0,P|58:46|60:111,1,150.000005722046,2|0,0:1|0:0,0:0:0:0:
139,160,57526,1,10,1:2:0:0:
175,129,57601,1,2,0:0:0:0:
220,145,57676,1,2,0:0:0:0:
229,192,57751,1,2,0:0:0:0:
193,223,57826,54,0,P|120:202|46:191,1,150.000005722046,2|0,1:2|0:0,0:0:0:0:
335,99,57976,2,0,P|407:119|481:130,1,150.000005722046,0|0,1:0|0:0,0:0:0:0:
244,47,58126,53,10,1:0:0:0:
257,124,58201,1,0,0:0:0:0:
270,201,58276,1,0,0:0:0:0:
283,278,58351,1,0,0:0:0:0:
214,341,58426,54,0,B|272:363|310:314|296:306|334:257|387:276,1,200,2|0,1:0|0:0,0:0:0:0:
511,376,58651,1,2,0:0:0:0:
501,384,58726,2,0,P|455:370|450:323,1,100,10|0,1:0|0:0,0:0:0:0:
512,185,58876,2,0,P|506:231|461:245,1,100,2|0,0:1|0:0,0:0:0:0:
333,99,59026,54,0,B|187:116|187:116|129:122|114:177,1,250,2|0,1:0|0:0,0:0:0:0:
19,257,59251,2,0,B|-16:292|-61:231|-2:174|66:223|37:247|97:282|156:250,1,250,0|0,1:0|0:0,0:0:0:0:
182,132,59476,2,0,P|132:97|72:105,1,125,0|0,1:0|0:0,0:0:0:0:
58,335,59626,53,0,1:0:0:0:
149,342,59701,1,0,1:0:0:0:
229,299,59776,2,0,P|244:252|230:204,1,100,0|0,1:0|0:0,0:0:0:0:
72,106,59926,54,0,P|72:154|114:177,1,100,0|0,1:0|0:0,0:0:0:0:
229,299,60076,2,0,P|275:277|322:261,1,100,0|0,1:0|0:0,0:0:0:0:
472,74,60226,102,0,L|496:69,6,25
404,24,60526,53,10,1:3:0:0:
401,35,60601,1,2,0:3:0:0:
323,42,60676,1,2,0:3:0:0:
320,53,60751,1,2,0:3:0:0:
380,108,60826,69,2,1:3:0:0:
377,119,60901,1,2,0:3:0:0:
299,126,60976,1,2,0:3:0:0:
296,135,61051,1,2,0:3:0:0:
431,188,61126,37,10,1:2:0:0:
431,188,61201,1,2,0:0:0:0:
431,188,61276,2,0,L|489:171,1,50,2|0,0:0|0:0,0:0:0:0:
432,369,61426,69,0,1:0:0:0:
459,275,61501,2,0,L|363:303,1,100,0|0,1:0|0:0,0:0:0:0:
187,312,61651,53,0,1:0:0:0:
160,218,61726,2,0,B|118:90|118:90|241:10|241:10|220:101,1,375,12|0,1:0|0:0,0:0:0:0:
102,282,62026,38,0,L|64:277,1,37.5000014305115,0|0,1:0|0:0,0:0:0:0:
4,114,62176,6,2,B|143:132|143:132|136:136|136:136|287:156|287:156|303:83,1,375.000014305115,2|0,0:1|0:0,1:0:0:0:
302,83,62401,2,0,B|396:49|396:49|445:114|445:114|380:137,1,250,0|0,1:0|0:0,0:0:0:0:
208,19,62626,54,0,L|248:301,1,285.000002717972,2|0,1:0|0:0,0:0:0:0:
395,238,62851,2,0,B|440:270|440:270|326:254|326:254|314:186|314:186|254:175,1,300.000011444092,2|0,1:0|0:0,0:0:0:0:
50,101,63076,54,0,B|37:14|37:14|126:26|126:26|150:198,1,350.00000333786,2|0,1:0|0:0,0:0:0:0:
162,275,63301,2,0,B|170:336|170:336|81:324|81:324|60:177,1,300.000011444092,2|0,1:0|0:0,0:0:0:0:
120,4,63526,53,0,1:0:0:0:
208,19,63601,1,0,1:0:0:0:
297,34,63676,1,0,1:0:0:0:
386,49,63751,1,0,1:0:0:0:
475,64,63826,86,0,L|486:112,1,50,2|0,0:0|0:0,0:0:0:0:
412,125,63976,2,0,L|423:173,1,50,2|0,0:0|0:0,0:0:0:0:
349,186,64126,2,0,L|360:234,1,50,2|0,0:0|0:0,0:0:0:0:
286,247,64276,2,0,L|297:295,1,50,2|0,0:0|0:0,0:0:0:0:
223,308,64426,1,2,0:3:0:0:
226,324,64501,1,2,0:3:0:0:
230,340,64576,1,2,0:3:0:0:
234,356,64651,1,2,0:3:0:0:
148,265,64726,5,10,0:0:0:0:
102,249,64801,1,2,0:0:0:0:
56,265,64876,1,2,0:0:0:0:
31,307,64951,1,2,0:0:0:0:
38,355,65026,1,4,1:0:0:0:
38,355,73426,22,0,L|87:347,1,50,0|0,1:0|0:0,0:0:0:0:
242,324,73576,1,0,1:0:0:0:
242,324,73651,1,0,1:0:0:0:
242,324,73726,1,8,1:2:0:0:
165,336,73876,1,0,1:0:0:0:
371,379,74026,85,2,1:2:0:0:
394,353,74101,1,2,0:0:0:0:
425,337,74176,1,10,0:0:0:0:
460,334,74251,1,2,0:0:0:0:
492,342,74326,21,2,1:2:0:0:
464,295,74401,1,2,0:0:0:0:
420,264,74476,1,10,0:0:0:0:
365,259,74551,1,2,0:0:0:0:
451,186,74626,38,2,B|534:210|534:210|364:259,1,262.500002503395,6|0,1:0|0:0,1:0:0:0:
365,259,75076,2,0,B|265:286|265:286|315:96,1,300,4|0,1:0|0:0,0:0:0:0:
338,16,75376,101,0,0:0:0:0:
338,16,75526,1,0,0:0:0:0:
338,16,75676,1,0,0:0:0:0:
225,131,75826,38,0,B|138:113|138:113|127:22,2,175.00000166893,4|0|0,1:0|0:0|0:0,0:0:0:0:
128,27,76276,2,0,L|5:1,1,125,4|0,1:0|0:0,0:0:0:0:
5,1,76576,1,0,0:0:0:0:
0,177,76726,22,0,L|73:161,1,75.0000028610231,2|0,0:1|0:0,0:0:0:0:
152,147,76876,2,0,L|225:131,1,75.0000028610231,2|0,0:0|0:0,0:0:0:0:
303,246,77026,54,2,B|344:173|278:119|258:144|194:91|234:29,1,255.000004863739,6|0,1:0|0:0,1:0:0:0:
233,31,77476,2,2,B|266:-27|356:-21|385:64|351:137|264:148|273:119|198:130|155:199|174:286|264:307|303:246,1,500,6|0,1:0|0:0,1:0:0:0:
365,189,77926,101,8,0:0:0:0:
365,189,78076,2,0,L|369:164,1,25,0|0,1:0|0:0,0:0:0:0:
488,42,78226,38,2,B|446:42|421:14|421:14|387:97|464:141,1,225.000008583069,6|0,1:0|0:0,1:0:0:0:
464,141,78526,2,0,L|468:116,1,25,0|0,1:0|0:0,0:0:0:0:
420,294,78676,86,0,B|352:249|262:390|444:462|586:341|526:189|526:189|495:227|446:217,1,525.00000500679,2|0,1:0|0:0,0:0:0:0:
365,189,78976,69,2,1:2:0:0:
333,221,79051,1,2,0:0:0:0:
296,245,79126,1,2,0:0:0:0:
254,261,79201,1,2,0:0:0:0:
209,268,79276,1,2,0:0:0:0:
164,265,79351,1,2,0:0:0:0:
99,216,79426,86,0,B|84:236|84:236|10:249,1,100,4|0,1:0|0:0,0:0:0:0:
120,334,79576,2,0,B|99:319|99:319|25:332,1,100,0|0,1:0|0:0,0:0:0:0:
120,334,80026,22,0,B|105:354|105:354|31:367,1,100,4|0,1:0|0:0,0:0:0:0:
99,216,80176,2,0,B|78:201|78:201|4:214,1,100,0|0,1:0|0:0,0:0:0:0:
394,119,80626,86,0,B|412:144|412:144|503:161,1,125,4|0,1:0|0:0,0:0:0:0:
364,306,80776,2,0,B|389:287|389:287|480:303,1,125,0|0,1:0|0:0,0:0:0:0:
364,306,81226,22,0,B|382:331|382:331|473:348,1,125,4|0,1:0|0:0,0:0:0:0:
394,119,81376,2,0,B|419:100|419:100|510:116,1,125,0|0,1:0|0:0,0:0:0:0:
232,99,81826,85,0,1:0:0:0:
195,114,81901,1,0,1:0:0:0:
158,130,81976,1,0,1:0:0:0:
121,146,82051,1,0,1:0:0:0:
283,164,82126,21,0,1:0:0:0:
212,133,82201,1,0,1:0:0:0:
142,103,82276,1,0,1:0:0:0:
72,72,82351,1,0,1:0:0:0:
188,36,82426,102,0,L|195:0,6,37.5000014305115,0|0|0|0|0|0|0,1:0|1:0|1:0|1:0|1:0|1:0|1:0,0:0:0:0:
164,211,82727,2,0,L|156:247,6,37.5000014305115,0|0|0|0|0|0|0,1:0|1:0|1:0|1:0|1:0|1:0|1:0,0:0:0:0:
17,153,83026,37,2,1:2:0:0:
178,123,83326,1,2,0:0:0:0:
339,93,83626,1,2,0:0:0:0:
339,93,83926,2,0,B|391:82|391:82|345:79,1,100,8|0,0:0|0:0,0:0:0:0:
345,79,84226,54,0,P|382:111|379:159,1,100,6|0,1:2|0:0,0:0:0:0:
436,315,84376,1,2,0:0:0:0:
449,323,84451,2,0,P|486:292|484:243,1,100,2|8,0:0|1:2,0:0:0:0:
469,40,84601,1,2,0:0:0:0:
458,54,84676,2,0,P|420:146|402:244,1,200,2|0,0:0|1:0,0:0:0:0:
329,326,84901,1,2,0:0:0:0:
281,340,84976,1,2,0:0:0:0:
238,318,85051,1,2,0:0:0:0:
224,272,85126,1,10,1:2:0:0:
231,221,85201,1,2,0:0:0:0:
203,181,85276,1,2,0:0:0:0:
153,176,85351,1,2,0:0:0:0:
117,207,85426,70,0,P|64:194|71:135,1,112.500004291535,2|0,1:0|0:0,0:0:0:0:
180,99,85576,1,2,0:0:0:0:
196,103,85651,2,0,P|247:91|249:38,1,112.500004291535,2|8,0:1|1:2,0:0:0:0:
0,97,85801,1,2,0:0:0:0:
6,84,85876,2,0,B|51:10|146:32|146:32|118:46|107:79,1,225.000008583069,2|0,0:1|1:0,0:0:0:0:
80,305,86176,37,2,0:0:0:0:
51,291,86251,1,2,0:0:0:0:
22,278,86326,1,10,1:2:0:0:
72,254,86401,1,2,0:0:0:0:
126,264,86476,1,2,0:0:0:0:
164,305,86551,1,2,0:0:0:0:
170,360,86626,70,0,P|218:359|247:320,1,100,2|0,1:2|0:0,0:0:0:0:
237,126,86776,1,2,0:0:0:0:
225,140,86851,2,0,P|202:185|194:234,1,100,2|8,0:0|1:2,0:0:0:0:
96,378,87001,1,2,0:0:0:0:
78,380,87076,2,0,P|54:376|32:364,1,50,2|0,0:0|0:0,0:0:0:0:
293,233,87226,38,0,P|346:217|415:225,1,112.500004291535,2|0,1:2|0:0,0:0:0:0:
511,353,87376,1,2,0:0:0:0:
495,362,87451,2,0,P|453:350|464:281,1,112.500004291535,2|8,0:0|1:2,0:0:0:0:
492,206,87601,2,0,P|515:174|484:199,2,112.500004291535,2|0|0,0:0|0:0|0:0,0:0:0:0:
340,353,87826,69,2,1:2:0:0:
352,265,87901,1,2,0:0:0:0:
372,191,87976,1,2,0:0:0:0:
396,133,88051,1,2,0:0:0:0:
415,94,88126,2,0,P|434:61|457:31,1,75.0000028610231,10|0,1:2|0:0,0:0:0:0:
257,264,88276,37,2,0:0:0:0:
234,193,88351,1,2,0:0:0:0:
193,153,88426,1,2,1:2:0:0:
152,135,88501,1,2,0:0:0:0:
115,131,88576,2,0,P|89:132|62:136,1,50,2|0,0:0|0:0,0:0:0:0:
40,23,88726,69,10,1:2:0:0:
82,20,88801,1,2,0:0:0:0:
145,25,88876,1,2,0:0:0:0:
218,52,88951,1,2,0:0:0:0:
294,103,89026,38,0,P|383:106|380:17,1,200,2|0,1:2|0:0,0:0:0:0:
234,193,89251,2,0,P|253:239|259:288,1,100,2|8,0:0|1:2,0:0:0:0:
443,254,89401,1,2,0:0:0:0:
426,244,89476,2,0,P|380:222|333:207,1,100,2|0,0:0|0:0,0:0:0:0:
481,107,89626,69,2,1:2:0:0:
494,103,89701,1,2,0:0:0:0:
497,116,89776,1,2,0:0:0:0:
484,120,89851,1,2,0:0:0:0:
408,48,89926,37,10,1:2:0:0:
376,118,90001,1,2,0:0:0:0:
350,191,90076,1,2,0:0:0:0:
331,264,90151,1,2,0:0:0:0:
315,339,90226,70,0,P|427:347|439:235,1,250,2|0,1:0|0:0,0:0:0:0:
294,120,90451,2,0,P|237:134|233:192,1,125,2|8,0:1|1:2,0:0:0:0:
151,335,90601,1,2,0:0:0:0:
136,341,90676,2,0,P|79:326|75:268,1,125,2|0,0:1|0:0,0:0:0:0:
149,116,90826,37,2,1:2:0:0:
151,67,90901,1,2,0:0:0:0:
122,28,90976,1,2,0:0:0:0:
74,17,91051,1,2,0:0:0:0:
31,40,91126,1,10,1:2:0:0:
13,86,91201,1,2,0:0:0:0:
29,132,91276,1,2,0:0:0:0:
71,157,91351,1,2,0:0:0:0:
160,106,91426,70,0,B|233:74|281:131|258:146|315:207|377:174,1,250,2|0,1:0|0:0,0:0:0:0:
441,216,91651,2,0,P|469:227|446:207,1,87.500000834465,2|8,0:0|1:2,0:0:0:0:
380,7,91801,1,2,0:0:0:0:
372,21,91876,2,0,P|355:61|347:104,1,87.500000834465,2|0,0:0|0:0,0:0:0:0:
291,256,92026,38,0,B|218:224|170:281|193:296|136:357|74:325,1,250,2|0,1:0|0:0,0:0:0:0:
10,366,92251,2,0,P|-18:377|4:357,1,87.500000834465,2|8,0:0|1:2,0:0:0:0:
71,157,92401,1,2,0:0:0:0:
78,171,92476,2,0,P|94:211|102:254,1,87.500000834465,2|0,0:0|0:0,0:0:0:0:
399,331,92626,38,0,P|411:270|441:216,1,125,2|0,1:0|0:0,0:0:0:0:
191,186,92776,86,0,P|168:128|130:78,1,125,2|0,0:0|0:0,0:0:0:0:
357,97,92926,22,0,P|389:43|435:1,1,125,10|0,1:0|0:0,0:0:0:0:
243,1,93076,86,2,P|283:181|310:364,1,369.999998588562,2|0,0:1|0:0,1:0:0:0:
23,346,93526,5,0,1:0:0:0:
95,378,93601,1,0,1:0:0:0:
169,347,93676,1,0,1:0:0:0:
198,273,93751,1,0,1:0:0:0:
162,201,93826,1,0,1:0:0:0:
162,201,94126,38,0,P|113:188|64:179,1,100,10|0,1:2|0:0,0:0:0:0:
23,85,94276,2,0,P|121:102|218:127,1,200,2|0,0:0|1:0,0:0:0:0:
294,66,94501,1,2,0:0:0:0:
333,45,94576,1,2,0:0:0:0:
376,60,94651,1,2,0:0:0:0:
407,94,94726,1,10,1:2:0:0:
450,104,94801,1,2,0:0:0:0:
489,84,94876,1,2,0:0:0:0:
505,41,94951,1,2,0:0:0:0:
487,0,95026,38,0,P|433:14|377:20,1,112.500004291535,2|0,1:0|0:0,0:0:0:0:
210,166,95176,1,2,0:0:0:0:
224,160,95251,2,0,P|278:145|334:139,1,112.500004291535,2|8,0:1|1:2,0:0:0:0:
509,271,95401,1,2,0:0:0:0:
498,254,95476,2,0,P|399:252|416:349,1,225.000008583069,2|0,0:1|1:0,0:0:0:0:
232,336,95776,69,2,0:0:0:0:
176,330,95851,1,2,0:0:0:0:
138,372,95926,1,10,1:2:0:0:
84,375,96001,1,2,0:0:0:0:
50,332,96076,1,2,0:0:0:0:
64,280,96151,1,2,0:0:0:0:
114,259,96226,38,0,P|158:243|163:196,1,100,2|0,1:2|0:0,0:0:0:0:
20,82,96376,1,2,0:0:0:0:
36,87,96451,2,0,P|84:100|133:110,1,100,2|8,0:0|1:2,0:0:0:0:
304,42,96601,1,2,0:0:0:0:
291,53,96676,2,0,P|255:88|221:125,1,100,2|0,0:0|0:0,0:0:0:0:
119,263,96826,70,0,P|163:247|168:200,1,100,2|0,1:2|0:0,0:0:0:0:
16,87,96976,1,2,0:0:0:0:
32,92,97051,2,0,P|80:105|129:115,1,100,2|8,0:0|1:2,0:0:0:0:
300,36,97201,1,2,0:0:0:0:
287,47,97276,2,0,P|251:82|217:119,1,100,2|0,0:0|0:0,0:0:0:0:
124,267,97426,38,0,P|168:251|173:204,1,100,2|0,1:2|0:0,0:0:0:0:
12,92,97576,1,2,0:0:0:0:
28,97,97651,2,0,P|76:110|125:120,1,100,2|8,0:0|1:2,0:0:0:0:
270,197,97801,1,2,0:0:0:0:
286,192,97876,2,0,P|334:178|383:168,1,100,2|0,0:0|0:0,0:0:0:0:
499,35,98026,69,2,1:2:0:0:
457,10,98101,1,2,0:0:0:0:
414,28,98176,1,2,0:0:0:0:
406,75,98251,1,2,0:0:0:0:
442,107,98326,1,10,1:2:0:0:
459,115,98401,1,2,0:0:0:0:
495,184,98476,1,10,1:2:0:0:
512,191,98551,1,2,0:0:0:0:
382,168,98626,70,0,P|341:214|322:273,1,125,2|0,1:0|0:0,0:0:0:0:
189,273,98776,1,0,1:0:0:0:
189,273,98851,1,0,1:0:0:0:
189,273,98926,2,0,P|170:214|129:168,1,125,0|0,1:0|0:0,0:0:0:0:
212,73,99076,86,0,B|256:117|256:117|301:72,1,125,0|0,1:0|0:0,0:0:0:0:
256,352,99226,69,8,1:2:0:0:
403,324,99826,70,0,B|465:286|465:286|404:308,1,137.500001311302,2|0,1:0|0:0,0:0:0:0:
109,324,99976,2,0,B|47:286|47:286|107:308,1,137.500001311302,0|0,1:0|0:0,0:0:0:0:
256,222,100126,85,0,1:0:0:0:
256,150,100201,1,0,1:0:0:0:
256,78,100276,2,0,L|256:43,4,34.3750003278256,0|0|0|0|0,1:0|1:0|1:0|1:0|1:0,1:0:0:0:
256,248,100426,69,8,1:2:0:0:
19,377,101026,38,0,L|55:369,6,37.5000014305115,0|0|0|0|0|0|0,0:0|1:0|0:0|1:0|0:0|1:0|0:0,0:0:0:0:
28,297,101326,1,2,1:2:0:0:
102,282,101401,1,2,1:2:0:0:
176,267,101476,1,2,1:2:0:0:
250,251,101551,1,2,1:2:0:0:
241,331,101626,70,0,L|277:323,6,37.5000014305115,0|0|0|0|0|0|0,1:0|1:0|1:0|1:0|1:0|1:0|1:0,0:0:0:0:
250,251,101926,1,2,1:2:0:0:
324,236,102001,1,2,1:2:0:0:
398,221,102076,1,2,1:2:0:0:
472,205,102151,1,2,1:2:0:0:
491,120,102226,86,0,B|314:153|314:153|244:87,1,275.000002622604,4|0,1:0|0:0,0:0:0:0:
4,219,102451,2,0,B|181:186|181:186|251:252,1,275.000002622604,4|0,1:0|0:0,0:0:0:0:
338,68,102676,86,0,B|274:8|274:8|179:26|179:26|245:88,1,275.000002622604,4|0,1:0|0:0,0:0:0:0:
250,251,102901,2,0,B|315:312|315:312|220:330|220:330|154:269,1,275.000002622604,4|0,1:0|0:0,0:0:0:0:
102,142,103126,101,0,1:0:0:0:
176,157,103201,1,0,1:0:0:0:
250,172,103276,1,0,1:0:0:0:
324,187,103351,1,0,1:0:0:0:
398,202,103426,70,2,P|512:163|490:45,1,262.500002503395,6|0,1:0|0:0,1:0:0:0:
490,45,103876,2,0,P|378:88|482:147,1,300,4|0,1:0|0:0,0:0:0:0:
337,303,104626,22,0,B|208:284|208:284|213:281|213:281|88:262,1,262.500002503395,4|0,1:0|0:0,0:0:0:0:
88,262,105076,2,0,B|105:241|105:241|8:264,1,125,4|0,1:0|0:0,0:0:0:0:
10,264,105526,22,2,B|6:258|6:258|11:254|11:254|7:248|7:248|13:244|13:244|9:239|9:239|15:235|15:235|11:229|11:229|16:225|16:225|12:220|12:220|18:216|18:216|14:210|14:210|20:206|20:206|16:201|16:201|21:197|21:197|17:191|17:191|23:187|23:187|19:182|19:182|25:178|25:178|21:172|21:172|26:168|26:168|22:163|22:163|28:159|28:159|24:153|24:153|30:149|30:149|26:144|26:144|31:140|31:140|27:134|27:134|33:130|33:130|29:125|29:125|35:121|35:121|31:115|31:115|36:111|36:111|32:106,1,225.000008583069,0|0,0:0|0:0,1:0:0:0:
143,60,105826,54,0,B|217:18|272:85|247:105|301:171|364:130,1,262.500002503395,4|0,1:0|0:0,0:0:0:0:
365,130,106276,2,0,B|435:67|322:-39|216:61|274:122|193:193|100:157,1,400,4|0,1:0|0:0,0:0:0:0:
101,158,107026,22,0,B|18:123|18:123|41:1|41:1|55:46,1,262.500002503395,4|0,1:0|0:0,0:0:0:0:
59,60,107326,1,0,1:0:0:0:
0,217,107476,2,0,B|114:196|114:196|107:193|107:193|231:171,1,250,4|0,1:0|0:0,0:0:0:0:
232,171,107776,86,0,L|239:121,1,50,0|0,1:0|0:0,0:0:0:0:
183,0,107926,2,0,B|147:204|147:204|155:196|155:196|129:349,1,375,8|0,0:0|0:0,0:0:0:0:
205,384,108226,37,0,1:0:0:0:
223,382,108301,1,0,1:0:0:0:
242,378,108376,1,0,1:0:0:0:
260,373,108451,1,0,1:0:0:0:
277,367,108526,1,0,1:0:0:0:
294,359,108601,1,0,1:0:0:0:
311,350,108676,1,0,1:0:0:0:
326,339,108751,1,0,1:0:0:0:
341,328,108826,1,0,1:0:0:0:
354,315,108901,1,0,1:0:0:0:
367,301,108976,1,0,1:0:0:0:
378,286,109051,1,0,1:0:0:0:
441,348,109126,54,0,B|515:382|515:382|458:343,1,150.000005722046,4|0,1:0|0:0,0:0:0:0:
378,286,109426,85,0,1:0:0:0:
345,292,109501,1,0,1:0:0:0:
312,293,109576,1,0,1:0:0:0:
280,288,109651,1,0,1:0:0:0:
249,277,109726,1,0,1:0:0:0:
220,261,109801,1,0,1:0:0:0:
195,240,109876,1,0,1:0:0:0:
174,214,109951,1,0,1:0:0:0:
158,186,110026,1,0,1:0:0:0:
147,154,110101,1,0,1:0:0:0:
77,214,110176,54,0,L|28:203,1,50,2|0,0:0|0:0,0:0:0:0:
20,211,110326,2,0,L|68:221,1,50,2|0,0:0|0:0,0:0:0:0:
242,56,110626,22,0,L|207:40,2,37.5000014305115,0|0|0,1:0|1:0|1:0,1:0:0:0:
266,73,110776,1,0,1:0:0:0:
285,96,110851,1,0,1:0:0:0:
300,122,110926,1,0,1:0:0:0:
308,151,111001,1,0,1:0:0:0:
309,181,111076,1,0,1:0:0:0:
304,210,111151,1,0,1:0:0:0:
390,158,111226,22,0,L|425:142,2,37.5000014305115,0|0|0,1:0|1:0|1:0,1:0:0:0:
365,175,111376,1,0,1:0:0:0:
346,198,111451,1,0,1:0:0:0:
331,224,111526,1,0,1:0:0:0:
323,253,111601,1,0,1:0:0:0:
322,283,111676,1,0,1:0:0:0:
327,312,111751,1,0,1:0:0:0:
251,368,111826,6,0,B|194:377|194:377|198:372|198:372|137:381,1,125,4|0,1:0|0:0,0:0:0:0:
396,68,111976,2,0,B|453:59|453:59|449:64|449:64|509:54,1,125,4|0,1:0|0:0,0:0:0:0:
508,54,112726,6,2,P|342:140|158:173,1,375,8|0,0:0|0:0,1:0:0:0:
92,330,113026,70,2,B|140:249|59:170|49:209|-49:133|20:32|20:32|57:92|140:87|140:87|74:105|70:174,1,600.000022888185,2|0,1:0|0:0,1:0:0:0:
70,172,113476,2,0,L|59:228,1,57.5000010967255,2|0,0:0|0:0,0:0:0:0:
4,355,113626,86,0,P|53:359|92:330,1,100,4|0,1:0|0:0,0:0:0:0:
253,154,113776,1,2,0:0:0:0:
249,137,113851,2,0,B|232:78|232:78|225:116,1,100,2|8,0:0|1:2,0:0:0:0:
250,283,114001,1,2,0:0:0:0:
254,298,114076,2,0,B|270:356|270:356|277:318,1,100,2|0,0:0|0:0,0:0:0:0:
464,260,114226,85,2,1:3:0:0:
429,252,114301,1,2,0:3:0:0:
394,244,114376,2,0,L|320:227,1,75.0000028610231,2|0,0:3|0:0,0:0:0:0:
153,254,114526,22,0,B|110:216|110:216|145:173,1,112.500004291535,8|0,1:0|0:0,0:0:0:0:
328,135,114676,2,0,B|363:91|363:91|320:54,1,112.500004291535,2|0,0:1|0:0,0:0:0:0:
168,31,114826,86,0,B|100:16|100:16|105:21|105:21|32:6,1,150.000005722046,2|0,1:0|0:0,0:0:0:0:
276,317,114976,2,0,B|342:330|342:330|337:325|337:325|410:340,1,150.000005722046,2|0,0:1|0:0,0:0:0:0:
493,56,115126,54,2,B|406:71|406:71|360:28|360:28|328:135|328:135|282:93|282:93|196:108,1,412.500003933907,8|0,1:0|0:0,1:0:0:0:
62,145,115426,37,0,1:0:0:0:
62,145,115576,6,0,L|121:161,1,62.5,2|0,0:1|0:0,0:0:0:0:
353,19,115726,2,0,L|329:103,1,87.500000834465,10|0,1:0|0:0,0:0:0:0:
156,283,115876,2,0,L|277:318,1,125,2|0,0:1|0:0,0:0:0:0:
494,202,116026,53,2,1:3:0:0:
501,174,116101,1,2,0:3:0:0:
508,146,116176,2,0,L|410:169,1,100,2|0,0:3|0:0,0:0:0:0:
360,285,116326,21,10,1:3:0:0:
367,313,116401,1,2,0:3:0:0:
374,341,116476,2,0,L|276:317,1,100,2|0,0:3|0:0,0:0:0:0:
223,73,116626,85,2,1:3:0:0:
230,45,116701,1,2,0:3:0:0:
237,17,116776,2,0,L|139:40,1,100,2|0,0:3|0:0,0:0:0:0:
0,281,116926,22,0,B|-19:303|-19:303|4:209,1,125,0|0,1:0|0:0,0:0:0:0:
67,85,117076,1,0,1:0:0:0:
84,99,117151,2,0,B|111:127|111:127|60:339,1,250,0|0,1:0|0:0,0:0:0:0:
4,209,117376,2,0,L|138:181,1,137.500001311302,0|0,1:0|0:0,0:0:0:0:
423,53,117526,86,2,B|472:22|472:22|362:55|362:55|342:174|342:174|404:201|398:270,1,412.500003933907,10|0,0:1|0:0,1:0:0:0:
312,273,117826,54,0,P|299:249|319:267,1,75.0000028610231,2|0,0:0|0:0,0:0:0:0:
438,147,117976,2,0,B|485:106|485:106|430:137,1,125,0|0,1:0|0:0,0:0:0:0:
279,81,118126,38,0,L|262:180,1,100,8|0,1:0|0:0,0:0:0:0:
341,345,118276,2,0,P|380:314|398:268,1,100,2|0,0:3|0:0,0:0:0:0:
218,243,118426,21,2,1:2:0:0:
193,247,118501,1,2,0:0:0:0:
169,252,118576,1,2,0:0:0:0:
144,257,118651,1,2,0:0:0:0:
114,186,118726,85,10,1:2:0:0:
138,181,118801,1,2,0:0:0:0:
162,176,118876,1,2,0:0:0:0:
187,171,118951,1,2,0:0:0:0:
232,276,119026,21,2,1:2:0:0:
196,270,119101,1,2,0:0:0:0:
161,264,119176,1,2,0:0:0:0:
126,259,119251,1,2,0:0:0:0:
98,132,119326,85,10,1:2:0:0:
173,144,119401,1,2,0:0:0:0:
248,156,119476,2,0,B|305:165|305:165|264:172,1,100,2|0,0:0|0:0,0:0:0:0:
61,384,119626,70,0,L|45:310,1,75.0000028610231,2|0,1:3|0:0,0:0:0:0:
30,237,119776,2,0,L|14:163,1,75.0000028610231,2|0,0:3|0:0,0:0:0:0:
198,0,119926,22,0,B|185:59|185:59|190:57|190:57|177:115,1,125,10|0,1:0|0:0,0:0:0:0:
160,222,120076,2,0,B|147:281|147:281|152:279|152:279|139:337,1,125,2|0,0:1|0:0,0:0:0:0:
46,74,120226,22,0,B|15:5|15:5|65:60,1,150.000005722046,4|0,1:0|0:0,0:0:0:0:
242,253,120376,21,2,0:0:0:0:
318,227,120451,2,0,L|388:200,1,75.0000028610231,2|8,0:0|1:2,0:0:0:0:
374,123,120601,1,2,0:0:0:0:
450,97,120676,2,0,L|496:79,1,50,2|0,0:0|0:0,0:0:0:0:
503,351,120826,85,2,1:2:0:0:
463,369,120901,1,2,0:0:0:0:
422,353,120976,1,2,0:0:0:0:
407,312,121051,1,2,0:0:0:0:
427,273,121126,1,10,1:2:0:0:
470,208,121201,1,2,0:0:0:0:
444,135,121276,1,2,0:0:0:0:
371,110,121351,1,2,0:0:0:0:
307,153,121426,54,0,B|232:147|212:81|212:81|211:148|146:176,1,250,4|0,1:0|0:0,0:0:0:0:
156,274,121651,2,0,B|230:279|251:345|251:345|252:278|316:250,1,250,4|0,1:0|0:0,0:0:0:0:
369,341,121876,22,0,P|246:328|136:384,1,250,4|0,1:0|0:0,0:0:0:0:
93,85,122101,2,0,P|215:97|325:41,1,250,4|0,1:0|0:0,0:0:0:0:
232,215,122326,69,8,0:0:0:0:
232,215,122476,1,0,0:0:0:0:
156,274,122626,6,2,B|80:182|80:182|271:223|271:223|266:228|266:228|392:255,1,450.000017166138,2|0,1:0|0:0,1:0:0:0:
460,311,122926,5,2,0:3:0:0:
466,312,123001,1,2,0:3:0:0:
472,313,123076,1,2,0:3:0:0:
478,314,123151,1,2,0:3:0:0:
374,343,123226,102,0,B|295:326|295:326|279:183|279:183|288:193|288:193|278:68|278:68|193:49,1,450.000017166138,4|0,1:0|0:0,0:0:0:0:
105,143,123526,6,0,L|31:158,1,75,0|0,0:0|0:0,1:0:0:0:
31,158,123676,2,0,L|10:60,1,100,2|0,0:1|0:0,0:0:0:0:
193,49,123826,102,0,L|437:101,1,250,4|0,1:0|0:0,0:0:0:0:
437,101,124051,22,0,L|243:152,1,200,2|0,0:0|0:0,0:0:0:0:
244,153,124276,86,0,L|415:189,1,175.00000166893,2|0,0:0|0:0,0:0:0:0:
415,189,124501,22,0,L|294:221,1,125,2|0,0:0|0:0,0:0:0:0:
301,310,124726,6,0,L|363:16,1,300.000011444092,8|0,0:0|0:0,0:0:0:0:
113,370,125026,5,0,1:0:0:0:
88,374,125101,1,0,0:0:0:0:
63,379,125176,1,0,0:0:0:0:
38,384,125251,1,0,0:0:0:0:
102,292,125326,54,0,B|118:243|118:243|87:206,1,100,10|0,1:2|0:0,0:0:0:0:
10,224,125476,2,0,B|-6:272|-6:272|24:309,1,100,2|0,0:0|0:0,0:0:0:0:
217,377,125626,53,2,1:0:0:0:
290,347,125701,1,0,0:0:0:0:
365,318,125776,1,0,0:0:0:0:
440,291,125851,1,0,0:0:0:0:
446,369,125926,53,10,1:0:0:0:
373,335,126001,1,0,0:0:0:0:
301,300,126076,1,0,0:0:0:0:
231,263,126151,1,0,0:0:0:0:
157,292,126226,53,0,1:0:0:0:
176,203,126301,1,0,1:0:0:0:
195,115,126376,2,0,B|227:76|227:76|272:95,1,100,0|0,1:0|0:0,0:0:0:0:
484,229,126526,2,0,B|507:245|516:279|516:279|488:142,1,200,8|0,1:2|0:0,0:0:0:0:
423,0,126751,53,0,1:0:0:0:
350,75,126826,2,0,B|318:114|318:114|272:94,1,100,0|0,1:0|0:0,0:0:0:0:
184,27,126976,2,0,B|138:7|138:7|106:46,1,100,0|0,1:0|0:0,0:0:0:0:
60,154,127126,6,0,L|52:190,4,37.5000014305115,0|0|0|0|0,1:0|1:0|1:0|1:0|1:0,0:0:0:0:
51,136,127351,1,0,1:0:0:0:
41,117,127426,102,2,B|11:57|11:57|125:82|125:82|180:126|153:199|153:199|89:240|106:317,1,450.000017166138,2|0,1:0|0:0,1:0:0:0:
28,343,127726,21,2,0:0:0:0:
28,343,127801,1,2,0:0:0:0:
28,343,127876,2,0,P|20:305|21:268,1,75.0000028610231,2|0,0:0|0:0,0:0:0:0:
205,51,128026,86,0,B|235:18|218:-18|218:-18|191:9|205:51,1,150.000005722046,8|0,1:2|0:0,0:0:0:0:
217,306,128176,2,0,P|187:295|221:303,1,125,2|0,0:3|0:0,0:0:0:0:
471,276,128326,54,2,B|542:249|577:357|491:406|394:373|373:309|396:238|396:238|428:141|428:141|380:85|314:120|335:148|271:184|207:129|207:129|258:126|280:76|280:76|321:34|381:54|381:54|322:223|322:223|225:247|158:187,1,1237.50001180172,2|0,1:0|0:0,1:0:0:0:
92,223,129076,86,0,B|52:207|52:207|84:209,1,75.0000028610231,0|0,1:0|0:0,0:0:0:0:
205,51,129226,86,0,B|191:-15|191:-15|216:41,1,125,8|0,1:2|0:0,0:0:0:0:
316,303,129376,1,0,1:0:0:0:
316,303,129451,2,2,B|327:320|327:320|341:274|360:227|360:227|273:187|207:250|250:279|154:334|46:288|88:169|158:187,1,500,10|0,1:0|0:0,1:0:0:0:
322,85,129826,38,0,P|263:222|210:363,1,300.000011444092,8|0,1:0|1:0,0:0:0:0:
158,187,130051,2,0,P|292:255|416:339,1,300.000011444092,8|0,1:0|1:0,0:0:0:0:
491,164,130276,2,0,P|494:98|430:111,1,150.000005722046,8|0,1:0|0:0,0:0:0:0:
210,363,130426,70,0,B|117:377|117:377|55:313|55:313|170:295,1,300.000011444092,8|0,1:0|1:0,0:0:0:0:
395,265,130651,2,0,B|488:252|488:252|530:174|530:174|414:189,1,300.000011444092,8|0,1:0|1:0,0:0:0:0:
153,26,130876,53,8,1:0:0:0:
153,26,130951,1,8,1:0:0:0:
153,26,131026,2,0,B|31:235|31:235|120:224|120:224|219:54|219:54|267:111|267:111|207:217|207:217|295:206|295:206|326:152,1,875,8|0,1:0|0:0,1:0:0:0:
352,3,131626,38,0,L|388:10,1,37.5000014305115,2|0,0:3|0:0,0:0:0:0:
426,15,131701,2,0,L|462:22,1,37.5000014305115,2|0,0:3|0:0,0:0:0:0:
501,28,131776,2,0,L|493:65,1,37.5000014305115,2|0,0:3|0:0,0:0:0:0:
489,103,131851,2,0,L|481:140,1,37.5000014305115,2|0,0:3|0:0,0:0:0:0:
476,178,131926,2,0,L|438:171,1,37.5000014305115,2|0,0:3|0:0,0:0:0:0:
401,166,132001,2,0,L|363:159,1,37.5000014305115,2|0,0:3|0:0,0:0:0:0:
326,153,132076,2,0,L|332:116,1,37.5000014305115,2|0,0:3|0:0,0:0:0:0:
339,78,132151,2,0,L|376:84,1,37.5000014305115,2|0,0:3|0:0,0:0:0:0:
414,91,132226,5,4,1:0:0:0:
