osu file format v14

[General]
AudioFilename: audio.mp3
AudioLeadIn: 0
PreviewTime: 54894
Countdown: 0
SampleSet: Soft
StackLeniency: 0.7
Mode: 0
LetterboxInBreaks: 0
WidescreenStoryboard: 1

[Editor]
DistanceSpacing: 1.1
BeatDivisor: 4
GridSize: 32
TimelineZoom: 1.2

[Metadata]
Title:COLORFUL BOX (TV Size)
TitleUnicode:COLORFUL BOX (TV Size)
Artist:ISHIDA YOKO
ArtistUnicode:石田燿子
Creator:pishifat
Version:Normal
Source:SHIROBAKO
Tags:Opening P.A. Works Aoi Miyamori Ema Yasuhara Shizuka Sakaki Misa Tōdō Midori Imai
BeatmapID:1575721
BeatmapSetID:691069

[Difficulty]
HPDrainRate:4
CircleSize:3.5
OverallDifficulty:4
ApproachRate:5
SliderMultiplier:0.999999999999999
SliderTickRate:1

[Events]
//Background and Video events
0,0,"UKsNbUf.png",0,0
//Break Periods
//Storyboard Layer 0 (Background)
//Storyboard Layer 1 (Fail)
//Storyboard Layer 2 (Pass)
//Storyboard Layer 3 (Foreground)
//Storyboard Sound Samples

[TimingPoints]
484,372.670807453416,4,2,0,50,1,0
670,-100,4,2,0,40,0,0
1229,-100,4,2,0,50,0,0
1230,372.670807453416,4,2,0,50,1,0
1230,-100,4,2,0,50,0,0
3466,-100,4,2,0,50,0,0
4211,-100,4,2,0,50,0,0
9428,-100,4,2,0,60,0,0
9987,-100,4,2,0,60,0,0
10639,-100,4,2,0,5,0,0
10733,-100,4,2,0,60,0,0
12130,-100,4,2,0,5,0,0
12223,-100,4,2,0,60,0,0
13621,-100,4,2,0,5,0,0
13714,-100,4,2,0,60,0,0
15670,-100,4,2,0,5,0,0
15764,-100,4,2,0,60,0,0
16136,-100,4,2,0,55,0,0
27503,-100,4,2,0,35,0,0
28062,-100,4,2,0,55,0,0
32348,-100,4,2,0,55,0,0
33093,-100,4,2,0,55,0,0
34025,-100,4,2,0,55,0,0
37006,-100,4,2,0,55,0,0
39987,-100,4,2,0,45,0,0
48186,-100,4,2,0,45,0,0
48559,-100,4,2,0,45,0,0
48931,-100,4,2,0,55,0,0
52285,-100,4,2,0,40,0,0
52472,-100,4,2,0,42,0,0
52658,-100,4,2,0,45,0,0
52844,-100,4,2,0,50,0,0
53031,-100,4,2,0,55,0,0
53217,-100,4,2,0,60,0,0
53776,-100,4,2,0,55,0,0
54335,-100,4,2,0,40,0,0
54521,-100,4,2,0,55,0,0
54894,-100,4,2,0,55,0,1
64118,-100,4,2,0,5,0,1
64211,-100,4,2,0,55,0,1
76043,-100,4,2,0,5,0,1
76136,-100,4,2,0,55,0,1
77254,-100,4,2,0,55,0,0
77813,-100,4,2,0,45,0,0
78745,-100,4,2,0,45,0,0
82472,-100,4,2,0,55,0,0
83497,-100,4,2,0,55,0,0
84708,-100,4,2,0,55,0,0
86198,-100,4,2,0,55,0,0
87130,-100,4,2,0,40,0,0
87316,-100,4,2,0,55,0,0
89180,-100,4,2,0,10,0,0

[Colours]
Combo1 : 255,158,28
Combo2 : 88,255,47
Combo3 : 78,134,239
Combo4 : 239,130,251

[HitObjects]
107,216,670,6,0,L|162:207,1,50,8|4,0:3|0:3,0:0:0:0:
256,192,1230,1,4,0:1:0:0:
225,286,2348,5,4,0:3:0:0:
256,192,2720,1,4,0:1:0:0:
354,170,3838,6,0,L|287:183,1,50,8|4,0:3|0:3,0:0:0:0:
256,192,4211,1,4,0:1:0:0:
154,151,5329,5,8,0:3:0:0:
256,192,5702,1,4,0:1:0:0:
322,344,6447,5,8,1:3:0:0:
424,304,6820,1,4,1:3:0:0:
341,233,7192,6,0,P|354:135|407:51,1,200,4|4,3:1|3:1,0:0:0:0:
508,6,8310,1,2,0:3:0:0:
501,115,8683,1,0,1:0:0:0:
261,64,9428,2,0,L|250:4,2,50,0|2|0,3:0|0:0|3:0,0:0:0:0:
254,118,9987,6,0,P|207:149|148:164,1,99.9999999999999,4|0,0:0|0:0,0:0:0:0:
110,163,10546,1,2,1:3:0:0:
47,248,10919,1,2,1:3:0:0:
47,248,11105,2,0,L|61:314,1,50,2|2,0:2|1:3,0:0:0:0:
71,350,11478,6,0,P|134:377|179:383,1,99.9999999999999,4|0,0:0|0:0,0:0:0:0:
219,374,12037,1,2,1:3:0:0:
205,265,12410,2,0,L|137:280,2,50,2|2|2,1:3|0:2|1:3,0:0:0:0:
253,240,12969,6,0,P|319:253|363:278,1,99.9999999999999,4|0,0:0|0:0,0:0:0:0:
389,304,13528,1,2,1:3:0:0:
467,227,13900,2,0,L|474:164,1,50,2|2,1:3|0:0,0:0:0:0:
480,122,14273,1,2,1:3:0:0:
480,122,14459,6,0,P|472:75|446:25,1,99.9999999999999,4|0,0:0|0:0,0:0:0:0:
397,7,15018,1,2,1:3:0:0:
313,78,15391,1,2,1:3:0:0:
214,28,15764,2,0,L|154:37,1,50,8|4,0:3|0:3,0:0:0:0:
110,42,16136,6,0,L|92:153,1,99.9999999999999,4|0,0:1|1:0,0:0:0:0:
89,195,16695,1,0,0:0:0:0:
89,195,16882,1,2,0:0:0:0:
67,302,17254,1,0,1:0:0:0:
67,302,17441,2,0,L|166:284,1,99.9999999999999,2|2,0:0|0:0,0:0:0:0:
255,220,18186,2,0,L|354:238,1,99.9999999999999,2|2,0:0|0:0,0:0:0:0:
415,328,18931,1,2,0:0:0:0:
415,328,19118,5,4,0:3:0:0:
506,267,19490,2,0,L|497:200,1,50,0|0,1:0|0:0,0:0:0:0:
492,162,19863,1,2,0:0:0:0:
465,55,20236,1,0,1:0:0:0:
465,55,20422,2,0,P|388:37|354:21,1,99.9999999999999,2|2,0:0|0:0,0:0:0:0:
308,120,21167,2,0,P|231:138|197:154,1,99.9999999999999,2|2,0:0|0:0,0:0:0:0:
163,172,21726,2,0,L|94:162,1,50,0|8,1:3|0:3,0:0:0:0:
58,157,22099,6,0,L|75:266,1,99.9999999999999,4|0,0:3|1:0,0:0:0:0:
93,364,22844,2,0,L|32:356,2,50,2|0|0,0:0|0:0|1:0,0:0:0:0:
148,364,23403,2,0,L|167:257,1,99.9999999999999,2|2,0:0|0:0,0:0:0:0:
262,212,24149,2,0,L|243:105,1,99.9999999999999,2|2,0:0|0:0,0:0:0:0:
326,39,24894,1,2,0:0:0:0:
326,39,25080,5,4,0:3:0:0:
394,125,25453,1,0,1:0:0:0:
489,69,25826,2,0,L|499:7,2,50,2|0|0,0:0|0:0|1:0,0:0:0:0:
495,123,26385,6,0,B|521:165|521:165|510:225,2,99.9999999999999,2|2|2,1:3|1:3|1:3,0:0:0:0:
402,182,27503,2,0,L|340:192,1,50,8|2,3:3|3:3,0:0:0:0:
250,231,28062,6,0,L|129:214,1,99.9999999999999,4|0,0:0|1:0,0:0:0:0:
96,211,28621,1,0,0:0:0:0:
96,211,28807,1,2,0:0:0:0:
3,151,29180,1,0,1:0:0:0:
3,151,29366,2,0,L|16:38,1,99.9999999999999,2|2,0:0|0:0,0:0:0:0:
117,12,30111,2,0,L|128:111,1,99.9999999999999,2|2,0:0|0:0,0:0:0:0:
227,160,30857,1,2,0:0:0:0:
227,160,31043,5,4,0:3:0:0:
311,89,31416,2,0,L|319:30,2,50,0|0|2,1:0|0:0|0:0,0:0:0:0:
334,196,32161,1,0,1:0:0:0:
334,196,32348,1,2,0:0:0:0:
409,275,32720,1,2,0:0:0:0:
366,376,33093,1,2,0:0:0:0:
256,364,33466,1,2,0:0:0:0:
237,257,33838,1,4,0:3:0:0:
237,257,34025,6,0,L|123:273,1,99.9999999999999,2|0,0:3|1:0,0:0:0:0:
83,279,34584,2,0,P|45:226|26:181,1,99.9999999999999,0|0,0:0|0:0,0:0:0:0:
16,141,35143,1,0,1:0:0:0:
98,68,35515,2,0,L|213:83,1,99.9999999999999,4|0,0:3|1:0,0:0:0:0:
243,50,36074,2,0,P|300:24|349:19,1,99.9999999999999,2|0,0:0|0:0,0:0:0:0:
390,32,36633,1,0,1:0:0:0:
324,120,37006,5,4,0:3:0:0:
417,178,37379,1,0,1:0:0:0:
361,272,37751,1,2,0:0:0:0:
445,342,38124,1,0,1:0:0:0:
445,342,38310,1,4,0:0:0:0:
213,238,39242,5,0,1:0:0:0:
106,265,39615,1,8,0:3:0:0:
74,370,39987,1,4,0:0:0:0:
210,149,40733,5,2,0:0:0:0:
183,42,41106,1,10,0:3:0:0:
78,10,41478,1,2,0:0:0:0:
299,146,42223,5,2,0:0:0:0:
406,119,42596,1,4,0:3:0:0:
438,14,42969,2,0,L|325:0,1,99.9999999999999,2|0,0:0|1:0,0:0:0:0:
245,59,43714,2,0,L|145:71,2,99.9999999999999,2|10|6,0:0|0:3|0:3,0:0:0:0:
302,235,45205,5,2,0:0:0:0:
329,342,45578,1,10,0:3:0:0:
434,374,45950,1,2,0:0:0:0:
74,370,46695,5,2,0:0:0:0:
106,265,47067,1,10,0:3:0:0:
213,238,47440,1,2,0:0:0:0:
438,14,48186,5,2,0:0:0:0:
406,119,48558,1,0,1:0:0:0:
299,146,48931,6,0,P|223:93|198:86,1,99.9999999999999,4|2,1:1|1:3,0:0:0:0:
174,55,49490,2,0,P|125:64|80:86,1,99.9999999999999,0|0,0:0|0:0,0:0:0:0:
1,163,50236,2,0,L|19:273,1,99.9999999999999,2|2,0:0|0:0,0:0:0:0:
55,301,50795,1,0,1:0:0:0:
55,301,50981,2,0,L|153:317,1,99.9999999999999,2|2,0:0|0:0,0:0:0:0:
207,328,51540,2,0,L|261:318,1,50,0|4,1:0|0:3,0:0:0:0:
310,307,51913,5,2,1:3:0:0:
411,348,52285,1,0,1:0:0:0:
411,348,52472,2,0,L|424:285,1,50,0|0,1:0|1:0,0:0:0:0:
395,251,52844,2,0,L|408:188,1,50,0|0,1:0|1:0,0:0:0:0:
382,151,53217,1,2,1:3:0:0:
386,155,54335,5,4,0:3:0:0:
386,155,54521,1,0,1:0:0:0:
455,69,54894,1,4,0:1:0:0:
346,51,55267,6,0,L|230:37,2,99.9999999999999,2|0|2,1:3|0:0|1:3,0:0:0:0:
381,150,56385,1,2,0:0:0:0:
276,182,56757,1,2,1:3:0:0:
274,292,57130,1,2,0:0:0:0:
378,328,57503,1,2,1:3:0:0:
444,241,57875,1,2,0:0:0:0:
240,92,58621,6,0,L|228:26,2,50,2|2|2,0:0|0:0|1:3,0:0:0:0:
235,146,59180,1,0,0:0:0:0:
229,201,59366,1,2,0:0:0:0:
216,310,59738,1,2,1:3:0:0:
108,331,60111,1,2,0:0:0:0:
54,235,60484,1,2,1:3:0:0:
128,155,60856,1,4,0:0:0:0:
317,266,61602,6,0,P|397:248|425:233,1,99.9999999999999,2|2,0:0|1:3,0:0:0:0:
450,200,62161,1,4,0:0:0:0:
436,90,62534,2,0,L|446:27,2,50,0|2|4,0:0|1:3|0:0,0:0:0:0:
230,168,63652,5,2,0:0:0:0:
230,168,63838,2,0,P|156:127|128:126,1,99.9999999999999,4|2,0:0|1:3,0:0:0:0:
89,139,64397,2,0,P|27:196|17:223,2,99.9999999999999,2|4|4,0:0|0:3|0:0,0:0:0:0:
134,42,65515,1,0,0:0:0:0:
134,42,65702,2,0,L|243:62,1,99.9999999999999,2|2,1:3|1:3,0:0:0:0:
287,63,66261,2,0,L|279:7,2,50,0|0|0,3:0|3:0|3:0,0:0:0:0:
298,117,66820,1,4,1:0:0:0:
402,153,67192,6,0,P|444:219|449:247,2,99.9999999999999,2|0|2,1:3|0:0|1:3,0:0:0:0:
298,117,68311,1,2,0:0:0:0:
232,205,68683,1,2,1:3:0:0:
128,169,69056,1,2,0:0:0:0:
129,59,69428,2,0,L|188:42,1,50,2|0,1:3|0:0,0:0:0:0:
233,26,69801,1,4,0:0:0:0:
132,173,70360,5,0,0:0:0:0:
132,173,70546,2,0,L|65:153,2,50,2|2|2,0:0|0:0|1:3,0:0:0:0:
161,221,71105,1,0,0:0:0:0:
191,267,71292,1,2,0:0:0:0:
288,213,71664,1,2,1:3:0:0:
348,304,72037,1,2,0:0:0:0:
445,253,72410,2,0,L|481:308,1,50,2|0,1:3|0:0,0:0:0:0:
503,343,72782,1,2,0:0:0:0:
376,175,73528,6,0,L|357:65,1,99.9999999999999,2|2,0:0|1:3,0:0:0:0:
353,21,74087,2,0,P|301:61|253:82,1,99.9999999999999,4|0,0:0|0:0,0:0:0:0:
217,90,74646,1,2,1:3:0:0:
217,90,74832,2,0,P|165:50|117:29,1,99.9999999999999,4|0,0:0|0:0,0:0:0:0:
79,25,75391,1,2,1:3:0:0:
2,104,75764,6,0,L|14:210,1,99.9999999999999,4|2,0:0|1:3,0:0:0:0:
60,231,76323,2,0,L|48:330,1,99.9999999999999,2|2,0:0|0:0,0:0:0:0:
83,373,76882,1,2,1:3:0:0:
186,335,77254,2,0,L|198:393,2,50,4|4|2,0:3|0:3|1:3,0:0:0:0:
199,281,77813,1,0,3:0:0:0:
199,281,78000,2,0,P|257:273|306:249,1,99.9999999999999,0|8,3:0|0:3,0:0:0:0:
368,174,78745,5,4,0:0:0:0:
286,30,79304,1,0,0:0:0:0:
286,30,79490,2,0,L|341:40,2,50,2|0|10,0:0|0:0|0:3,0:0:0:0:
177,7,80236,1,2,0:0:0:0:
42,180,80981,2,0,L|50:246,2,50,2|0|4,0:0|0:0|0:3,0:0:0:0:
118,101,81726,6,0,P|187:112|230:136,1,99.9999999999999,2|0,0:0|1:0,0:0:0:0:
259,156,82285,1,0,0:0:0:0:
362,118,82658,2,0,L|375:190,1,50,0|0,0:0|1:0,0:0:0:0:
381,221,83031,1,4,0:0:0:0:
470,284,83403,1,2,0:0:0:0:
470,284,83590,1,0,1:0:0:0:
370,330,83962,2,0,L|258:310,1,99.9999999999999,0|2,1:0|1:2,0:0:0:0:
218,327,84521,1,2,1:2:0:0:
218,327,84708,6,0,P|189:260|187:211,1,99.9999999999999,4|2,1:2|1:3,0:0:0:0:
219,189,85267,1,2,0:0:0:0:
219,189,85453,2,0,P|248:122|250:73,1,99.9999999999999,2|2,1:3|1:3,0:0:0:0:
232,43,86012,1,0,0:0:0:0:
232,43,86198,5,4,1:0:0:0:
25,120,86944,2,0,L|15:66,2,50,2|4|0,0:0|0:3|1:0,0:0:0:0:
35,174,87503,1,4,0:1:0:0:
256,192,87689,12,0,89180,0:0:0:0:
