osu file format v14

[General]
AudioFilename: audio.mp3
AudioLeadIn: 0
PreviewTime: 54894
Countdown: 0
SampleSet: Soft
StackLeniency: 0.7
Mode: 0
LetterboxInBreaks: 0
WidescreenStoryboard: 1

[Editor]
DistanceSpacing: 1.1
BeatDivisor: 4
GridSize: 4
TimelineZoom: 1.2

[Metadata]
Title:COLORFUL BOX (TV Size)
TitleUnicode:COLORFUL BOX (TV Size)
Artist:ISHIDA YOKO
ArtistUnicode:石田燿子
Creator:pishifat
Version:Hard
Source:SHIROBAKO
Tags:Opening P.A. Works Aoi Miyamori Ema Yasuhara Shizuka Sakaki Misa Tōdō Midori Imai
BeatmapID:1575720
BeatmapSetID:691069

[Difficulty]
HPDrainRate:5
CircleSize:3.5
OverallDifficulty:6
ApproachRate:7.5
SliderMultiplier:0.999999999999999
SliderTickRate:1

[Events]
//Background and Video events
0,0,"UKsNbUf.png",0,0
//Break Periods
//Storyboard Layer 0 (Background)
//Storyboard Layer 1 (Fail)
//Storyboard Layer 2 (Pass)
//Storyboard Layer 3 (Foreground)
//Storyboard Sound Samples

[TimingPoints]
484,372.670807453416,4,2,0,50,1,0
670,-100,4,2,0,40,0,0
1229,-100,4,2,0,50,0,0
1230,372.670807453416,4,2,0,50,1,0
1230,-100,4,2,0,50,0,0
3466,-100,4,2,0,50,0,0
4211,-100,4,2,0,50,0,0
9428,-83.3333333333333,4,2,0,60,0,0
9987,-66.6666666666667,4,2,0,60,0,0
10639,-66.6666666666667,4,2,0,5,0,0
10733,-66.6666666666667,4,2,0,60,0,0
12130,-66.6666666666667,4,2,0,5,0,0
12223,-66.6666666666667,4,2,0,60,0,0
13621,-66.6666666666667,4,2,0,5,0,0
13714,-66.6666666666667,4,2,0,60,0,0
15670,-66.6666666666667,4,2,0,5,0,0
15764,-100,4,2,0,60,0,0
16136,-83.3333333333333,4,2,0,55,0,0
27503,-100,4,2,0,35,0,0
28062,-83.3333333333333,4,2,0,55,0,0
32348,-76.9230769230769,4,2,0,55,0,0
33093,-71.4285714285714,4,2,0,55,0,0
34025,-83.3333333333333,4,2,0,55,0,0
37006,-76.9230769230769,4,2,0,55,0,0
39987,-90.9090909090909,4,2,0,45,0,0
48186,-100,4,2,0,45,0,0
48559,-100,4,2,0,45,0,0
48931,-71.4285714285714,4,2,0,55,0,0
52285,-100,4,2,0,40,0,0
52472,-100,4,2,0,42,0,0
52658,-80,4,2,0,45,0,0
52844,-100,4,2,0,50,0,0
53031,-66.6666666666667,4,2,0,55,0,0
53217,-100,4,2,0,60,0,0
53776,-100,4,2,0,55,0,0
54335,-100,4,2,0,40,0,0
54521,-100,4,2,0,55,0,0
54894,-66.6666666666667,4,2,0,55,0,1
56292,-66.6666666666667,4,2,0,5,0,1
56385,-66.6666666666667,4,2,0,55,0,1
64118,-100,4,2,0,5,0,1
64211,-66.6666666666667,4,2,0,55,0,1
68217,-66.6666666666667,4,2,0,5,0,1
68310,-66.6666666666667,4,2,0,55,0,1
76043,-100,4,2,0,5,0,1
76136,-66.6666666666667,4,2,0,55,0,1
77254,-66.6666666666667,4,2,0,55,0,0
77813,-76.9230769230769,4,2,0,45,0,0
78745,-83.3333333333333,4,2,0,45,0,0
82472,-66.6666666666667,4,2,0,55,0,0
83497,-76.9230769230769,4,2,0,55,0,0
84708,-66.6666666666667,4,2,0,55,0,0
86198,-100,4,2,0,55,0,0
87130,-100,4,2,0,40,0,0
87316,-100,4,2,0,55,0,0
89180,-100,4,2,0,10,0,0

[Colours]
Combo1 : 255,158,28
Combo2 : 88,255,47
Combo3 : 78,134,239
Combo4 : 239,130,251

[HitObjects]
43,93,670,6,0,L|37:143,1,50,8|4,0:3|0:3,0:0:0:0:
37,143,1230,6,0,B|69:183|128:174|128:174|164:85|164:85|219:70|259:109,1,300,4|8,0:1|0:3,0:0:0:0:
413,12,2720,6,0,P|363:16|322:43,1,99.9999999999999,4|0,0:1|0:0,0:0:0:0:
487,133,3466,2,0,P|445:105|396:101,1,99.9999999999999,2|8,0:0|0:3,0:0:0:0:
419,182,4025,1,4,0:3:0:0:
387,259,4211,6,0,B|347:298|292:283|292:283|256:194|256:194|197:185|159:232,1,300,4|8,0:1|0:3,0:0:0:0:
17,116,5702,6,0,P|66:120|107:147,1,99.9999999999999,4|0,0:1|0:0,0:0:0:0:
195,364,6447,2,0,L|186:296,1,50,8|0,1:3|0:0,0:0:0:0:
107,377,6820,2,0,L|98:309,1,50,4|0,1:3|3:0,0:0:0:0:
22,367,7192,5,4,3:1:0:0:
348,267,7938,1,4,3:1:0:0:
132,164,8310,1,2,0:3:0:0:
256,24,8683,5,0,1:0:0:0:
256,24,9428,1,0,3:0:0:0:
325,77,9615,2,0,L|373:70,2,29.9999990844727,2|2|0,0:0|0:0|3:0,0:0:0:0:
217,102,9987,6,0,P|211:181|251:255,1,150.000005722046,4|0,0:0|0:0,0:0:0:0:
324,299,10546,1,2,1:3:0:0:
324,299,10919,1,2,1:3:0:0:
405,264,11105,1,2,0:2:0:0:
453,338,11292,1,2,1:3:0:0:
372,376,11478,6,0,P|309:339|210:350,1,150.000005722046,4|0,0:0|0:0,0:0:0:0:
152,383,12037,1,2,1:3:0:0:
152,383,12410,2,0,L|139:308,1,75.000002861023,2|2,1:3|0:2,0:0:0:0:
72,241,12782,1,2,1:3:0:0:
141,181,12969,6,0,B|223:187|182:252|259:258,1,150.000005722046,4|0,0:0|0:0,0:0:0:0:
355,247,13528,1,2,1:3:0:0:
355,247,13900,1,2,1:3:0:0:
436,284,14087,1,2,0:0:0:0:
488,215,14273,1,2,1:3:0:0:
409,170,14459,6,0,B|387:95|462:112|440:29,1,150.000005722046,4|0,0:0|0:0,0:0:0:0:
354,0,15018,2,0,L|258:16,1,75.000002861023,2|0,1:3|3:0,0:0:0:0:
267,22,15298,1,0,0:0:0:0:
255,31,15391,1,2,1:3:0:0:
64,149,15764,1,8,0:3:0:0:
148,119,15950,1,4,0:3:0:0:
226,165,16136,6,0,L|244:312,1,119.999996337891,4|0,0:1|1:0,0:0:0:0:
293,353,16695,2,0,L|362:367,2,59.9999981689453,0|2|0,0:0|0:0|0:0,0:0:0:0:
207,364,17254,1,0,1:0:0:0:
122,377,17441,2,0,P|58:359|10:325,1,119.999996337891,2|2,0:0|0:0,0:0:0:0:
100,282,18000,1,0,1:0:0:0:
100,282,18186,2,0,P|67:224|57:166,1,119.999996337891,2|2,0:0|0:0,0:0:0:0:
152,198,18745,1,0,1:0:0:0:
152,198,18931,1,2,0:0:0:0:
123,103,19118,5,4,0:3:0:0:
438,191,19490,1,0,1:0:0:0:
401,271,19677,2,0,L|396:331,2,59.9999981689453,0|2|0,0:0|0:0|0:0,0:0:0:0:
438,191,20236,1,0,1:0:0:0:
398,108,20422,2,0,P|358:93|313:92,1,59.9999981689453,2|4,0:0|0:3,0:0:0:0:
282,23,20795,2,0,P|243:40|211:72,1,59.9999981689453,2|0,0:0|1:0,0:0:0:0:
140,46,21167,2,0,P|125:85|124:130,1,59.9999981689453,2|0,0:0|0:0,0:0:0:0:
56,162,21540,2,0,P|73:200|105:232,1,59.9999981689453,2|0,0:0|1:3,0:0:0:0:
163,253,21913,1,8,0:3:0:0:
91,305,22099,5,4,0:3:0:0:
140,46,22472,1,0,1:0:0:0:
209,101,22658,2,0,L|199:167,2,59.9999981689453,0|2|0,0:0|0:0|0:0,0:0:0:0:
284,60,23217,1,0,1:0:0:0:
365,92,23403,2,0,P|390:144|398:223,1,119.999996337891,2|2,0:0|0:0,0:0:0:0:
475,266,23962,1,0,1:0:0:0:
475,266,24149,2,0,P|456:320|406:381,1,119.999996337891,2|2,0:0|0:0,0:0:0:0:
331,384,24708,1,0,1:0:0:0:
331,384,24894,1,2,0:0:0:0:
358,302,25080,5,4,0:3:0:0:
95,192,25453,1,0,1:0:0:0:
133,272,25639,1,0,0:0:0:0:
219,255,25826,2,0,P|242:234|258:209,1,59.9999981689453,2|0,0:0|0:0,0:0:0:0:
242,124,26198,1,0,1:0:0:0:
231,45,26385,5,2,1:3:0:0:
231,45,26757,1,2,1:3:0:0:
231,45,27130,1,2,1:3:0:0:
45,140,27503,6,0,L|55:180,2,25,8|0|2,3:3|3:3|3:3,0:0:0:0:
45,140,28062,6,0,L|163:155,1,119.999996337891,4|0,0:0|1:0,0:0:0:0:
231,214,28621,1,0,0:0:0:0:
176,280,28807,2,0,L|185:339,2,59.9999981689453,2|0|0,0:0|0:0|1:0,0:0:0:0:
231,214,29366,2,0,P|289:223|341:253,1,119.999996337891,2|2,0:0|0:0,0:0:0:0:
315,344,29925,1,0,1:0:0:0:
315,344,30111,2,0,P|373:334|425:304,2,119.999996337891,2|2|2,0:0|0:0|0:0,0:0:0:0:
341,253,31043,5,4,0:3:0:0:
76,143,31416,1,0,1:0:0:0:
110,224,31602,1,0,0:0:0:0:
162,153,31789,2,0,P|209:132|244:135,1,59.9999981689453,2|0,0:0|0:0,0:0:0:0:
304,151,32161,1,0,1:0:0:0:
374,97,32348,6,0,L|361:18,1,64.9999970245362,2|2,0:0|0:0,0:0:0:0:
456,155,32720,2,0,L|469:76,1,64.9999970245362,2|2,0:0|1:2,0:0:0:0:
348,24,33093,6,0,L|359:104,1,69.9999978637695,2|2,0:0|0:0,0:0:0:0:
480,83,33466,2,0,L|468:157,1,69.9999978637695,2|2,0:0|1:2,0:0:0:0:
373,210,33838,1,4,0:3:0:0:
435,302,34025,6,0,P|364:312|307:353,1,119.999996337891,2|0,0:3|1:0,0:0:0:0:
238,309,34584,2,0,P|209:256|203:197,1,119.999996337891,0|0,0:0|0:0,0:0:0:0:
209,90,35143,1,0,1:0:0:0:
112,138,35329,1,0,0:0:0:0:
204,198,35515,6,0,L|291:180,1,59.9999981689453,4|0,0:3|0:0,0:0:0:0:
343,138,35888,1,0,1:0:0:0:
384,222,36074,2,0,P|416:190|436:95,1,119.999996337891,2|0,0:0|0:0,0:0:0:0:
480,32,36633,2,0,L|406:23,1,59.9999981689453,0|0,1:0|0:0,0:0:0:0:
332,10,37006,5,4,0:3:0:0:
232,285,37379,1,0,1:0:0:0:
43,60,37751,1,2,0:0:0:0:
172,91,37938,1,0,0:0:0:0:
81,187,38124,1,0,1:0:0:0:
98,114,38310,5,4,0:0:0:0:
401,198,38683,1,4,0:3:0:0:
333,253,38869,1,0,1:0:0:0:
270,315,39056,1,0,3:0:0:0:
270,315,39149,1,0,3:0:0:0:
270,315,39242,2,0,L|188:304,1,64.9999970245362,0|0,1:0|0:0,0:0:0:0:
137,362,39615,2,0,L|72:370,1,64.9999970245362,8|8,0:3|0:3,0:0:0:0:
0,318,39987,6,0,P|0:263|15:210,1,110.000003356934,4|0,0:0|1:0,0:0:0:0:
133,83,40733,2,0,L|187:73,1,55.0000016784668,2|0,0:0|0:0,0:0:0:0:
244,8,41105,2,0,L|298:17,1,55.0000016784668,10|8,0:3|0:3,0:0:0:0:
332,99,41478,6,0,P|414:87|459:62,1,110.000003356934,2|0,0:0|1:0,0:0:0:0:
494,283,42223,2,0,L|483:208,1,55.0000016784668,2|0,0:0|0:0,0:0:0:0:
405,182,42596,2,0,L|397:236,1,55.0000016784668,4|0,0:3|0:0,0:0:0:0:
328,300,42969,6,0,P|262:280|214:245,1,110.000003356934,2|0,0:0|1:0,0:0:0:0:
0,381,43714,2,0,P|66:361|114:326,1,110.000003356934,2|10,0:0|0:3,0:0:0:0:
142,258,44273,1,8,0:3:0:0:
100,180,44459,5,6,0:3:0:0:
155,114,44646,2,0,L|164:47,1,55.0000016784668,0|0,0:0|1:0,0:0:0:0:
162,59,45205,6,0,P|216:36|235:37,1,55.0000016784668,2|0,0:0|0:0,0:0:0:0:
294,3,45577,2,0,P|320:10|343:25,1,55.0000016784668,10|8,0:3|0:3,0:0:0:0:
430,25,45950,6,0,P|450:79|447:146,1,110.000003356934,2|0,0:0|1:0,0:0:0:0:
406,353,46695,2,0,L|341:344,1,55.0000016784668,2|0,0:0|0:0,0:0:0:0:
283,291,47068,2,0,L|228:298,1,55.0000016784668,10|8,0:3|0:3,0:0:0:0:
146,330,47441,6,0,P|71:307|36:274,1,110.000003356934,2|0,0:0|1:0,0:0:0:0:
6,89,48186,2,0,L|11:39,1,50,2|0,0:0|0:0,0:0:0:0:
98,13,48559,1,0,1:0:0:0:
146,92,48745,1,0,0:0:0:0:
228,58,48931,6,0,B|297:49|297:49|365:108,1,139.999995727539,4|2,1:1|1:3,0:0:0:0:
446,82,49490,2,0,L|427:171,1,69.9999978637695,0|2,0:0|1:3,0:0:0:0:
508,210,49863,2,0,L|431:259,1,69.9999978637695,0|0,0:0|1:0,0:0:0:0:
465,343,50236,6,0,L|375:324,1,69.9999978637695,2|0,0:0|1:0,0:0:0:0:
319,281,50608,1,2,0:0:0:0:
369,201,50795,1,0,1:0:0:0:
319,281,50981,2,0,L|250:295,1,69.9999978637695,2|0,0:0|1:0,0:0:0:0:
143,271,51354,1,2,0:0:0:0:
214,192,51540,1,0,1:0:0:0:
158,106,51726,1,4,0:3:0:0:
93,182,51913,5,2,1:3:0:0:
312,54,52285,2,0,L|301:103,1,50,0|0,1:0|1:0,0:0:0:0:
440,148,52658,2,0,L|396:105,1,62.4999999999999,0|0,1:0|1:0,0:0:0:0:
274,209,53031,2,0,L|346:187,1,75.000002861023,0|2,1:0|1:3,0:0:0:0:
354,195,54335,5,4,0:3:0:0:
354,195,54428,1,4,0:3:0:0:
354,195,54521,2,0,L|292:214,1,50,0|0,1:0|0:0,0:0:0:0:
256,284,54894,1,4,0:1:0:0:
23,372,55267,6,0,P|63:333|98:325,1,75.000002861023,2|0,1:3|0:0,0:0:0:0:
128,248,55639,2,0,P|88:209|53:201,1,75.000002861023,0|0,0:0|0:0,0:0:0:0:
0,125,56012,2,0,L|139:108,1,112.500004291534,2|0,1:3|0:0,0:0:0:0:
126,104,56385,2,0,L|145:23,1,75.000002861023,2|0,0:0|0:0,0:0:0:0:
223,88,56757,2,0,L|279:27,1,75.000002861023,2|0,1:3|0:0,0:0:0:0:
315,122,57130,2,0,L|394:97,1,75.000002861023,2|0,0:0|0:0,0:0:0:0:
377,197,57503,2,0,L|458:216,1,75.000002861023,2|0,1:3|0:0,0:0:0:0:
394,292,57875,1,2,0:0:0:0:
394,292,58248,1,2,1:3:0:0:
42,288,58621,5,2,0:0:0:0:
0,217,58807,1,2,0:0:0:0:
56,155,58993,1,2,1:3:0:0:
131,189,59180,1,0,0:0:0:0:
122,271,59366,2,0,P|144:329|162:347,1,75.000002861023,2|0,0:0|0:0,0:0:0:0:
213,271,59739,2,0,P|274:280|298:274,1,75.000002861023,2|0,1:3|0:0,0:0:0:0:
258,192,60111,2,0,P|297:143|303:119,1,75.000002861023,2|0,0:0|0:0,0:0:0:0:
300,40,60484,1,2,1:3:0:0:
375,85,60670,1,0,0:0:0:0:
425,18,60857,1,4,0:0:0:0:
425,18,61229,1,2,1:3:0:0:
498,278,61602,6,0,P|424:229|346:227,1,150.000005722046,2|2,0:0|1:3,0:0:0:0:
275,242,62161,1,4,0:0:0:0:
275,242,62534,2,0,P|265:202|239:170,1,75.000002861023,0|2,0:0|1:3,0:0:0:0:
149,97,62907,1,4,0:0:0:0:
149,97,63279,2,0,L|202:108,4,37.5000014305115,2|2|2|2|2,0:0|0:0|0:0|0:0|0:0,0:0:0:0:
36,97,63838,6,0,P|5:170|8:249,1,150.000005722046,4|2,0:0|1:3,0:0:0:0:
75,306,64397,2,0,L|163:289,1,74.9999999999999,2|0,0:0|0:0,0:0:0:0:
225,350,64770,2,0,L|298:364,1,74.9999999999999,4|2,0:3|1:3,0:0:0:0:
380,319,65143,2,0,P|351:263|348:163,1,150.000005722046,4|0,0:0|0:0,0:0:0:0:
401,100,65702,2,0,L|383:8,1,75.000002861023,2|0,1:3|0:0,0:0:0:0:
296,10,66074,1,2,1:3:0:0:
239,73,66261,2,0,L|232:131,2,37.5000014305115,0|0|0,3:0|3:0|3:0,0:0:0:0:
158,37,66633,1,0,3:0:0:0:
158,37,66726,1,0,3:0:0:0:
158,37,66820,1,4,1:0:0:0:
0,274,67192,6,0,P|43:241|86:238,1,75.000002861023,2|0,1:3|0:0,0:0:0:0:
127,305,67565,2,0,P|153:330|189:342,1,75.000002861023,0|0,0:0|0:0,0:0:0:0:
283,384,67938,2,0,L|259:250,1,112.500004291534,2|0,1:3|0:0,0:0:0:0:
272,258,68310,2,0,L|345:311,1,75.000002861023,2|0,0:0|0:0,0:0:0:0:
360,210,68683,2,0,L|449:219,1,75.000002861023,2|0,1:3|0:0,0:0:0:0:
400,126,69056,2,0,L|482:89,1,75.000002861023,2|0,0:0|0:0,0:0:0:0:
396,33,69428,1,2,1:3:0:0:
301,37,69615,1,0,0:0:0:0:
309,136,69801,1,4,0:0:0:0:
309,136,70174,1,2,1:3:0:0:
223,158,70360,5,0,0:0:0:0:
140,125,70546,2,0,P|112:73|111:47,1,75.000002861023,2|2,0:0|0:0,0:0:0:0:
33,21,70919,2,0,P|11:51|3:87,1,75.000002861023,2|0,1:3|0:0,0:0:0:0:
57,160,71292,2,0,L|68:249,1,75.000002861023,2|0,0:0|0:0,0:0:0:0:
156,240,71664,2,0,L|146:314,1,75.000002861023,2|0,1:3|0:0,0:0:0:0:
238,309,72037,2,0,L|247:383,1,75.000002861023,2|0,0:0|0:0,0:0:0:0:
332,335,72410,1,2,1:3:0:0:
414,367,72596,1,0,0:0:0:0:
467,299,72782,1,2,0:0:0:0:
467,299,73155,1,2,1:3:0:0:
412,18,73528,6,0,P|345:43|294:116,1,150.000005722046,2|2,0:0|1:3,0:0:0:0:
186,92,74087,2,0,P|209:126|213:189,1,75.000002861023,4|0,0:0|0:0,0:0:0:0:
140,211,74459,1,0,0:0:0:0:
251,245,74646,1,2,1:3:0:0:
175,294,74832,2,0,P|155:331|148:391,1,75.000002861023,4|0,0:0|0:0,0:0:0:0:
241,357,75205,2,0,L|335:341,2,75.000002861023,0|2|0,0:0|1:3|0:0,0:0:0:0:
147,362,75764,6,0,P|73:326|15:255,1,150.000005722046,4|2,0:0|1:3,0:0:0:0:
55,190,76323,2,0,P|129:154|187:83,1,150.000005722046,2|2,0:0|0:0,0:0:0:0:
257,16,76882,2,0,L|270:110,1,75.000002861023,2|2,1:3|0:0,0:0:0:0:
340,143,77254,5,4,0:3:0:0:
409,91,77441,1,4,0:3:0:0:
464,173,77627,2,0,L|453:260,1,75.000002861023,2|0,1:3|3:0,0:0:0:0:
454,247,77907,1,0,3:0:0:0:
454,247,78000,2,0,P|406:264|388:282,1,64.9999970245362,0|0,3:0|0:0,0:0:0:0:
350,340,78372,1,8,0:3:0:0:
269,326,78559,1,8,0:3:0:0:
209,381,78745,6,0,P|150:366|94:331,1,119.999996337891,4|0,0:0|1:0,0:0:0:0:
9,322,79304,2,0,L|21:399,2,59.9999981689453,0|2|0,0:0|0:0|0:0,0:0:0:0:
66,254,79863,2,0,L|75:194,1,59.9999981689453,10|8,0:3|0:3,0:0:0:0:
8,121,80236,6,0,P|67:106|123:71,1,119.999996337891,2|0,0:0|1:0,0:0:0:0:
307,10,80981,2,0,L|229:20,1,59.9999981689453,2|0,0:0|0:0,0:0:0:0:
207,101,81354,2,0,L|285:111,1,59.9999981689453,4|0,0:3|0:0,0:0:0:0:
358,94,81726,6,0,P|388:144|393:224,1,119.999996337891,2|0,0:0|1:0,0:0:0:0:
392,298,82285,2,0,L|431:291,2,29.9999990844727,0|0|2,0:0|0:0|0:0,0:0:0:0:
318,346,82658,2,0,L|228:331,1,75.000002861023,0|0,0:0|1:0,0:0:0:0:
128,368,83031,5,4,0:0:0:0:
61,45,83403,1,2,0:0:0:0:
74,133,83590,2,0,P|105:124|129:103,1,64.9999970245362,0|0,1:0|0:0,0:0:0:0:
204,56,83962,1,0,1:0:0:0:
267,118,84149,2,0,L|262:156,4,32.4999985122681,2|2|2|2|2,1:2|1:2|1:2|1:2|1:2,0:0:0:0:
332,57,84708,6,0,B|386:9|386:9|474:28,1,150.000005722046,4|2,1:2|1:3,0:0:0:0:
413,105,85267,1,2,0:0:0:0:
493,153,85453,2,0,B|439:201|439:201|351:182,1,150.000005722046,2|2,1:3|1:3,0:0:0:0:
285,232,86012,1,0,0:0:0:0:
306,316,86198,5,4,1:0:0:0:
206,68,86944,1,2,0:0:0:0:
132,111,87130,2,0,L|139:155,2,25,4|4|0,0:3|0:3|1:0,0:0:0:0:
79,42,87503,5,4,0:1:0:0:
256,192,87689,12,0,89180,0:0:0:0:
