osu file format v14

[General]
AudioFilename: audio.ogg
AudioLeadIn: 0
PreviewTime: 70137
Countdown: 0
SampleSet: Soft
StackLeniency: 0.7
Mode: 3
LetterboxInBreaks: 0
SpecialStyle: 0
WidescreenStoryboard: 0

[Editor]
Bookmarks: 15709,29423,54923,56852,80852,97137,113423,127137,152637,154566,178566,194852,209423,217459,219602,236852,243709
DistanceSpacing: 0.8
BeatDivisor: 4
GridSize: 32
TimelineZoom: 1.1

[Metadata]
Title:RE:WIND
TitleUnicode:리와인드
Artist:ISEGYE IDOL
ArtistUnicode:이세계아이돌
Creator:Niks
Version:6K Omega
Source:
Tags:Korean Pop KPop K-Pop 왁타버스 WAKTAVERSE 우왁굳 woowakgood 아이네 ine 징버거 jingburger 릴파 lilpa 주르르 jururu 고세구 gosegu 비챤 viichan REWIND VTuber youtuber Virtual Metaverse VR Reality dump Young_Vibe young vibe 곽준용 sweetberry
BeatmapID:4521744
BeatmapSetID:2146646

[Difficulty]
HPDrainRate:8
CircleSize:6
OverallDifficulty:7.8
ApproachRate:5
SliderMultiplier:1.4
SliderTickRate:1

[Events]
//Background and Video events
0,0,"BG.jpg",0,0
Video,-1500,"bga.mp4"
//Break Periods
//Storyboard Layer 0 (Background)
//Storyboard Layer 1 (Fail)
//Storyboard Layer 2 (Pass)
//Storyboard Layer 3 (Foreground)
//Storyboard Layer 4 (Overlay)
//Storyboard Sound Samples

[TimingPoints]
1995,428.571428571429,4,2,1,70,1,0
70566,-100,4,2,1,70,0,1
97995,-100,4,2,1,70,0,0
168280,-100,4,2,1,70,0,1
195709,-100,4,2,1,70,0,0
209423,-100,4,2,1,70,0,1
221209,-100,4,2,1,70,0,0
236852,-100,4,2,1,70,0,1
250566,-100,4,2,1,70,0,0

[HitObjects]
469,192,1995,5,0,0:0:0:0:
42,192,1995,1,0,0:0:0:0:
384,192,2209,1,0,0:0:0:0:
128,192,2423,1,0,0:0:0:0:
213,192,2637,1,0,0:0:0:0:
42,192,3066,1,0,0:0:0:0:
128,192,3280,1,0,0:0:0:0:
213,192,3495,1,0,0:0:0:0:
469,192,3602,1,0,0:0:0:0:
384,192,3655,1,0,0:0:0:0:
298,192,3709,1,0,0:0:0:0:
128,192,3923,1,0,0:0:0:0:
213,192,4137,1,0,0:0:0:0:
298,192,4352,1,0,0:0:0:0:
469,192,4566,1,0,0:0:0:0:
384,192,4780,1,0,0:0:0:0:
128,192,4780,1,0,0:0:0:0:
298,192,4995,1,0,0:0:0:0:
213,192,5209,1,0,0:0:0:0:
469,192,5209,1,0,0:0:0:0:
42,192,5423,1,0,0:0:0:0:
298,192,5423,1,0,0:0:0:0:
128,192,5637,1,0,0:0:0:0:
384,192,5852,1,0,0:0:0:0:
298,192,6066,1,0,0:0:0:0:
469,192,6495,1,0,0:0:0:0:
384,192,6709,1,0,0:0:0:0:
298,192,6923,1,0,0:0:0:0:
42,192,7030,1,0,0:0:0:0:
128,192,7084,1,0,0:0:0:0:
213,192,7137,1,0,0:0:0:0:
384,192,7352,1,0,0:0:0:0:
298,192,7566,1,0,0:0:0:0:
213,192,7780,1,0,0:0:0:0:
128,192,7887,1,0,0:0:0:0:
42,192,7995,1,0,0:0:0:0:
384,192,8209,1,0,0:0:0:0:
213,192,8209,1,0,0:0:0:0:
298,192,8423,1,0,0:0:0:0:
128,192,8423,1,0,0:0:0:0:
213,192,8637,1,0,0:0:0:0:
298,192,8852,1,0,0:0:0:0:
469,192,8852,1,0,0:0:0:0:
42,192,9066,1,0,0:0:0:0:
128,192,9280,1,0,0:0:0:0:
213,192,9495,1,0,0:0:0:0:
384,192,9709,1,0,0:0:0:0:
128,192,9923,1,0,0:0:0:0:
42,192,10137,1,0,0:0:0:0:
469,192,10352,1,0,0:0:0:0:
213,192,10352,1,0,0:0:0:0:
298,192,10566,1,0,0:0:0:0:
42,192,10566,1,0,0:0:0:0:
384,192,10780,1,0,0:0:0:0:
128,192,10995,1,0,0:0:0:0:
213,192,11209,1,0,0:0:0:0:
298,192,11423,1,0,0:0:0:0:
469,192,11423,1,0,0:0:0:0:
213,192,11637,1,0,0:0:0:0:
42,192,11637,1,0,0:0:0:0:
384,192,11852,1,0,0:0:0:0:
128,192,12066,1,0,0:0:0:0:
298,192,12066,1,0,0:0:0:0:
42,192,12280,1,0,0:0:0:0:
469,192,12280,1,0,0:0:0:0:
384,192,12495,1,0,0:0:0:0:
213,192,12709,1,0,0:0:0:0:
298,192,12923,1,0,0:0:0:0:
42,192,13137,1,0,0:0:0:0:
469,192,13352,1,0,0:0:0:0:
128,192,13352,1,0,0:0:0:0:
384,192,13566,1,0,0:0:0:0:
213,192,13566,1,0,0:0:0:0:
42,192,13780,1,0,0:0:0:0:
298,192,13780,128,0,15066:0:0:0:0:
213,192,15066,1,0,0:0:0:0:
469,192,15066,1,0,0:0:0:0:
384,192,15280,1,0,0:0:0:0:
42,192,15280,1,0,0:0:0:0:
128,192,15280,1,0,0:0:0:0:
42,192,15709,1,0,0:0:0:0:
469,192,15709,1,0,0:0:0:0:
298,192,15709,128,0,16030:0:0:0:0:
213,192,16030,128,0,16352:0:0:0:0:
128,192,16352,128,0,16566:0:0:0:0:
42,192,16566,1,0,0:0:0:0:
298,192,16566,1,0,0:0:0:0:
469,192,16566,1,0,0:0:0:0:
128,192,16995,1,0,0:0:0:0:
213,192,17102,1,0,0:0:0:0:
298,192,17209,1,0,0:0:0:0:
384,192,17316,1,0,0:0:0:0:
42,192,17423,1,0,0:0:0:0:
469,192,17423,128,0,17745:0:0:0:0:
384,192,17745,128,0,18066:0:0:0:0:
298,192,18066,128,0,18280:0:0:0:0:
42,192,18280,1,0,0:0:0:0:
213,192,18280,1,0,0:0:0:0:
469,192,18280,1,0,0:0:0:0:
128,192,18709,128,0,18923:0:0:0:0:
213,192,18923,128,0,19137:0:0:0:0:
42,192,19137,1,0,0:0:0:0:
469,192,19137,128,0,19459:0:0:0:0:
384,192,19459,128,0,19780:0:0:0:0:
298,192,19780,128,0,19995:0:0:0:0:
128,192,19995,1,0,0:0:0:0:
469,192,19995,1,0,0:0:0:0:
213,192,19995,1,0,0:0:0:0:
42,192,20209,1,0,0:0:0:0:
42,192,20423,1,0,0:0:0:0:
384,192,20637,1,0,0:0:0:0:
298,192,20745,1,0,0:0:0:0:
213,192,20852,1,0,0:0:0:0:
128,192,21066,1,0,0:0:0:0:
469,192,21066,1,0,0:0:0:0:
42,192,21066,1,0,0:0:0:0:
384,192,21280,1,0,0:0:0:0:
298,192,21280,1,0,0:0:0:0:
298,192,21495,1,0,0:0:0:0:
384,192,21495,1,0,0:0:0:0:
42,192,21709,128,0,22137:0:0:0:0:
469,192,21709,1,0,0:0:0:0:
213,192,21709,1,0,0:0:0:0:
384,192,22137,128,0,22566:0:0:0:0:
298,192,22566,1,0,0:0:0:0:
469,192,22566,1,0,0:0:0:0:
42,192,22566,128,0,22887:0:0:0:0:
128,192,22887,128,0,23209:0:0:0:0:
213,192,23209,128,0,23423:0:0:0:0:
298,192,23423,1,0,0:0:0:0:
469,192,23423,1,0,0:0:0:0:
42,192,23423,1,0,0:0:0:0:
384,192,23852,1,0,0:0:0:0:
298,192,23959,1,0,0:0:0:0:
213,192,24066,1,0,0:0:0:0:
128,192,24173,1,0,0:0:0:0:
469,192,24280,128,0,24602:0:0:0:0:
42,192,24280,1,0,0:0:0:0:
384,192,24602,128,0,24923:0:0:0:0:
298,192,24923,128,0,25137:0:0:0:0:
42,192,25137,1,0,0:0:0:0:
213,192,25137,1,0,0:0:0:0:
469,192,25137,1,0,0:0:0:0:
128,192,25566,128,0,25780:0:0:0:0:
384,192,25780,128,0,25995:0:0:0:0:
42,192,25995,1,0,0:0:0:0:
469,192,25995,1,0,0:0:0:0:
213,192,25995,128,0,26316:0:0:0:0:
298,192,26316,1,0,0:0:0:0:
128,192,26423,128,0,26745:0:0:0:0:
213,192,26745,1,0,0:0:0:0:
42,192,26852,128,0,27173:0:0:0:0:
298,192,26852,1,0,0:0:0:0:
469,192,26852,1,0,0:0:0:0:
128,192,27173,1,0,0:0:0:0:
384,192,27280,128,0,27602:0:0:0:0:
42,192,27602,1,0,0:0:0:0:
469,192,27709,1,0,0:0:0:0:
128,192,27709,1,0,0:0:0:0:
298,192,27923,1,0,0:0:0:0:
384,192,28030,1,0,0:0:0:0:
42,192,28030,1,0,0:0:0:0:
213,192,28245,1,0,0:0:0:0:
128,192,28352,1,0,0:0:0:0:
469,192,28352,1,0,0:0:0:0:
298,192,28566,1,0,0:0:0:0:
384,192,28566,1,0,0:0:0:0:
42,192,28566,1,0,0:0:0:0:
128,192,28780,1,0,0:0:0:0:
384,192,28887,1,0,0:0:0:0:
42,192,28995,1,0,0:0:0:0:
469,192,28995,1,0,0:0:0:0:
213,192,29102,1,0,0:0:0:0:
128,192,29209,1,0,0:0:0:0:
384,192,29209,1,0,0:0:0:0:
298,192,29316,1,0,0:0:0:0:
42,192,29423,1,0,0:0:0:0:
469,192,29423,1,0,0:0:0:0:
213,192,29423,128,0,29637:0:0:0:0:
298,192,29637,128,0,29852:0:0:0:0:
384,192,29852,128,0,30066:0:0:0:0:
469,192,30066,128,0,30280:0:0:0:0:
42,192,30066,1,0,0:0:0:0:
213,192,30280,1,0,0:0:0:0:
384,192,30280,1,0,0:0:0:0:
298,192,30280,1,0,0:0:0:0:
128,192,30387,128,0,30602:0:0:0:0:
42,192,30602,128,0,30923:0:0:0:0:
298,192,30923,128,0,31137:0:0:0:0:
213,192,30923,1,0,0:0:0:0:
128,192,31137,128,0,31459:0:0:0:0:
469,192,31137,1,0,0:0:0:0:
384,192,31459,128,0,31780:0:0:0:0:
42,192,31459,1,0,0:0:0:0:
213,192,31780,128,0,31995:0:0:0:0:
298,192,31780,1,0,0:0:0:0:
469,192,31995,1,0,0:0:0:0:
128,192,31995,1,0,0:0:0:0:
42,192,31995,1,0,0:0:0:0:
298,192,32209,128,0,32423:0:0:0:0:
384,192,32852,128,0,33066:0:0:0:0:
42,192,32852,1,0,0:0:0:0:
298,192,33066,128,0,33280:0:0:0:0:
213,192,33280,128,0,33495:0:0:0:0:
128,192,33495,128,0,33709:0:0:0:0:
469,192,33495,1,0,0:0:0:0:
42,192,33709,1,0,0:0:0:0:
384,192,33709,1,0,0:0:0:0:
213,192,33709,1,0,0:0:0:0:
469,192,33816,128,0,34030:0:0:0:0:
298,192,34030,128,0,34352:0:0:0:0:
128,192,34352,128,0,34566:0:0:0:0:
384,192,34352,1,0,0:0:0:0:
42,192,34566,1,0,0:0:0:0:
298,192,34566,1,0,0:0:0:0:
213,192,34780,128,0,34995:0:0:0:0:
469,192,34887,1,0,0:0:0:0:
298,192,34995,128,0,35209:0:0:0:0:
384,192,35209,128,0,35423:0:0:0:0:
128,192,35209,1,0,0:0:0:0:
469,192,35423,1,0,0:0:0:0:
42,192,35423,1,0,0:0:0:0:
298,192,35423,1,0,0:0:0:0:
128,192,35637,1,0,0:0:0:0:
213,192,35637,1,0,0:0:0:0:
469,192,35852,128,0,36066:0:0:0:0:
384,192,35852,1,0,0:0:0:0:
213,192,36066,1,0,0:0:0:0:
42,192,36066,1,0,0:0:0:0:
128,192,36280,1,0,0:0:0:0:
384,192,36280,128,0,36495:0:0:0:0:
298,192,36280,1,0,0:0:0:0:
469,192,36495,128,0,36709:0:0:0:0:
42,192,36709,128,0,36923:0:0:0:0:
128,192,36923,128,0,37137:0:0:0:0:
298,192,36923,1,0,0:0:0:0:
384,192,37137,1,0,0:0:0:0:
469,192,37137,1,0,0:0:0:0:
42,192,37137,1,0,0:0:0:0:
298,192,37245,128,0,37459:0:0:0:0:
213,192,37459,128,0,37780:0:0:0:0:
469,192,37780,128,0,38209:0:0:0:0:
42,192,37780,1,0,0:0:0:0:
128,192,37995,1,0,0:0:0:0:
384,192,38209,128,0,38637:0:0:0:0:
213,192,38316,1,0,0:0:0:0:
298,192,38637,128,0,38852:0:0:0:0:
128,192,38637,1,0,0:0:0:0:
469,192,38852,1,0,0:0:0:0:
42,192,38852,1,0,0:0:0:0:
384,192,38852,1,0,0:0:0:0:
213,192,39066,128,0,39280:0:0:0:0:
298,192,39280,1,0,0:0:0:0:
42,192,39495,1,0,0:0:0:0:
128,192,39602,1,0,0:0:0:0:
213,192,39709,128,0,40030:0:0:0:0:
469,192,39709,1,0,0:0:0:0:
298,192,40030,128,0,40352:0:0:0:0:
42,192,40030,1,0,0:0:0:0:
384,192,40352,128,0,40566:0:0:0:0:
128,192,40352,1,0,0:0:0:0:
469,192,40566,1,0,0:0:0:0:
298,192,40566,1,0,0:0:0:0:
42,192,40566,1,0,0:0:0:0:
213,192,40780,128,0,40995:0:0:0:0:
128,192,40995,128,0,41209:0:0:0:0:
42,192,41209,128,0,41637:0:0:0:0:
384,192,41209,1,0,0:0:0:0:
298,192,41423,1,0,0:0:0:0:
469,192,41637,1,0,0:0:0:0:
213,192,41637,128,0,41852:0:0:0:0:
128,192,41637,1,0,0:0:0:0:
298,192,41852,128,0,42066:0:0:0:0:
384,192,42066,128,0,42280:0:0:0:0:
213,192,42066,1,0,0:0:0:0:
128,192,42173,1,0,0:0:0:0:
469,192,42280,1,0,0:0:0:0:
42,192,42280,1,0,0:0:0:0:
298,192,42280,1,0,0:0:0:0:
128,192,42495,1,0,0:0:0:0:
213,192,42602,1,0,0:0:0:0:
298,192,42709,1,0,0:0:0:0:
469,192,42709,1,0,0:0:0:0:
298,192,42923,1,0,0:0:0:0:
469,192,42923,1,0,0:0:0:0:
42,192,43137,128,0,44423:0:0:0:0:
213,192,43137,1,0,0:0:0:0:
384,192,43137,1,0,0:0:0:0:
384,192,43459,1,0,0:0:0:0:
384,192,43780,128,0,44423:0:0:0:0:
469,192,44423,1,0,0:0:0:0:
298,192,44423,1,0,0:0:0:0:
128,192,44423,1,0,0:0:0:0:
42,192,44637,1,0,0:0:0:0:
213,192,44852,1,0,0:0:0:0:
384,192,44852,128,0,45173:0:0:0:0:
213,192,45173,1,0,0:0:0:0:
42,192,45173,128,0,45495:0:0:0:0:
213,192,45495,128,0,46137:0:0:0:0:
469,192,45495,128,0,45923:0:0:0:0:
298,192,45923,128,0,46137:0:0:0:0:
384,192,46137,1,0,0:0:0:0:
128,192,46137,1,0,0:0:0:0:
42,192,46137,1,0,0:0:0:0:
469,192,46245,128,0,46566:0:0:0:0:
298,192,46566,1,0,0:0:0:0:
128,192,46566,128,0,47852:0:0:0:0:
298,192,46887,1,0,0:0:0:0:
298,192,47209,128,0,47852:0:0:0:0:
469,192,47852,1,0,0:0:0:0:
213,192,47852,1,0,0:0:0:0:
42,192,47852,1,0,0:0:0:0:
298,192,48280,1,0,0:0:0:0:
128,192,48280,1,0,0:0:0:0:
384,192,48387,1,0,0:0:0:0:
469,192,48495,128,0,48709:0:0:0:0:
213,192,48602,1,0,0:0:0:0:
42,192,48709,128,0,48923:0:0:0:0:
128,192,48923,1,0,0:0:0:0:
384,192,48923,1,0,0:0:0:0:
213,192,49030,1,0,0:0:0:0:
298,192,49137,128,0,49352:0:0:0:0:
384,192,49352,128,0,49566:0:0:0:0:
213,192,49566,128,0,49780:0:0:0:0:
42,192,49566,1,0,0:0:0:0:
469,192,49566,1,0,0:0:0:0:
298,192,49780,128,0,49995:0:0:0:0:
128,192,49995,1,0,0:0:0:0:
384,192,49995,128,0,51280:0:0:0:0:
128,192,50316,1,0,0:0:0:0:
128,192,50637,128,0,51280:0:0:0:0:
469,192,51280,1,0,0:0:0:0:
298,192,51280,1,0,0:0:0:0:
42,192,51280,1,0,0:0:0:0:
128,192,51495,1,0,0:0:0:0:
384,192,51709,1,0,0:0:0:0:
213,192,51709,128,0,52030:0:0:0:0:
384,192,52030,1,0,0:0:0:0:
42,192,52030,128,0,52352:0:0:0:0:
384,192,52352,128,0,52995:0:0:0:0:
128,192,52352,128,0,52780:0:0:0:0:
213,192,52780,128,0,52995:0:0:0:0:
42,192,52995,1,0,0:0:0:0:
298,192,52995,1,0,0:0:0:0:
128,192,52995,1,0,0:0:0:0:
469,192,53102,128,0,53423:0:0:0:0:
213,192,53423,1,0,0:0:0:0:
384,192,53423,128,0,54709:0:0:0:0:
213,192,53745,1,0,0:0:0:0:
213,192,54066,128,0,54709:0:0:0:0:
469,192,54709,1,0,0:0:0:0:
128,192,54709,1,0,0:0:0:0:
42,192,54709,1,0,0:0:0:0:
213,192,54923,128,0,55137:0:0:0:0:
298,192,54923,128,0,55137:0:0:0:0:
128,192,55137,128,0,55352:0:0:0:0:
384,192,55137,128,0,55352:0:0:0:0:
42,192,55352,128,0,55780:0:0:0:0:
469,192,55352,128,0,55780:0:0:0:0:
213,192,55566,128,0,55780:0:0:0:0:
298,192,55566,128,0,55780:0:0:0:0:
384,192,55780,128,0,55995:0:0:0:0:
128,192,55780,128,0,55995:0:0:0:0:
42,192,55995,1,0,0:0:0:0:
469,192,55995,1,0,0:0:0:0:
298,192,55995,1,0,0:0:0:0:
213,192,56209,1,0,0:0:0:0:
128,192,56209,1,0,0:0:0:0:
384,192,56316,1,0,0:0:0:0:
298,192,56316,1,0,0:0:0:0:
42,192,56423,1,0,0:0:0:0:
128,192,56423,1,0,0:0:0:0:
213,192,56530,1,0,0:0:0:0:
298,192,56530,1,0,0:0:0:0:
384,192,56637,1,0,0:0:0:0:
469,192,56637,1,0,0:0:0:0:
42,192,56852,1,0,0:0:0:0:
213,192,56852,1,0,0:0:0:0:
384,192,56959,1,0,0:0:0:0:
298,192,57066,1,0,0:0:0:0:
469,192,57173,1,0,0:0:0:0:
42,192,57280,1,0,0:0:0:0:
213,192,57280,1,0,0:0:0:0:
469,192,57495,1,0,0:0:0:0:
384,192,57495,1,0,0:0:0:0:
213,192,57709,1,0,0:0:0:0:
42,192,57709,1,0,0:0:0:0:
298,192,57923,1,0,0:0:0:0:
384,192,57923,1,0,0:0:0:0:
42,192,58137,1,0,0:0:0:0:
213,192,58137,1,0,0:0:0:0:
298,192,58352,1,0,0:0:0:0:
469,192,58352,1,0,0:0:0:0:
128,192,58459,1,0,0:0:0:0:
384,192,58459,1,0,0:0:0:0:
42,192,58780,1,0,0:0:0:0:
213,192,58780,1,0,0:0:0:0:
298,192,58995,1,0,0:0:0:0:
469,192,58995,1,0,0:0:0:0:
42,192,59209,1,0,0:0:0:0:
128,192,59209,1,0,0:0:0:0:
213,192,59423,1,0,0:0:0:0:
384,192,59423,1,0,0:0:0:0:
469,192,59637,1,0,0:0:0:0:
42,192,59637,1,0,0:0:0:0:
298,192,59852,1,0,0:0:0:0:
128,192,59852,1,0,0:0:0:0:
42,192,60066,1,0,0:0:0:0:
384,192,60066,1,0,0:0:0:0:
469,192,60280,1,0,0:0:0:0:
298,192,60280,1,0,0:0:0:0:
128,192,60387,1,0,0:0:0:0:
213,192,60495,1,0,0:0:0:0:
42,192,60602,1,0,0:0:0:0:
469,192,60709,1,0,0:0:0:0:
298,192,60709,1,0,0:0:0:0:
128,192,60923,1,0,0:0:0:0:
213,192,60923,1,0,0:0:0:0:
298,192,61137,1,0,0:0:0:0:
469,192,61137,1,0,0:0:0:0:
42,192,61352,1,0,0:0:0:0:
128,192,61352,1,0,0:0:0:0:
469,192,61566,1,0,0:0:0:0:
298,192,61566,1,0,0:0:0:0:
128,192,61780,1,0,0:0:0:0:
213,192,61780,1,0,0:0:0:0:
384,192,61887,1,0,0:0:0:0:
42,192,61887,1,0,0:0:0:0:
469,192,62209,1,0,0:0:0:0:
298,192,62209,1,0,0:0:0:0:
213,192,62423,1,0,0:0:0:0:
42,192,62423,1,0,0:0:0:0:
384,192,62637,1,0,0:0:0:0:
128,192,62637,1,0,0:0:0:0:
213,192,62852,1,0,0:0:0:0:
298,192,62852,1,0,0:0:0:0:
469,192,62959,1,0,0:0:0:0:
384,192,62959,1,0,0:0:0:0:
42,192,63066,1,0,0:0:0:0:
128,192,63066,1,0,0:0:0:0:
298,192,63280,1,0,0:0:0:0:
213,192,63280,1,0,0:0:0:0:
42,192,63495,1,0,0:0:0:0:
128,192,63495,1,0,0:0:0:0:
469,192,63602,1,0,0:0:0:0:
384,192,63602,1,0,0:0:0:0:
42,192,63709,1,0,0:0:0:0:
213,192,63709,1,0,0:0:0:0:
298,192,63816,1,0,0:0:0:0:
384,192,63923,1,0,0:0:0:0:
469,192,64030,1,0,0:0:0:0:
213,192,64137,1,0,0:0:0:0:
42,192,64137,1,0,0:0:0:0:
298,192,64352,1,0,0:0:0:0:
469,192,64352,1,0,0:0:0:0:
42,192,64566,1,0,0:0:0:0:
213,192,64566,1,0,0:0:0:0:
384,192,64780,1,0,0:0:0:0:
298,192,64780,1,0,0:0:0:0:
213,192,64995,1,0,0:0:0:0:
42,192,64995,1,0,0:0:0:0:
469,192,65209,1,0,0:0:0:0:
384,192,65209,1,0,0:0:0:0:
298,192,65316,1,0,0:0:0:0:
128,192,65316,1,0,0:0:0:0:
42,192,65637,1,0,0:0:0:0:
469,192,65637,1,0,0:0:0:0:
128,192,65745,1,0,0:0:0:0:
213,192,65852,1,0,0:0:0:0:
384,192,65852,1,0,0:0:0:0:
128,192,66066,1,0,0:0:0:0:
42,192,66066,1,0,0:0:0:0:
298,192,66280,1,0,0:0:0:0:
469,192,66280,1,0,0:0:0:0:
213,192,66495,1,0,0:0:0:0:
128,192,66495,1,0,0:0:0:0:
469,192,66709,1,0,0:0:0:0:
298,192,66709,1,0,0:0:0:0:
42,192,66923,1,0,0:0:0:0:
128,192,66923,1,0,0:0:0:0:
384,192,67137,1,0,0:0:0:0:
213,192,67137,1,0,0:0:0:0:
469,192,67352,1,0,0:0:0:0:
42,192,67352,1,0,0:0:0:0:
384,192,67566,1,0,0:0:0:0:
213,192,67566,1,0,0:0:0:0:
469,192,67780,1,0,0:0:0:0:
42,192,67780,1,0,0:0:0:0:
298,192,67995,1,0,0:0:0:0:
128,192,67995,1,0,0:0:0:0:
469,192,68209,1,0,0:0:0:0:
42,192,68209,1,0,0:0:0:0:
128,192,68423,1,0,0:0:0:0:
298,192,68423,1,0,0:0:0:0:
42,192,68637,1,0,0:0:0:0:
469,192,68637,1,0,0:0:0:0:
384,192,68637,1,0,0:0:0:0:
213,192,68637,1,0,0:0:0:0:
469,192,69066,1,0,0:0:0:0:
384,192,69066,1,0,0:0:0:0:
213,192,69066,1,0,0:0:0:0:
384,192,69280,1,0,0:0:0:0:
298,192,69280,1,0,0:0:0:0:
128,192,69280,1,0,0:0:0:0:
298,192,69495,1,0,0:0:0:0:
213,192,69495,1,0,0:0:0:0:
42,192,69495,1,0,0:0:0:0:
213,192,69709,1,0,0:0:0:0:
128,192,69709,128,0,70137:0:0:0:0:
469,192,69736,1,0,0:0:0:0:
384,192,69736,1,0,0:0:0:0:
298,192,70137,128,0,70566:0:0:0:0:
42,192,70566,1,0,0:0:0:0:
469,192,70566,1,0,0:0:0:0:
128,192,70566,1,0,0:0:0:0:
384,192,70673,1,0,0:0:0:0:
298,192,70780,1,0,0:0:0:0:
469,192,70995,1,0,0:0:0:0:
213,192,70995,1,0,0:0:0:0:
42,192,70995,1,0,0:0:0:0:
298,192,71209,1,0,0:0:0:0:
384,192,71316,1,0,0:0:0:0:
469,192,71423,1,0,0:0:0:0:
128,192,71423,1,0,0:0:0:0:
42,192,71637,1,0,0:0:0:0:
298,192,71637,1,0,0:0:0:0:
128,192,71745,1,0,0:0:0:0:
213,192,71852,1,0,0:0:0:0:
384,192,71852,1,0,0:0:0:0:
469,192,71852,1,0,0:0:0:0:
128,192,72066,1,0,0:0:0:0:
298,192,72066,1,0,0:0:0:0:
42,192,72173,1,0,0:0:0:0:
384,192,72280,1,0,0:0:0:0:
298,192,72387,1,0,0:0:0:0:
213,192,72495,1,0,0:0:0:0:
42,192,72495,1,0,0:0:0:0:
298,192,72709,1,0,0:0:0:0:
469,192,72709,1,0,0:0:0:0:
128,192,72709,1,0,0:0:0:0:
213,192,72923,1,0,0:0:0:0:
384,192,72923,1,0,0:0:0:0:
42,192,73137,1,0,0:0:0:0:
298,192,73137,1,0,0:0:0:0:
128,192,73352,1,0,0:0:0:0:
469,192,73352,1,0,0:0:0:0:
384,192,73566,1,0,0:0:0:0:
213,192,73566,1,0,0:0:0:0:
42,192,73566,1,0,0:0:0:0:
298,192,73780,1,0,0:0:0:0:
213,192,73887,1,0,0:0:0:0:
128,192,73995,1,0,0:0:0:0:
469,192,73995,1,0,0:0:0:0:
384,192,74209,1,0,0:0:0:0:
298,192,74316,1,0,0:0:0:0:
128,192,74423,1,0,0:0:0:0:
469,192,74423,1,0,0:0:0:0:
42,192,74423,1,0,0:0:0:0:
213,192,74530,1,0,0:0:0:0:
298,192,74637,1,0,0:0:0:0:
42,192,74745,1,0,0:0:0:0:
384,192,74852,1,0,0:0:0:0:
213,192,74852,1,0,0:0:0:0:
469,192,74959,1,0,0:0:0:0:
298,192,75066,1,0,0:0:0:0:
128,192,75066,1,0,0:0:0:0:
42,192,75280,1,0,0:0:0:0:
213,192,75280,1,0,0:0:0:0:
384,192,75280,1,0,0:0:0:0:
128,192,75495,1,0,0:0:0:0:
469,192,75495,1,0,0:0:0:0:
384,192,75602,1,0,0:0:0:0:
298,192,75709,1,0,0:0:0:0:
213,192,75816,1,0,0:0:0:0:
128,192,75923,1,0,0:0:0:0:
469,192,75923,1,0,0:0:0:0:
384,192,76030,1,0,0:0:0:0:
298,192,76137,1,0,0:0:0:0:
42,192,76137,1,0,0:0:0:0:
128,192,76245,1,0,0:0:0:0:
213,192,76352,1,0,0:0:0:0:
298,192,76459,1,0,0:0:0:0:
128,192,76566,1,0,0:0:0:0:
384,192,76566,1,0,0:0:0:0:
298,192,76780,1,0,0:0:0:0:
42,192,76780,1,0,0:0:0:0:
469,192,76995,1,0,0:0:0:0:
128,192,76995,1,0,0:0:0:0:
213,192,76995,1,0,0:0:0:0:
298,192,77209,1,0,0:0:0:0:
384,192,77316,1,0,0:0:0:0:
128,192,77423,1,0,0:0:0:0:
469,192,77423,1,0,0:0:0:0:
42,192,77423,1,0,0:0:0:0:
384,192,77637,1,0,0:0:0:0:
298,192,77637,1,0,0:0:0:0:
213,192,77852,1,0,0:0:0:0:
128,192,77852,1,0,0:0:0:0:
42,192,77852,1,0,0:0:0:0:
469,192,78066,1,0,0:0:0:0:
384,192,78173,1,0,0:0:0:0:
298,192,78280,1,0,0:0:0:0:
128,192,78280,1,0,0:0:0:0:
213,192,78495,1,0,0:0:0:0:
42,192,78495,1,0,0:0:0:0:
298,192,78709,1,0,0:0:0:0:
384,192,78709,1,0,0:0:0:0:
469,192,78709,1,0,0:0:0:0:
213,192,78923,1,0,0:0:0:0:
42,192,78923,1,0,0:0:0:0:
298,192,79030,1,0,0:0:0:0:
384,192,79137,1,0,0:0:0:0:
128,192,79352,1,0,0:0:0:0:
213,192,79352,1,0,0:0:0:0:
469,192,79566,1,0,0:0:0:0:
384,192,79566,1,0,0:0:0:0:
298,192,79566,1,0,0:0:0:0:
42,192,79780,1,0,0:0:0:0:
128,192,79887,1,0,0:0:0:0:
384,192,79995,1,0,0:0:0:0:
213,192,79995,1,0,0:0:0:0:
298,192,80209,1,0,0:0:0:0:
469,192,80209,1,0,0:0:0:0:
128,192,80423,1,0,0:0:0:0:
213,192,80423,1,0,0:0:0:0:
42,192,80423,1,0,0:0:0:0:
384,192,80637,1,0,0:0:0:0:
298,192,80745,1,0,0:0:0:0:
213,192,80852,1,0,0:0:0:0:
469,192,80852,1,0,0:0:0:0:
128,192,80959,1,0,0:0:0:0:
298,192,81066,1,0,0:0:0:0:
384,192,81173,1,0,0:0:0:0:
469,192,81280,1,0,0:0:0:0:
42,192,81280,1,0,0:0:0:0:
128,192,81387,1,0,0:0:0:0:
213,192,81495,1,0,0:0:0:0:
469,192,81602,1,0,0:0:0:0:
384,192,81709,1,0,0:0:0:0:
128,192,81709,1,0,0:0:0:0:
213,192,81816,1,0,0:0:0:0:
298,192,81923,1,0,0:0:0:0:
42,192,81923,1,0,0:0:0:0:
469,192,82137,1,0,0:0:0:0:
128,192,82137,1,0,0:0:0:0:
384,192,82137,1,0,0:0:0:0:
213,192,82352,1,0,0:0:0:0:
298,192,82352,128,0,82673:0:0:0:0:
42,192,82352,128,0,82673:0:0:0:0:
128,192,82673,1,0,0:0:0:0:
213,192,82673,1,0,0:0:0:0:
469,192,82673,1,0,0:0:0:0:
42,192,82780,1,0,0:0:0:0:
384,192,82780,1,0,0:0:0:0:
213,192,82995,1,0,0:0:0:0:
469,192,82995,1,0,0:0:0:0:
298,192,82995,1,0,0:0:0:0:
128,192,83209,1,0,0:0:0:0:
384,192,83209,1,0,0:0:0:0:
298,192,83316,1,0,0:0:0:0:
42,192,83316,1,0,0:0:0:0:
128,192,83423,1,0,0:0:0:0:
384,192,83423,1,0,0:0:0:0:
469,192,83423,1,0,0:0:0:0:
298,192,83637,1,0,0:0:0:0:
42,192,83637,1,0,0:0:0:0:
213,192,83745,1,0,0:0:0:0:
384,192,83852,1,0,0:0:0:0:
128,192,83852,1,0,0:0:0:0:
298,192,83959,1,0,0:0:0:0:
213,192,84066,1,0,0:0:0:0:
469,192,84066,1,0,0:0:0:0:
128,192,84173,1,0,0:0:0:0:
384,192,84173,1,0,0:0:0:0:
298,192,84280,1,0,0:0:0:0:
42,192,84280,1,0,0:0:0:0:
469,192,84280,1,0,0:0:0:0:
128,192,84387,1,0,0:0:0:0:
213,192,84495,1,0,0:0:0:0:
469,192,84709,1,0,0:0:0:0:
298,192,84709,1,0,0:0:0:0:
42,192,84709,1,0,0:0:0:0:
213,192,84923,1,0,0:0:0:0:
128,192,85030,1,0,0:0:0:0:
384,192,85137,1,0,0:0:0:0:
42,192,85137,1,0,0:0:0:0:
213,192,85352,1,0,0:0:0:0:
469,192,85352,1,0,0:0:0:0:
384,192,85459,1,0,0:0:0:0:
42,192,85566,1,0,0:0:0:0:
128,192,85566,1,0,0:0:0:0:
298,192,85566,1,0,0:0:0:0:
213,192,85780,1,0,0:0:0:0:
469,192,85780,1,0,0:0:0:0:
384,192,85887,1,0,0:0:0:0:
128,192,85995,1,0,0:0:0:0:
213,192,86102,1,0,0:0:0:0:
469,192,86209,1,0,0:0:0:0:
298,192,86209,1,0,0:0:0:0:
384,192,86423,1,0,0:0:0:0:
42,192,86423,1,0,0:0:0:0:
213,192,86423,1,0,0:0:0:0:
128,192,86637,1,0,0:0:0:0:
298,192,86637,1,0,0:0:0:0:
213,192,86852,1,0,0:0:0:0:
469,192,86852,1,0,0:0:0:0:
42,192,87066,1,0,0:0:0:0:
384,192,87066,1,0,0:0:0:0:
469,192,87280,1,0,0:0:0:0:
298,192,87280,1,0,0:0:0:0:
128,192,87280,1,0,0:0:0:0:
213,192,87495,1,0,0:0:0:0:
298,192,87602,1,0,0:0:0:0:
42,192,87709,1,0,0:0:0:0:
384,192,87709,1,0,0:0:0:0:
213,192,87923,1,0,0:0:0:0:
128,192,88030,1,0,0:0:0:0:
469,192,88137,1,0,0:0:0:0:
42,192,88137,1,0,0:0:0:0:
298,192,88137,1,0,0:0:0:0:
213,192,88245,1,0,0:0:0:0:
384,192,88352,1,0,0:0:0:0:
128,192,88352,1,0,0:0:0:0:
298,192,88459,1,0,0:0:0:0:
213,192,88566,1,0,0:0:0:0:
128,192,88780,1,0,0:0:0:0:
469,192,88780,1,0,0:0:0:0:
42,192,88995,1,0,0:0:0:0:
298,192,88995,1,0,0:0:0:0:
384,192,88995,1,0,0:0:0:0:
128,192,89209,1,0,0:0:0:0:
469,192,89209,1,0,0:0:0:0:
213,192,89316,1,0,0:0:0:0:
298,192,89423,1,0,0:0:0:0:
384,192,89530,1,0,0:0:0:0:
469,192,89637,1,0,0:0:0:0:
42,192,89637,1,0,0:0:0:0:
128,192,89745,1,0,0:0:0:0:
298,192,89852,1,0,0:0:0:0:
384,192,89852,1,0,0:0:0:0:
213,192,89852,1,0,0:0:0:0:
128,192,90066,1,0,0:0:0:0:
42,192,90066,1,0,0:0:0:0:
469,192,90066,1,0,0:0:0:0:
213,192,90280,1,0,0:0:0:0:
298,192,90280,1,0,0:0:0:0:
384,192,90387,1,0,0:0:0:0:
469,192,90387,1,0,0:0:0:0:
213,192,90495,1,0,0:0:0:0:
128,192,90495,1,0,0:0:0:0:
298,192,90709,1,0,0:0:0:0:
42,192,90709,1,0,0:0:0:0:
384,192,90709,1,0,0:0:0:0:
128,192,90816,1,0,0:0:0:0:
213,192,90923,1,0,0:0:0:0:
298,192,91030,1,0,0:0:0:0:
384,192,91137,1,0,0:0:0:0:
469,192,91137,1,0,0:0:0:0:
128,192,91137,1,0,0:0:0:0:
42,192,91245,1,0,0:0:0:0:
213,192,91352,1,0,0:0:0:0:
298,192,91352,1,0,0:0:0:0:
469,192,91459,1,0,0:0:0:0:
384,192,91566,1,0,0:0:0:0:
128,192,91566,1,0,0:0:0:0:
298,192,91673,1,0,0:0:0:0:
213,192,91780,1,0,0:0:0:0:
469,192,91780,1,0,0:0:0:0:
128,192,91887,1,0,0:0:0:0:
42,192,91995,1,0,0:0:0:0:
384,192,91995,1,0,0:0:0:0:
298,192,92102,1,0,0:0:0:0:
128,192,92209,1,0,0:0:0:0:
384,192,92209,1,0,0:0:0:0:
213,192,92316,1,0,0:0:0:0:
298,192,92423,1,0,0:0:0:0:
42,192,92423,1,0,0:0:0:0:
469,192,92423,1,0,0:0:0:0:
213,192,92637,1,0,0:0:0:0:
128,192,92637,1,0,0:0:0:0:
384,192,92637,1,0,0:0:0:0:
42,192,92959,1,0,0:0:0:0:
469,192,92959,1,0,0:0:0:0:
298,192,93066,1,0,0:0:0:0:
213,192,93066,1,0,0:0:0:0:
469,192,93280,1,0,0:0:0:0:
384,192,93280,1,0,0:0:0:0:
128,192,93280,1,0,0:0:0:0:
42,192,93495,1,0,0:0:0:0:
298,192,93495,1,0,0:0:0:0:
128,192,93602,1,0,0:0:0:0:
213,192,93709,1,0,0:0:0:0:
469,192,93709,1,0,0:0:0:0:
384,192,93816,1,0,0:0:0:0:
298,192,93923,1,0,0:0:0:0:
128,192,93923,1,0,0:0:0:0:
42,192,94030,1,0,0:0:0:0:
384,192,94137,1,0,0:0:0:0:
469,192,94137,1,0,0:0:0:0:
213,192,94137,1,0,0:0:0:0:
469,192,94352,1,0,0:0:0:0:
384,192,94352,1,0,0:0:0:0:
213,192,94352,1,0,0:0:0:0:
128,192,94459,1,0,0:0:0:0:
42,192,94459,1,0,0:0:0:0:
384,192,94566,1,0,0:0:0:0:
469,192,94566,1,0,0:0:0:0:
298,192,94566,1,0,0:0:0:0:
213,192,94566,1,0,0:0:0:0:
42,192,94887,1,0,0:0:0:0:
213,192,94887,1,0,0:0:0:0:
42,192,94995,1,0,0:0:0:0:
213,192,94995,1,0,0:0:0:0:
384,192,95209,1,0,0:0:0:0:
469,192,95209,1,0,0:0:0:0:
298,192,95316,1,0,0:0:0:0:
128,192,95316,1,0,0:0:0:0:
128,192,95423,1,0,0:0:0:0:
298,192,95423,1,0,0:0:0:0:
384,192,95637,1,0,0:0:0:0:
42,192,95637,1,0,0:0:0:0:
298,192,95745,1,0,0:0:0:0:
213,192,95852,1,0,0:0:0:0:
469,192,95852,1,0,0:0:0:0:
384,192,95959,1,0,0:0:0:0:
128,192,96066,1,0,0:0:0:0:
42,192,96066,128,0,96495:0:0:0:0:
298,192,96066,128,0,96495:0:0:0:0:
213,192,96495,1,0,0:0:0:0:
469,192,96495,1,0,0:0:0:0:
213,192,96709,1,0,0:0:0:0:
384,192,96709,1,0,0:0:0:0:
128,192,96923,1,0,0:0:0:0:
298,192,96923,1,0,0:0:0:0:
384,192,97137,1,0,0:0:0:0:
469,192,97137,1,0,0:0:0:0:
42,192,97164,1,0,0:0:0:0:
128,192,97164,1,0,0:0:0:0:
298,192,97352,128,0,97566:0:0:0:0:
213,192,97566,128,0,97780:0:0:0:0:
469,192,97566,1,0,0:0:0:0:
128,192,97780,128,0,97995:0:0:0:0:
42,192,97995,1,0,0:0:0:0:
298,192,97995,1,0,0:0:0:0:
213,192,97995,1,0,0:0:0:0:
384,192,98048,1,0,0:0:0:0:
469,192,98102,128,0,98852:0:0:0:0:
213,192,98423,1,0,0:0:0:0:
298,192,98423,1,0,0:0:0:0:
128,192,98477,1,0,0:0:0:0:
42,192,98530,128,0,99280:0:0:0:0:
298,192,98852,1,0,0:0:0:0:
384,192,98852,1,0,0:0:0:0:
213,192,99066,1,0,0:0:0:0:
298,192,99066,1,0,0:0:0:0:
128,192,99280,1,0,0:0:0:0:
213,192,99280,1,0,0:0:0:0:
469,192,99280,1,0,0:0:0:0:
384,192,99495,1,0,0:0:0:0:
42,192,99495,1,0,0:0:0:0:
298,192,99548,1,0,0:0:0:0:
213,192,99602,128,0,100137:0:0:0:0:
128,192,99923,128,0,100137:0:0:0:0:
42,192,99923,1,0,0:0:0:0:
469,192,100137,1,0,0:0:0:0:
384,192,100137,1,0,0:0:0:0:
298,192,100137,1,0,0:0:0:0:
128,192,100352,128,0,100566:0:0:0:0:
298,192,100566,1,0,0:0:0:0:
213,192,100566,1,0,0:0:0:0:
128,192,100780,1,0,0:0:0:0:
384,192,100780,128,0,100995:0:0:0:0:
469,192,100995,1,0,0:0:0:0:
42,192,100995,128,0,101209:0:0:0:0:
213,192,100995,1,0,0:0:0:0:
298,192,101209,128,0,101423:0:0:0:0:
213,192,101423,1,0,0:0:0:0:
384,192,101423,1,0,0:0:0:0:
128,192,101477,1,0,0:0:0:0:
42,192,101530,128,0,102280:0:0:0:0:
298,192,101852,1,0,0:0:0:0:
213,192,101852,1,0,0:0:0:0:
384,192,101905,1,0,0:0:0:0:
469,192,101959,128,0,102709:0:0:0:0:
213,192,102280,1,0,0:0:0:0:
128,192,102280,1,0,0:0:0:0:
298,192,102495,1,0,0:0:0:0:
213,192,102495,1,0,0:0:0:0:
384,192,102709,1,0,0:0:0:0:
298,192,102709,1,0,0:0:0:0:
42,192,102709,1,0,0:0:0:0:
128,192,102923,1,0,0:0:0:0:
469,192,102923,1,0,0:0:0:0:
213,192,102977,1,0,0:0:0:0:
298,192,103030,128,0,103566:0:0:0:0:
384,192,103352,128,0,103566:0:0:0:0:
469,192,103352,1,0,0:0:0:0:
213,192,103566,1,0,0:0:0:0:
128,192,103566,1,0,0:0:0:0:
42,192,103566,1,0,0:0:0:0:
469,192,103780,128,0,103995:0:0:0:0:
42,192,103995,1,0,0:0:0:0:
298,192,103995,1,0,0:0:0:0:
384,192,104209,1,0,0:0:0:0:
213,192,104209,128,0,104423:0:0:0:0:
42,192,104423,1,0,0:0:0:0:
128,192,104423,1,0,0:0:0:0:
469,192,104423,1,0,0:0:0:0:
384,192,104637,1,0,0:0:0:0:
298,192,104637,1,0,0:0:0:0:
384,192,104745,1,0,0:0:0:0:
298,192,104745,1,0,0:0:0:0:
42,192,104852,1,0,0:0:0:0:
469,192,104852,1,0,0:0:0:0:
128,192,104905,1,0,0:0:0:0:
213,192,104959,128,0,105709:0:0:0:0:
42,192,105280,1,0,0:0:0:0:
469,192,105280,1,0,0:0:0:0:
384,192,105334,1,0,0:0:0:0:
298,192,105387,128,0,106137:0:0:0:0:
128,192,105709,1,0,0:0:0:0:
42,192,105709,1,0,0:0:0:0:
128,192,105923,1,0,0:0:0:0:
213,192,105923,1,0,0:0:0:0:
469,192,106137,1,0,0:0:0:0:
384,192,106137,1,0,0:0:0:0:
42,192,106137,1,0,0:0:0:0:
384,192,106352,1,0,0:0:0:0:
298,192,106352,1,0,0:0:0:0:
213,192,106405,1,0,0:0:0:0:
128,192,106459,128,0,106995:0:0:0:0:
298,192,106780,1,0,0:0:0:0:
384,192,106780,128,0,106995:0:0:0:0:
213,192,106995,1,0,0:0:0:0:
42,192,106995,1,0,0:0:0:0:
469,192,106995,1,0,0:0:0:0:
384,192,107209,128,0,107423:0:0:0:0:
42,192,107423,1,0,0:0:0:0:
298,192,107423,1,0,0:0:0:0:
213,192,107637,128,0,107852:0:0:0:0:
384,192,107637,1,0,0:0:0:0:
42,192,107852,128,0,108066:0:0:0:0:
298,192,107852,1,0,0:0:0:0:
469,192,107852,1,0,0:0:0:0:
213,192,108066,128,0,108280:0:0:0:0:
469,192,108280,1,0,0:0:0:0:
128,192,108280,1,0,0:0:0:0:
384,192,108334,1,0,0:0:0:0:
298,192,108387,128,0,109137:0:0:0:0:
469,192,108709,1,0,0:0:0:0:
42,192,108709,1,0,0:0:0:0:
128,192,108762,1,0,0:0:0:0:
213,192,108816,128,0,109566:0:0:0:0:
384,192,109137,1,0,0:0:0:0:
469,192,109137,1,0,0:0:0:0:
384,192,109352,1,0,0:0:0:0:
298,192,109352,1,0,0:0:0:0:
42,192,109566,1,0,0:0:0:0:
128,192,109566,1,0,0:0:0:0:
469,192,109566,1,0,0:0:0:0:
128,192,109780,1,0,0:0:0:0:
213,192,109780,1,0,0:0:0:0:
298,192,109834,1,0,0:0:0:0:
384,192,109887,128,0,110423:0:0:0:0:
128,192,110209,128,0,110423:0:0:0:0:
213,192,110209,1,0,0:0:0:0:
42,192,110423,1,0,0:0:0:0:
298,192,110423,1,0,0:0:0:0:
469,192,110423,1,0,0:0:0:0:
213,192,110637,128,0,111066:0:0:0:0:
128,192,110637,1,0,0:0:0:0:
384,192,111066,1,0,0:0:0:0:
469,192,111066,1,0,0:0:0:0:
128,192,111280,1,0,0:0:0:0:
42,192,111280,1,0,0:0:0:0:
298,192,111280,128,0,112566:0:0:0:0:
128,192,112566,1,0,0:0:0:0:
128,192,112780,1,0,0:0:0:0:
384,192,112995,1,0,0:0:0:0:
384,192,113209,1,0,0:0:0:0:
42,192,113423,1,0,0:0:0:0:
213,192,113423,128,0,113745:0:0:0:0:
298,192,113745,128,0,114066:0:0:0:0:
384,192,114066,128,0,114280:0:0:0:0:
469,192,114280,1,0,0:0:0:0:
42,192,114280,1,0,0:0:0:0:
384,192,114709,1,0,0:0:0:0:
298,192,114816,1,0,0:0:0:0:
213,192,114923,1,0,0:0:0:0:
128,192,115030,1,0,0:0:0:0:
469,192,115137,1,0,0:0:0:0:
42,192,115137,128,0,115459:0:0:0:0:
128,192,115459,128,0,115780:0:0:0:0:
213,192,115780,128,0,115995:0:0:0:0:
469,192,115995,1,0,0:0:0:0:
42,192,115995,1,0,0:0:0:0:
384,192,116423,128,0,116637:0:0:0:0:
298,192,116637,128,0,116852:0:0:0:0:
469,192,116852,1,0,0:0:0:0:
42,192,116852,128,0,117173:0:0:0:0:
128,192,117173,128,0,117495:0:0:0:0:
213,192,117495,128,0,117709:0:0:0:0:
384,192,117709,1,0,0:0:0:0:
42,192,117709,1,0,0:0:0:0:
469,192,117923,1,0,0:0:0:0:
469,192,118137,1,0,0:0:0:0:
128,192,118352,128,0,118780:0:0:0:0:
384,192,118780,128,0,118995:0:0:0:0:
213,192,118995,128,0,119423:0:0:0:0:
469,192,119209,128,0,119852:0:0:0:0:
42,192,119423,1,0,0:0:0:0:
128,192,119852,128,0,120280:0:0:0:0:
213,192,120280,1,0,0:0:0:0:
42,192,120280,1,0,0:0:0:0:
469,192,120280,128,0,120602:0:0:0:0:
384,192,120602,128,0,120923:0:0:0:0:
298,192,120923,128,0,121137:0:0:0:0:
42,192,121137,1,0,0:0:0:0:
469,192,121137,1,0,0:0:0:0:
128,192,121566,1,0,0:0:0:0:
213,192,121673,1,0,0:0:0:0:
298,192,121780,1,0,0:0:0:0:
384,192,121887,1,0,0:0:0:0:
42,192,121995,128,0,122316:0:0:0:0:
469,192,121995,1,0,0:0:0:0:
128,192,122316,128,0,122637:0:0:0:0:
213,192,122637,128,0,122852:0:0:0:0:
469,192,122852,1,0,0:0:0:0:
42,192,122852,1,0,0:0:0:0:
384,192,123280,128,0,123495:0:0:0:0:
128,192,123495,128,0,123709:0:0:0:0:
42,192,123709,1,0,0:0:0:0:
298,192,123709,128,0,124030:0:0:0:0:
213,192,124030,1,0,0:0:0:0:
384,192,124137,128,0,124459:0:0:0:0:
298,192,124459,1,0,0:0:0:0:
469,192,124566,128,0,124887:0:0:0:0:
42,192,124566,1,0,0:0:0:0:
384,192,124887,1,0,0:0:0:0:
128,192,124995,128,0,125316:0:0:0:0:
298,192,125316,1,0,0:0:0:0:
42,192,125423,1,0,0:0:0:0:
384,192,125423,1,0,0:0:0:0:
128,192,125637,1,0,0:0:0:0:
213,192,125745,1,0,0:0:0:0:
469,192,125745,1,0,0:0:0:0:
384,192,125959,1,0,0:0:0:0:
298,192,126066,1,0,0:0:0:0:
42,192,126066,1,0,0:0:0:0:
128,192,126280,1,0,0:0:0:0:
213,192,126280,1,0,0:0:0:0:
469,192,126280,1,0,0:0:0:0:
384,192,126387,1,0,0:0:0:0:
298,192,126387,1,0,0:0:0:0:
42,192,126495,1,0,0:0:0:0:
128,192,126495,1,0,0:0:0:0:
213,192,126602,1,0,0:0:0:0:
298,192,126602,1,0,0:0:0:0:
384,192,126709,1,0,0:0:0:0:
469,192,126709,1,0,0:0:0:0:
42,192,126709,1,0,0:0:0:0:
469,192,127137,1,0,0:0:0:0:
42,192,127137,1,0,0:0:0:0:
298,192,127137,128,0,127352:0:0:0:0:
213,192,127352,128,0,127566:0:0:0:0:
128,192,127566,128,0,127780:0:0:0:0:
42,192,127780,128,0,127995:0:0:0:0:
469,192,127780,1,0,0:0:0:0:
298,192,127995,1,0,0:0:0:0:
128,192,127995,1,0,0:0:0:0:
213,192,127995,1,0,0:0:0:0:
384,192,128102,128,0,128316:0:0:0:0:
469,192,128316,128,0,128637:0:0:0:0:
213,192,128637,128,0,128852:0:0:0:0:
298,192,128637,1,0,0:0:0:0:
384,192,128852,128,0,129173:0:0:0:0:
42,192,128852,1,0,0:0:0:0:
128,192,129173,128,0,129495:0:0:0:0:
469,192,129173,1,0,0:0:0:0:
298,192,129495,128,0,129709:0:0:0:0:
213,192,129495,1,0,0:0:0:0:
42,192,129709,1,0,0:0:0:0:
384,192,129709,1,0,0:0:0:0:
469,192,129709,1,0,0:0:0:0:
213,192,129923,128,0,130137:0:0:0:0:
128,192,130566,128,0,130780:0:0:0:0:
469,192,130566,1,0,0:0:0:0:
213,192,130780,128,0,130995:0:0:0:0:
298,192,130995,128,0,131209:0:0:0:0:
384,192,131209,128,0,131423:0:0:0:0:
42,192,131209,1,0,0:0:0:0:
469,192,131423,1,0,0:0:0:0:
128,192,131423,1,0,0:0:0:0:
298,192,131423,1,0,0:0:0:0:
42,192,131530,128,0,131745:0:0:0:0:
213,192,131745,128,0,132066:0:0:0:0:
384,192,132066,128,0,132280:0:0:0:0:
128,192,132066,1,0,0:0:0:0:
469,192,132280,1,0,0:0:0:0:
213,192,132280,1,0,0:0:0:0:
298,192,132495,128,0,132709:0:0:0:0:
42,192,132602,1,0,0:0:0:0:
213,192,132709,128,0,132923:0:0:0:0:
128,192,132923,128,0,133137:0:0:0:0:
384,192,132923,1,0,0:0:0:0:
42,192,133137,1,0,0:0:0:0:
469,192,133137,1,0,0:0:0:0:
213,192,133137,1,0,0:0:0:0:
384,192,133352,1,0,0:0:0:0:
128,192,133352,1,0,0:0:0:0:
298,192,133459,1,0,0:0:0:0:
469,192,133566,1,0,0:0:0:0:
213,192,133566,1,0,0:0:0:0:
42,192,133780,1,0,0:0:0:0:
298,192,133780,1,0,0:0:0:0:
128,192,133995,128,0,134209:0:0:0:0:
213,192,133995,1,0,0:0:0:0:
469,192,133995,1,0,0:0:0:0:
42,192,134209,128,0,134423:0:0:0:0:
469,192,134423,128,0,134637:0:0:0:0:
384,192,134637,128,0,134852:0:0:0:0:
213,192,134637,1,0,0:0:0:0:
128,192,134852,1,0,0:0:0:0:
42,192,134852,1,0,0:0:0:0:
469,192,134852,1,0,0:0:0:0:
213,192,134959,128,0,135173:0:0:0:0:
298,192,135173,128,0,135495:0:0:0:0:
42,192,135495,128,0,135923:0:0:0:0:
469,192,135495,1,0,0:0:0:0:
384,192,135709,1,0,0:0:0:0:
128,192,135923,128,0,136352:0:0:0:0:
298,192,136030,1,0,0:0:0:0:
213,192,136352,128,0,136566:0:0:0:0:
384,192,136352,1,0,0:0:0:0:
42,192,136566,1,0,0:0:0:0:
469,192,136566,1,0,0:0:0:0:
128,192,136566,1,0,0:0:0:0:
298,192,136780,128,0,136995:0:0:0:0:
213,192,136995,1,0,0:0:0:0:
469,192,137209,1,0,0:0:0:0:
384,192,137316,1,0,0:0:0:0:
298,192,137423,128,0,137745:0:0:0:0:
42,192,137423,1,0,0:0:0:0:
213,192,137745,128,0,138066:0:0:0:0:
469,192,137745,1,0,0:0:0:0:
128,192,138066,128,0,138280:0:0:0:0:
384,192,138066,1,0,0:0:0:0:
42,192,138280,1,0,0:0:0:0:
213,192,138280,1,0,0:0:0:0:
469,192,138280,1,0,0:0:0:0:
298,192,138495,128,0,138709:0:0:0:0:
384,192,138709,128,0,138923:0:0:0:0:
469,192,138923,128,0,139352:0:0:0:0:
128,192,138923,1,0,0:0:0:0:
213,192,139137,1,0,0:0:0:0:
42,192,139352,1,0,0:0:0:0:
298,192,139352,128,0,139566:0:0:0:0:
384,192,139352,1,0,0:0:0:0:
213,192,139566,128,0,139780:0:0:0:0:
128,192,139780,128,0,139995:0:0:0:0:
298,192,139780,1,0,0:0:0:0:
384,192,139887,1,0,0:0:0:0:
42,192,139995,1,0,0:0:0:0:
469,192,139995,1,0,0:0:0:0:
213,192,139995,1,0,0:0:0:0:
384,192,140209,1,0,0:0:0:0:
298,192,140316,1,0,0:0:0:0:
213,192,140423,1,0,0:0:0:0:
42,192,140423,1,0,0:0:0:0:
213,192,140637,1,0,0:0:0:0:
42,192,140637,1,0,0:0:0:0:
469,192,140852,128,0,142137:0:0:0:0:
298,192,140852,1,0,0:0:0:0:
128,192,140852,1,0,0:0:0:0:
128,192,141173,1,0,0:0:0:0:
128,192,141495,128,0,142137:0:0:0:0:
42,192,142137,1,0,0:0:0:0:
213,192,142137,1,0,0:0:0:0:
384,192,142137,1,0,0:0:0:0:
469,192,142352,1,0,0:0:0:0:
298,192,142566,1,0,0:0:0:0:
128,192,142566,128,0,142887:0:0:0:0:
298,192,142887,1,0,0:0:0:0:
469,192,142887,128,0,143209:0:0:0:0:
298,192,143209,128,0,143852:0:0:0:0:
42,192,143209,128,0,143637:0:0:0:0:
213,192,143637,128,0,143852:0:0:0:0:
128,192,143852,1,0,0:0:0:0:
384,192,143852,1,0,0:0:0:0:
469,192,143852,1,0,0:0:0:0:
42,192,143959,128,0,144280:0:0:0:0:
213,192,144280,1,0,0:0:0:0:
384,192,144280,128,0,145566:0:0:0:0:
213,192,144602,1,0,0:0:0:0:
213,192,144923,128,0,145566:0:0:0:0:
42,192,145566,1,0,0:0:0:0:
298,192,145566,1,0,0:0:0:0:
469,192,145566,1,0,0:0:0:0:
213,192,145995,1,0,0:0:0:0:
384,192,145995,1,0,0:0:0:0:
128,192,146102,1,0,0:0:0:0:
42,192,146209,128,0,146423:0:0:0:0:
298,192,146316,1,0,0:0:0:0:
469,192,146423,128,0,146637:0:0:0:0:
384,192,146637,1,0,0:0:0:0:
128,192,146637,1,0,0:0:0:0:
298,192,146745,1,0,0:0:0:0:
213,192,146852,128,0,147066:0:0:0:0:
128,192,147066,128,0,147280:0:0:0:0:
298,192,147280,128,0,147495:0:0:0:0:
469,192,147280,1,0,0:0:0:0:
42,192,147280,1,0,0:0:0:0:
213,192,147495,128,0,147709:0:0:0:0:
384,192,147709,1,0,0:0:0:0:
128,192,147709,128,0,148995:0:0:0:0:
384,192,148030,1,0,0:0:0:0:
384,192,148352,128,0,148995:0:0:0:0:
42,192,148995,1,0,0:0:0:0:
213,192,148995,1,0,0:0:0:0:
469,192,148995,1,0,0:0:0:0:
384,192,149209,1,0,0:0:0:0:
128,192,149423,1,0,0:0:0:0:
298,192,149423,128,0,149745:0:0:0:0:
128,192,149745,1,0,0:0:0:0:
469,192,149745,128,0,150066:0:0:0:0:
128,192,150066,128,0,150709:0:0:0:0:
384,192,150066,128,0,150495:0:0:0:0:
298,192,150495,128,0,150709:0:0:0:0:
469,192,150709,1,0,0:0:0:0:
213,192,150709,1,0,0:0:0:0:
384,192,150709,1,0,0:0:0:0:
42,192,150816,128,0,151137:0:0:0:0:
298,192,151137,1,0,0:0:0:0:
128,192,151137,128,0,152423:0:0:0:0:
298,192,151459,1,0,0:0:0:0:
298,192,151780,128,0,152423:0:0:0:0:
42,192,152423,1,0,0:0:0:0:
384,192,152423,1,0,0:0:0:0:
469,192,152423,1,0,0:0:0:0:
298,192,152637,128,0,152852:0:0:0:0:
213,192,152637,128,0,152852:0:0:0:0:
128,192,152852,128,0,153066:0:0:0:0:
384,192,152852,128,0,153066:0:0:0:0:
469,192,153066,128,0,153495:0:0:0:0:
42,192,153066,128,0,153495:0:0:0:0:
213,192,153280,128,0,153495:0:0:0:0:
298,192,153280,128,0,153495:0:0:0:0:
128,192,153495,128,0,153709:0:0:0:0:
384,192,153495,128,0,153709:0:0:0:0:
469,192,153709,1,0,0:0:0:0:
42,192,153709,1,0,0:0:0:0:
213,192,153709,1,0,0:0:0:0:
298,192,153923,1,0,0:0:0:0:
384,192,153923,1,0,0:0:0:0:
128,192,154030,1,0,0:0:0:0:
213,192,154030,1,0,0:0:0:0:
469,192,154137,1,0,0:0:0:0:
384,192,154137,1,0,0:0:0:0:
298,192,154245,1,0,0:0:0:0:
213,192,154245,1,0,0:0:0:0:
128,192,154352,1,0,0:0:0:0:
42,192,154352,1,0,0:0:0:0:
469,192,154566,1,0,0:0:0:0:
298,192,154566,1,0,0:0:0:0:
128,192,154673,1,0,0:0:0:0:
213,192,154780,1,0,0:0:0:0:
42,192,154887,1,0,0:0:0:0:
469,192,154995,1,0,0:0:0:0:
298,192,154995,1,0,0:0:0:0:
42,192,155209,1,0,0:0:0:0:
128,192,155209,1,0,0:0:0:0:
298,192,155423,1,0,0:0:0:0:
469,192,155423,1,0,0:0:0:0:
128,192,155637,1,0,0:0:0:0:
213,192,155637,1,0,0:0:0:0:
469,192,155852,1,0,0:0:0:0:
298,192,155852,1,0,0:0:0:0:
128,192,156066,1,0,0:0:0:0:
42,192,156066,1,0,0:0:0:0:
384,192,156173,1,0,0:0:0:0:
213,192,156173,1,0,0:0:0:0:
469,192,156495,1,0,0:0:0:0:
298,192,156495,1,0,0:0:0:0:
213,192,156709,1,0,0:0:0:0:
42,192,156709,1,0,0:0:0:0:
469,192,156923,1,0,0:0:0:0:
384,192,156923,1,0,0:0:0:0:
298,192,157137,1,0,0:0:0:0:
128,192,157137,1,0,0:0:0:0:
42,192,157352,1,0,0:0:0:0:
469,192,157352,1,0,0:0:0:0:
213,192,157566,1,0,0:0:0:0:
384,192,157566,1,0,0:0:0:0:
469,192,157780,1,0,0:0:0:0:
128,192,157780,1,0,0:0:0:0:
42,192,157995,1,0,0:0:0:0:
213,192,157995,1,0,0:0:0:0:
384,192,158102,1,0,0:0:0:0:
298,192,158209,1,0,0:0:0:0:
469,192,158316,1,0,0:0:0:0:
42,192,158423,1,0,0:0:0:0:
213,192,158423,1,0,0:0:0:0:
384,192,158637,1,0,0:0:0:0:
298,192,158637,1,0,0:0:0:0:
213,192,158852,1,0,0:0:0:0:
42,192,158852,1,0,0:0:0:0:
469,192,159066,1,0,0:0:0:0:
384,192,159066,1,0,0:0:0:0:
42,192,159280,1,0,0:0:0:0:
213,192,159280,1,0,0:0:0:0:
384,192,159495,1,0,0:0:0:0:
298,192,159495,1,0,0:0:0:0:
128,192,159602,1,0,0:0:0:0:
469,192,159602,1,0,0:0:0:0:
42,192,159923,1,0,0:0:0:0:
213,192,159923,1,0,0:0:0:0:
298,192,160137,1,0,0:0:0:0:
469,192,160137,1,0,0:0:0:0:
128,192,160352,1,0,0:0:0:0:
384,192,160352,1,0,0:0:0:0:
213,192,160566,1,0,0:0:0:0:
298,192,160566,1,0,0:0:0:0:
469,192,160673,1,0,0:0:0:0:
384,192,160673,1,0,0:0:0:0:
128,192,160780,1,0,0:0:0:0:
42,192,160780,1,0,0:0:0:0:
298,192,160995,1,0,0:0:0:0:
213,192,160995,1,0,0:0:0:0:
469,192,161209,1,0,0:0:0:0:
384,192,161209,1,0,0:0:0:0:
42,192,161316,1,0,0:0:0:0:
128,192,161316,1,0,0:0:0:0:
469,192,161423,1,0,0:0:0:0:
298,192,161423,1,0,0:0:0:0:
213,192,161530,1,0,0:0:0:0:
128,192,161637,1,0,0:0:0:0:
42,192,161745,1,0,0:0:0:0:
298,192,161852,1,0,0:0:0:0:
469,192,161852,1,0,0:0:0:0:
213,192,162066,1,0,0:0:0:0:
42,192,162066,1,0,0:0:0:0:
469,192,162280,1,0,0:0:0:0:
298,192,162280,1,0,0:0:0:0:
128,192,162495,1,0,0:0:0:0:
213,192,162495,1,0,0:0:0:0:
298,192,162709,1,0,0:0:0:0:
469,192,162709,1,0,0:0:0:0:
42,192,162923,1,0,0:0:0:0:
128,192,162923,1,0,0:0:0:0:
213,192,163030,1,0,0:0:0:0:
384,192,163030,1,0,0:0:0:0:
469,192,163352,1,0,0:0:0:0:
42,192,163352,1,0,0:0:0:0:
213,192,163459,1,0,0:0:0:0:
298,192,163566,1,0,0:0:0:0:
128,192,163566,1,0,0:0:0:0:
384,192,163780,1,0,0:0:0:0:
469,192,163780,1,0,0:0:0:0:
213,192,163995,1,0,0:0:0:0:
42,192,163995,1,0,0:0:0:0:
298,192,164209,1,0,0:0:0:0:
384,192,164209,1,0,0:0:0:0:
42,192,164423,1,0,0:0:0:0:
213,192,164423,1,0,0:0:0:0:
469,192,164530,1,0,0:0:0:0:
384,192,164530,1,0,0:0:0:0:
128,192,164637,1,0,0:0:0:0:
298,192,164637,1,0,0:0:0:0:
384,192,164852,1,0,0:0:0:0:
213,192,164852,1,0,0:0:0:0:
42,192,165066,1,0,0:0:0:0:
469,192,165066,1,0,0:0:0:0:
128,192,165280,1,0,0:0:0:0:
298,192,165280,1,0,0:0:0:0:
42,192,165495,1,0,0:0:0:0:
469,192,165495,1,0,0:0:0:0:
213,192,165709,1,0,0:0:0:0:
384,192,165709,1,0,0:0:0:0:
42,192,165923,1,0,0:0:0:0:
469,192,165923,1,0,0:0:0:0:
128,192,166137,1,0,0:0:0:0:
298,192,166137,1,0,0:0:0:0:
469,192,166352,1,0,0:0:0:0:
42,192,166352,1,0,0:0:0:0:
213,192,166352,1,0,0:0:0:0:
384,192,166352,1,0,0:0:0:0:
42,192,166780,1,0,0:0:0:0:
128,192,166780,1,0,0:0:0:0:
298,192,166780,1,0,0:0:0:0:
128,192,166995,1,0,0:0:0:0:
213,192,166995,1,0,0:0:0:0:
384,192,166995,1,0,0:0:0:0:
213,192,167209,1,0,0:0:0:0:
298,192,167209,1,0,0:0:0:0:
469,192,167209,1,0,0:0:0:0:
298,192,167423,1,0,0:0:0:0:
384,192,167423,128,0,167852:0:0:0:0:
42,192,167450,1,0,0:0:0:0:
128,192,167450,1,0,0:0:0:0:
213,192,167852,128,0,168280:0:0:0:0:
469,192,168280,1,0,0:0:0:0:
42,192,168280,1,0,0:0:0:0:
384,192,168280,1,0,0:0:0:0:
128,192,168387,1,0,0:0:0:0:
213,192,168495,1,0,0:0:0:0:
42,192,168709,1,0,0:0:0:0:
298,192,168709,1,0,0:0:0:0:
469,192,168709,1,0,0:0:0:0:
213,192,168923,1,0,0:0:0:0:
128,192,169030,1,0,0:0:0:0:
42,192,169137,1,0,0:0:0:0:
384,192,169137,1,0,0:0:0:0:
469,192,169352,1,0,0:0:0:0:
213,192,169352,1,0,0:0:0:0:
384,192,169459,1,0,0:0:0:0:
298,192,169566,1,0,0:0:0:0:
128,192,169566,1,0,0:0:0:0:
42,192,169566,1,0,0:0:0:0:
384,192,169780,1,0,0:0:0:0:
213,192,169780,1,0,0:0:0:0:
469,192,169887,1,0,0:0:0:0:
128,192,169995,1,0,0:0:0:0:
213,192,170102,1,0,0:0:0:0:
298,192,170209,1,0,0:0:0:0:
469,192,170209,1,0,0:0:0:0:
213,192,170423,1,0,0:0:0:0:
42,192,170423,1,0,0:0:0:0:
384,192,170423,1,0,0:0:0:0:
298,192,170637,1,0,0:0:0:0:
128,192,170637,1,0,0:0:0:0:
469,192,170852,1,0,0:0:0:0:
213,192,170852,1,0,0:0:0:0:
384,192,171066,1,0,0:0:0:0:
42,192,171066,1,0,0:0:0:0:
128,192,171280,1,0,0:0:0:0:
298,192,171280,1,0,0:0:0:0:
469,192,171280,1,0,0:0:0:0:
213,192,171495,1,0,0:0:0:0:
298,192,171602,1,0,0:0:0:0:
384,192,171709,1,0,0:0:0:0:
42,192,171709,1,0,0:0:0:0:
128,192,171923,1,0,0:0:0:0:
213,192,172030,1,0,0:0:0:0:
384,192,172137,1,0,0:0:0:0:
42,192,172137,1,0,0:0:0:0:
469,192,172137,1,0,0:0:0:0:
298,192,172245,1,0,0:0:0:0:
213,192,172352,1,0,0:0:0:0:
128,192,172459,1,0,0:0:0:0:
298,192,172566,1,0,0:0:0:0:
42,192,172566,1,0,0:0:0:0:
213,192,172673,1,0,0:0:0:0:
384,192,172780,1,0,0:0:0:0:
469,192,172780,1,0,0:0:0:0:
42,192,172995,1,0,0:0:0:0:
128,192,172995,1,0,0:0:0:0:
213,192,172995,1,0,0:0:0:0:
298,192,173209,1,0,0:0:0:0:
469,192,173209,1,0,0:0:0:0:
213,192,173316,1,0,0:0:0:0:
128,192,173423,1,0,0:0:0:0:
42,192,173530,1,0,0:0:0:0:
469,192,173637,1,0,0:0:0:0:
384,192,173637,1,0,0:0:0:0:
298,192,173745,1,0,0:0:0:0:
42,192,173852,1,0,0:0:0:0:
128,192,173852,1,0,0:0:0:0:
213,192,173852,1,0,0:0:0:0:
469,192,173959,1,0,0:0:0:0:
384,192,174066,1,0,0:0:0:0:
213,192,174280,1,0,0:0:0:0:
298,192,174280,1,0,0:0:0:0:
128,192,174495,1,0,0:0:0:0:
469,192,174495,1,0,0:0:0:0:
42,192,174709,1,0,0:0:0:0:
384,192,174709,1,0,0:0:0:0:
298,192,174709,1,0,0:0:0:0:
213,192,174923,1,0,0:0:0:0:
128,192,175030,1,0,0:0:0:0:
384,192,175137,1,0,0:0:0:0:
42,192,175137,1,0,0:0:0:0:
469,192,175137,1,0,0:0:0:0:
128,192,175352,1,0,0:0:0:0:
213,192,175352,1,0,0:0:0:0:
298,192,175566,1,0,0:0:0:0:
384,192,175566,1,0,0:0:0:0:
469,192,175566,1,0,0:0:0:0:
42,192,175780,1,0,0:0:0:0:
128,192,175887,1,0,0:0:0:0:
213,192,175995,1,0,0:0:0:0:
384,192,175995,1,0,0:0:0:0:
298,192,176209,1,0,0:0:0:0:
469,192,176209,1,0,0:0:0:0:
213,192,176423,1,0,0:0:0:0:
128,192,176423,1,0,0:0:0:0:
42,192,176423,1,0,0:0:0:0:
298,192,176637,1,0,0:0:0:0:
469,192,176637,1,0,0:0:0:0:
213,192,176745,1,0,0:0:0:0:
128,192,176852,1,0,0:0:0:0:
384,192,177066,1,0,0:0:0:0:
298,192,177066,1,0,0:0:0:0:
42,192,177280,1,0,0:0:0:0:
128,192,177280,1,0,0:0:0:0:
213,192,177280,1,0,0:0:0:0:
469,192,177495,1,0,0:0:0:0:
384,192,177602,1,0,0:0:0:0:
128,192,177709,1,0,0:0:0:0:
298,192,177709,1,0,0:0:0:0:
213,192,177923,1,0,0:0:0:0:
42,192,177923,1,0,0:0:0:0:
384,192,178137,1,0,0:0:0:0:
298,192,178137,1,0,0:0:0:0:
469,192,178137,1,0,0:0:0:0:
128,192,178352,1,0,0:0:0:0:
213,192,178459,1,0,0:0:0:0:
298,192,178566,1,0,0:0:0:0:
42,192,178566,1,0,0:0:0:0:
469,192,178566,1,0,0:0:0:0:
384,192,178673,1,0,0:0:0:0:
213,192,178780,1,0,0:0:0:0:
128,192,178887,1,0,0:0:0:0:
42,192,178995,1,0,0:0:0:0:
469,192,178995,1,0,0:0:0:0:
384,192,179102,1,0,0:0:0:0:
298,192,179209,1,0,0:0:0:0:
42,192,179316,1,0,0:0:0:0:
128,192,179423,1,0,0:0:0:0:
384,192,179423,1,0,0:0:0:0:
298,192,179530,1,0,0:0:0:0:
213,192,179637,1,0,0:0:0:0:
469,192,179637,1,0,0:0:0:0:
42,192,179852,1,0,0:0:0:0:
384,192,179852,1,0,0:0:0:0:
128,192,179852,1,0,0:0:0:0:
213,192,180066,1,0,0:0:0:0:
298,192,180066,128,0,180495:0:0:0:0:
469,192,180066,128,0,180495:0:0:0:0:
213,192,180495,1,0,0:0:0:0:
128,192,180495,1,0,0:0:0:0:
384,192,180495,1,0,0:0:0:0:
298,192,180709,1,0,0:0:0:0:
42,192,180709,1,0,0:0:0:0:
469,192,180816,1,0,0:0:0:0:
128,192,180923,1,0,0:0:0:0:
384,192,180923,1,0,0:0:0:0:
213,192,181030,1,0,0:0:0:0:
42,192,181137,1,0,0:0:0:0:
298,192,181137,1,0,0:0:0:0:
128,192,181352,1,0,0:0:0:0:
384,192,181352,1,0,0:0:0:0:
298,192,181459,1,0,0:0:0:0:
42,192,181566,1,0,0:0:0:0:
469,192,181566,1,0,0:0:0:0:
213,192,181673,1,0,0:0:0:0:
298,192,181673,1,0,0:0:0:0:
42,192,181780,1,0,0:0:0:0:
469,192,181780,1,0,0:0:0:0:
213,192,181887,1,0,0:0:0:0:
298,192,181887,1,0,0:0:0:0:
128,192,181995,1,0,0:0:0:0:
469,192,181995,1,0,0:0:0:0:
42,192,181995,1,0,0:0:0:0:
384,192,182102,1,0,0:0:0:0:
298,192,182209,1,0,0:0:0:0:
42,192,182423,1,0,0:0:0:0:
213,192,182423,1,0,0:0:0:0:
469,192,182423,1,0,0:0:0:0:
298,192,182637,1,0,0:0:0:0:
384,192,182745,1,0,0:0:0:0:
128,192,182852,1,0,0:0:0:0:
469,192,182852,1,0,0:0:0:0:
298,192,183066,1,0,0:0:0:0:
42,192,183066,1,0,0:0:0:0:
128,192,183173,1,0,0:0:0:0:
469,192,183280,1,0,0:0:0:0:
384,192,183280,1,0,0:0:0:0:
213,192,183280,1,0,0:0:0:0:
298,192,183495,1,0,0:0:0:0:
128,192,183495,1,0,0:0:0:0:
42,192,183602,1,0,0:0:0:0:
384,192,183709,1,0,0:0:0:0:
42,192,183923,1,0,0:0:0:0:
213,192,183923,1,0,0:0:0:0:
128,192,184137,1,0,0:0:0:0:
469,192,184137,1,0,0:0:0:0:
298,192,184137,1,0,0:0:0:0:
384,192,184352,1,0,0:0:0:0:
213,192,184352,1,0,0:0:0:0:
298,192,184566,1,0,0:0:0:0:
42,192,184566,1,0,0:0:0:0:
469,192,184780,1,0,0:0:0:0:
128,192,184780,1,0,0:0:0:0:
42,192,184995,1,0,0:0:0:0:
213,192,184995,1,0,0:0:0:0:
384,192,184995,1,0,0:0:0:0:
298,192,185209,1,0,0:0:0:0:
213,192,185316,1,0,0:0:0:0:
469,192,185423,1,0,0:0:0:0:
128,192,185423,1,0,0:0:0:0:
298,192,185637,1,0,0:0:0:0:
384,192,185745,1,0,0:0:0:0:
42,192,185852,1,0,0:0:0:0:
469,192,185852,1,0,0:0:0:0:
213,192,185852,1,0,0:0:0:0:
298,192,185959,1,0,0:0:0:0:
128,192,186066,1,0,0:0:0:0:
384,192,186066,1,0,0:0:0:0:
213,192,186173,1,0,0:0:0:0:
298,192,186280,1,0,0:0:0:0:
384,192,186495,1,0,0:0:0:0:
42,192,186495,1,0,0:0:0:0:
469,192,186709,1,0,0:0:0:0:
213,192,186709,1,0,0:0:0:0:
128,192,186709,1,0,0:0:0:0:
384,192,186923,1,0,0:0:0:0:
42,192,186923,1,0,0:0:0:0:
298,192,187030,1,0,0:0:0:0:
213,192,187137,1,0,0:0:0:0:
128,192,187245,1,0,0:0:0:0:
42,192,187352,1,0,0:0:0:0:
469,192,187352,1,0,0:0:0:0:
384,192,187459,1,0,0:0:0:0:
213,192,187566,1,0,0:0:0:0:
128,192,187566,1,0,0:0:0:0:
298,192,187566,1,0,0:0:0:0:
384,192,187780,1,0,0:0:0:0:
469,192,187780,1,0,0:0:0:0:
42,192,187995,1,0,0:0:0:0:
128,192,187995,1,0,0:0:0:0:
128,192,188209,1,0,0:0:0:0:
213,192,188209,1,0,0:0:0:0:
213,192,188423,1,0,0:0:0:0:
469,192,188423,1,0,0:0:0:0:
298,192,188423,1,0,0:0:0:0:
42,192,188637,1,0,0:0:0:0:
298,192,188637,1,0,0:0:0:0:
213,192,188745,1,0,0:0:0:0:
128,192,188852,1,0,0:0:0:0:
384,192,188852,1,0,0:0:0:0:
469,192,188852,1,0,0:0:0:0:
298,192,188959,1,0,0:0:0:0:
213,192,189066,1,0,0:0:0:0:
42,192,189066,1,0,0:0:0:0:
384,192,189173,1,0,0:0:0:0:
128,192,189280,1,0,0:0:0:0:
469,192,189280,1,0,0:0:0:0:
213,192,189387,1,0,0:0:0:0:
298,192,189495,1,0,0:0:0:0:
42,192,189495,1,0,0:0:0:0:
384,192,189602,1,0,0:0:0:0:
469,192,189709,1,0,0:0:0:0:
128,192,189709,1,0,0:0:0:0:
42,192,189816,1,0,0:0:0:0:
298,192,189923,1,0,0:0:0:0:
384,192,189923,1,0,0:0:0:0:
213,192,190030,1,0,0:0:0:0:
128,192,190137,1,0,0:0:0:0:
42,192,190137,1,0,0:0:0:0:
469,192,190137,1,0,0:0:0:0:
384,192,190245,1,0,0:0:0:0:
42,192,190352,1,0,0:0:0:0:
213,192,190352,1,0,0:0:0:0:
298,192,190352,1,0,0:0:0:0:
128,192,190780,1,0,0:0:0:0:
213,192,190780,1,0,0:0:0:0:
298,192,190995,1,0,0:0:0:0:
42,192,190995,1,0,0:0:0:0:
384,192,190995,1,0,0:0:0:0:
469,192,191209,1,0,0:0:0:0:
128,192,191209,1,0,0:0:0:0:
384,192,191316,1,0,0:0:0:0:
298,192,191423,1,0,0:0:0:0:
42,192,191423,1,0,0:0:0:0:
128,192,191530,1,0,0:0:0:0:
213,192,191637,1,0,0:0:0:0:
384,192,191637,1,0,0:0:0:0:
469,192,191745,1,0,0:0:0:0:
128,192,191852,1,0,0:0:0:0:
42,192,191852,1,0,0:0:0:0:
298,192,191852,1,0,0:0:0:0:
42,192,192066,1,0,0:0:0:0:
128,192,192066,1,0,0:0:0:0:
298,192,192066,1,0,0:0:0:0:
384,192,192173,1,0,0:0:0:0:
469,192,192173,1,0,0:0:0:0:
128,192,192280,1,0,0:0:0:0:
42,192,192280,1,0,0:0:0:0:
213,192,192280,1,0,0:0:0:0:
298,192,192280,1,0,0:0:0:0:
469,192,192602,1,0,0:0:0:0:
298,192,192602,1,0,0:0:0:0:
469,192,192709,1,0,0:0:0:0:
298,192,192709,1,0,0:0:0:0:
42,192,192923,1,0,0:0:0:0:
213,192,192923,1,0,0:0:0:0:
384,192,193030,1,0,0:0:0:0:
213,192,193137,1,0,0:0:0:0:
42,192,193137,1,0,0:0:0:0:
42,192,193245,1,0,0:0:0:0:
213,192,193245,1,0,0:0:0:0:
298,192,193352,1,0,0:0:0:0:
469,192,193352,1,0,0:0:0:0:
128,192,193459,1,0,0:0:0:0:
384,192,193566,1,0,0:0:0:0:
213,192,193566,1,0,0:0:0:0:
42,192,193673,1,0,0:0:0:0:
298,192,193780,1,0,0:0:0:0:
128,192,193780,128,0,194209:0:0:0:0:
469,192,193780,128,0,194209:0:0:0:0:
298,192,194209,1,0,0:0:0:0:
42,192,194209,1,0,0:0:0:0:
298,192,194423,1,0,0:0:0:0:
128,192,194423,1,0,0:0:0:0:
213,192,194637,1,0,0:0:0:0:
384,192,194637,1,0,0:0:0:0:
42,192,194852,1,0,0:0:0:0:
128,192,194852,1,0,0:0:0:0:
384,192,194878,1,0,0:0:0:0:
469,192,194878,1,0,0:0:0:0:
42,192,195066,1,0,0:0:0:0:
469,192,195066,1,0,0:0:0:0:
213,192,195173,1,0,0:0:0:0:
298,192,195173,1,0,0:0:0:0:
469,192,195280,1,0,0:0:0:0:
42,192,195280,128,0,195495:0:0:0:0:
298,192,195495,128,0,195709:0:0:0:0:
213,192,195709,1,0,0:0:0:0:
384,192,195709,1,0,0:0:0:0:
469,192,195709,1,0,0:0:0:0:
128,192,195762,1,0,0:0:0:0:
42,192,195816,128,0,196566:0:0:0:0:
213,192,196137,1,0,0:0:0:0:
298,192,196137,1,0,0:0:0:0:
384,192,196191,1,0,0:0:0:0:
469,192,196245,128,0,196995:0:0:0:0:
128,192,196566,1,0,0:0:0:0:
213,192,196566,1,0,0:0:0:0:
213,192,196780,1,0,0:0:0:0:
298,192,196780,1,0,0:0:0:0:
298,192,196995,1,0,0:0:0:0:
384,192,196995,1,0,0:0:0:0:
42,192,196995,1,0,0:0:0:0:
469,192,197209,1,0,0:0:0:0:
128,192,197209,1,0,0:0:0:0:
213,192,197262,1,0,0:0:0:0:
298,192,197316,128,0,197852:0:0:0:0:
384,192,197637,128,0,197852:0:0:0:0:
469,192,197637,1,0,0:0:0:0:
213,192,197852,1,0,0:0:0:0:
128,192,197852,1,0,0:0:0:0:
42,192,197852,1,0,0:0:0:0:
384,192,198066,128,0,198280:0:0:0:0:
298,192,198280,1,0,0:0:0:0:
42,192,198280,1,0,0:0:0:0:
128,192,198495,128,0,198709:0:0:0:0:
384,192,198495,1,0,0:0:0:0:
298,192,198709,1,0,0:0:0:0:
42,192,198709,128,0,198923:0:0:0:0:
469,192,198709,1,0,0:0:0:0:
213,192,198923,128,0,199137:0:0:0:0:
128,192,199137,1,0,0:0:0:0:
298,192,199137,1,0,0:0:0:0:
384,192,199191,1,0,0:0:0:0:
469,192,199245,128,0,199995:0:0:0:0:
298,192,199566,1,0,0:0:0:0:
213,192,199566,1,0,0:0:0:0:
128,192,199620,1,0,0:0:0:0:
42,192,199673,128,0,200423:0:0:0:0:
384,192,199995,1,0,0:0:0:0:
298,192,199995,1,0,0:0:0:0:
298,192,200209,1,0,0:0:0:0:
213,192,200209,1,0,0:0:0:0:
213,192,200423,1,0,0:0:0:0:
128,192,200423,1,0,0:0:0:0:
469,192,200423,1,0,0:0:0:0:
42,192,200637,1,0,0:0:0:0:
384,192,200637,1,0,0:0:0:0:
298,192,200691,1,0,0:0:0:0:
213,192,200745,128,0,201280:0:0:0:0:
128,192,201066,128,0,201280:0:0:0:0:
42,192,201066,1,0,0:0:0:0:
298,192,201280,1,0,0:0:0:0:
384,192,201280,1,0,0:0:0:0:
469,192,201280,1,0,0:0:0:0:
128,192,201495,128,0,201709:0:0:0:0:
213,192,201709,1,0,0:0:0:0:
298,192,201709,1,0,0:0:0:0:
384,192,201923,128,0,202137:0:0:0:0:
42,192,201923,1,0,0:0:0:0:
213,192,202137,1,0,0:0:0:0:
298,192,202137,1,0,0:0:0:0:
469,192,202137,1,0,0:0:0:0:
128,192,202352,1,0,0:0:0:0:
128,192,202459,1,0,0:0:0:0:
42,192,202566,1,0,0:0:0:0:
469,192,202566,1,0,0:0:0:0:
384,192,202620,1,0,0:0:0:0:
298,192,202673,128,0,203423:0:0:0:0:
42,192,202995,1,0,0:0:0:0:
469,192,202995,1,0,0:0:0:0:
128,192,203048,1,0,0:0:0:0:
213,192,203102,128,0,203852:0:0:0:0:
469,192,203423,1,0,0:0:0:0:
384,192,203423,1,0,0:0:0:0:
298,192,203637,1,0,0:0:0:0:
384,192,203637,1,0,0:0:0:0:
469,192,203852,1,0,0:0:0:0:
128,192,203852,1,0,0:0:0:0:
42,192,203852,1,0,0:0:0:0:
213,192,204066,1,0,0:0:0:0:
128,192,204066,1,0,0:0:0:0:
298,192,204120,1,0,0:0:0:0:
384,192,204173,128,0,204709:0:0:0:0:
128,192,204495,128,0,204709:0:0:0:0:
213,192,204495,1,0,0:0:0:0:
469,192,204709,1,0,0:0:0:0:
298,192,204709,1,0,0:0:0:0:
42,192,204709,1,0,0:0:0:0:
128,192,204923,128,0,205137:0:0:0:0:
469,192,205137,1,0,0:0:0:0:
213,192,205137,1,0,0:0:0:0:
128,192,205352,1,0,0:0:0:0:
298,192,205352,128,0,205566:0:0:0:0:
42,192,205566,1,0,0:0:0:0:
213,192,205566,1,0,0:0:0:0:
469,192,205566,128,0,205780:0:0:0:0:
298,192,205780,128,0,205995:0:0:0:0:
384,192,205995,1,0,0:0:0:0:
42,192,205995,1,0,0:0:0:0:
128,192,206048,1,0,0:0:0:0:
213,192,206102,128,0,206852:0:0:0:0:
469,192,206423,1,0,0:0:0:0:
42,192,206423,1,0,0:0:0:0:
384,192,206477,1,0,0:0:0:0:
298,192,206530,128,0,207280:0:0:0:0:
42,192,206852,1,0,0:0:0:0:
128,192,206852,1,0,0:0:0:0:
213,192,207066,1,0,0:0:0:0:
128,192,207066,1,0,0:0:0:0:
42,192,207280,1,0,0:0:0:0:
384,192,207280,1,0,0:0:0:0:
469,192,207280,1,0,0:0:0:0:
213,192,207495,1,0,0:0:0:0:
298,192,207495,1,0,0:0:0:0:
384,192,207495,1,0,0:0:0:0:
128,192,207495,1,0,0:0:0:0:
128,192,207923,1,0,0:0:0:0:
469,192,207923,1,0,0:0:0:0:
213,192,207923,1,0,0:0:0:0:
298,192,208030,1,0,0:0:0:0:
469,192,208137,1,0,0:0:0:0:
42,192,208137,1,0,0:0:0:0:
213,192,208245,1,0,0:0:0:0:
128,192,208352,1,0,0:0:0:0:
384,192,208352,1,0,0:0:0:0:
298,192,208459,1,0,0:0:0:0:
213,192,208566,1,0,0:0:0:0:
469,192,208673,1,0,0:0:0:0:
42,192,208673,1,0,0:0:0:0:
384,192,208780,1,0,0:0:0:0:
213,192,208780,1,0,0:0:0:0:
298,192,208887,1,0,0:0:0:0:
469,192,208995,1,0,0:0:0:0:
128,192,208995,1,0,0:0:0:0:
213,192,209102,1,0,0:0:0:0:
298,192,209209,1,0,0:0:0:0:
42,192,209209,1,0,0:0:0:0:
384,192,209316,1,0,0:0:0:0:
213,192,209423,1,0,0:0:0:0:
128,192,209423,1,0,0:0:0:0:
469,192,209423,1,0,0:0:0:0:
298,192,209530,1,0,0:0:0:0:
384,192,209637,1,0,0:0:0:0:
469,192,209852,1,0,0:0:0:0:
298,192,209852,1,0,0:0:0:0:
42,192,209852,1,0,0:0:0:0:
128,192,209852,1,0,0:0:0:0:
213,192,210066,1,0,0:0:0:0:
384,192,210066,1,0,0:0:0:0:
128,192,210173,1,0,0:0:0:0:
42,192,210280,1,0,0:0:0:0:
298,192,210280,1,0,0:0:0:0:
213,192,210495,1,0,0:0:0:0:
469,192,210495,1,0,0:0:0:0:
384,192,210602,1,0,0:0:0:0:
42,192,210709,1,0,0:0:0:0:
128,192,210709,1,0,0:0:0:0:
298,192,210709,1,0,0:0:0:0:
213,192,210923,1,0,0:0:0:0:
384,192,210923,1,0,0:0:0:0:
128,192,211030,1,0,0:0:0:0:
42,192,211137,1,0,0:0:0:0:
469,192,211352,1,0,0:0:0:0:
384,192,211352,1,0,0:0:0:0:
213,192,211352,1,0,0:0:0:0:
384,192,211566,1,0,0:0:0:0:
298,192,211566,1,0,0:0:0:0:
128,192,211566,1,0,0:0:0:0:
298,192,211780,1,0,0:0:0:0:
213,192,211780,1,0,0:0:0:0:
42,192,211780,1,0,0:0:0:0:
213,192,211995,1,0,0:0:0:0:
128,192,211995,1,0,0:0:0:0:
384,192,211995,1,0,0:0:0:0:
213,192,212209,1,0,0:0:0:0:
298,192,212209,1,0,0:0:0:0:
469,192,212209,1,0,0:0:0:0:
298,192,212423,1,0,0:0:0:0:
128,192,212423,1,0,0:0:0:0:
384,192,212423,1,0,0:0:0:0:
42,192,212423,1,0,0:0:0:0:
213,192,212637,1,0,0:0:0:0:
469,192,212637,1,0,0:0:0:0:
298,192,212745,1,0,0:0:0:0:
384,192,212852,1,0,0:0:0:0:
128,192,212852,1,0,0:0:0:0:
298,192,213066,1,0,0:0:0:0:
469,192,213066,1,0,0:0:0:0:
213,192,213173,1,0,0:0:0:0:
42,192,213280,1,0,0:0:0:0:
384,192,213280,1,0,0:0:0:0:
128,192,213280,1,0,0:0:0:0:
469,192,213280,1,0,0:0:0:0:
298,192,213387,1,0,0:0:0:0:
213,192,213495,1,0,0:0:0:0:
128,192,213602,1,0,0:0:0:0:
298,192,213709,1,0,0:0:0:0:
42,192,213709,1,0,0:0:0:0:
213,192,213816,1,0,0:0:0:0:
384,192,213923,1,0,0:0:0:0:
128,192,213923,1,0,0:0:0:0:
298,192,214137,1,0,0:0:0:0:
42,192,214137,1,0,0:0:0:0:
469,192,214137,1,0,0:0:0:0:
384,192,214137,1,0,0:0:0:0:
128,192,214352,1,0,0:0:0:0:
213,192,214352,1,0,0:0:0:0:
42,192,214352,1,0,0:0:0:0:
298,192,214459,1,0,0:0:0:0:
384,192,214566,1,0,0:0:0:0:
469,192,214673,1,0,0:0:0:0:
128,192,214780,1,0,0:0:0:0:
42,192,214780,1,0,0:0:0:0:
213,192,214887,1,0,0:0:0:0:
298,192,214995,1,0,0:0:0:0:
384,192,214995,1,0,0:0:0:0:
469,192,214995,1,0,0:0:0:0:
213,192,215209,1,0,0:0:0:0:
42,192,215209,1,0,0:0:0:0:
298,192,215423,1,0,0:0:0:0:
469,192,215423,1,0,0:0:0:0:
384,192,215637,1,0,0:0:0:0:
128,192,215637,1,0,0:0:0:0:
298,192,215745,1,0,0:0:0:0:
42,192,215852,1,0,0:0:0:0:
213,192,215852,1,0,0:0:0:0:
469,192,215852,1,0,0:0:0:0:
213,192,216066,1,0,0:0:0:0:
42,192,216066,1,0,0:0:0:0:
469,192,216066,1,0,0:0:0:0:
298,192,216173,1,0,0:0:0:0:
384,192,216173,1,0,0:0:0:0:
42,192,216280,1,0,0:0:0:0:
128,192,216280,1,0,0:0:0:0:
469,192,216280,1,0,0:0:0:0:
213,192,216495,1,0,0:0:0:0:
128,192,216495,1,0,0:0:0:0:
469,192,216709,1,0,0:0:0:0:
384,192,216709,1,0,0:0:0:0:
298,192,216709,1,0,0:0:0:0:
213,192,216923,1,0,0:0:0:0:
128,192,216923,1,0,0:0:0:0:
42,192,216923,1,0,0:0:0:0:
384,192,217030,1,0,0:0:0:0:
469,192,217030,1,0,0:0:0:0:
128,192,217137,1,0,0:0:0:0:
213,192,217245,1,0,0:0:0:0:
298,192,217245,1,0,0:0:0:0:
42,192,217352,1,0,0:0:0:0:
298,192,217459,1,0,0:0:0:0:
384,192,217459,1,0,0:0:0:0:
42,192,217566,1,0,0:0:0:0:
128,192,217566,1,0,0:0:0:0:
213,192,217566,1,0,0:0:0:0:
298,192,217780,1,0,0:0:0:0:
384,192,217780,1,0,0:0:0:0:
213,192,217780,1,0,0:0:0:0:
469,192,217780,1,0,0:0:0:0:
128,192,217887,1,0,0:0:0:0:
42,192,217995,1,0,0:0:0:0:
469,192,217995,1,0,0:0:0:0:
384,192,218102,1,0,0:0:0:0:
213,192,218209,1,0,0:0:0:0:
298,192,218209,1,0,0:0:0:0:
42,192,218423,1,0,0:0:0:0:
469,192,218423,1,0,0:0:0:0:
384,192,218423,1,0,0:0:0:0:
128,192,218423,1,0,0:0:0:0:
213,192,218637,1,0,0:0:0:0:
298,192,218637,1,0,0:0:0:0:
128,192,218745,1,0,0:0:0:0:
384,192,218852,1,0,0:0:0:0:
469,192,218852,1,0,0:0:0:0:
213,192,218959,1,0,0:0:0:0:
42,192,219066,1,0,0:0:0:0:
128,192,219066,1,0,0:0:0:0:
298,192,219173,1,0,0:0:0:0:
42,192,219280,1,0,0:0:0:0:
384,192,219280,1,0,0:0:0:0:
213,192,219280,1,0,0:0:0:0:
469,192,219280,1,0,0:0:0:0:
128,192,219495,1,0,0:0:0:0:
469,192,219709,1,0,0:0:0:0:
384,192,219709,1,0,0:0:0:0:
298,192,219709,1,0,0:0:0:0:
213,192,219709,1,0,0:0:0:0:
42,192,219816,1,0,0:0:0:0:
128,192,219923,1,0,0:0:0:0:
298,192,219923,1,0,0:0:0:0:
213,192,220030,1,0,0:0:0:0:
384,192,220137,1,0,0:0:0:0:
469,192,220137,1,0,0:0:0:0:
298,192,220245,1,0,0:0:0:0:
128,192,220352,1,0,0:0:0:0:
42,192,220352,1,0,0:0:0:0:
213,192,220459,1,0,0:0:0:0:
384,192,220566,1,0,0:0:0:0:
469,192,220566,1,0,0:0:0:0:
298,192,220566,1,0,0:0:0:0:
42,192,220673,1,0,0:0:0:0:
213,192,220780,1,0,0:0:0:0:
128,192,220780,1,0,0:0:0:0:
384,192,220887,1,0,0:0:0:0:
469,192,220995,1,0,0:0:0:0:
42,192,220995,1,0,0:0:0:0:
298,192,221102,1,0,0:0:0:0:
213,192,221102,1,0,0:0:0:0:
42,192,221209,1,0,0:0:0:0:
469,192,221209,1,0,0:0:0:0:
384,192,221209,1,0,0:0:0:0:
128,192,221209,1,0,0:0:0:0:
298,192,221637,128,0,221852:0:0:0:0:
213,192,221852,128,0,221995:0:0:0:0:
128,192,221995,1,0,0:0:0:0:
42,192,222066,1,0,0:0:0:0:
298,192,222173,1,0,0:0:0:0:
384,192,222253,1,0,0:0:0:0:
469,192,222316,128,0,222495:0:0:0:0:
128,192,222495,128,0,222709:0:0:0:0:
213,192,222709,1,0,0:0:0:0:
298,192,222709,1,0,0:0:0:0:
384,192,222709,1,0,0:0:0:0:
42,192,222709,128,0,222923:0:0:0:0:
469,192,222923,128,0,223137:0:0:0:0:
128,192,223137,1,0,0:0:0:0:
384,192,223137,1,0,0:0:0:0:
298,192,223137,1,0,0:0:0:0:
128,192,223352,128,0,223566:0:0:0:0:
42,192,223566,1,0,0:0:0:0:
213,192,223566,1,0,0:0:0:0:
384,192,223566,128,0,223673:0:0:0:0:
469,192,223673,128,0,223780:0:0:0:0:
298,192,223780,128,0,223995:0:0:0:0:
42,192,223995,128,0,224209:0:0:0:0:
384,192,223995,1,0,0:0:0:0:
128,192,224209,128,0,224316:0:0:0:0:
384,192,224209,1,0,0:0:0:0:
213,192,224316,128,0,224423:0:0:0:0:
298,192,224423,1,0,0:0:0:0:
469,192,224423,1,0,0:0:0:0:
42,192,224423,1,0,0:0:0:0:
42,192,224637,128,0,225066:0:0:0:0:
384,192,224637,1,0,0:0:0:0:
469,192,225066,128,0,225280:0:0:0:0:
213,192,225066,1,0,0:0:0:0:
128,192,225280,1,0,0:0:0:0:
42,192,225280,1,0,0:0:0:0:
384,192,225280,128,0,225387:0:0:0:0:
298,192,225387,128,0,225495:0:0:0:0:
213,192,225495,128,0,225709:0:0:0:0:
384,192,225709,128,0,225923:0:0:0:0:
128,192,225709,1,0,0:0:0:0:
213,192,225923,1,0,0:0:0:0:
469,192,225923,1,0,0:0:0:0:
42,192,225923,1,0,0:0:0:0:
298,192,225923,1,0,0:0:0:0:
469,192,226137,1,0,0:0:0:0:
213,192,226137,1,0,0:0:0:0:
298,192,226137,1,0,0:0:0:0:
42,192,226137,1,0,0:0:0:0:
213,192,226566,1,0,0:0:0:0:
384,192,226566,1,0,0:0:0:0:
384,192,226780,128,0,226995:0:0:0:0:
298,192,226995,1,0,0:0:0:0:
469,192,226995,1,0,0:0:0:0:
128,192,226995,128,0,227102:0:0:0:0:
42,192,227102,128,0,227209:0:0:0:0:
213,192,227209,128,0,227423:0:0:0:0:
128,192,227423,1,0,0:0:0:0:
469,192,227423,128,0,227637:0:0:0:0:
384,192,227637,128,0,227745:0:0:0:0:
128,192,227637,1,0,0:0:0:0:
298,192,227745,128,0,227852:0:0:0:0:
42,192,227852,1,0,0:0:0:0:
213,192,227852,1,0,0:0:0:0:
469,192,227852,1,0,0:0:0:0:
469,192,228066,128,0,228495:0:0:0:0:
128,192,228066,1,0,0:0:0:0:
384,192,228495,1,0,0:0:0:0:
42,192,228495,128,0,228709:0:0:0:0:
469,192,228709,1,0,0:0:0:0:
298,192,228709,1,0,0:0:0:0:
128,192,228709,128,0,228816:0:0:0:0:
213,192,228816,128,0,228923:0:0:0:0:
384,192,228923,128,0,229030:0:0:0:0:
298,192,229030,128,0,229137:0:0:0:0:
213,192,229137,1,0,0:0:0:0:
128,192,229137,128,0,229352:0:0:0:0:
384,192,229352,1,0,0:0:0:0:
298,192,229352,1,0,0:0:0:0:
469,192,229352,1,0,0:0:0:0:
42,192,229352,128,0,229566:0:0:0:0:
298,192,229566,1,0,0:0:0:0:
384,192,229566,1,0,0:0:0:0:
469,192,229566,1,0,0:0:0:0:
213,192,229566,128,0,229780:0:0:0:0:
128,192,229780,128,0,229995:0:0:0:0:
42,192,229995,1,0,0:0:0:0:
298,192,229995,1,0,0:0:0:0:
469,192,229995,128,0,230209:0:0:0:0:
213,192,230209,128,0,230423:0:0:0:0:
384,192,230423,128,0,230637:0:0:0:0:
42,192,230423,1,0,0:0:0:0:
298,192,230423,1,0,0:0:0:0:
469,192,230423,1,0,0:0:0:0:
128,192,230637,128,0,230745:0:0:0:0:
42,192,230745,128,0,230852:0:0:0:0:
384,192,230852,128,0,230959:0:0:0:0:
213,192,230852,1,0,0:0:0:0:
469,192,230959,128,0,231066:0:0:0:0:
213,192,231066,128,0,231173:0:0:0:0:
42,192,231066,1,0,0:0:0:0:
298,192,231173,128,0,231280:0:0:0:0:
128,192,231280,128,0,231387:0:0:0:0:
469,192,231280,1,0,0:0:0:0:
384,192,231280,1,0,0:0:0:0:
42,192,231387,128,0,231495:0:0:0:0:
298,192,231495,128,0,231602:0:0:0:0:
213,192,231495,1,0,0:0:0:0:
384,192,231602,128,0,231709:0:0:0:0:
128,192,231709,128,0,231816:0:0:0:0:
213,192,231816,128,0,231923:0:0:0:0:
298,192,231923,128,0,232030:0:0:0:0:
469,192,231923,1,0,0:0:0:0:
42,192,232030,128,0,232137:0:0:0:0:
384,192,232137,128,0,232352:0:0:0:0:
128,192,232137,1,0,0:0:0:0:
213,192,232137,1,0,0:0:0:0:
298,192,232352,128,0,232459:0:0:0:0:
213,192,232459,128,0,232566:0:0:0:0:
469,192,232566,128,0,232780:0:0:0:0:
128,192,232566,1,0,0:0:0:0:
384,192,232780,1,0,0:0:0:0:
42,192,232780,1,0,0:0:0:0:
298,192,232780,1,0,0:0:0:0:
213,192,232780,1,0,0:0:0:0:
42,192,232995,1,0,0:0:0:0:
213,192,232995,1,0,0:0:0:0:
298,192,232995,1,0,0:0:0:0:
384,192,232995,1,0,0:0:0:0:
128,192,233209,128,0,233423:0:0:0:0:
42,192,233423,1,0,0:0:0:0:
213,192,233423,1,0,0:0:0:0:
469,192,233423,1,0,0:0:0:0:
298,192,233637,128,0,233852:0:0:0:0:
213,192,233852,128,0,234066:0:0:0:0:
42,192,233852,1,0,0:0:0:0:
469,192,233852,1,0,0:0:0:0:
384,192,233852,1,0,0:0:0:0:
128,192,234066,128,0,234280:0:0:0:0:
298,192,234066,1,0,0:0:0:0:
213,192,234280,1,0,0:0:0:0:
469,192,234280,1,0,0:0:0:0:
42,192,234602,1,0,0:0:0:0:
128,192,234602,1,0,0:0:0:0:
384,192,234602,1,0,0:0:0:0:
469,192,234602,1,0,0:0:0:0:
213,192,234709,1,0,0:0:0:0:
298,192,234709,1,0,0:0:0:0:
42,192,234923,128,0,235352:0:0:0:0:
469,192,234923,128,0,235352:0:0:0:0:
128,192,234923,1,0,0:0:0:0:
384,192,234923,1,0,0:0:0:0:
213,192,235352,128,0,235780:0:0:0:0:
298,192,235352,128,0,235780:0:0:0:0:
384,192,235566,1,0,0:0:0:0:
42,192,235566,1,0,0:0:0:0:
469,192,235566,1,0,0:0:0:0:
128,192,235566,1,0,0:0:0:0:
128,192,235780,128,0,235995:0:0:0:0:
384,192,235780,128,0,235995:0:0:0:0:
42,192,235995,1,0,0:0:0:0:
469,192,235995,1,0,0:0:0:0:
213,192,235995,1,0,0:0:0:0:
298,192,235995,1,0,0:0:0:0:
213,192,236209,1,0,0:0:0:0:
469,192,236209,1,0,0:0:0:0:
128,192,236316,1,0,0:0:0:0:
384,192,236316,1,0,0:0:0:0:
298,192,236423,1,0,0:0:0:0:
42,192,236423,1,0,0:0:0:0:
469,192,236530,1,0,0:0:0:0:
384,192,236530,1,0,0:0:0:0:
128,192,236637,1,0,0:0:0:0:
213,192,236637,1,0,0:0:0:0:
298,192,236745,1,0,0:0:0:0:
384,192,236745,1,0,0:0:0:0:
128,192,236852,1,0,0:0:0:0:
469,192,236852,1,0,0:0:0:0:
213,192,236852,128,0,237280:0:0:0:0:
42,192,236852,1,0,0:0:0:0:
384,192,237280,1,0,0:0:0:0:
298,192,237280,1,0,0:0:0:0:
469,192,237280,1,0,0:0:0:0:
128,192,237280,128,0,237495:0:0:0:0:
42,192,237495,128,0,237923:0:0:0:0:
213,192,237495,1,0,0:0:0:0:
128,192,237709,1,0,0:0:0:0:
384,192,237709,1,0,0:0:0:0:
213,192,237923,1,0,0:0:0:0:
298,192,237923,128,0,238137:0:0:0:0:
128,192,238137,1,0,0:0:0:0:
384,192,238137,1,0,0:0:0:0:
469,192,238137,1,0,0:0:0:0:
42,192,238137,1,0,0:0:0:0:
213,192,238352,128,0,238566:0:0:0:0:
298,192,238352,1,0,0:0:0:0:
128,192,238780,128,0,238995:0:0:0:0:
384,192,238780,1,0,0:0:0:0:
469,192,238995,128,0,239209:0:0:0:0:
213,192,238995,1,0,0:0:0:0:
42,192,238995,1,0,0:0:0:0:
298,192,238995,1,0,0:0:0:0:
384,192,239209,128,0,239423:0:0:0:0:
128,192,239209,1,0,0:0:0:0:
298,192,239423,128,0,239637:0:0:0:0:
469,192,239423,1,0,0:0:0:0:
213,192,239637,128,0,239852:0:0:0:0:
42,192,239637,1,0,0:0:0:0:
128,192,239852,128,0,240066:0:0:0:0:
384,192,239852,1,0,0:0:0:0:
298,192,239852,1,0,0:0:0:0:
469,192,239852,1,0,0:0:0:0:
42,192,240066,128,0,240495:0:0:0:0:
213,192,240066,1,0,0:0:0:0:
384,192,240280,1,0,0:0:0:0:
213,192,240495,1,0,0:0:0:0:
469,192,240495,128,0,240709:0:0:0:0:
128,192,240709,1,0,0:0:0:0:
42,192,240709,1,0,0:0:0:0:
384,192,240709,1,0,0:0:0:0:
298,192,240709,1,0,0:0:0:0:
213,192,240923,1,0,0:0:0:0:
469,192,240923,1,0,0:0:0:0:
213,192,241352,1,0,0:0:0:0:
469,192,241352,1,0,0:0:0:0:
128,192,241566,128,0,241780:0:0:0:0:
384,192,241566,1,0,0:0:0:0:
42,192,241566,1,0,0:0:0:0:
298,192,241566,1,0,0:0:0:0:
469,192,241780,128,0,242423:0:0:0:0:
213,192,241780,1,0,0:0:0:0:
128,192,242209,1,0,0:0:0:0:
42,192,242423,1,0,0:0:0:0:
213,192,242423,1,0,0:0:0:0:
384,192,242423,1,0,0:0:0:0:
128,192,242637,1,0,0:0:0:0:
298,192,242637,1,0,0:0:0:0:
384,192,242852,1,0,0:0:0:0:
213,192,242852,1,0,0:0:0:0:
42,192,242959,1,0,0:0:0:0:
298,192,242959,1,0,0:0:0:0:
128,192,242959,1,0,0:0:0:0:
213,192,243066,1,0,0:0:0:0:
469,192,243066,1,0,0:0:0:0:
384,192,243280,1,0,0:0:0:0:
298,192,243280,1,0,0:0:0:0:
128,192,243280,1,0,0:0:0:0:
42,192,243280,1,0,0:0:0:0:
213,192,243495,1,0,0:0:0:0:
128,192,243495,1,0,0:0:0:0:
384,192,243495,1,0,0:0:0:0:
469,192,243495,1,0,0:0:0:0:
298,192,243602,1,0,0:0:0:0:
42,192,243602,1,0,0:0:0:0:
469,192,243709,128,0,244780:0:0:0:0:
384,192,243709,1,0,0:0:0:0:
128,192,243709,1,0,0:0:0:0:
213,192,243923,1,0,0:0:0:0:
298,192,244137,1,0,0:0:0:0:
42,192,244137,1,0,0:0:0:0:
128,192,244137,1,0,0:0:0:0:
384,192,244352,1,0,0:0:0:0:
128,192,244459,1,0,0:0:0:0:
213,192,244566,1,0,0:0:0:0:
298,192,244673,1,0,0:0:0:0:
384,192,244780,1,0,0:0:0:0:
42,192,244780,1,0,0:0:0:0:
298,192,244887,1,0,0:0:0:0:
469,192,244995,1,0,0:0:0:0:
213,192,244995,1,0,0:0:0:0:
128,192,244995,1,0,0:0:0:0:
384,192,245209,1,0,0:0:0:0:
42,192,245209,1,0,0:0:0:0:
298,192,245209,1,0,0:0:0:0:
128,192,245423,1,0,0:0:0:0:
469,192,245530,1,0,0:0:0:0:
213,192,245530,1,0,0:0:0:0:
42,192,245530,1,0,0:0:0:0:
384,192,245637,1,0,0:0:0:0:
298,192,245745,1,0,0:0:0:0:
42,192,245852,1,0,0:0:0:0:
213,192,245852,1,0,0:0:0:0:
469,192,245852,1,0,0:0:0:0:
128,192,246066,1,0,0:0:0:0:
384,192,246066,1,0,0:0:0:0:
213,192,246173,1,0,0:0:0:0:
469,192,246280,1,0,0:0:0:0:
298,192,246280,1,0,0:0:0:0:
42,192,246387,1,0,0:0:0:0:
384,192,246495,1,0,0:0:0:0:
128,192,246495,1,0,0:0:0:0:
213,192,246602,1,0,0:0:0:0:
128,192,246709,1,0,0:0:0:0:
469,192,246709,1,0,0:0:0:0:
42,192,246709,1,0,0:0:0:0:
298,192,246709,1,0,0:0:0:0:
213,192,246923,1,0,0:0:0:0:
384,192,246923,1,0,0:0:0:0:
469,192,246923,1,0,0:0:0:0:
42,192,247030,1,0,0:0:0:0:
128,192,247030,1,0,0:0:0:0:
298,192,247030,1,0,0:0:0:0:
213,192,247137,1,0,0:0:0:0:
384,192,247137,1,0,0:0:0:0:
469,192,247137,1,0,0:0:0:0:
298,192,247352,1,0,0:0:0:0:
128,192,247352,1,0,0:0:0:0:
384,192,247459,1,0,0:0:0:0:
469,192,247459,1,0,0:0:0:0:
213,192,247566,1,0,0:0:0:0:
42,192,247566,1,0,0:0:0:0:
298,192,247673,1,0,0:0:0:0:
384,192,247673,1,0,0:0:0:0:
128,192,247780,1,0,0:0:0:0:
469,192,247780,1,0,0:0:0:0:
213,192,247780,1,0,0:0:0:0:
42,192,247780,1,0,0:0:0:0:
384,192,247995,1,0,0:0:0:0:
298,192,247995,1,0,0:0:0:0:
128,192,248102,1,0,0:0:0:0:
42,192,248102,1,0,0:0:0:0:
298,192,248209,1,0,0:0:0:0:
469,192,248209,1,0,0:0:0:0:
384,192,248209,1,0,0:0:0:0:
213,192,248209,1,0,0:0:0:0:
213,192,248423,1,0,0:0:0:0:
128,192,248423,1,0,0:0:0:0:
384,192,248637,1,0,0:0:0:0:
469,192,248637,1,0,0:0:0:0:
42,192,248637,128,0,249066:0:0:0:0:
298,192,248637,1,0,0:0:0:0:
213,192,249066,5,0,0:0:0:0:
128,192,249066,1,0,0:0:0:0:
469,192,249173,1,0,0:0:0:0:
298,192,249280,1,0,0:0:0:0:
213,192,249280,1,0,0:0:0:0:
42,192,249387,1,0,0:0:0:0:
384,192,249495,1,0,0:0:0:0:
298,192,249495,1,0,0:0:0:0:
469,192,249709,5,0,0:0:0:0:
384,192,249709,1,0,0:0:0:0:
42,192,249736,1,0,0:0:0:0:
128,192,249736,1,0,0:0:0:0:
298,192,249923,128,0,250137:0:0:0:0:
213,192,250137,128,0,250352:0:0:0:0:
469,192,250137,1,0,0:0:0:0:
128,192,250352,128,0,250566:0:0:0:0:
213,192,250566,1,0,0:0:0:0:
298,192,250566,1,0,0:0:0:0:
42,192,250566,1,0,0:0:0:0:
384,192,250620,1,0,0:0:0:0:
469,192,250673,128,0,251423:0:0:0:0:
298,192,250995,1,0,0:0:0:0:
213,192,250995,1,0,0:0:0:0:
128,192,251048,1,0,0:0:0:0:
42,192,251102,128,0,251852:0:0:0:0:
384,192,251423,1,0,0:0:0:0:
298,192,251423,1,0,0:0:0:0:
298,192,251637,1,0,0:0:0:0:
213,192,251637,1,0,0:0:0:0:
469,192,251852,1,0,0:0:0:0:
213,192,251852,1,0,0:0:0:0:
128,192,251852,1,0,0:0:0:0:
42,192,252066,1,0,0:0:0:0:
384,192,252066,1,0,0:0:0:0:
298,192,252120,1,0,0:0:0:0:
213,192,252173,128,0,252709:0:0:0:0:
128,192,252495,128,0,252709:0:0:0:0:
42,192,252495,1,0,0:0:0:0:
298,192,252709,1,0,0:0:0:0:
384,192,252709,1,0,0:0:0:0:
469,192,252709,1,0,0:0:0:0:
128,192,252923,128,0,253137:0:0:0:0:
213,192,253137,1,0,0:0:0:0:
298,192,253137,1,0,0:0:0:0:
384,192,253352,128,0,253566:0:0:0:0:
128,192,253352,1,0,0:0:0:0:
42,192,253566,128,0,253780:0:0:0:0:
469,192,253566,1,0,0:0:0:0:
213,192,253566,1,0,0:0:0:0:
298,192,253780,128,0,253995:0:0:0:0:
384,192,253995,1,0,0:0:0:0:
213,192,253995,1,0,0:0:0:0:
128,192,254048,1,0,0:0:0:0:
42,192,254102,128,0,254852:0:0:0:0:
213,192,254423,1,0,0:0:0:0:
298,192,254423,1,0,0:0:0:0:
384,192,254477,1,0,0:0:0:0:
469,192,254530,128,0,255280:0:0:0:0:
128,192,254852,1,0,0:0:0:0:
213,192,254852,1,0,0:0:0:0:
213,192,255066,1,0,0:0:0:0:
298,192,255066,1,0,0:0:0:0:
42,192,255280,1,0,0:0:0:0:
298,192,255280,1,0,0:0:0:0:
384,192,255280,1,0,0:0:0:0:
213,192,255495,128,0,255709:0:0:0:0:
128,192,255495,1,0,0:0:0:0:
469,192,255816,1,0,0:0:0:0:
384,192,255816,1,0,0:0:0:0:
298,192,255816,1,0,0:0:0:0:
42,192,255923,1,0,0:0:0:0:
128,192,255923,128,0,256137:0:0:0:0:
469,192,256137,1,0,0:0:0:0:
384,192,256137,1,0,0:0:0:0:
298,192,256137,1,0,0:0:0:0:
42,192,256352,128,0,256566:0:0:0:0:
213,192,256352,1,0,0:0:0:0:
128,192,256566,1,0,0:0:0:0:
384,192,256566,1,0,0:0:0:0:
469,192,256673,1,0,0:0:0:0:
213,192,256673,1,0,0:0:0:0:
298,192,256673,1,0,0:0:0:0:
42,192,256780,1,0,0:0:0:0:
128,192,256780,1,0,0:0:0:0:
384,192,256995,1,0,0:0:0:0:
469,192,256995,1,0,0:0:0:0:
298,192,256995,1,0,0:0:0:0:
213,192,257209,1,0,0:0:0:0:
42,192,257209,1,0,0:0:0:0:
213,192,257316,1,0,0:0:0:0:
42,192,257316,1,0,0:0:0:0:
298,192,257423,128,0,257852:0:0:0:0:
384,192,257423,1,0,0:0:0:0:
128,192,257423,128,0,257852:0:0:0:0:
42,192,257852,1,0,0:0:0:0:
469,192,257852,1,0,0:0:0:0:
384,192,257852,1,0,0:0:0:0:
213,192,258066,128,0,258495:0:0:0:0:
128,192,258066,1,0,0:0:0:0:
298,192,258066,128,0,258495:0:0:0:0:
42,192,258495,1,0,0:0:0:0:
469,192,258495,1,0,0:0:0:0:
384,192,258602,1,0,0:0:0:0:
298,192,258709,1,0,0:0:0:0:
128,192,258709,1,0,0:0:0:0:
42,192,258816,1,0,0:0:0:0:
384,192,258923,128,0,259352:0:0:0:0:
469,192,258923,1,0,0:0:0:0:
213,192,258923,128,0,259352:0:0:0:0:
128,192,259352,128,0,259566:0:0:0:0:
298,192,259352,1,0,0:0:0:0:
469,192,259566,1,0,0:0:0:0:
42,192,259566,1,0,0:0:0:0:
213,192,259780,128,0,259995:0:0:0:0:
384,192,259780,1,0,0:0:0:0:
469,192,259995,1,0,0:0:0:0:
42,192,259995,1,0,0:0:0:0:
298,192,260209,1,0,0:0:0:0:
128,192,260316,1,0,0:0:0:0:
213,192,260316,1,0,0:0:0:0:
42,192,260316,1,0,0:0:0:0:
298,192,260423,1,0,0:0:0:0:
469,192,260423,1,0,0:0:0:0:
384,192,260423,1,0,0:0:0:0:
128,192,260637,1,0,0:0:0:0:
213,192,260745,1,0,0:0:0:0:
298,192,260745,1,0,0:0:0:0:
42,192,260852,1,0,0:0:0:0:
128,192,260852,1,0,0:0:0:0:
469,192,260852,1,0,0:0:0:0:
384,192,260852,1,0,0:0:0:0:
469,192,261066,1,0,0:0:0:0:
298,192,261066,1,0,0:0:0:0:
42,192,261066,1,0,0:0:0:0:
213,192,261280,1,0,0:0:0:0:
384,192,261280,1,0,0:0:0:0:
469,192,261280,1,0,0:0:0:0:
42,192,261495,1,0,0:0:0:0:
128,192,261495,1,0,0:0:0:0:
298,192,261495,1,0,0:0:0:0:
384,192,261602,1,0,0:0:0:0:
213,192,261602,1,0,0:0:0:0:
298,192,261709,1,0,0:0:0:0:
469,192,261709,1,0,0:0:0:0:
42,192,261709,1,0,0:0:0:0:
128,192,261709,1,0,0:0:0:0:
213,192,261923,1,0,0:0:0:0:
469,192,261923,1,0,0:0:0:0:
384,192,261923,1,0,0:0:0:0:
42,192,262030,1,0,0:0:0:0:
298,192,262030,1,0,0:0:0:0:
128,192,262137,1,0,0:0:0:0:
42,192,262352,1,0,0:0:0:0:
384,192,262352,1,0,0:0:0:0:
469,192,262352,128,0,262780:0:0:0:0:
213,192,262352,128,0,262780:0:0:0:0:
128,192,262780,1,0,0:0:0:0:
42,192,262780,1,0,0:0:0:0:
213,192,262995,1,0,0:0:0:0:
128,192,262995,1,0,0:0:0:0:
298,192,263209,1,0,0:0:0:0:
213,192,263209,1,0,0:0:0:0:
384,192,263423,1,0,0:0:0:0:
469,192,263423,1,0,0:0:0:0:
42,192,263450,1,0,0:0:0:0:
128,192,263450,1,0,0:0:0:0:
213,192,264173,1,0,0:0:0:0:
128,192,264227,1,0,0:0:0:0:
42,192,264280,128,0,267709:0:0:0:0:
384,192,264280,128,0,265995:0:0:0:0:
