osu file format v14

[General]
AudioFilename: audio.ogg
AudioLeadIn: 0
PreviewTime: 70125
Countdown: 0
SampleSet: Normal
StackLeniency: 0.7
Mode: 1
LetterboxInBreaks: 0
WidescreenStoryboard: 1

[Editor]
DistanceSpacing: 0.8
BeatDivisor: 4
GridSize: 32
TimelineZoom: 1.3

[Metadata]
Title:RE:WIND (Cut Ver.)
TitleUnicode:RE:WIND (Cut Ver.)
Artist:ISEGYE IDOL
ArtistUnicode:이세계아이돌
Creator:arien666
Version:Muzukashii
Source:
Tags:korean pop kpop k-pop 영바이브 youngvibe young_vibe 우왁굳 오영택 woowakgood 아이네 ine 징버거 jingburger 릴파 lilpa 주르르 jururu 고세구 gosegu 비챤 viichan 망냥냥 mangnyangnyang mangnyannyan 이세돌 isedol 왁타버스 waktaverse 버츄얼 유튜버 브이튜버 브이추버 virtual youtuber vtuber 리와인드 rewind short version marksman666 Cryceptio CRHIX
BeatmapID:4402048
BeatmapSetID:2097529

[Difficulty]
HPDrainRate:6
CircleSize:1.2
OverallDifficulty:5
ApproachRate:1.7
SliderMultiplier:1.4
SliderTickRate:1

[Events]
//Background and Video events
0,0,"BG.jpg",0,-69
Video,-1655,"nothololivesorry.mp4"
//Break Periods
//Storyboard Layer 0 (Background)
//Storyboard Layer 1 (Fail)
//Storyboard Layer 2 (Pass)
//Storyboard Layer 3 (Foreground)
//Storyboard Layer 4 (Overlay)
//Storyboard Sound Samples

[TimingPoints]
1983,428.571428571429,4,1,0,55,1,0
13978,-100,4,1,0,75,0,0
70554,-100,4,1,0,85,0,1
97983,-100,4,1,0,85,0,0
111692,-100,4,1,0,75,0,0
112120,-100,4,1,0,70,0,0
112549,-100,4,1,0,65,0,0
112978,-100,4,1,0,60,0,0
113406,-100,4,1,0,55,0,0
113835,-100,4,1,0,50,0,0
114263,-100,4,1,0,45,0,0
114692,-100,4,1,0,40,0,0
115120,-100,4,1,0,35,0,0
115549,-100,4,1,0,30,0,0
115978,-100,4,1,0,25,0,0
116406,-100,4,1,0,20,0,0

[HitObjects]
256,192,1983,5,0,0:0:0:0:
256,192,2625,1,8,0:0:0:0:
256,192,3054,1,0,0:0:0:0:
256,192,3268,1,8,0:0:0:0:
256,192,3697,1,0,0:0:0:0:
256,192,4125,1,8,0:0:0:0:
256,192,4554,1,8,0:0:0:0:
256,192,4768,1,8,0:0:0:0:
256,192,4983,1,0,0:0:0:0:
256,192,5411,1,0,0:0:0:0:
256,192,6054,1,0,0:0:0:0:
256,192,6483,1,0,0:0:0:0:
256,192,6697,1,8,0:0:0:0:
256,192,7125,1,0,0:0:0:0:
256,192,7554,1,8,0:0:0:0:
256,192,7768,1,8,0:0:0:0:
256,192,8197,1,8,0:0:0:0:
256,192,8411,1,0,0:0:0:0:
256,192,8840,1,0,0:0:0:0:
256,192,9268,1,0,0:0:0:0:
256,192,9483,1,0,0:0:0:0:
256,192,9911,1,0,0:0:0:0:
256,192,10125,1,8,0:0:0:0:
256,192,10554,1,0,0:0:0:0:
256,192,10983,1,8,0:0:0:0:
256,192,11411,1,8,0:0:0:0:
256,192,11625,1,0,0:0:0:0:
256,192,11840,1,0,0:0:0:0:
256,192,12268,1,0,0:0:0:0:
256,192,12911,1,0,0:0:0:0:
256,192,13340,1,0,0:0:0:0:
256,192,13554,1,8,0:0:0:0:
256,192,13768,1,0,0:0:0:0:
256,192,15054,1,0,0:0:0:0:
256,192,15268,1,8,0:0:0:0:
256,192,15697,1,4,0:0:0:0:
256,192,16018,1,8,0:0:0:0:
256,192,16340,1,0,0:0:0:0:
256,192,16983,1,0,0:0:0:0:
256,192,17197,1,0,0:0:0:0:
256,192,17411,1,8,0:0:0:0:
256,192,17733,1,8,0:0:0:0:
256,192,18054,1,0,0:0:0:0:
256,192,18697,1,0,0:0:0:0:
256,192,18911,1,8,0:0:0:0:
256,192,19125,1,8,0:0:0:0:
256,192,19447,1,0,0:0:0:0:
256,192,19768,1,8,0:0:0:0:
256,192,20197,1,0,0:0:0:0:
256,192,20411,1,8,0:0:0:0:
256,192,20625,1,0,0:0:0:0:
256,192,21054,1,0,0:0:0:0:
256,192,21268,1,8,0:0:0:0:
256,192,21697,1,0,0:0:0:0:
256,192,22554,1,0,0:0:0:0:
256,192,22875,1,8,0:0:0:0:
256,192,23197,1,0,0:0:0:0:
256,192,23840,1,8,0:0:0:0:
256,192,24054,1,8,0:0:0:0:
256,192,24268,1,0,0:0:0:0:
256,192,24590,1,0,0:0:0:0:
256,192,24911,1,8,0:0:0:0:
256,192,25554,1,0,0:0:0:0:
256,192,25768,1,0,0:0:0:0:
256,192,25983,1,8,0:0:0:0:
256,192,26411,1,0,0:0:0:0:
256,192,26840,1,0,0:0:0:0:
256,192,27268,1,0,0:0:0:0:
256,192,27483,1,0,0:0:0:0:
256,192,27697,1,8,0:0:0:0:
256,192,28018,1,0,0:0:0:0:
256,192,29411,1,12,0:0:0:0:
256,192,29840,1,0,0:0:0:0:
256,192,30054,1,8,0:0:0:0:
256,192,30268,1,0,0:0:0:0:
256,192,30590,1,0,0:0:0:0:
256,192,30911,1,8,0:0:0:0:
256,192,31125,1,0,0:0:0:0:
256,192,31447,1,8,0:0:0:0:
256,192,31768,1,0,0:0:0:0:
256,192,32197,1,0,0:0:0:0:
256,192,32840,1,0,0:0:0:0:
256,192,33268,1,8,0:0:0:0:
256,192,33483,1,8,0:0:0:0:
256,192,33697,1,0,0:0:0:0:
256,192,34018,1,0,0:0:0:0:
256,192,34340,1,8,0:0:0:0:
256,192,34768,1,8,0:0:0:0:
256,192,34983,1,0,0:0:0:0:
256,192,35197,1,0,0:0:0:0:
256,192,35840,1,8,0:0:0:0:
256,192,36268,1,4,0:0:0:0:
256,192,36697,1,8,0:0:0:0:
256,192,36911,1,8,0:0:0:0:
256,192,37125,1,0,0:0:0:0:
256,192,37447,1,0,0:0:0:0:
256,192,37768,1,8,0:0:0:0:
256,192,38197,1,8,0:0:0:0:
256,192,38625,1,0,0:0:0:0:
256,192,39054,1,0,0:0:0:0:
256,192,39483,1,0,0:0:0:0:
256,192,39697,1,0,0:0:0:0:
256,192,40018,1,8,0:0:0:0:
256,192,40340,1,0,0:0:0:0:
256,192,40768,1,8,0:0:0:0:
256,192,40983,1,8,0:0:0:0:
256,192,41197,1,0,0:0:0:0:
256,192,41625,1,8,0:0:0:0:
256,192,41840,1,0,0:0:0:0:
256,192,42054,1,0,0:0:0:0:
256,192,42483,1,0,0:0:0:0:
256,192,42697,1,8,0:0:0:0:
256,192,42804,1,8,0:0:0:0:
256,192,43125,2,0,L|467:192,2,210
256,192,44840,1,0,0:0:0:0:
256,192,45483,1,8,0:0:0:0:
256,192,45911,1,8,0:0:0:0:
256,192,46125,1,0,0:0:0:0:
256,192,46233,1,0,0:0:0:0:
256,192,46554,2,0,L|467:192,2,210
256,192,48268,1,0,0:0:0:0:
256,192,48697,1,8,0:0:0:0:
256,192,48911,1,0,0:0:0:0:
256,192,49018,1,0,0:0:0:0:
256,192,49340,1,8,0:0:0:0:
256,192,49554,1,8,0:0:0:0:
256,192,49983,2,0,L|467:192,2,210
256,192,51697,1,8,0:0:0:0:
256,192,52340,1,0,0:0:0:0:
256,192,52768,1,0,0:0:0:0:
256,192,52983,1,8,0:0:0:0:
256,192,53090,1,8,0:0:0:0:
256,192,53411,2,0,L|467:192,2,210
256,192,55125,1,8,0:0:0:0:
256,192,55340,1,8,0:0:0:0:
256,192,55554,1,0,0:0:0:0:
256,192,55983,1,8,0:0:0:0:
256,192,56840,1,8,0:0:0:0:
256,192,57054,1,0,0:0:0:0:
256,192,57268,1,0,0:0:0:0:
256,192,57483,1,0,0:0:0:0:
256,192,57697,1,8,0:0:0:0:
256,192,58125,1,8,0:0:0:0:
256,192,58340,1,0,0:0:0:0:
256,192,58447,1,0,0:0:0:0:
256,192,58768,1,8,0:0:0:0:
256,192,59411,1,8,0:0:0:0:
256,192,59733,1,0,0:0:0:0:
256,192,60054,1,0,0:0:0:0:
256,192,60268,1,8,0:0:0:0:
256,192,60483,1,0,0:0:0:0:
256,192,60697,1,0,0:0:0:0:
256,192,60911,1,0,0:0:0:0:
256,192,61125,1,8,0:0:0:0:
256,192,61554,1,8,0:0:0:0:
256,192,61768,1,0,0:0:0:0:
256,192,61875,1,0,0:0:0:0:
256,192,62197,1,8,0:0:0:0:
256,192,62840,1,0,0:0:0:0:
256,192,63268,1,8,0:0:0:0:
256,192,63483,1,8,0:0:0:0:
256,192,63590,1,8,0:0:0:0:
256,192,63804,1,8,0:0:0:0:
256,192,64018,1,0,0:0:0:0:
256,192,64125,1,0,0:0:0:0:
256,192,64340,1,8,0:0:0:0:
256,192,64554,1,0,0:0:0:0:
256,192,64983,1,0,0:0:0:0:
256,192,65197,1,0,0:0:0:0:
256,192,65625,1,8,0:0:0:0:
256,192,65840,1,8,0:0:0:0:
256,192,66054,1,0,0:0:0:0:
256,192,66268,1,0,0:0:0:0:
256,192,66483,1,8,0:0:0:0:
256,192,66697,1,8,0:0:0:0:
32,192,66911,2,0,L|320:192,1,280
256,192,68625,5,4,0:0:0:0:
256,192,69054,1,4,0:0:0:0:
256,192,69268,1,4,0:0:0:0:
256,192,69483,1,12,0:0:0:0:
256,192,69697,1,12,0:0:0:0:
256,192,70554,1,4,0:0:0:0:
256,192,70983,1,8,0:0:0:0:
256,192,71197,1,0,0:0:0:0:
256,192,71625,1,0,0:0:0:0:
256,192,71840,1,0,0:0:0:0:
256,192,72054,1,8,0:0:0:0:
256,192,72483,1,0,0:0:0:0:
256,192,72697,1,8,0:0:0:0:
256,192,72911,1,0,0:0:0:0:
256,192,73125,1,0,0:0:0:0:
256,192,73340,1,0,0:0:0:0:
256,192,73554,1,8,0:0:0:0:
256,192,73768,1,0,0:0:0:0:
256,192,74197,1,0,0:0:0:0:
256,192,74411,1,8,0:0:0:0:
256,192,74840,1,0,0:0:0:0:
256,192,75054,1,0,0:0:0:0:
256,192,75268,1,8,0:0:0:0:
256,192,75483,1,0,0:0:0:0:
256,192,75911,1,0,0:0:0:0:
256,192,76125,1,8,0:0:0:0:
256,192,76340,1,0,0:0:0:0:
256,192,76447,1,0,0:0:0:0:
256,192,76554,1,0,0:0:0:0:
256,192,76768,1,0,0:0:0:0:
256,192,76983,1,8,0:0:0:0:
256,192,77197,1,0,0:0:0:0:
256,192,77625,1,0,0:0:0:0:
256,192,77840,1,0,0:0:0:0:
256,192,78054,1,8,0:0:0:0:
256,192,78483,1,8,0:0:0:0:
256,192,78697,1,0,0:0:0:0:
256,192,78911,1,0,0:0:0:0:
256,192,79340,1,0,0:0:0:0:
256,192,79554,1,8,0:0:0:0:
256,192,79768,1,0,0:0:0:0:
256,192,80197,1,8,0:0:0:0:
256,192,80411,1,0,0:0:0:0:
256,192,80625,2,0,L|407:194,3,140
256,192,82340,5,12,0:0:0:0:
256,192,82768,1,4,0:0:0:0:
256,192,83197,1,4,0:0:0:0:
256,192,83625,1,4,0:0:0:0:
256,192,84054,1,8,0:0:0:0:
256,192,84268,1,4,0:0:0:0:
256,192,84697,1,8,0:0:0:0:
256,192,84911,1,0,0:0:0:0:
256,192,85340,1,0,0:0:0:0:
256,192,85554,1,8,0:0:0:0:
256,192,85768,1,0,0:0:0:0:
256,192,86197,1,0,0:0:0:0:
256,192,86411,1,8,0:0:0:0:
256,192,86625,1,8,0:0:0:0:
256,192,86840,1,0,0:0:0:0:
256,192,87054,1,0,0:0:0:0:
256,192,87268,1,8,0:0:0:0:
256,192,87483,1,0,0:0:0:0:
256,192,87911,1,0,0:0:0:0:
256,192,88125,1,8,0:0:0:0:
256,192,88340,1,0,0:0:0:0:
256,192,88768,1,0,0:0:0:0:
256,192,88983,1,8,0:0:0:0:
256,192,89197,1,0,0:0:0:0:
256,192,89625,1,0,0:0:0:0:
256,192,89840,1,8,0:0:0:0:
256,192,90054,1,8,0:0:0:0:
256,192,90161,1,8,0:0:0:0:
256,192,90268,1,8,0:0:0:0:
256,192,90483,1,0,0:0:0:0:
256,192,90697,1,8,0:0:0:0:
256,192,91125,1,0,0:0:0:0:
256,192,91340,1,0,0:0:0:0:
256,192,91554,1,8,0:0:0:0:
256,192,91768,1,0,0:0:0:0:
256,192,91875,1,0,0:0:0:0:
256,192,91983,1,0,0:0:0:0:
256,192,92197,1,0,0:0:0:0:
256,192,92411,1,8,0:0:0:0:
256,192,92625,1,0,0:0:0:0:
256,192,93054,1,0,0:0:0:0:
256,192,93268,1,8,0:0:0:0:
256,192,93483,1,8,0:0:0:0:
256,192,93590,1,8,0:0:0:0:
256,192,93697,1,8,0:0:0:0:
256,192,93911,1,0,0:0:0:0:
256,192,94125,1,0,0:0:0:0:
256,192,94554,1,8,0:0:0:0:
256,192,94875,1,8,0:0:0:0:
256,192,95197,1,0,0:0:0:0:
256,192,95625,1,0,0:0:0:0:
256,192,96054,1,0,0:0:0:0:
256,192,97125,1,8,0:0:0:0:
256,192,97554,1,0,0:0:0:0:
256,192,97983,1,12,0:0:0:0:
256,192,98411,1,0,0:0:0:0:
256,192,98840,1,0,0:0:0:0:
256,192,99054,1,0,0:0:0:0:
256,192,99161,1,0,0:0:0:0:
256,192,99268,1,0,0:0:0:0:
256,192,99483,1,8,0:0:0:0:
256,192,99911,1,0,0:0:0:0:
256,192,100125,1,8,0:0:0:0:
256,192,100340,1,0,0:0:0:0:
256,192,100768,1,0,0:0:0:0:
256,192,100983,1,8,0:0:0:0:
256,192,101197,1,0,0:0:0:0:
256,192,101411,1,8,0:0:0:0:
256,192,101840,1,0,0:0:0:0:
256,192,102268,1,0,0:0:0:0:
256,192,102483,1,0,0:0:0:0:
256,192,102590,1,0,0:0:0:0:
256,192,102697,1,0,0:0:0:0:
256,192,102911,1,8,0:0:0:0:
256,192,103340,1,0,0:0:0:0:
256,192,103554,1,8,0:0:0:0:
256,192,103768,1,0,0:0:0:0:
256,192,103983,1,8,0:0:0:0:
256,192,104090,1,8,0:0:0:0:
256,192,104197,1,8,0:0:0:0:
256,192,104411,1,8,0:0:0:0:
256,192,104840,1,12,0:0:0:0:
256,192,105268,1,0,0:0:0:0:
256,192,105697,1,0,0:0:0:0:
256,192,105911,1,0,0:0:0:0:
256,192,106018,1,0,0:0:0:0:
256,192,106125,1,0,0:0:0:0:
256,192,106340,1,8,0:0:0:0:
256,192,106768,1,0,0:0:0:0:
256,192,106983,1,8,0:0:0:0:
256,192,107197,1,0,0:0:0:0:
256,192,107411,1,8,0:0:0:0:
256,192,107518,1,8,0:0:0:0:
256,192,107625,1,8,0:0:0:0:
256,192,107840,1,8,0:0:0:0:
256,192,108268,1,8,0:0:0:0:
256,192,108697,1,0,0:0:0:0:
256,192,109125,1,0,0:0:0:0:
256,192,109340,1,0,0:0:0:0:
256,192,109447,1,0,0:0:0:0:
256,192,109554,1,0,0:0:0:0:
256,192,109768,1,8,0:0:0:0:
256,192,110197,1,0,0:0:0:0:
256,192,110411,1,0,0:0:0:0:
256,192,110625,1,8,0:0:0:0:
256,192,110840,1,8,0:0:0:0:
256,192,111697,8,0,116840,0:0:0:0:
