osu file format v14

[General]
AudioFilename: audio.mp3
AudioLeadIn: 0
PreviewTime: 164543
Countdown: 0
SampleSet: Soft
StackLeniency: 0.7
Mode: 0
LetterboxInBreaks: 0
WidescreenStoryboard: 1

[Editor]
DistanceSpacing: 2.1
BeatDivisor: 4
GridSize: 16
TimelineZoom: 1.1

[Metadata]
Title:diorama
TitleUnicode:diorama
Artist:IRyS
ArtistUnicode:IRyS
Creator:Mrgglock
Version:Astromi's Insane
Source:
Tags:astromi ||:Caesura of Despair CoD EP hololive ホロライブ english holoen project: hope virtual youtuber vsinger vtuber アイリス ch. japanese jpop j-pop TAKAHIRO MORIMOTO 森本貴大 rock jrock j-rock
BeatmapID:3127080
BeatmapSetID:1524304

[Difficulty]
HPDrainRate:5
CircleSize:3.6
OverallDifficulty:8.2
ApproachRate:9
SliderMultiplier:1.7
SliderTickRate:1

[Events]
//Background and Video events
0,0,"bg.jpg",0,0
//Break Periods
2,182123,186513
//Storyboard Layer 0 (Background)
//Storyboard Layer 1 (Fail)
//Storyboard Layer 2 (Pass)
//Storyboard Layer 3 (Foreground)
//Storyboard Layer 4 (Overlay)
//Storyboard Sound Samples

[TimingPoints]
5463,333.333333333333,6,2,1,35,1,0
5463,-142.857142857143,8,2,1,35,0,0
7296,333.333333333333,2,2,1,35,1,8
7296,-142.857142857143,8,2,1,35,0,0
7962,333.333333333333,6,2,1,35,1,8
7962,-142.857142857143,8,2,1,35,0,0
9795,333.333333333333,2,2,1,35,1,8
9795,-142.857142857143,8,2,1,35,0,0
10461,333.333333333333,6,2,1,35,1,8
10461,-142.857142857143,8,2,1,35,0,0
12294,333.333333333333,2,2,1,35,1,8
12294,-142.857142857143,8,2,1,35,0,0
12960,333.333333333333,6,2,1,35,1,8
12960,-142.857142857143,6,2,1,35,0,0
14793,333.333333333333,2,2,1,50,1,8
14793,-142.857142857143,8,2,1,50,0,0
15459,333.333333333333,6,2,1,50,1,0
15459,-125,8,2,1,50,0,0
17292,333.333333333333,2,2,1,50,1,8
17292,-125,8,2,1,50,0,0
17958,333.333333333333,6,2,1,50,1,8
17958,-125,8,2,1,50,0,0
19791,333.333333333333,2,2,1,50,1,8
19791,-125,8,2,1,50,0,0
20457,333.333333333333,6,2,1,50,1,8
20457,-125,8,2,1,50,0,0
22290,333.333333333333,2,2,1,50,1,8
22290,-125,8,2,1,50,0,0
22956,333.333333333333,6,2,1,50,1,8
22956,-125,8,2,1,50,0,0
24789,333.333333333333,2,2,1,50,1,8
24789,-125,8,2,1,50,0,0
25455,333.333333333333,6,2,1,50,1,0
25455,-100,8,2,1,50,0,0
27288,333.333333333333,6,2,1,50,1,8
27288,-100,8,2,1,50,0,0
27954,333.333333333333,6,2,1,50,1,8
27954,-100,8,2,1,50,0,0
29787,333.333333333333,6,2,1,50,1,8
29787,-100,8,2,1,50,0,0
30453,333.333333333333,6,2,1,50,1,8
30453,-100,8,2,1,50,0,0
32286,333.333333333333,6,2,1,50,1,8
32286,-100,8,2,1,50,0,0
32952,333.333333333333,6,2,1,50,1,8
32952,-100,8,2,1,50,0,0
34785,333.333333333333,2,2,1,50,1,8
34785,-100,8,2,1,50,0,0
35452,333.333333333333,4,2,1,65,1,0
35452,-111.111111111111,4,2,1,65,0,0
46368,-111.111111111111,4,2,1,5,0,0
46451,-111.111111111111,4,2,1,65,0,0
56118,-222.222222222222,4,2,1,65,0,0
56785,-90.9090909090909,4,2,1,65,0,1
58868,-90.9090909090909,4,2,1,5,0,1
58951,-90.9090909090909,4,2,1,65,0,1
72701,-90.9090909090909,4,2,1,5,0,1
72785,-90.9090909090909,4,2,1,65,0,1
75451,-100,4,2,1,65,0,0
78118,-142.857142857143,4,2,1,65,0,0
80785,333.333333333333,3,2,1,65,1,8
80785,-111.111111111111,4,2,1,65,0,0
81785,333.333333333333,7,2,1,65,1,0
81785,-100,4,2,1,65,0,0
88785,333.333333333333,6,2,1,65,1,8
88785,-100,4,2,1,65,0,0
90785,-166.666666666667,4,2,1,65,0,0
91367,-166.666666666667,4,2,1,5,0,0
91451,333.333333333333,6,2,1,50,1,0
91451,-125,4,2,1,50,0,0
93284,333.333333333333,2,2,1,50,1,8
93284,-125,4,2,1,50,0,0
93951,333.333333333333,6,2,1,50,1,8
93951,-125,4,2,1,50,0,0
95784,333.333333333333,2,2,1,50,1,8
95784,-125,4,2,1,50,0,0
96451,333.333333333333,6,2,1,50,1,8
96451,-125,4,2,1,50,0,0
98284,333.333333333333,2,2,1,50,1,8
98284,-125,4,2,1,50,0,0
98951,333.333333333333,6,2,1,50,1,8
98951,-125,6,2,1,50,0,0
100784,333.333333333333,2,2,1,50,1,8
100784,-125,4,2,1,50,0,0
101451,333.333333333333,6,2,1,50,1,0
101451,-100,4,2,1,50,0,0
103284,333.333333333333,2,2,1,50,1,8
103284,-100,4,2,1,50,0,0
103951,333.333333333333,6,2,1,50,1,8
103951,-100,4,2,1,50,0,0
105784,333.333333333333,2,2,1,50,1,8
105784,-100,4,2,1,50,0,0
106367,-100,4,2,1,5,0,0
106451,333.333333333333,6,2,1,50,1,8
106451,-100,4,2,1,50,0,0
108284,333.333333333333,2,2,1,50,1,8
108284,-100,4,2,1,50,0,0
108951,333.333333333333,6,2,1,50,1,8
108951,-100,4,2,1,50,0,0
110784,333.333333333333,2,2,1,50,1,8
110784,-100,4,2,1,50,0,0
111451,333.333333333333,4,2,1,65,1,0
111451,-111.111111111111,4,2,1,65,0,0
122034,-111.111111111111,4,2,1,5,0,0
122117,-99.9999999999999,4,2,1,65,0,0
126117,-142.857142857143,4,2,1,65,0,0
127450,-90.9090909090909,4,2,1,65,0,1
129534,-90.9090909090909,4,2,1,5,0,1
129617,-90.9090909090909,4,2,1,65,0,1
143367,-90.9090909090909,4,2,1,5,0,1
143450,-90.9090909090909,4,2,1,65,0,1
145616,-125,4,2,1,65,0,1
146033,-125,4,2,1,5,0,1
146117,333.333333333333,7,2,1,65,1,0
146117,-100,4,2,1,65,0,0
153117,333.333333333333,4,2,1,65,1,8
153117,-100,4,2,1,65,0,0
155783,333.333333333333,7,2,1,65,1,0
155783,-125,4,2,1,65,0,0
159449,-111.111111111111,4,2,1,65,0,0
160449,-125,4,2,1,65,0,0
162783,333.333333333333,4,2,1,65,1,8
162783,-125,4,2,1,65,0,0
165449,333.333333333333,3,2,1,65,1,1
165449,-90.9090909090909,3,2,1,65,0,1
167115,333.333333333333,3,2,1,80,1,9
167115,-90.9090909090909,3,2,1,80,0,1
169115,333.333333333333,3,2,1,80,1,1
169115,-90.9090909090909,3,2,1,80,0,1
170781,333.333333333333,3,2,1,80,1,9
170781,-90.9090909090909,3,2,1,80,0,1
172781,333.333333333333,3,2,1,80,1,1
172781,-90.9090909090909,3,2,1,80,0,1
174447,333.333333333333,3,2,1,80,1,9
174447,-90.9090909090909,3,2,1,80,0,1
175447,333.333333333333,4,2,1,80,1,9
175447,-90.9090909090909,3,2,1,80,0,1
176780,333.333333333333,4,2,1,80,1,1
176780,-90.9090909090909,4,2,1,80,0,1
181446,-142.857142857143,4,2,1,80,0,0
187113,-142.857142857143,4,2,1,35,0,0
192779,-142.857142857143,4,2,1,50,0,0
195279,-125,4,2,1,50,0,0
196779,-111.111111111111,4,2,1,50,0,0
198113,-111.111111111111,4,2,1,65,0,0
199446,-83.3333333333333,4,2,1,80,0,0
199696,-83.3333333333333,4,2,1,5,0,0
199779,-83.3333333333333,4,2,1,80,0,0
200029,-83.3333333333333,4,2,1,5,0,0
200113,-111.111111111111,4,2,1,80,0,0
200613,-90.9090909090909,4,2,1,80,0,1
200779,333.333333333333,4,2,1,80,1,1
200779,-90.9090909090909,4,2,1,80,0,1
202862,-90.9090909090909,4,2,1,5,0,1
202945,-90.9090909090909,4,2,1,80,0,1
211279,-181.818181818182,4,2,1,80,0,0
211779,-90.9090909090909,4,2,1,80,0,1
216695,-90.9090909090909,4,2,1,5,0,1
216778,-90.9090909090909,4,2,1,80,0,1
219445,-100,4,2,1,65,0,0
222112,-142.857142857143,4,2,1,65,0,0
224778,333.333333333333,4,2,1,65,1,0
224778,-100,4,2,1,65,0,0
227361,-100,4,2,1,5,0,0
227444,-100,4,2,1,80,0,0
230113,333.333333333333,7,2,1,65,1,0
230113,-100,4,2,1,65,0,0
239446,-86.9565217391304,4,2,1,80,0,1
255779,333.333333333333,6,2,1,80,1,9
255779,-86.9565217391304,4,2,1,80,0,1
257779,-166.666666666667,4,2,1,80,0,0
258362,-166.666666666667,4,2,1,5,0,0
258445,333.333333333333,6,2,1,50,1,0
258445,-200,4,2,1,50,0,0
260278,333.333333333333,2,2,1,50,1,8
260278,-200,4,2,1,50,0,0
260945,333.333333333333,6,2,1,35,1,8
260945,-200,4,2,1,35,0,0
262778,333.333333333333,2,2,1,35,1,8
262778,-200,4,2,1,35,0,0
263361,-200,4,2,1,5,0,0
263445,333.333333333333,6,2,1,35,1,8
263445,-200,4,2,1,35,0,0
265278,333.333333333333,2,2,1,35,1,8
265278,-200,4,2,1,35,0,0
265945,333.333333333333,6,2,1,35,1,8
265945,-200,6,2,1,35,0,0
267778,333.333333333333,2,2,1,35,1,8
268445,333.333333333333,6,2,1,35,1,0

[Colours]
Combo1 : 4,68,217
Combo2 : 198,0,99
Combo3 : 130,5,139
Combo4 : 255,138,197
Combo5 : 252,3,78
Combo6 : 3,197,237

[HitObjects]
350,37,5463,6,0,L|365:163,1,118.999996368408,2|0,2:2|0:0,0:0:0:0:
429,227,5962,2,0,L|414:353,1,118.999996368408,2|0,2:2|0:0,0:0:0:0:
313,273,6462,1,2,2:2:0:0:
160,83,7296,6,0,B|113:76|113:76|85:90|85:90|46:83,1,118.999996368408,2|2,2:2|2:2,0:0:0:0:
46,82,7962,2,0,P|23:137|36:194,1,118.999996368408,2|0,2:2|0:0,0:0:0:0:
160,307,8462,2,0,P|182:252|169:195,1,118.999996368408,2|0,2:2|0:0,0:0:0:0:
38,308,8961,1,2,2:2:0:0:
253,359,9795,6,0,B|344:319|333:405|421:364,1,178.499994552612,2|0,2:2|0:0,0:0:0:0:
463,272,10461,2,0,B|477:198|477:198|447:166,1,118.999996368408,2|0,2:2|0:0,0:0:0:0:
351,122,10961,2,0,B|336:48|336:48|366:16,1,118.999996368408,2|0,2:2|0:0,0:0:0:0:
476,65,11460,1,2,2:2:0:0:
209,6,12294,6,0,L|222:125,1,118.999996368408,2|2,2:2|2:2,0:0:0:0:
222,124,12960,2,0,P|163:115|110:142,1,118.999996368408,2|0,2:2|0:0,0:0:0:0:
129,250,13460,2,0,P|187:258|240:231,1,118.999996368408,2|0,2:2|0:0,0:0:0:0:
319,167,13959,1,2,2:2:0:0:
334,343,15459,6,0,P|400:357|456:312,1,136,6|2,1:2|2:2,0:0:0:0:
378,164,15959,2,0,B|376:252|376:252|391:228|417:207,1,136,2|2,1:2|2:2,0:0:0:0:
502,48,16459,2,0,B|400:3|410:100|308:53,1,204,2|0,1:2|0:0,0:0:0:0:
94,6,17292,2,0,L|102:95,2,68,2|2|2,1:2|1:2|2:2,0:0:0:0:
202,112,17958,6,0,L|188:263,1,136,2|2,1:2|2:2,0:0:0:0:
49,357,18458,2,0,P|110:333|170:362,1,136,2|2,1:2|2:2,0:0:0:0:
340,367,18958,2,0,B|298:323|298:323|322:179,1,204,2|0,1:2|0:0,0:0:0:0:
507,235,19791,2,0,L|418:243,2,68,2|2|2,1:2|1:2|2:2,0:0:0:0:
392,95,20457,6,0,P|330:112|267:81,1,136,2|2,1:2|2:2,0:0:0:0:
138,181,20957,2,0,B|162:158|164:121|164:121|178:156|210:171,1,136,2|2,1:2|2:2,0:0:0:0:
196,289,21457,2,0,B|121:276|121:276|75:300|75:300|1:287,1,204,2|0,1:2|0:0,0:0:0:0:
8,112,22290,2,0,P|26:140|28:174,2,68,2|2|2,1:2|1:2|2:2,0:0:0:0:
210,26,22956,6,0,B|142:-3|149:60|81:29,1,136,2|2,1:2|2:2,0:0:0:0:
257,117,23456,2,0,P|307:74|313:8,1,136,2|2,1:2|2:2,0:0:0:0:
161,203,23956,2,0,B|210:193|255:232|255:232|296:196|351:204,1,204,2|0,1:2|0:0,0:0:0:0:
178,316,24789,1,2,1:2:0:0:
332,299,25455,6,0,L|432:286,1,85,6|0,1:2|0:0,0:0:0:0:
296,124,25788,1,10,2:2:0:0:
245,213,25955,2,0,L|145:200,1,85,2|0,1:2|0:0,0:0:0:0:
236,49,26288,1,10,2:2:0:0:
360,195,26455,6,0,P|441:187|483:116,1,170,2|0,1:2|1:1,0:0:0:0:
384,14,26955,2,0,L|393:110,1,85,8|0,2:2|0:0,0:0:0:0:
480,274,27288,2,0,L|487:189,1,85,2|2,1:2|1:2,0:0:0:0:
371,358,27621,1,10,2:2:0:0:
371,358,27954,6,0,P|330:369|289:359,1,85,2|0,1:2|0:0,0:0:0:0:
180,234,28287,1,10,2:2:0:0:
291,191,28454,2,0,P|320:220|332:261,1,85,2|0,1:2|0:0,0:0:0:0:
180,335,28787,1,10,2:2:0:0:
46,160,28954,6,0,B|132:193|123:115|207:147,1,170,2|0,1:2|1:1,0:0:0:0:
39,350,29454,2,0,L|48:253,1,85,8|0,2:2|0:0,0:0:0:0:
78,74,29787,1,2,1:2:0:0:
180,234,29953,1,2,1:2:0:0:
213,50,30120,1,10,2:2:0:0:
213,50,30453,6,0,L|313:37,1,85,2|0,1:2|0:0,0:0:0:0:
295,199,30786,1,10,2:2:0:0:
464,118,30953,2,0,L|379:107,1,85,2|0,1:2|0:0,0:0:0:0:
214,143,31286,1,10,2:2:0:0:
382,253,31453,6,0,B|442:285|497:246|497:246|473:243|449:228,1,170,2|0,1:2|1:1,0:0:0:0:
296,357,31953,2,0,P|255:366|214:355,1,85,8|0,2:2|0:0,0:0:0:0:
67,288,32286,2,0,P|95:318|106:359,1,85,2|2,1:2|1:2,0:0:0:0:
188,171,32619,1,10,2:2:0:0:
188,171,32952,6,0,L|176:266,1,85,2|0,1:2|0:0,0:0:0:0:
99,128,33285,1,10,2:2:0:0:
278,63,33452,2,0,L|290:158,1,85,2|0,1:2|0:0,0:0:0:0:
189,20,33785,1,10,2:2:0:0:
389,97,33952,6,0,B|436:141|436:141|407:242,1,170,6|0,1:2|1:1,0:0:0:0:
428,359,34452,1,8,2:2:0:0:
299,253,34618,1,0,1:1:0:0:
228,369,34785,2,0,L|318:357,1,85,6|2,1:2|2:2,0:0:0:0:
106,313,35118,1,10,2:2:0:0:
106,313,35202,1,8,0:0:0:0:
106,313,35285,1,10,2:2:0:0:
174,200,35452,6,0,P|191:233|192:273,1,76.4999976654053,4|2,1:2|2:2,0:0:0:0:
68,201,35785,1,10,2:2:0:0:
148,104,35952,2,0,B|224:71|215:142|294:109,1,152.999995330811,0|0,1:1|1:1,0:0:0:0:
405,34,36452,2,0,L|394:123,1,76.4999976654053,10|0,2:2|0:0,0:0:0:0:
489,264,36785,2,0,L|507:112,1,152.999995330811,2|2,1:2|1:2,0:0:0:0:
384,201,37285,5,10,2:2:0:0:
512,374,37618,5,2,1:2:0:0:
238,305,37952,6,0,B|297:294|297:294|332:310|332:310|385:299,1,152.999995330811,6|2,1:2|1:2,0:0:0:0:
279,129,38452,2,0,P|257:161|254:199,1,76.4999976654053,10|0,2:2|0:0,0:0:0:0:
135,59,38785,2,0,P|173:61|208:46,1,76.4999976654053,0|0,1:1|1:1,0:0:0:0:
145,218,39118,2,0,P|129:185|98:162,1,76.4999976654053,8|0,2:2|0:0,0:0:0:0:
2,325,39451,6,0,B|52:343|103:324|103:324|78:343|67:363,1,152.999995330811,0|8,1:1|2:2,0:0:0:0:
219,300,39951,1,0,1:1:0:0:
219,300,40118,2,0,L|229:377,1,76.4999976654053,2|2,2:2|1:2,0:0:0:0:
337,312,40451,1,10,2:2:0:0:
291,213,40618,1,2,2:2:0:0:
410,145,40785,6,0,L|400:222,1,76.4999976654053,4|2,1:2|2:2,0:0:0:0:
512,115,41118,1,10,2:2:0:0:
352,54,41285,2,0,B|276:21|285:92|206:59,1,152.999995330811,0|0,1:1|1:1,0:0:0:0:
103,138,41785,2,0,P|100:100|86:64,1,76.4999976654053,10|0,2:2|0:0,0:0:0:0:
191,226,42118,2,0,P|193:188|207:152,1,76.4999976654053,2|0,1:2|0:0,0:0:0:0:
89,268,42451,1,2,1:2:0:0:
293,211,42618,5,10,2:2:0:0:
85,64,42951,5,2,1:2:0:0:
157,333,43285,6,0,B|200:338|226:309|226:309|258:333|298:326,1,152.999995330811,6|2,1:2|1:2,0:0:0:0:
323,143,43785,2,0,P|299:173|292:210,1,76.4999976654053,10|0,2:2|0:0,0:0:0:0:
473,92,44118,1,0,1:1:0:0:
423,216,44285,1,0,1:1:0:0:
342,53,44451,2,0,P|304:47|268:59,1,76.4999976654053,10|2,2:2|2:2,0:0:0:0:
100,226,44785,5,14,2:2:0:0:
48,61,44951,1,0,1:1:0:0:
196,151,45118,1,0,1:1:0:0:
6,153,45285,5,14,2:2:0:0:
151,38,45451,1,0,1:1:0:0:
94,248,45618,1,2,1:2:0:0:
157,16,45785,2,0,L|239:8,1,76.4999976654053,14|0,2:2|1:1,0:0:0:0:
442,101,46118,2,0,L|323:89,1,114.749996498108,4|0,1:2|0:0,0:0:0:0:
301,89,46451,6,0,P|283:122|282:160,1,76.4999976654053,10|0,2:2|0:0,0:0:0:0:
188,250,46785,2,0,P|186:212|169:178,1,76.4999976654053,2|0,1:2|1:1,0:0:0:0:
75,251,47118,1,10,2:2:0:0:
191,353,47285,6,0,B|267:320|258:391|337:358,1,152.999995330811,2|2,1:2|1:2,0:0:0:0:
446,286,47785,2,0,L|455:383,1,76.4999976654053,10|0,2:2|0:0,0:0:0:0:
304,260,48118,1,0,1:1:0:0:
304,260,48285,1,0,1:1:0:0:
394,123,48451,2,0,L|385:220,1,76.4999976654053,10|2,2:2|2:2,0:0:0:0:
338,40,48785,6,0,P|411:21|474:60,1,152.999995330811,2|10,1:2|2:2,0:0:0:0:
288,127,49285,1,2,1:2:0:0:
288,127,49618,2,0,P|251:136|214:129,1,76.4999976654053,2|10,1:2|2:2,0:0:0:0:
78,30,49951,6,0,B|114:66|114:66|92:169,1,152.999995330811,2|0,1:2|1:1,0:0:0:0:
7,304,50451,2,0,L|0:227,1,76.4999976654053,8|0,2:2|0:0,0:0:0:0:
175,297,50785,1,2,1:2:0:0:
77,376,50951,1,0,1:1:0:0:
137,208,51118,2,0,P|173:197|210:205,1,76.4999976654053,10|2,2:2|2:2,0:0:0:0:
286,374,51451,6,0,L|293:297,1,76.4999976654053,4|2,1:2|2:2,0:0:0:0:
383,184,51785,2,0,L|390:261,1,76.4999976654053,10|0,2:2|0:0,0:0:0:0:
319,79,52118,1,0,1:1:0:0:
478,152,52285,1,0,1:1:0:0:
283,202,52451,2,0,P|247:213|210:205,1,76.4999976654053,8|0,2:2|0:0,0:0:0:0:
76,90,52785,2,0,B|45:144|79:194|79:194|83:173|99:159,1,152.999995330811,6|8,1:2|2:2,0:0:0:0:
199,64,53285,5,6,1:2:0:0:
283,308,53618,5,14,2:2:0:0:
478,152,53951,6,0,B|421:142|421:142|378:162|378:162|313:149,1,152.999995330811,6|0,1:2|1:1,0:0:0:0:
182,219,54451,1,12,2:2:0:0:
302,58,54618,1,0,1:1:0:0:
135,131,54785,1,0,1:1:0:0:
283,308,54951,6,0,L|295:220,1,76.4999976654053,12|0,2:2|1:1,0:0:0:0:
175,323,55285,1,0,1:1:0:0:
403,384,55451,2,0,L|391:296,1,76.4999976654053,12|0,2:2|1:1,0:0:0:0:
333,145,55785,5,8,2:2:0:0:
315,138,55868,1,8,2:2:0:0:
296,136,55951,1,8,2:2:0:0:
277,138,56035,1,8,2:2:0:0:
259,144,56118,2,0,P|222:153|185:144,1,76.4999976654053,10|2,2:2|2:2,0:0:0:0:
222,51,56618,1,2,2:2:0:0:
32,40,56785,6,0,L|42:134,1,93.5000028533936,4|2,1:2|2:2,0:0:0:0:
231,312,57118,1,10,2:2:0:0:
160,139,57285,1,2,1:2:0:0:
88,313,57451,2,0,P|44:326|0:314,1,93.5000028533936,2|0,2:2|1:1,0:0:0:0:
41,132,57785,1,10,2:2:0:0:
234,211,57951,6,0,P|278:224|322:212,1,93.5000028533936,2|0,2:2|1:1,0:0:0:0:
325,47,58285,2,0,P|291:78|279:123,1,93.5000028533936,2|8,2:2|2:2,0:0:0:0:
439,208,58618,2,0,B|477:242|477:242|460:329,1,140.25000428009,2|0,1:2|0:0,0:0:0:0:
454,359,58951,2,0,L|350:367,1,93.5000028533936,2|8,1:2|2:2,0:0:0:0:
160,314,59285,6,0,P|204:325|261:303,1,93.5000028533936,2|0,2:2|1:1,0:0:0:0:
340,210,59618,1,2,2:2:0:0:
205,103,59785,2,0,B|198:230|198:230|209:200|236:185,1,187.000005706787,10|0,2:2|0:0,0:0:0:0:
309,99,60285,1,0,1:1:0:0:
98,10,60451,2,0,L|111:109,1,93.5000028533936,8|0,2:2|0:0,0:0:0:0:
192,272,60785,6,0,B|291:239|273:324|370:291,1,187.000005706787,0|8,1:1|2:2,0:0:0:0:
484,192,61285,1,0,1:1:0:0:
369,95,61451,2,0,L|378:188,1,93.5000028533936,2|0,2:2|1:1,0:0:0:0:
477,60,61785,1,10,2:2:0:0:
295,7,61951,6,0,P|270:52|268:100,1,93.5000028533936,2|0,2:2|1:1,0:0:0:0:
183,178,62285,1,2,2:2:0:0:
7,50,62451,2,0,B|50:6|105:25|105:25|122:69|181:62,1,187.000005706787,10|0,2:2|0:0,0:0:0:0:
285,177,62951,1,0,1:1:0:0:
66,224,63118,2,0,P|52:179|65:135,1,93.5000028533936,10|0,2:2|0:0,0:0:0:0:
210,310,63451,6,0,B|112:275|132:362|32:322,1,187.000005706787,2|8,1:2|2:2,0:0:0:0:
183,178,63951,1,0,1:1:0:0:
314,359,64118,2,0,B|380:394|441:351|441:351|413:353|389:333,1,187.000005706787,2|8,2:2|2:2,0:0:0:0:
296,219,64618,1,0,0:0:0:0:
477,139,64785,6,0,L|468:232,1,93.5000028533936,6|0,1:2|0:0,0:0:0:0:
298,112,65118,1,10,2:2:0:0:
464,8,65285,5,6,1:2:0:0:
296,219,65618,5,14,2:2:0:0:
125,14,65951,6,0,B|74:62|74:62|116:184,1,187.000005706787,6|0,1:2|1:1,0:0:0:0:
165,266,66451,1,8,2:2:0:0:
303,120,66618,1,0,1:1:0:0:
303,120,66701,1,8,2:2:0:0:
303,120,66785,2,0,L|210:111,1,93.5000028533936,2|0,1:2|1:1,0:0:0:0:
402,52,67118,1,10,2:2:0:0:
419,65,67201,1,8,2:2:0:0:
435,83,67284,1,10,2:2:0:0:
446,103,67367,1,8,2:2:0:0:
452,126,67451,6,0,L|460:224,1,93.5000028533936,4|2,1:2|2:2,0:0:0:0:
422,359,67785,1,10,2:2:0:0:
342,229,67951,1,2,1:2:0:0:
292,361,68118,2,0,P|248:373|203:363,1,93.5000028533936,2|0,2:2|1:1,0:0:0:0:
99,256,68451,1,10,2:2:0:0:
231,162,68618,2,0,L|245:261,1,93.5000028533936,2|0,2:2|1:2,0:0:0:0:
125,134,68951,2,0,L|139:35,1,93.5000028533936,2|8,2:2|2:2,0:0:0:0:
244,254,69285,5,6,1:2:0:0:
63,381,69618,5,14,2:2:0:0:
7,132,69951,6,0,B|71:158|126:134|126:134|91:164|84:182,1,187.000005706787,6|0,1:2|1:1,0:0:0:0:
202,336,70451,2,0,P|246:348|290:335,1,93.5000028533936,8|0,2:2|0:0,0:0:0:0:
389,165,70785,2,0,P|356:197|345:242,1,93.5000028533936,0|0,1:1|1:1,0:0:0:0:
500,113,71118,1,10,2:2:0:0:
334,69,71285,1,2,2:2:0:0:
485,299,71451,6,0,L|495:195,1,93.5000028533936,12|0,2:2|1:1,0:0:0:0:
434,30,71785,1,0,1:1:0:0:
250,205,71951,1,14,2:2:0:0:
413,139,72118,1,2,1:2:0:0:
324,304,72285,1,2,1:2:0:0:
271,123,72451,2,0,B|215:113|215:113|183:131|183:131|136:122,1,140.25000428009,14|0,2:2|0:0,0:0:0:0:
115,115,72785,6,0,L|105:214,1,93.5000028533936,6|0,1:2|1:1,0:0:0:0:
29,287,73118,1,12,2:2:0:0:
209,207,73285,1,0,1:1:0:0:
6,61,73451,2,0,L|15:154,1,93.5000028533936,14|0,2:2|1:1,0:0:0:0:
237,111,73785,1,12,2:2:0:0:
101,15,73951,1,0,1:1:0:0:
209,207,74118,6,0,P|254:214|296:196,1,93.5000028533936,14|0,2:2|1:1,0:0:0:0:
449,7,74451,1,0,1:1:0:0:
405,193,74618,1,14,2:2:0:0:
345,3,74785,1,2,1:2:0:0:
296,195,74951,1,2,1:2:0:0:
490,101,75119,2,0,L|502:193,1,93.5000028533936,12|0,2:2|0:0,0:0:0:0:
324,328,75451,6,0,B|405:291|397:374|487:332,1,170,6|0,1:2|0:0,0:0:0:0:
296,195,75951,1,0,1:1:0:0:
201,339,76118,1,8,2:2:0:0:
193,205,76285,1,0,1:1:0:0:
324,328,76451,1,2,2:2:0:0:
214,109,76618,6,0,B|155:71|96:107|96:107|120:113|134:132,1,170,10|8,2:2|2:2,0:0:0:0:
0,327,77118,1,0,1:1:0:0:
60,189,77285,1,2,2:2:0:0:
201,339,77451,2,0,L|116:327,1,85,10|2,2:2|2:2,0:0:0:0:
315,369,77785,1,10,2:2:0:0:
336,366,77868,1,8,2:2:0:0:
357,364,77951,1,8,2:2:0:0:
378,362,78034,1,8,2:2:0:0:
399,360,78118,6,0,B|442:324|442:324|419:189,1,178.499994552612,6|0,1:2|0:0,0:0:0:0:
254,122,78785,2,0,B|298:113|337:144|337:144|366:104|415:103,1,178.499994552612,6|0,1:2|0:0,0:0:0:0:
270,226,79451,1,10,2:2:0:0:
124,284,80785,5,4,1:2:0:0:
146,135,80951,2,0,L|153:85,3,38.2499988327027,8|8|8|8,2:2|2:2|2:2|2:2,0:0:0:0:
34,162,81285,1,4,1:2:0:0:
246,195,81451,1,8,2:2:0:0:
248,173,81534,1,8,2:2:0:0:
251,152,81617,1,8,2:2:0:0:
254,131,81700,1,8,2:2:0:0:
257,110,81785,6,0,L|342:99,1,85,6|0,1:2|0:0,0:0:0:0:
428,10,82118,1,10,2:2:0:0:
509,175,82285,2,0,L|424:186,1,85,2|0,1:2|0:0,0:0:0:0:
280,273,82618,1,2,1:2:0:0:
395,361,82785,2,0,L|384:276,2,85,10|2|2,2:2|2:2|1:2,0:0:0:0:
214,196,83285,2,0,B|128:229|137:151|53:183,1,170,2|2,1:2|2:2,0:0:0:0:
60,354,83785,2,0,P|81:317|84:275,1,85,2|8,1:2|2:2,0:0:0:0:
264,356,84118,6,0,L|179:345,1,85,2|0,1:2|0:0,0:0:0:0:
309,198,84451,1,10,2:2:0:0:
399,313,84618,2,0,L|484:302,1,85,2|0,1:2|0:0,0:0:0:0:
419,131,84951,1,2,1:2:0:0:
309,197,85118,2,0,P|268:209|228:197,2,85,10|2|2,2:2|2:2|1:2,0:0:0:0:
348,33,85618,2,0,B|412:22|412:22|452:43|452:43|517:32,1,170,10|10,2:2|2:2,0:0:0:0:
309,168,86118,1,2,1:2:0:0:
218,34,86285,1,8,2:2:0:0:
180,219,86451,6,0,P|140:231|99:221,1,85,6|0,1:2|0:0,0:0:0:0:
123,82,86785,1,10,2:2:0:0:
309,168,86951,2,0,P|321:207|311:248,1,85,2|0,1:2|0:0,0:0:0:0:
262,361,87285,1,2,1:2:0:0:
180,219,87451,2,0,L|171:312,2,85,10|2|2,2:2|2:2|1:2,0:0:0:0:
254,88,87951,2,0,B|296:53|340:67|340:67|357:106|410:103,1,170,2|2,1:2|2:2,0:0:0:0:
466,186,88451,1,2,1:2:0:0:
409,14,88618,1,8,2:2:0:0:
309,167,88785,6,0,L|300:260,1,85,6|0,1:2|0:0,0:0:0:0:
364,369,89118,1,10,2:2:0:0:
182,260,89285,2,0,L|191:353,1,85,6|0,1:2|0:0,0:0:0:0:
300,251,89618,1,2,1:2:0:0:
212,83,89785,2,0,L|203:176,2,85,14|2|2,2:2|2:2|1:2,0:0:0:0:
31,196,90285,2,0,P|71:208|111:197,1,85,14|0,2:2|1:1,0:0:0:0:
303,134,90618,1,10,2:2:0:0:
97,49,90785,2,0,P|32:78|96:91,1,178.499994552612,2|0,1:2|0:0,0:0:0:0:
212,83,91451,6,0,B|249:117|249:117|231:202,1,136,2|2,1:2|2:2,0:0:0:0:
123,334,91951,2,0,L|106:199,1,136,2|2,1:2|2:2,0:0:0:0:
230,322,92451,2,0,P|324:350|402:290,1,204,2|0,1:2|0:0,0:0:0:0:
313,156,93284,2,0,L|303:237,2,68,2|2|2,1:2|1:2|2:2,0:0:0:0:
325,20,93951,6,0,B|393:-9|386:54|454:23,1,136,2|2,1:2|2:2,0:0:0:0:
252,81,94451,2,0,B|226:57|224:20|224:20|210:55|178:70,1,136,2|2,1:2|2:2,0:0:0:0:
313,156,94951,2,0,B|356:228|312:295|312:295|303:263|277:244,1,204,2|0,1:2|0:0,0:0:0:0:
149,357,95784,2,0,P|181:366|214:357,2,68,2|2|2,1:2|1:2|2:2,0:0:0:0:
18,207,96451,6,0,B|67:198|67:198|101:216|101:216|150:208,1,136,2|2,1:2|2:2,0:0:0:0:
282,75,96951,2,0,B|241:107|241:107|263:194,1,136,2|2,1:2|2:2,0:0:0:0:
421,276,97451,2,0,B|312:239|332:332|226:296,1,204,2|0,1:2|0:0,0:0:0:0:
445,167,98284,2,0,L|526:177,2,68,2|2|2,1:2|1:2|2:2,0:0:0:0:
320,146,98784,1,0,0:0:0:0:
320,146,98951,6,0,P|343:122|352:89,1,68,2|0,1:2|0:0,0:0:0:0:
220,166,99284,1,2,2:2:0:0:
220,166,99451,2,0,P|228:198|252:222,1,68,2|0,1:2|0:0,0:0:0:0:
252,69,99784,1,2,2:2:0:0:
252,69,99950,2,0,P|219:59|187:68,1,68,2|0,1:2|0:0,0:0:0:0:
113,149,100284,1,0,0:0:0:0:
34,107,100451,1,0,0:0:0:0:
76,28,100617,1,0,0:0:0:0:
113,149,101451,6,0,L|127:245,1,85,6|0,1:2|0:0,0:0:0:0:
83,370,101784,1,10,2:2:0:0:
244,232,101951,2,0,L|230:328,1,85,6|0,1:2|0:0,0:0:0:0:
40,276,102284,1,10,2:2:0:0:
221,132,102451,2,0,B|305:100|296:178|382:145,1,170,6|0,1:2|1:1,0:0:0:0:
402,313,102951,2,0,P|370:284|359:244,1,85,8|0,2:2|0:0,0:0:0:0:
512,78,103284,1,2,1:2:0:0:
479,230,103451,1,2,1:2:0:0:
389,105,103617,1,10,2:2:0:0:
389,105,103951,6,0,L|289:92,1,85,6|0,1:2|0:0,0:0:0:0:
204,26,104284,1,10,2:2:0:0:
215,203,104451,2,0,L|300:193,1,85,6|0,1:2|0:0,0:0:0:0:
115,114,104784,1,10,2:2:0:0:
3,299,104951,6,0,B|65:287|65:287|106:308|106:308|166:297,1,170,6|0,1:2|1:1,0:0:0:0:
10,113,105451,2,0,P|-4:153|0:195,1,85,8|0,2:2|0:0,0:0:0:0:
205,65,105784,1,2,1:2:0:0:
128,208,105951,1,2,1:2:0:0:
212,42,106117,2,0,P|271:19|330:39,1,127.5,10|0,2:2|0:0,0:0:0:0:
348,66,106451,6,0,L|360:151,1,85,6|0,1:2|1:1,0:0:0:0:
311,259,106784,1,14,2:2:0:0:
471,175,106951,2,0,L|459:260,1,85,2|12,1:2|2:2,0:0:0:0:
257,161,107284,1,2,1:2:0:0:
418,350,107451,6,0,P|459:362|500:350,1,85,14|0,2:2|1:1,0:0:0:0:
359,150,107784,1,8,2:2:0:0:
283,351,107951,1,0,1:1:0:0:
459,259,108117,1,8,2:2:0:0:
257,161,108284,2,0,L|244:253,1,85,6|2,1:2|1:2,0:0:0:0:
146,356,108617,2,0,L|133:264,1,85,10|0,2:2|1:1,0:0:0:0:
31,167,108951,6,0,P|72:179|113:167,1,85,14|0,2:2|1:1,0:0:0:0:
256,118,109284,1,2,1:2:0:0:
109,6,109451,2,0,P|78:35|68:77,1,85,14|0,2:2|1:1,0:0:0:0:
205,202,109784,1,2,1:2:0:0:
287,9,109951,6,0,B|341:28|396:7|396:7|369:28|357:50,1,170,14|0,2:2|1:1,0:0:0:0:
300,203,110451,1,8,2:2:0:0:
196,44,110617,1,0,1:1:0:0:
407,160,110784,2,0,L|395:253,1,85,6|2,1:2|2:2,0:0:0:0:
508,240,111117,1,10,2:2:0:0:
508,240,111201,1,8,2:2:0:0:
508,240,111284,1,10,2:2:0:0:
427,349,111451,6,0,P|392:360|355:349,1,76.4999976654053,4|2,1:2|2:2,0:0:0:0:
300,203,111784,1,10,2:2:0:0:
173,369,111951,2,0,B|211:332|211:332|188:228,1,152.999995330811,0|0,1:1|1:1,0:0:0:0:
8,268,112451,2,0,L|101:277,1,76.4999976654053,10|0,2:2|0:0,0:0:0:0:
160,133,112784,2,0,L|7:147,1,152.999995330811,2|2,1:2|1:2,0:0:0:0:
78,37,113284,5,10,2:2:0:0:
189,234,113617,5,2,1:2:0:0:
238,27,113951,6,0,B|314:56|306:-14|384:15,1,152.999995330811,6|2,1:2|1:2,0:0:0:0:
494,90,114451,2,0,P|503:53|493:16,1,76.4999976654053,10|0,2:2|0:0,0:0:0:0:
418,160,114784,2,0,P|445:186|481:196,1,76.4999976654053,0|0,1:1|1:1,0:0:0:0:
323,116,115117,2,0,P|314:153|324:190,1,76.4999976654053,8|0,2:2|0:0,0:0:0:0:
428,296,115451,6,0,B|388:264|351:279|351:279|328:314|287:310,1,152.999995330811,0|8,1:1|2:2,0:0:0:0:
99,233,115950,1,0,1:1:0:0:
176,384,116117,2,0,L|186:307,1,76.4999976654053,2|2,2:2|1:2,0:0:0:0:
198,167,116450,1,10,2:2:0:0:
293,311,116617,1,2,2:2:0:0:
186,142,116784,6,0,L|109:132,1,76.4999976654053,4|2,1:2|2:2,0:0:0:0:
0,207,117117,1,10,2:2:0:0:
11,17,117284,2,0,B|70:10|70:10|104:28|104:28|158:21,1,152.999995330811,0|0,1:1|1:1,0:0:0:0:
285,76,117784,2,0,P|285:38|270:3,1,76.4999976654053,10|0,2:2|0:0,0:0:0:0:
400,156,118117,2,0,P|402:79|425:6,1,152.999995330811,2|0,1:2|1:1,0:0:0:0:
281,191,118617,5,10,2:2:0:0:
512,108,118950,5,2,1:2:0:0:
331,286,119284,6,0,P|258:300|196:258,1,152.999995330811,6|2,1:2|1:2,0:0:0:0:
288,114,119784,2,0,L|279:202,1,76.4999976654053,10|0,2:2|0:0,0:0:0:0:
125,8,120117,1,0,1:1:0:0:
167,161,120284,1,0,1:1:0:0:
250,23,120450,2,0,P|287:14|324:21,1,76.4999976654053,10|2,2:2|2:2,0:0:0:0:
468,114,120784,5,14,2:2:0:0:
282,196,120950,1,0,1:1:0:0:
475,245,121117,1,0,1:1:0:0:
288,109,121284,5,14,2:2:0:0:
374,287,121450,1,0,1:1:0:0:
425,100,121617,1,2,1:2:0:0:
266,290,121784,2,0,B|209:267|216:320|157:294,1,114.749996498108,14|0,2:2|0:0,0:0:0:0:
122,283,122117,6,0,L|111:198,1,85,4|0,1:2|1:1,0:0:0:0:
67,96,122450,1,10,2:2:0:0:
214,193,122617,1,0,1:1:0:0:
188,8,122784,2,0,L|177:93,1,85,10|0,2:2|1:1,0:0:0:0:
319,242,123117,1,10,2:2:0:0:
271,97,123284,1,2,1:2:0:0:
454,152,123450,6,0,P|413:141|373:152,1,85,12|0,2:2|1:1,0:0:0:0:
443,313,123784,2,0,P|472:283|483:242,1,85,14|0,2:2|1:1,0:0:0:0:
296,228,124117,1,2,1:2:0:0:
357,375,124284,1,12,2:2:0:0:
275,214,124450,2,0,L|180:201,1,85,2|0,1:2|1:1,0:0:0:0:
115,299,124784,5,14,2:2:0:0:
115,299,125117,1,8,2:2:0:0:
16,132,125284,1,8,2:2:0:0:
190,202,125450,1,8,2:2:0:0:
11,253,125617,1,8,2:2:0:0:
136,106,125784,1,10,2:2:0:0:
162,91,125867,1,8,2:2:0:0:
195,88,125950,1,10,2:2:0:0:
224,98,126033,1,8,2:2:0:0:
247,121,126117,6,0,P|313:141|284:32,1,237.999992736817,4|2,1:2|2:2,0:0:0:0:
175,365,127450,6,0,P|130:378|86:365,1,93.5000028533936,4|2,1:2|2:2,0:0:0:0:
204,196,127784,1,10,2:2:0:0:
292,364,127950,1,2,1:2:0:0:
100,241,128117,2,0,P|86:196|99:152,1,93.5000028533936,2|0,2:2|1:1,0:0:0:0:
298,257,128450,1,10,2:2:0:0:
220,76,128617,6,0,L|208:170,1,93.5000028533936,2|0,2:2|1:1,0:0:0:0:
343,92,128950,2,0,L|331:-2,1,93.5000028533936,2|8,2:2|2:2,0:0:0:0:
298,257,129284,2,0,B|369:227|363:292|431:264,1,140.25000428009,2|0,1:2|0:0,0:0:0:0:
466,252,129617,2,0,P|453:207|421:173,1,93.5000028533936,2|8,1:2|2:2,0:0:0:0:
325,353,129950,6,0,P|280:364|233:353,1,93.5000028533936,2|0,2:2|1:1,0:0:0:0:
119,312,130284,1,2,2:2:0:0:
176,106,130450,2,0,B|223:163|194:231|194:231|185:207|162:194,1,187.000005706787,10|0,2:2|0:0,0:0:0:0:
37,152,130950,1,0,1:1:0:0:
121,25,131117,2,0,P|162:5|208:10,1,93.5000028533936,8|0,2:2|0:0,0:0:0:0:
457,89,131450,6,0,B|414:45|359:64|359:64|342:108|283:101,1,187.000005706787,0|8,1:1|2:2,0:0:0:0:
476,201,131950,1,0,1:1:0:0:
325,291,132117,2,0,L|338:181,1,93.5000028533936,2|0,2:2|1:1,0:0:0:0:
439,323,132450,1,10,2:2:0:0:
238,384,132617,6,0,P|220:340|219:294,1,93.5000028533936,2|0,2:2|1:1,0:0:0:0:
262,118,132950,1,2,2:2:0:0:
114,296,133117,2,0,B|53:274|-3:299|-3:299|32:275|40:251,1,187.000005706787,10|0,2:2|0:0,0:0:0:0:
174,191,133617,1,0,1:1:0:0:
61,117,133784,2,0,L|74:7,1,93.5000028533936,10|0,2:2|0:0,0:0:0:0:
262,118,134117,6,0,B|312:163|312:163|281:278,1,187.000005706787,2|8,1:2|2:2,0:0:0:0:
174,191,134617,1,0,1:1:0:0:
228,34,134784,2,0,B|319:-8|304:86|405:39,1,187.000005706787,2|8,2:2|2:2,0:0:0:0:
417,210,135284,1,0,0:0:0:0:
262,118,135450,6,0,L|253:211,1,93.5000028533936,6|0,1:2|0:0,0:0:0:0:
303,335,135784,1,10,2:2:0:0:
129,215,135950,5,6,1:2:0:0:
390,118,136284,5,14,2:2:0:0:
110,28,136617,6,0,L|128:221,1,187.000005706787,6|0,1:2|1:1,0:0:0:0:
237,118,137117,1,8,2:2:0:0:
174,304,137284,1,0,1:1:0:0:
174,304,137367,1,8,2:2:0:0:
174,304,137450,2,0,P|133:319|85:308,1,93.5000028533936,6|0,1:2|1:1,0:0:0:0:
265,227,137784,1,10,2:2:0:0:
312,374,137950,1,10,2:2:0:0:
425,169,138117,6,0,L|330:157,1,93.5000028533936,4|2,1:2|2:2,0:0:0:0:
130,19,138450,1,10,2:2:0:0:
174,186,138617,1,2,1:2:0:0:
265,31,138784,2,0,L|357:19,1,93.5000028533936,2|0,2:2|1:1,0:0:0:0:
332,157,139117,1,10,2:2:0:0:
97,108,139284,2,0,P|69:145|67:191,1,93.5000028533936,2|0,2:2|1:2,0:0:0:0:
181,341,139617,2,0,P|162:298|123:273,1,93.5000028533936,2|8,2:2|2:2,0:0:0:0:
10,363,139950,5,6,1:2:0:0:
174,186,140284,5,14,2:2:0:0:
331,367,140617,6,0,B|395:354|395:354|441:378|441:378|509:364,1,187.000005706787,6|0,1:2|1:1,0:0:0:0:
342,165,141117,2,0,L|330:257,1,93.5000028533936,8|0,2:2|0:0,0:0:0:0:
485,188,141450,2,0,L|473:96,1,93.5000028533936,0|0,1:1|1:1,0:0:0:0:
236,148,141784,1,10,2:2:0:0:
378,41,141950,1,2,2:2:0:0:
329,257,142117,6,0,P|285:272|240:261,1,93.5000028533936,12|0,2:2|1:1,0:0:0:0:
62,129,142450,1,0,1:1:0:0:
133,373,142617,1,14,2:2:0:0:
143,193,142784,1,2,1:2:0:0:
19,323,142950,1,2,1:2:0:0:
150,97,143117,2,0,B|220:63|218:128|283:97,1,140.25000428009,14|0,2:2|0:0,0:0:0:0:
316,85,143450,6,0,P|336:126|337:173,1,93.5000028533936,6|0,1:2|1:1,0:0:0:0:
253,383,143784,1,12,2:2:0:0:
176,190,143950,1,0,1:1:0:0:
367,305,144117,2,0,L|459:295,1,93.5000028533936,14|0,2:2|1:1,0:0:0:0:
316,85,144450,1,12,2:2:0:0:
226,273,144617,1,0,1:1:0:0:
326,61,144784,6,0,L|418:71,1,93.5000028533936,14|0,2:2|1:1,0:0:0:0:
175,189,145117,1,0,1:1:0:0:
235,3,145284,1,14,2:2:0:0:
338,197,145450,1,2,1:2:0:0:
338,197,145533,1,0,1:2:0:0:
338,197,145617,2,0,B|278:184|278:184|231:204|231:204|162:186,1,170,14|0,2:2|0:0,0:0:0:0:
135,202,146117,6,0,B|86:245|86:245|122:346,1,170,6|8,1:2|2:2,0:0:0:0:
286,291,146617,2,0,L|201:281,1,85,2|0,1:2|0:0,0:0:0:0:
335,379,146950,1,2,1:2:0:0:
376,226,147117,2,0,L|460:216,1,85,8|0,2:2|0:0,0:0:0:0:
267,151,147450,2,0,L|271:201,3,42.5,2|2|2|2,1:2|2:2|1:2|2:2,0:0:0:0:
366,81,147783,2,0,L|362:131,3,42.5,10|2|2|2,2:2|2:2|2:2|2:2,0:0:0:0:
273,42,148117,1,2,1:2:0:0:
424,2,148283,1,10,2:2:0:0:
267,150,148450,6,0,L|178:141,1,85,2|2,1:2|2:2,0:0:0:0:
92,66,148783,1,10,2:2:0:0:
0,227,148950,2,0,P|40:238|81:228,1,85,2|2,1:2|2:2,0:0:0:0:
182,141,149283,1,2,1:2:0:0:
251,308,149450,2,0,P|210:319|169:309,1,85,10|2,2:2|2:2,0:0:0:0:
81,228,149783,1,2,1:2:0:0:
281,128,149950,2,0,L|290:217,1,85,10|0,2:2|0:0,0:0:0:0:
389,334,150283,2,0,L|398:244,1,85,8|0,2:2|1:1,0:0:0:0:
415,125,150617,5,8,2:2:0:0:
415,125,150700,1,0,0:0:0:0:
415,125,150783,2,0,L|480:118,3,42.5,6|2|2|2,1:2|2:2|2:2|2:2,0:0:0:0:
338,40,151117,1,10,2:2:0:0:
309,25,151200,1,2,2:2:0:0:
278,21,151283,1,2,1:2:0:0:
247,26,151367,1,2,2:2:0:0:
219,41,151450,2,0,L|212:106,3,42.5,2|2|2|2,2:2|2:2|1:2|2:2,0:0:0:0:
114,131,151783,2,0,L|121:196,3,42.5,10|2|2|2,2:2|2:2|2:2|2:2,0:0:0:0:
211,227,152117,5,6,1:2:0:0:
206,262,152200,1,2,2:2:0:0:
203,298,152283,1,2,1:2:0:0:
198,334,152367,1,2,2:2:0:0:
195,369,152450,2,0,L|237:373,3,42.5,10|2|2|2,2:2|2:2|2:2|2:2,0:0:0:0:
70,296,152783,2,0,L|5:303,1,42.5,2|2,1:2|2:2,0:0:0:0:
211,227,152950,2,0,L|276:234,1,42.5,10|2,2:2|2:2,0:0:0:0:
114,131,153117,6,0,L|30:122,1,85,6|0,1:2|0:0,0:0:0:0:
107,0,153450,1,10,2:2:0:0:
209,72,153617,2,0,L|293:63,1,85,2|0,1:2|0:0,0:0:0:0:
434,11,153950,2,0,P|414:48|412:89,2,85,2|10|2,1:2|2:2|2:2,0:0:0:0:
278,169,154450,5,2,1:2:0:0:
436,246,154617,2,0,P|413:210|378:187,1,85,14|2,2:2|1:2,0:0:0:0:
246,336,154950,1,2,1:2:0:0:
282,142,155117,1,14,2:2:0:0:
356,301,155283,1,2,1:2:0:0:
170,264,155450,1,14,2:2:0:0:
378,187,155617,1,2,2:2:0:0:
180,150,155783,6,0,B|113:126|124:191|52:165,1,136,6|2,1:2|2:2,0:0:0:0:
29,11,156283,2,0,P|52:35|59:67,1,68,2|8,1:2|2:2,0:0:0:0:
156,5,156616,1,2,2:2:0:0:
249,70,156783,6,0,L|325:61,1,68,2|8,1:2|2:2,0:0:0:0:
425,0,157116,1,2,1:2:0:0:
512,166,157283,2,0,L|373:149,1,136,2|2,2:2|1:2,0:0:0:0:
317,355,157783,1,10,2:2:0:0:
401,252,157949,1,2,2:2:0:0:
270,152,158116,6,0,B|232:188|232:188|256:270,1,136,2|2,1:2|2:2,0:0:0:0:
181,359,158616,2,0,P|148:367|115:360,1,68,2|8,1:2|2:2,0:0:0:0:
15,314,158949,1,2,2:2:0:0:
112,210,159116,2,0,P|136:233|145:265,1,68,2|8,1:2|2:2,0:0:0:0:
10,152,159449,1,0,1:1:0:0:
105,76,159616,2,0,B|162:66|162:66|196:84|196:84|252:74,1,152.999995330811,8|0,2:2|1:1,0:0:0:0:
308,183,160116,1,10,2:2:0:0:
366,12,160283,1,2,2:2:0:0:
296,209,160449,6,0,P|236:228|174:181,1,136,6|2,1:2|2:2,0:0:0:0:
400,110,160949,2,0,L|406:185,1,68,2|8,1:2|2:2,0:0:0:0:
380,285,161283,1,2,2:2:0:0:
509,171,161449,2,0,L|503:246,1,68,2|8,1:2|2:2,0:0:0:0:
460,377,161783,1,6,1:2:0:0:
319,306,161949,2,0,B|305:290|287:287|287:287|331:257|379:284,1,136,2|2,2:2|1:2,0:0:0:0:
147,263,162449,1,10,2:2:0:0:
222,377,162616,1,2,2:2:0:0:
311,173,162783,6,0,B|242:141|248:204|181:173,1,136,6|2,1:2|2:2,0:0:0:0:
190,10,163283,2,0,P|206:39|207:73,1,68,2|8,1:2|2:2,0:0:0:0:
181,173,163616,1,2,2:2:0:0:
84,80,163783,2,0,P|67:109|66:143,1,68,2|8,1:2|2:2,0:0:0:0:
83,245,164116,1,4,1:2:0:0:
301,162,164283,2,0,B|215:139|215:139|180:172,1,136,8|2,2:2|2:2,0:0:0:0:
377,97,164783,2,0,L|452:91,2,68,14|2|14,2:2|1:2|2:2,0:0:0:0:
307,19,165283,1,2,2:2:0:0:
309,252,165449,6,0,B|404:213|385:306|490:256,1,187.000005706787,6|8,1:2|2:2,0:0:0:0:
437,175,165949,1,2,1:2:0:0:
331,343,166115,2,0,P|287:356|242:344,1,93.5000028533936,10|0,2:2|0:0,0:0:0:0:
30,297,166449,2,0,P|73:310|118:298,1,93.5000028533936,2|0,1:2|1:1,0:0:0:0:
113,134,166782,2,0,P|78:165|67:209,1,93.5000028533936,12|0,2:2|0:0,0:0:0:0:
271,221,167115,6,0,L|178:208,1,93.5000028533936,6|0,1:2|1:1,0:0:0:0:
389,148,167448,1,8,2:2:0:0:
337,320,167615,1,2,1:2:0:0:
396,118,167781,2,0,L|489:105,1,93.5000028533936,10|0,2:2|1:1,0:0:0:0:
257,31,168115,6,0,B|214:-13|159:6|159:6|142:50|83:43,1,187.000005706787,14|0,2:2|1:1,0:0:0:0:
3,125,168615,1,12,2:2:0:0:
143,211,168781,2,0,P|162:168|162:122,1,93.5000028533936,2|0,1:2|1:1,0:0:0:0:
362,0,169115,6,0,L|391:202,1,187.000005706787,6|8,1:2|2:2,0:0:0:0:
489,93,169615,1,2,1:2:0:0:
298,192,169781,2,0,L|284:284,1,93.5000028533936,10|0,2:2|0:0,0:0:0:0:
397,380,170115,2,0,P|412:336|404:290,1,93.5000028533936,2|0,1:2|1:1,0:0:0:0:
165,295,170448,1,12,2:2:0:0:
271,384,170615,1,0,0:0:0:0:
198,200,170781,6,0,P|152:192|109:209,1,93.5000028533936,6|0,1:2|1:1,0:0:0:0:
128,376,171114,2,0,P|157:340|164:294,1,93.5000028533936,8|2,2:2|1:2,0:0:0:0:
0,117,171447,1,10,2:2:0:0:
62,290,171614,1,0,1:1:0:0:
141,118,171781,2,0,B|230:81|219:167|320:123,1,187.000005706787,14|0,2:2|1:1,0:0:0:0:
217,223,172281,1,12,2:2:0:0:
313,30,172447,2,0,L|319:123,1,93.5000028533936,2|0,1:2|1:1,0:0:0:0:
407,327,172781,6,0,P|428:286|425:240,1,93.5000028533936,6|0,1:2|1:1,0:0:0:0:
319,123,173114,1,12,2:2:0:0:
488,177,173281,1,0,1:1:0:0:
309,306,173447,2,0,P|263:319|219:308,1,93.5000028533936,14|2,2:2|1:2,0:0:0:0:
98,171,173781,1,12,2:2:0:0:
25,325,173947,1,0,1:1:0:0:
197,217,174114,1,12,2:2:0:0:
21,120,174281,1,0,1:1:0:0:
121,377,174447,6,0,L|131:268,1,93.5000028533936,14|0,2:2|1:1,0:0:0:0:
202,129,174780,1,12,2:2:0:0:
249,302,174947,1,0,1:1:0:0:
293,120,175113,1,14,2:2:0:0:
340,289,175280,1,2,1:2:0:0:
512,189,175447,6,0,B|389:153|389:153|352:199,1,187.000005706787,12|0,2:2|1:1,0:0:0:0:
278,35,175947,2,0,L|376:20,1,93.5000028533936,12|2,2:2|1:2,0:0:0:0:
244,200,176280,1,0,1:1:0:0:
152,89,176447,2,0,L|54:74,1,93.5000028533936,12|0,2:2|0:0,0:0:0:0:
201,281,176780,6,0,P|245:293|289:279,1,93.5000028533936,6|0,1:2|1:1,0:0:0:0:
460,153,177113,1,8,2:2:0:0:
508,294,177280,1,0,1:1:0:0:
361,197,177446,1,12,2:2:0:0:
307,362,177613,1,0,1:1:0:0:
244,200,177780,1,12,2:2:0:0:
398,294,177946,1,0,1:1:0:0:
281,109,178113,2,0,P|236:96|192:110,1,93.5000028533936,14|0,2:2|1:1,0:0:0:0:
292,279,178446,1,0,1:1:0:0:
388,76,178613,5,14,2:2:0:0:
232,358,178946,5,14,2:2:0:0:
74,207,179280,6,0,B|119:197|160:229|160:229|190:188|241:187,1,187.000005706787,14|8,2:2|2:2,0:0:0:0:
266,189,179696,1,8,2:2:0:0:
266,189,179780,1,8,2:2:0:0:
103,301,179946,1,8,2:2:0:0:
103,301,180030,1,8,2:2:0:0:
103,301,180113,1,8,2:2:0:0:
147,117,180280,6,0,L|140:66,2,46.7500014266968,8|8|8,2:2|2:2|2:2,0:0:0:0:
255,285,180613,1,8,2:2:0:0:
255,285,180696,1,8,2:2:0:0:
255,285,180780,2,0,L|306:278,3,46.7500014266968,8|8|8|8,2:2|2:2|2:2|2:2,0:0:0:0:
367,361,181113,2,0,L|418:368,3,46.7500014266968,8|8|8|8,2:2|2:2|2:2|2:2,0:0:0:0:
482,280,181446,1,2,1:2:0:0:
258,46,187113,5,2,1:2:0:0:
47,118,187446,2,0,B|105:64|170:94|170:94|198:157|276:133,1,237.999992736817,6|0,2:2|0:0,0:0:0:0:
174,266,188780,6,0,P|85:280|25:222,2,178.499994552612,2|2|6,1:2|2:2|2:2,0:0:0:0:
120,181,189946,1,0,1:1:0:0:
120,181,190113,1,6,1:2:0:0:
387,43,191279,6,0,B|401:106|401:106|385:145|385:145|399:216,2,178.499994552612,6|6|4,1:2|2:2|2:2,0:0:0:0:
485,352,192779,6,0,B|407:310|343:352|343:352|277:399|198:351|198:351|259:363|302:323,1,416.499987289429,4|2,2:2|2:2,0:0:0:0:
239,152,194113,2,0,B|202:183|202:183|228:269,1,118.999996368408,4|0,1:2|0:0,0:0:0:0:
363,235,194613,5,14,2:2:0:0:
106,148,194946,5,14,2:2:0:0:
359,62,195279,6,0,B|431:33|419:97|490:68,1,136,6|0,1:2|0:0,0:0:0:0:
275,3,195779,1,0,1:1:0:0:
275,3,196113,2,0,P|253:66|280:127,1,136,8|2,2:2|2:2,0:0:0:0:
359,62,196613,1,2,2:2:0:0:
316,217,196779,6,0,P|278:227|238:216,1,76.4999976654053,4|8,1:2|2:2,0:0:0:0:
391,150,197113,2,0,P|429:140|469:151,1,76.4999976654053,0|2,1:1|2:2,0:0:0:0:
383,368,197446,1,10,2:2:0:0:
316,217,197613,1,2,2:2:0:0:
482,263,197779,1,10,2:2:0:0:
482,263,197863,1,8,2:2:0:0:
482,263,197946,2,0,L|476:314,1,38.2499988327027,8|8,2:2|2:2,0:0:0:0:
261,370,198113,5,6,1:2:0:0:
261,370,198446,1,8,2:2:0:0:
186,167,198613,1,8,2:2:0:0:
132,372,198779,1,10,2:2:0:0:
308,167,198946,1,8,2:2:0:0:
92,272,199113,1,8,2:2:0:0:
295,369,199279,1,8,2:2:0:0:
243,88,199446,6,0,B|211:63|207:22|207:22|195:61|159:78,1,152.999995330811,14|0,2:2|0:0,0:0:0:0:
333,27,199779,2,0,B|365:52|369:93|369:93|381:54|416:37,1,152.999995330811,12|0,2:2|0:0,0:0:0:0:
473,128,200113,2,0,L|479:179,3,38.2499988327027,10|8|8|8,2:2|2:2|2:2|2:2,0:0:0:0:
403,247,200446,2,0,L|397:298,1,38.2499988327027,10|8,2:2|2:2,0:0:0:0:
261,367,200613,6,0,P|303:385|348:377,1,93.5000028533936,6|0,1:2|0:0,0:0:0:0:
211,220,200945,1,2,2:2:0:0:
130,360,201112,1,10,2:2:0:0:
304,275,201279,1,2,1:2:0:0:
104,163,201445,2,0,L|115:260,1,93.5000028533936,2|0,2:2|1:1,0:0:0:0:
228,200,201779,1,10,2:2:0:0:
142,66,201945,6,0,P|97:57|55:76,1,93.5000028533936,2|0,2:2|1:1,0:0:0:0:
258,107,202279,2,0,P|303:115|345:96,1,93.5000028533936,2|8,2:2|2:2,0:0:0:0:
462,28,202612,2,0,B|500:62|500:62|483:149,1,140.25000428009,2|0,1:2|0:0,0:0:0:0:
481,179,202945,2,0,L|492:271,1,93.5000028533936,2|8,1:2|2:2,0:0:0:0:
366,367,203279,6,0,L|379:266,1,93.5000028533936,2|0,2:2|1:1,0:0:0:0:
345,95,203612,1,2,2:2:0:0:
255,248,203779,2,0,B|191:274|136:250|136:250|172:274|178:298,1,187.000005706787,10|0,2:2|1:2,0:0:0:0:
81,149,204279,1,0,1:1:0:0:
0,342,204445,2,0,P|44:355|88:343,1,93.5000028533936,8|0,2:2|0:0,0:0:0:0:
259,152,204779,6,0,B|192:140|192:140|149:163|149:163|81:149,1,187.000005706787,0|8,1:1|2:2,0:0:0:0:
130,54,205279,1,0,1:1:0:0:
223,238,205445,2,0,P|273:247|316:226,1,93.5000028533936,2|0,2:2|1:1,0:0:0:0:
412,110,205779,1,10,2:2:0:0:
477,282,205945,6,0,L|491:189,1,93.5000028533936,2|4,2:2|1:2,0:0:0:0:
396,15,206279,1,2,2:2:0:0:
251,126,206445,2,0,B|369:158|369:158|411:109,1,187.000005706787,10|0,2:2|1:2,0:0:0:0:
198,20,206945,1,0,1:1:0:0:
122,205,207112,2,0,P|167:219|212:207,1,93.5000028533936,10|0,2:2|0:0,0:0:0:0:
42,50,207445,6,0,B|-2:109|30:176|30:176|38:151|60:137,1,187.000005706787,2|8,1:2|2:2,0:0:0:0:
148,302,207945,1,0,1:1:0:0:
223,139,208112,2,0,B|266:95|321:114|321:114|338:158|397:151,1,187.000005706787,2|8,2:2|2:2,0:0:0:0:
407,66,208612,1,0,0:0:0:0:
297,231,208779,6,0,P|252:242|208:229,1,93.5000028533936,6|0,1:2|0:0,0:0:0:0:
98,174,209112,1,10,2:2:0:0:
231,356,209279,5,6,1:2:0:0:
158,87,209612,5,14,2:2:0:0:
10,235,209945,6,0,P|87:283|174:249,1,187.000005706787,6|0,1:2|1:1,0:0:0:0:
347,177,210445,2,0,L|254:164,1,93.5000028533936,8|0,2:2|1:1,0:0:0:0:
236,165,210696,1,8,2:2:0:0:
236,165,210779,1,6,1:2:0:0:
314,274,210945,1,0,1:1:0:0:
171,251,211112,1,10,2:2:0:0:
273,362,211279,6,0,P|316:375|365:360,1,93.5000028533936,2|2,1:2|2:2,0:0:0:0:
500,195,211779,5,14,2:2:0:0:
314,274,211945,1,2,1:2:0:0:
399,36,212112,2,0,L|415:145,1,93.5000028533936,14|0,2:2|1:1,0:0:0:0:
229,191,212445,1,2,1:2:0:0:
280,37,212612,5,10,2:2:0:0:
314,274,212945,5,10,2:2:0:0:
77,308,213279,5,10,2:2:0:0:
43,71,213612,5,10,2:2:0:0:
412,128,213945,6,0,B|313:95|331:180|234:147,1,187.000005706787,6|0,1:2|1:1,0:0:0:0:
344,314,214445,2,0,P|366:273|366:227,1,93.5000028533936,8|0,2:2|0:0,0:0:0:0:
170,286,214779,2,0,P|193:325|233:348,1,93.5000028533936,0|0,1:1|1:1,0:0:0:0:
199,139,215112,1,10,2:2:0:0:
64,258,215278,1,2,2:2:0:0:
211,114,215445,6,0,L|307:124,1,93.5000028533936,12|0,2:2|1:1,0:0:0:0:
172,248,215778,1,0,1:1:0:0:
13,60,215945,1,14,2:2:0:0:
64,258,216112,1,2,1:2:0:0:
121,50,216278,1,6,1:2:0:0:
172,248,216445,2,0,L|311:233,1,140.25000428009,10|0,2:2|0:0,0:0:0:0:
337,231,216778,6,0,P|358:271|360:318,1,93.5000028533936,6|0,1:2|1:1,0:0:0:0:
512,130,217112,1,12,2:2:0:0:
464,313,217278,1,0,1:1:0:0:
379,137,217445,2,0,P|334:125|289:138,1,93.5000028533936,14|0,2:2|1:1,0:0:0:0:
207,330,217778,1,12,2:2:0:0:
337,231,217945,1,0,1:1:0:0:
140,145,218112,6,0,L|128:248,1,93.5000028533936,14|0,2:2|1:1,0:0:0:0:
245,130,218445,1,0,1:1:0:0:
62,84,218612,1,14,2:2:0:0:
225,238,218778,1,2,1:2:0:0:
39,195,218945,1,2,1:2:0:0:
181,338,219112,2,0,P|225:351|270:340,1,93.5000028533936,12|0,2:2|0:0,0:0:0:0:
474,270,219445,6,0,P|394:288|336:230,1,170,6|0,1:2|0:0,0:0:0:0:
391,78,219945,1,0,1:1:0:0:
239,216,220112,1,8,2:2:0:0:
427,185,220278,1,0,1:1:0:0:
234,103,220445,1,2,2:2:0:0:
110,297,220612,6,0,B|197:260|187:339|272:302,1,170,10|8,2:2|2:2,0:0:0:0:
326,150,221112,1,0,1:1:0:0:
392,294,221278,1,2,2:2:0:0:
226,187,221446,2,0,L|234:103,1,85,10|2,2:2|2:2,0:0:0:0:
124,15,221779,1,10,2:2:0:0:
125,36,221862,1,8,2:2:0:0:
127,57,221945,1,8,2:2:0:0:
129,78,222029,1,8,2:2:0:0:
131,99,222112,6,0,B|70:135|12:101|12:101|40:102|58:80,1,178.499994552612,6|0,1:2|0:0,0:0:0:0:
263,20,222778,2,0,B|252:81|252:81|265:119|265:119|252:198,1,178.499994552612,6|0,1:2|0:0,0:0:0:0:
135,235,223445,1,10,2:2:0:0:
398,47,224445,5,8,2:2:0:0:
395,69,224528,1,8,2:2:0:0:
392,91,224612,1,8,2:2:0:0:
389,113,224695,1,8,2:2:0:0:
386,135,224778,6,0,L|473:146,1,85,6|0,1:2|0:0,0:0:0:0:
319,246,225111,1,10,2:2:0:0:
269,82,225278,2,0,L|182:93,1,85,6|0,1:2|0:0,0:0:0:0:
112,287,225611,1,10,2:2:0:0:
234,235,225778,6,0,L|321:246,1,85,6|0,1:2|0:0,0:0:0:0:
178,377,226111,1,10,2:2:0:0:
109,180,226278,2,0,L|22:191,1,85,6|0,1:2|0:0,0:0:0:0:
112,287,226611,5,10,2:2:0:0:
164,96,226778,1,6,1:2:0:0:
0,194,226944,1,2,1:2:0:0:
115,19,227111,2,0,P|177:2|232:31,1,127.5,14|0,2:2|0:0,0:0:0:0:
345,137,227444,5,6,1:2:0:0:
345,137,227778,1,8,2:2:0:0:
411,74,227944,1,8,2:2:0:0:
376,219,228111,1,10,2:2:0:0:
321,49,228278,1,8,2:2:0:0:
500,99,228444,1,8,2:2:0:0:
276,191,228611,1,8,2:2:0:0:
471,250,228778,6,0,L|477:300,2,42.5,6|0|8,1:2|1:2|2:2,0:0:0:0:
345,137,229111,1,4,1:2:0:0:
379,318,229278,1,2,2:2:0:0:
411,74,229444,1,2,1:2:0:0:
281,284,229611,2,0,B|195:317|204:239|120:271,1,170,14|8,2:2|2:2,0:0:0:0:
91,281,230028,1,8,2:2:0:0:
91,281,230113,6,0,L|76:182,1,85,6|0,1:2|0:0,0:0:0:0:
18,79,230446,1,10,2:2:0:0:
203,164,230613,2,0,L|215:79,1,85,2|0,1:2|0:0,0:0:0:0:
114,16,230946,1,2,1:2:0:0:
311,136,231113,2,0,P|388:157|456:106,1,170,10|2,2:2|1:2,0:0:0:0:
318,35,231613,1,2,1:2:0:0:
203,164,231779,2,0,B|177:270|177:270|222:310,1,170,8|2,2:2|1:2,0:0:0:0:
311,136,232279,1,8,2:2:0:0:
448,312,232446,6,0,P|407:323|366:313,1,85,2|0,1:2|0:0,0:0:0:0:
282,244,232779,1,10,2:2:0:0:
427,137,232946,2,0,P|456:166|469:206,1,85,2|0,1:2|0:0,0:0:0:0:
282,244,233279,1,2,1:2:0:0:
383,50,233446,2,0,P|423:38|464:48,2,85,10|2|2,2:2|2:2|1:2,0:0:0:0:
280,216,233946,2,0,B|289:151|289:151|273:116|273:116|282:43,1,170,10|10,2:2|2:2,0:0:0:0:
190,176,234446,1,2,1:2:0:0:
382,75,234613,1,8,2:2:0:0:
192,4,234779,6,0,P|167:37|162:79,1,85,6|0,1:2|0:0,0:0:0:0:
190,176,235113,1,10,2:2:0:0:
31,103,235279,2,0,P|56:136|61:178,1,85,2|0,1:2|0:0,0:0:0:0:
77,276,235613,1,2,1:2:0:0:
274,185,235779,2,0,L|181:175,2,85,10|2|2,2:2|2:2|1:2,0:0:0:0:
378,340,236279,2,0,B|292:307|301:385|217:353,1,170,2|2,1:2|2:2,0:0:0:0:
463,265,236779,2,0,P|487:299|489:341,1,85,2|8,1:2|2:2,0:0:0:0:
377,154,237113,6,0,L|367:247,1,85,6|0,1:2|0:0,0:0:0:0:
488,147,237446,1,10,2:2:0:0:
266,67,237613,2,0,L|276:160,1,85,6|0,1:2|0:0,0:0:0:0:
369,35,237946,1,2,1:2:0:0:
183,3,238113,2,0,P|162:40|159:82,2,85,14|2|2,2:2|2:2|1:2,0:0:0:0:
58,171,238613,2,0,P|54:128|34:91,1,85,14|0,2:2|1:1,0:0:0:0:
162,216,238946,1,10,2:2:0:0:
63,356,239113,1,2,1:2:0:0:
63,356,239446,6,0,B|190:383|190:383|236:336,1,195.500003728867,14|10,2:2|2:2,0:0:0:0:
429,248,239946,1,0,1:1:0:0:
270,187,240113,1,10,2:2:0:0:
374,339,240279,1,0,1:1:0:0:
319,112,240446,6,0,P|273:96|226:109,1,97.7500018644333,10|0,2:2|1:1,0:0:0:0:
112,281,240779,2,0,P|147:248|159:202,1,97.7500018644333,10|0,2:2|1:1,0:0:0:0:
0,14,241113,1,10,2:2:0:0:
54,188,241279,1,0,1:1:0:0:
133,22,241446,2,0,P|178:6|225:19,1,97.7500018644333,14|0,2:2|1:1,0:0:0:0:
422,130,241779,6,0,B|322:85|339:186|226:130,1,195.500003728867,12|10,2:2|2:2,0:0:0:0:
379,217,242279,1,0,1:1:0:0:
321,42,242446,1,10,2:2:0:0:
457,131,242613,1,0,1:1:0:0:
288,275,242779,6,0,L|273:179,1,97.7500018644333,10|0,2:2|1:1,0:0:0:0:
100,53,243113,2,0,P|74:96|73:143,1,97.7500018644333,10|0,2:2|1:1,0:0:0:0:
136,300,243446,1,10,2:2:0:0:
192,135,243613,1,0,1:1:0:0:
30,242,243779,2,0,L|46:350,1,97.7500018644333,14|0,2:2|1:1,0:0:0:0:
222,226,244113,6,0,B|280:213|280:213|338:240|338:240|411:223,1,195.500003728867,12|10,2:2|2:2,0:0:0:0:
284,316,244612,1,0,1:1:0:0:
352,129,244779,1,10,2:2:0:0:
401,318,244946,1,0,1:1:0:0:
244,133,245112,6,0,P|241:82|262:39,1,97.7500018644333,10|0,2:2|1:1,0:0:0:0:
412,207,245446,2,0,P|366:226|317:223,1,97.7500018644333,10|0,2:2|1:1,0:0:0:0:
393,25,245779,2,0,P|437:48|465:87,1,97.7500018644333,10|0,2:2|1:1,0:0:0:0:
466,285,246112,1,14,2:2:0:0:
352,129,246279,1,2,1:2:0:0:
299,306,246446,6,0,L|200:295,1,97.7500018644333,14|0,2:2|1:1,0:0:0:0:
167,120,246779,1,0,1:1:0:0:
331,217,246946,2,0,L|430:206,1,97.7500018644333,14|0,2:2|1:1,0:0:0:0:
262,69,247279,1,0,1:1:0:0:
88,216,247446,6,0,P|67:171|68:123,1,97.7500018644333,14|0,2:2|1:1,0:0:0:0:
201,215,247780,1,0,1:1:0:0:
118,311,247946,2,0,P|69:311|25:290,1,97.7500018644333,12|0,2:2|1:1,0:0:0:0:
167,120,248279,1,0,1:1:0:0:
304,215,248446,2,2,L|295:265,3,48.8750009322167,14|2|2|2,2:2|0:0|0:0|0:0,0:0:0:0:
335,106,248779,6,0,B|290:60|233:80|233:80|215:125|154:118,1,195.500003728867,14|10,2:2|2:2,0:0:0:0:
29,21,249279,1,0,1:1:0:0:
123,207,249446,1,10,2:2:0:0:
162,5,249612,1,0,1:1:0:0:
0,126,249779,6,0,L|13:223,1,97.7500018644333,10|0,2:2|1:1,0:0:0:0:
212,144,250112,2,0,P|172:115|124:111,1,97.7500018644333,10|0,2:2|1:1,0:0:0:0:
176,353,250446,1,10,2:2:0:0:
269,242,250612,1,0,1:1:0:0:
104,207,250779,2,0,L|91:304,1,97.7500018644333,14|0,2:2|1:1,0:0:0:0:
296,347,251112,6,0,B|423:320|423:320|469:367,1,195.500003728867,12|10,2:2|2:2,0:0:0:0:
304,239,251612,1,0,1:1:0:0:
502,259,251779,1,10,2:2:0:0:
326,136,251946,1,0,1:1:0:0:
504,157,252112,6,0,P|507:108|492:62,1,97.7500018644333,10|0,2:2|1:1,0:0:0:0:
250,0,252446,2,0,P|234:46|238:94,1,97.7500018644333,10|0,2:2|1:1,0:0:0:0:
411,205,252779,1,10,2:2:0:0:
349,51,252946,1,0,1:1:0:0:
206,227,253112,2,0,L|303:238,1,97.7500018644333,14|0,2:2|1:1,0:0:0:0:
131,47,253446,6,0,B|78:11|78:11|106:151,1,195.500003728867,12|10,2:2|2:2,0:0:0:0:
106,275,253946,1,0,1:1:0:0:
7,143,254112,1,10,2:2:0:0:
206,227,254279,1,0,1:1:0:0:
20,349,254446,6,0,L|2:252,1,97.7500018644333,10|0,2:2|1:1,0:0:0:0:
216,344,254779,2,0,P|172:365|125:358,1,97.7500018644333,10|0,2:2|1:1,0:0:0:0:
106,155,255112,2,0,P|149:133|196:140,1,97.7500018644333,10|0,2:2|1:1,0:0:0:0:
334,319,255446,1,14,2:2:0:0:
161,240,255612,1,2,1:2:0:0:
371,126,255779,6,0,P|347:85|305:60,1,97.7500018644333,14|0,2:2|1:1,0:0:0:0:
298,229,256112,1,0,1:1:0:0:
445,189,256279,2,0,P|469:147|470:99,1,97.7500018644333,14|0,2:2|1:1,0:0:0:0:
266,143,256612,1,0,1:1:0:0:
422,282,256779,2,0,P|471:282|512:258,1,97.7500018644333,14|0,2:2|1:1,0:0:0:0:
371,126,257112,1,0,1:1:0:0:
329,318,257279,2,0,P|354:360|396:385,1,97.7500018644333,14|0,2:2|1:1,0:0:0:0:
445,189,257612,1,0,1:1:0:0:
221,257,257779,6,0,B|130:220|145:306|46:263,1,178.499994552612,14|0,2:2|0:0,0:0:0:0:
23,258,258445,6,0,L|7:121,2,127.5,2|2|2,1:2|2:2|2:2,0:0:0:0:
135,214,260279,6,0,L|145:121,1,85,2|2,2:2|2:2,0:0:0:0:
208,55,260945,2,0,P|152:32|87:53,2,127.5,2|2|2,2:2|2:2|2:2,0:0:0:0:
285,192,262778,6,0,B|343:181|343:181|379:199|379:199|427:189,1,148.75,2|0,2:2|0:0,0:0:0:0:
458,185,263445,2,0,B|493:218|493:218|477:312,2,127.5,2|2|2,2:2|2:2|2:2,0:0:0:0:
322,289,265278,6,0,L|332:381,1,85,2|2,2:2|2:2,0:0:0:0:
192,283,265945,2,0,L|207:142,1,127.5,2|2,2:2|2:2,0:0:0:0:
396,88,266945,22,1,B|469:155|562:65|480:-61|374:-10|409:39|328:89|256:31,1,382.5,2|2,2:2|2:2,0:0:0:0:
