osu file format v14

[General]
AudioFilename: audio.ogg
AudioLeadIn: 0
PreviewTime: 59927
Countdown: 0
SampleSet: Soft
StackLeniency: 0.7
Mode: 0
LetterboxInBreaks: 0
WidescreenStoryboard: 1

[Editor]
Bookmarks: 3144,15558,26592,37627,48661,59696,81075,84523,95558,101765
DistanceSpacing: 1
BeatDivisor: 4
GridSize: 32
TimelineZoom: 2.2

[Metadata]
Title:Caesura of Despair
TitleUnicode:Caesura of Despair
Artist:IRyS
ArtistUnicode:IRyS
Creator:newton-
Version:Normal
Source:
Tags:lecandy amateurre buzzG Coch japanese pop jpop j-pop english hololive production ホロライブプロダクション en vsinger holoen project hope projecthope vtuber virtual youtuber バーチャル ユーチューバー cover corporation corp original short version ver. ||:Caesura アイリス
BeatmapID:3286358
BeatmapSetID:1603327

[Difficulty]
HPDrainRate:3
CircleSize:3
OverallDifficulty:4
ApproachRate:5
SliderMultiplier:1
SliderTickRate:1

[Events]
//Background and Video events
0,0,"despair.jpg",0,0
Video,-25,"irys.m4v"
//Break Periods
2,27800,37435
//Storyboard Layer 0 (Background)
//Storyboard Layer 1 (Fail)
//Storyboard Layer 2 (Pass)
//Storyboard Layer 3 (Foreground)
//Storyboard Layer 4 (Overlay)
//Storyboard Sound Samples

[TimingPoints]
14,344.827586206897,4,2,1,40,1,0
3462,-100,4,2,1,40,0,0
4152,-100,4,2,1,40,0,0
16566,-100,4,2,1,80,0,0
27600,-100,4,2,1,40,0,0
38635,-100,4,2,1,65,0,0
49669,-100,4,2,1,70,0,0
60704,-100,4,2,1,80,0,0
82083,-100,4,2,1,50,0,0
85531,-100,4,2,1,70,0,0
110358,-100,4,2,1,5,0,0

[Colours]
Combo1 : 128,102,140
Combo2 : 216,216,216
Combo3 : 235,226,207
Combo4 : 124,124,124

[HitObjects]
162,83,3462,5,2,0:0:0:0:
162,83,4152,2,0,P|172:149|175:203,1,100,2|0,0:0|0:0,0:0:0:0:
217,208,4669,2,0,P|208:257|204:307,1,100,2|0,0:0|0:0,0:0:0:0:
201,357,5186,1,2,0:0:0:0:
299,336,5531,2,0,P|348:344|398:348,1,100
478,288,6221,2,0,P|486:238|490:188,1,100,2|2,0:0|0:0,0:0:0:0:
428,110,6910,6,0,P|378:101|328:97,1,100,2|0,0:0|0:0,0:0:0:0:
285,122,7428,2,0,P|235:130|185:134,1,100,2|0,0:0|0:0,0:0:0:0:
138,118,7945,1,2,0:0:0:0:
48,161,8290,2,0,P|52:210|60:260,2,100,0|0|2,0:0|0:0|0:0,0:0:0:0:
37,66,9324,1,2,0:0:0:0:
37,66,9669,5,2,0:0:0:0:
48,161,11048,1,0,0:0:0:0:
59,256,12428,1,0,0:0:0:0:
256,192,12514,12,0,15876,0:0:0:0:
122,98,16566,6,0,P|171:102|221:110,1,100,6|2,3:2|3:2,0:0:0:0:
305,56,17255,2,0,P|354:64|404:68,1,100,2|2,3:2|3:2,0:0:0:0:
442,109,17773,1,2,0:0:0:0:
442,109,17945,2,0,P|433:158|429:208,1,100,4|2,3:2|3:2,0:0:0:0:
384,297,18635,2,0,P|359:292|334:290,1,50,2|0,3:2|3:2,0:0:0:0:
304,252,18979,2,0,P|279:249|254:245,1,50,2|0,3:2|3:2,0:0:0:0:
218,280,19324,6,0,P|226:329|230:379,2,100,6|0|2,3:2|3:2|3:2,0:0:0:0:
134,224,20359,1,0,3:2:0:0:
179,133,20704,2,0,P|215:126|253:123,2,75,10|10|10,3:2|0:0|0:0,0:0:0:0:
145,96,21393,2,0,P|95:104|45:108,1,100,4|10,3:2|3:2,0:0:0:0:
28,207,22083,6,0,P|32:256|40:306,1,100,14|10,0:0|0:0,0:0:0:0:
83,331,22600,2,0,P|132:335|182:343,1,100,6|0,3:2|3:2,0:0:0:0:
230,331,23117,1,8,0:0:0:0:
322,370,23462,2,0,P|371:365|421:357,1,100,14|10,0:0|0:0,0:0:0:0:
457,323,23979,2,0,P|452:273|444:223,1,100,6|0,3:2|3:2,0:0:0:0:
399,201,24497,1,8,0:0:0:0:
303,173,24841,6,0,P|307:123|315:73,1,100,2|8,3:2|0:0,0:0:0:0:
285,33,25359,2,0,P|235:28|185:20,1,100,2|0,0:0|0:0,0:0:0:0:
152,57,25876,1,10,0:0:0:0:
84,128,26221,2,0,P|59:130|34:134,2,50,14|2|2,0:0|3:2|3:2,0:0:0:0:
123,158,26738,2,0,P|131:207|135:257,1,100,6|8,3:2|0:0,0:0:0:0:
126,309,27255,1,8,0:0:0:0:
126,309,27428,2,0,P|121:333|119:358,1,50,10|2,0:0|0:0,0:0:0:0:
83,158,38635,6,0,P|98:91|189:83,2,150,6|2|2,3:2|0:0|3:2,0:0:0:0:
140,240,40014,2,0,P|189:243|239:252,1,100,2|0,0:0|3:2,0:0:0:0:
310,180,40704,2,0,P|359:176|409:167,1,100,2|2,0:0|3:2,0:0:0:0:
483,234,41393,6,0,P|468:301|377:309,2,150,2|2|2,0:0|0:0|3:2,0:0:0:0:
410,168,42773,2,0,P|401:118|397:68,1,100,2|0,0:0|3:2,0:0:0:0:
310,19,43462,2,0,P|260:27|210:31,1,100,2|2,0:0|3:2,0:0:0:0:
111,17,44152,5,2,0:0:0:0:
145,110,44497,2,0,P|148:159|157:209,1,100,2|2,3:2|0:0,0:0:0:0:
57,223,45186,2,0,P|53:272|44:322,1,100,2|2,3:2|0:0,0:0:0:0:
136,361,45876,2,0,P|185:364|235:373,1,100,2|0,3:2|0:0,0:0:0:0:
322,324,46566,1,2,3:2:0:0:
421,332,46910,6,0,P|424:282|433:232,1,100,12|0,0:0|3:2,0:0:0:0:
462,193,47428,1,0,3:2:0:0:
462,193,47600,2,0,P|465:168|468:143,1,50,0|0,3:2|3:2,0:0:0:0:
436,105,47945,2,0,P|432:80|429:55,1,50,0|0,3:2|3:2,0:0:0:0:
422,5,48290,1,8,0:0:0:0:
333,50,48635,6,0,P|308:53|283:56,1,50,8|8,0:0|0:0,0:0:0:0:
242,85,48979,1,8,0:0:0:0:
242,85,49152,2,0,P|217:81|192:78,2,50,0|8|2,3:2|0:0|3:2,0:0:0:0:
265,129,49669,6,0,P|256:178|252:228,1,100,2|10,3:2|0:0,0:0:0:0:
210,255,50186,2,0,P|160:246|110:242,1,100,10|2,3:2|3:2,0:0:0:0:
66,267,50704,1,12,0:0:0:0:
9,184,51048,2,0,P|17:134|21:84,1,100,12|0,0:0|0:0,0:0:0:0:
68,63,51566,1,8,0:0:0:0:
68,63,51738,2,0,P|71:38|74:13,2,50,2|2|14,0:0|3:2|0:0,0:0:0:0:
116,150,52428,6,0,P|165:146|215:137,1,100,4|10,3:2|0:0,0:0:0:0:
255,107,52945,2,0,P|304:110|354:119,1,100,10|2,3:2|0:0,0:0:0:0:
394,148,53462,1,12,0:0:0:0:
460,222,53807,2,0,P|456:271|447:321,1,100,12|0,0:0|0:0,0:0:0:0:
432,371,54324,1,10,0:0:0:0:
432,371,54497,1,2,3:2:0:0:
352,310,54841,2,0,P|327:313|302:316,1,50,12|2,0:0|3:2,0:0:0:0:
261,345,55186,6,0,P|211:348|161:357,1,100,6|10,3:2|0:0,0:0:0:0:
119,329,55704,2,0,P|115:279|106:229,1,100,10|2,3:2|0:0,0:0:0:0:
89,182,56221,1,12,0:0:0:0:
188,178,56566,6,0,P|191:128|200:78,1,100,12|0,0:0|0:0,0:0:0:0:
241,50,57083,1,8,0:0:0:0:
241,50,57255,2,0,P|265:53|290:56,1,50,2|2,0:0|3:2,0:0:0:0:
329,88,57600,2,0,P|353:85|378:81,1,50,14|10,0:0|3:2,0:0:0:0:
422,57,57945,1,12,0:0:0:0:
442,154,58290,6,0,P|438:178|435:203,1,50,10|2,0:0|3:2,0:0:0:0:
407,245,58635,2,0,P|410:269|413:294,2,50,8|2|8,0:0|3:2|0:0,0:0:0:0:
358,231,59152,1,6,3:2:0:0:
358,231,60014,6,0,P|308:239|258:242,1,100,2|2,0:0|0:0,0:0:0:0:
175,187,60704,2,0,P|166:137|163:87,1,100,6|8,3:2|0:0,0:0:0:0:
193,47,61221,2,0,P|242:38|292:35,1,100,2|0,0:0|0:0,0:0:0:0:
328,69,61738,2,0,P|352:73|377:76,1,50,8|2,0:0|0:0,0:0:0:0:
424,57,62083,1,2,3:2:0:0:
483,137,62428,2,0,P|479:161|476:186,1,50,10|0,0:0|0:0,0:0:0:0:
430,207,62773,2,0,P|434:231|437:256,1,50,2|0,3:2|0:0,0:0:0:0:
443,305,63117,1,10,0:0:0:0:
344,286,63462,6,0,P|294:277|244:274,1,100,6|8,3:2|0:0,0:0:0:0:
201,298,63979,1,2,0:0:0:0:
201,298,64152,2,0,P|151:306|101:309,1,100,2|8,3:2|0:0,0:0:0:0:
66,283,64669,1,2,0:0:0:0:
66,283,64842,2,0,P|57:233|54:183,1,100,2|8,3:2|0:0,0:0:0:0:
76,86,65531,2,0,P|100:90|125:93,1,50,2|2,3:2|3:2,0:0:0:0:
167,120,65876,2,0,P|191:116|216:113,1,50,10|8,0:0|0:0,0:0:0:0:
247,73,66221,6,0,P|296:64|346:61,1,100,6|8,3:2|0:0,0:0:0:0:
392,93,66738,1,2,0:0:0:0:
392,93,66910,1,2,3:2:0:0:
471,153,67255,2,0,P|467:177|464:202,1,50,8|2,0:0|0:0,0:0:0:0:
421,229,67600,2,0,P|371:231|321:240,1,100,2|10,3:2|0:0,0:0:0:0:
239,183,68290,2,0,P|215:179|190:176,1,50,2|0,3:2|0:0,0:0:0:0:
155,139,68635,2,0,P|130:136|105:131,1,50,10|0,0:0|0:0,0:0:0:0:
63,158,68979,6,0,P|54:207|51:257,1,100,6|8,3:2|0:0,0:0:0:0:
79,298,69497,1,2,0:0:0:0:
79,298,69669,2,0,P|128:300|178:309,1,100,2|8,3:2|0:0,0:0:0:0:
225,339,70186,1,2,0:0:0:0:
225,339,70359,2,0,P|274:336|324:327,1,100,2|8,3:2|0:0,0:0:0:0:
404,267,71048,2,0,P|440:260|478:257,2,75,2|2|10,3:2|3:2|0:0,0:0:0:0:
370,229,71738,6,0,P|372:179|381:129,1,100,6|12,3:2|0:0,0:0:0:0:
347,93,72255,2,0,P|297:90|247:81,1,100,2|2,0:0|3:2,0:0:0:0:
204,55,72773,1,8,0:0:0:0:
123,114,73117,2,0,P|98:118|73:121,1,50,0|0,3:2|3:2,0:0:0:0:
39,157,73462,2,0,P|47:206|50:256,1,100,8|2,0:0|3:2,0:0:0:0:
42,308,73979,1,0,3:2:0:0:
42,308,74152,1,10,0:0:0:0:
135,343,74497,6,0,P|184:334|234:331,1,100,2|8,3:2|0:0,0:0:0:0:
273,299,75014,2,0,P|322:307|372:310,1,100,2|0,0:0|3:2,0:0:0:0:
419,295,75531,1,10,0:0:0:0:
494,229,75876,2,0,P|489:204|486:179,1,50,0|0,3:2|3:2,0:0:0:0:
447,148,76221,2,0,P|449:98|458:48,1,100,8|2,0:0|3:2,0:0:0:0:
428,16,76738,1,0,3:1:0:0:
428,16,76910,1,10,0:0:0:0:
353,82,77255,5,6,3:2:0:0:
263,36,77600,2,0,P|213:38|163:47,1,100,14|0,0:0|3:2,0:0:0:0:
71,87,78290,2,0,P|68:136|59:186,1,100,10|0,0:0|3:2,0:0:0:0:
112,270,78979,2,0,P|136:267|161:262,1,50,10|8,0:0|0:0,0:0:0:0:
202,292,79324,2,0,P|226:296|251:299,1,50,0|0,3:2|3:2,0:0:0:0:
298,280,79669,1,10,0:0:0:0:
391,315,80014,6,0,P|399:265|402:215,1,100,8|2,0:0|3:2,0:0:0:0:
438,181,80531,1,0,3:2:0:0:
438,181,80704,2,0,P|433:156|430:131,1,50,0|0,3:2|3:2,0:0:0:0:
389,103,81048,2,0,P|364:107|339:110,1,50,2|0,3:2|3:2,0:0:0:0:
298,139,81393,2,0,P|273:134|248:131,2,50,8|8|10,0:0|0:0|0:0,0:0:0:0:
307,192,81910,1,0,3:2:0:0:
307,192,82083,1,6,3:2:0:0:
256,192,82169,12,0,84152,0:0:0:0:
307,192,85531,6,0,P|258:195|208:204,1,100,6|0,3:2|0:0,0:0:0:0:
170,171,86048,2,0,P|166:121|157:71,1,100,2|0,3:2|0:0,0:0:0:0:
187,31,86566,1,2,3:2:0:0:
274,89,86910,1,0,0:0:0:0:
274,89,87083,2,0,P|323:92|373:101,1,100,10|0,0:0|3:2,0:0:0:0:
420,84,87600,2,0,P|423:133|432:183,1,100,10|8,0:0|0:0,0:0:0:0:
510,245,88290,6,0,P|506:294|497:344,1,100,6|0,3:2|0:0,0:0:0:0:
456,372,88807,2,0,P|406:368|356:359,1,100,2|2,3:2|0:0,0:0:0:0:
325,320,89324,1,2,3:2:0:0:
235,358,89669,1,0,0:0:0:0:
235,358,89841,2,0,P|185:361|135:370,1,100,8|0,0:0|3:2,0:0:0:0:
96,339,90359,2,0,P|92:289|83:239,1,100,10|8,0:0|0:0,0:0:0:0:
123,208,90876,1,0,3:2:0:0:
123,208,91048,6,0,P|126:158|135:108,1,100,6|0,3:2|0:0,0:0:0:0:
164,69,91566,1,2,3:2:0:0:
164,69,91738,1,10,0:0:0:0:
234,139,92083,2,0,P|258:143|283:146,1,50,0|2,3:2|3:2,0:0:0:0:
325,118,92428,2,0,P|374:121|424:130,1,100,2|0,3:2|0:0,0:0:0:0:
437,183,92945,1,2,3:2:0:0:
437,183,93117,2,0,P|473:176|511:173,2,75,10|2|2,0:0|0:0|3:2,0:0:0:0:
408,224,93807,6,0,P|404:273|395:323,1,100,6|10,3:2|0:0,0:0:0:0:
376,369,94324,1,6,3:2:0:0:
301,302,94669,2,0,P|276:299|251:294,1,50,2|10,3:2|0:0,0:0:0:0:
213,327,95014,2,0,P|163:330|113:339,1,100,2|10,3:2|0:0,0:0:0:0:
68,318,95531,1,8,0:0:0:0:
125,236,95876,2,0,P|121:186|112:136,1,100,10|0,0:0|3:2,0:0:0:0:
176,59,96566,6,0,P|225:55|275:46,1,100,14|10,0:0|0:0,0:0:0:0:
309,83,97083,2,0,P|358:86|408:95,1,100,6|0,3:2|3:2,0:0:0:0:
452,71,97600,1,8,0:0:0:0:
477,167,97945,2,0,P|473:216|464:266,1,100,14|10,0:0|0:0,0:0:0:0:
423,294,98462,2,0,P|373:290|323:281,1,100,6|0,3:2|3:2,0:0:0:0:
287,247,98979,1,8,0:0:0:0:
213,314,99324,6,0,P|163:317|113:326,1,100,2|8,3:2|0:0,0:0:0:0:
75,293,99841,2,0,P|71:243|62:193,1,100,2|0,0:0|0:0,0:0:0:0:
90,151,100359,1,10,0:0:0:0:
156,75,100704,6,0,P|205:78|255:87,1,100,14|2,0:0|3:2,0:0:0:0:
300,120,101221,1,0,3:2:0:0:
300,120,101393,2,0,P|304:144|307:169,1,50,2|0,3:2|3:2,0:0:0:0:
344,203,101738,2,0,P|339:227|336:252,1,50,10|8,0:0|0:0,0:0:0:0:
336,252,102773,1,6,3:2:0:0:
256,192,102859,12,0,110359,0:0:0:0:
