osu file format v14

[General]
AudioFilename: audio.ogg
AudioLeadIn: 0
PreviewTime: 59927
Countdown: 0
SampleSet: Soft
StackLeniency: 0.7
Mode: 0
LetterboxInBreaks: 0
WidescreenStoryboard: 0

[Editor]
Bookmarks: 3144,15558,26592,37627,48661,59696,70730,81075,84523,95558,101765
DistanceSpacing: 0.9
BeatDivisor: 4
GridSize: 32
TimelineZoom: 2.2

[Metadata]
Title:Caesura of Despair
TitleUnicode:Caesura of Despair
Artist:IRyS
ArtistUnicode:IRyS
Creator:newton-
Version:||:
Source:
Tags:lecandy amateurre buzzG Coch japanese pop jpop j-pop english hololive production ホロライブプロダクション en vsinger holoen project hope projecthope vtuber virtual youtuber バーチャル ユーチューバー cover corporation corp original short version ver. ||:Caesura アイリス
BeatmapID:3274169
BeatmapSetID:1603327

[Difficulty]
HPDrainRate:5
CircleSize:4
OverallDifficulty:8.7
ApproachRate:9
SliderMultiplier:1.4
SliderTickRate:1

[Events]
//Background and Video events
0,0,"despair.jpg",0,0
Video,-25,"irys.m4v"
//Break Periods
//Storyboard Layer 0 (Background)
//Storyboard Layer 1 (Fail)
//Storyboard Layer 2 (Pass)
//Storyboard Layer 3 (Foreground)
//Storyboard Layer 4 (Overlay)
//Storyboard Sound Samples

[TimingPoints]
14,344.827586206897,4,2,1,40,1,0
4151,-133.333333333333,4,2,1,40,0,0
16565,-83.3333333333333,4,2,1,80,0,0
22082,-62.5,4,2,1,80,0,0
22599,-83.3333333333333,4,2,1,80,0,0
23461,-62.5,4,2,1,80,0,0
23978,-83.3333333333333,4,2,1,80,0,0
27599,-133.333333333333,4,2,1,40,0,0
38634,-100,4,2,1,65,0,0
49668,-83.3333333333333,4,2,1,70,0,0
60013,-200,4,2,1,70,0,0
60703,-71.4285714285714,4,2,1,80,0,0
82082,-71.4285714285714,4,2,1,50,0,0
85530,-83.3333333333333,4,2,1,70,0,0
96565,-62.5,4,2,1,70,0,0
97082,-83.3333333333333,4,2,1,70,0,0
97944,-62.5,4,2,1,70,0,0
98461,-83.3333333333333,4,2,1,70,0,0
101565,-166.666666666667,4,2,1,70,0,0
110358,-166.666666666667,4,2,1,5,0,0

[Colours]
Combo1 : 128,102,140
Combo2 : 216,216,216
Combo3 : 235,226,207
Combo4 : 124,124,124

[HitObjects]
256,192,2082,12,0,3116,0:0:0:0:
162,101,3461,5,2,0:0:0:0:
125,184,3720,5,2,0:0:0:0:
216,175,3978,5,2,0:0:0:0:
152,95,4151,6,0,P|149:68|157:43,2,52.5000020027161,2|0|0,0:0|0:0|0:0,0:0:0:0:
226,168,4669,2,0,P|249:179|267:197,2,52.5000020027161,2|0|0,0:0|0:0|0:0,0:0:0:0:
125,195,5185,2,0,P|103:209|78:216,1,52.5000020027161,2|0,0:0|0:0,0:0:0:0:
130,353,5530,5,0,0:0:0:0:
130,353,5703,1,0,0:0:0:0:
192,253,5875,2,0,P|197:278|200:304,1,52.5000020027161
282,331,6220,2,0,P|279:357|273:382,1,52.5000020027161,2|0,0:0|0:0,0:0:0:0:
395,288,6565,2,0,P|383:311|369:333,1,52.5000020027161,2|0,0:0|0:0,0:0:0:0:
266,205,6910,6,0,P|273:179|271:153,2,52.5000020027161,2|0|0,0:0|0:0|0:0,0:0:0:0:
158,274,7427,2,0,P|176:292|200:304,2,52.5000020027161,2|0|0,0:0|0:0|0:0,0:0:0:0:
152,146,7944,2,0,P|126:152|105:167,1,52.5000020027161,2|0,0:0|0:0,0:0:0:0:
0,338,8289,5,0,0:0:0:0:
0,338,8461,1,0,0:0:0:0:
26,257,8634,2,0,P|51:251|77:248,1,52.5000020027161
156,159,8979,2,0,P|130:164|104:167,1,52.5000020027161,2|0,0:0|0:0,0:0:0:0:
0,101,9323,2,0,P|25:95|51:92,1,52.5000020027161,2|0,0:0|0:0,0:0:0:0:
239,182,9668,6,0,L|242:169,2,13.125000500679,2|0|0,0:0|0:0|0:0,0:0:0:0:
208,88,11047,2,0,L|204:75,2,13.125000500679,2|0|0,0:0|0:0|0:0,0:0:0:0:
250,268,12427,1,2,0:0:0:0:
256,192,12513,12,0,16220,0:0:0:0:
119,92,16565,6,0,B|170:75|195:115|192:124|223:156|270:139,1,167.999994873047,6|2,3:2|3:2,0:0:0:0:
421,42,17082,1,0,0:0:0:0:
363,108,17254,2,0,P|353:148|349:190,1,83.9999974365235,2|0,3:2|0:0,0:0:0:0:
407,329,17599,2,0,P|417:288|421:246,1,83.9999974365235,2|2,3:2|0:0,0:0:0:0:
268,139,17944,6,0,P|227:184|166:185,1,125.999996154785,4|0,3:2|0:0,0:0:0:0:
139,203,18289,2,0,P|97:206|56:217,1,83.9999974365235,2|0,3:2|0:0,0:0:0:0:
28,90,18634,1,2,3:2:0:0:
111,295,18806,1,0,3:2:0:0:
115,119,18978,1,2,3:2:0:0:
115,119,19151,1,0,3:2:0:0:
22,318,19324,6,0,P|105:325|187:346,1,167.999994873047,6|0,3:2|3:2,0:0:0:0:
429,283,19840,1,0,0:0:0:0:
353,331,20013,2,0,P|311:327|270:316,1,83.9999974365235,2|0,3:2|0:0,0:0:0:0:
288,156,20358,2,0,P|349:156|389:202,1,125.999996154785,0|0,3:2|0:0,0:0:0:0:
418,192,20703,6,0,P|421:150|432:109,1,83.9999974365235,10|0,3:2|3:2,0:0:0:0:
468,36,20961,1,10,0:0:0:0:
468,36,21048,1,0,3:2:0:0:
501,239,21220,1,10,0:0:0:0:
356,66,21392,2,0,P|315:55|273:51,1,83.9999974365235,4|8,3:2|0:0,0:0:0:0:
203,154,21651,1,8,0:0:0:0:
186,191,21737,1,10,3:2:0:0:
150,209,21823,1,8,0:0:0:0:
110,198,21909,1,8,0:0:0:0:
87,164,21995,1,8,0:0:0:0:
139,95,22082,6,0,B|190:78|215:118|212:127|243:159|290:142,1,167.999994873047,14|0,0:0|3:2,0:0:0:0:
301,139,22427,1,10,0:0:0:0:
386,273,22600,6,0,B|342:214|266:236|266:236|293:263,1,167.999994873047,6|0,3:2|3:2,0:0:0:0:
329,336,23116,1,8,0:0:0:0:
436,195,23289,5,8,0:0:0:0:
450,199,23375,1,8,0:0:0:0:
464,203,23461,2,0,P|476:227|471:254,1,56,14|0,0:0|0:0,0:0:0:0:
357,146,23634,1,2,3:2:0:0:
343,150,23720,1,0,3:2:0:0:
329,154,23806,1,10,0:0:0:0:
226,147,23979,6,0,P|297:180|288:258,1,167.999994873047,6|0,3:2|3:2,0:0:0:0:
241,329,24409,1,0,3:2:0:0:
227,333,24495,1,8,0:0:0:0:
213,337,24581,1,8,0:0:0:0:
199,341,24668,1,8,0:0:0:0:
185,345,24754,1,8,0:0:0:0:
170,348,24841,6,0,P|174:306|185:266,1,83.9999974365235,2|2,3:2|0:0,0:0:0:0:
287,258,25185,1,8,0:0:0:0:
287,258,25358,1,2,0:0:0:0:
83,302,25530,2,0,P|79:260|68:219,1,83.9999974365235,0|0,3:2|0:0,0:0:0:0:
239,78,25875,1,10,0:0:0:0:
239,78,26047,1,0,0:0:0:0:
150,129,26220,5,14,0:0:0:0:
339,77,26392,1,2,3:2:0:0:
128,138,26565,1,2,3:2:0:0:
423,189,26737,2,0,P|341:168|257:160,1,167.999994873047,6|8,3:2|0:0,0:0:0:0:
210,234,27254,5,8,0:0:0:0:
239,78,27427,1,10,0:0:0:0:
206,254,27600,6,0,P|211:306|223:357,1,105.000004005432,2|2,0:0|0:0,0:0:0:0:
128,373,28117,2,0,P|122:320|110:269,2,105.000004005432,2|2|2,0:0|0:0|0:0,0:0:0:0:
301,293,29151,1,2,0:0:0:0:
301,293,29496,2,0,P|327:296|352:302,1,52.5000020027161,2|0,0:0|0:0,0:0:0:0:
402,374,29841,2,0,P|454:368|505:356,1,105.000004005432,2|2,0:0|0:0,0:0:0:0:
342,210,30358,5,0,0:0:0:0:
342,210,30703,1,2,0:0:0:0:
415,165,30875,2,0,P|426:113|432:61,2,105.000004005432,2|2|2,0:0|0:0|0:0,0:0:0:0:
415,165,32944,5,2,0:0:0:0:
342,210,33117,2,0,P|290:198|238:192,1,105.000004005432,2|2,0:0|0:0,0:0:0:0:
180,126,33634,2,0,P|127:131|76:143,2,105.000004005432,2|2|2,0:0|0:0|0:0,0:0:0:0:
276,285,34668,1,2,0:0:0:0:
276,285,35013,2,0,P|272:311|266:336,1,52.5000020027161,2|0,0:0|0:0,0:0:0:0:
187,366,35358,2,0,P|134:371|83:383,1,105.000004005432,2|2,0:0|0:0,0:0:0:0:
23,218,35875,5,2,0:0:0:0:
23,218,36220,1,2,0:0:0:0:
87,276,36392,2,0,P|113:279|138:285,1,52.5000020027161,2|0,0:0|0:0,0:0:0:0:
269,260,36737,2,0,P|242:256|217:250,1,52.5000020027161,2|0,0:0|0:0,0:0:0:0:
139,151,37082,1,2,0:0:0:0:
139,151,37168,1,2,0:0:0:0:
139,151,37254,1,2,0:0:0:0:
139,151,37945,5,2,0:0:0:0:
230,142,38116,1,2,0:0:0:0:
176,68,38289,1,2,0:0:0:0:
313,169,38634,6,0,P|381:153|450:144,1,140,6|0,3:2|3:2,0:0:0:0:
497,82,39151,2,0,P|481:150|473:220,1,140,2|0,0:0|0:0,0:0:0:0:
379,309,39668,2,0,P|386:274|390:240,1,70,2|0,3:2|0:0,0:0:0:0:
235,122,40013,6,0,P|227:156|223:190,1,70,2|0,0:0|0:0,0:0:0:0:
290,271,40358,2,0,P|220:279|152:295,1,140,0|2,3:2|0:0,0:0:0:0:
152,295,40875,1,0,0:0:0:0:
66,197,41047,2,0,P|100:204|134:208,1,70,2|0,3:2|0:0,0:0:0:0:
235,122,41393,6,0,P|303:118|354:162,1,140,2|0,0:0|3:2,0:0:0:0:
391,57,41910,2,0,P|442:101|510:97,1,140,2|0,0:0|0:0,0:0:0:0:
443,190,42427,2,0,P|435:224|431:258,1,70,2|0,3:2|0:0,0:0:0:0:
333,318,42772,6,0,P|340:283|344:249,1,70,2|0,0:0|0:0,0:0:0:0:
328,131,43117,2,0,P|276:175|208:171,1,140,0|2,3:2|0:0,0:0:0:0:
208,171,43634,1,0,0:0:0:0:
181,285,43806,2,0,P|215:277|249:273,1,70,2|0,3:2|0:0,0:0:0:0:
57,200,44151,6,0,P|91:203|125:211,1,70,2|0,0:0|0:0,0:0:0:0:
178,89,44496,2,0,P|126:44|58:48,1,140,2|2,3:2|0:0,0:0:0:0:
178,89,45013,1,0,0:0:0:0:
241,25,45185,2,0,P|275:21|309:13,1,70,2|0,3:2|0:0,0:0:0:0:
474,123,45531,6,0,P|405:107|336:98,2,140,2|2|0,0:0|3:2|0:0,0:0:0:0:
394,192,46392,1,0,0:0:0:0:
394,192,46565,2,0,P|397:226|405:260,1,70,2|0,3:2|0:0,0:0:0:0:
343,375,46910,6,0,P|339:341|332:307,1,70,12|0,0:0|0:0,0:0:0:0:
265,253,47254,1,0,3:2:0:0:
265,253,47427,1,0,3:2:0:0:
144,341,47599,5,0,3:2:0:0:
332,307,47772,1,0,3:2:0:0:
181,221,47944,1,0,3:2:0:0:
255,104,48116,1,0,3:2:0:0:
264,252,48289,6,0,P|268:218|276:184,1,70,8|8,0:0|0:0,0:0:0:0:
266,35,48634,2,0,P|262:69|254:103,1,70,8|8,0:0|0:0,0:0:0:0:
122,148,48978,1,8,0:0:0:0:
353,230,49151,1,0,3:2:0:0:
196,264,49323,2,0,P|230:256|264:252,1,70,8|2,0:0|3:2,0:0:0:0:
443,219,49668,5,2,3:2:0:0:
443,219,49840,1,0,3:2:0:0:
410,332,50013,2,0,P|369:321|328:318,1,83.9999974365235,10|10,0:0|3:2,0:0:0:0:
252,365,50358,2,0,P|210:361|169:350,1,83.9999974365235,0|2,3:2|3:2,0:0:0:0:
79,379,50703,2,0,P|73:316|57:255,1,125.999996154785,12|0,0:0|0:0,0:0:0:0:
70,228,51048,6,0,P|59:187|55:145,1,83.9999974365235,12|0,0:0|3:2,0:0:0:0:
110,10,51392,2,0,P|121:51|125:93,1,83.9999974365235,0|8,3:2|0:0,0:0:0:0:
0,76,51737,1,2,3:2:0:0:
55,145,51909,1,2,3:2:0:0:
261,50,52082,1,14,0:0:0:0:
261,50,52254,1,2,3:2:0:0:
125,92,52427,6,0,B|176:75|201:115|198:124|229:156|276:139,1,167.999994873047,4|10,3:2|0:0,0:0:0:0:
445,158,52944,2,0,P|403:162|362:172,1,83.9999974365235,10|0,3:2|3:2,0:0:0:0:
507,96,53289,1,2,3:2:0:0:
363,3,53462,2,0,P|358:44|348:85,1,83.9999974365235,12|2,0:0|3:2,0:0:0:0:
287,227,53806,6,0,P|203:234|122:254,1,167.999994873047,12|0,0:0|3:2,0:0:0:0:
0,223,54323,1,10,0:0:0:0:
14,227,54409,1,2,0:0:0:0:
28,231,54496,2,0,P|38:271|42:313,1,83.9999974365235,2|0,3:2|3:2,0:0:0:0:
143,131,54841,2,0,P|127:191|121:254,1,125.999996154785,12|0,0:0|0:0,0:0:0:0:
51,144,55185,5,6,3:2:0:0:
51,144,55357,1,0,3:2:0:0:
201,49,55530,2,0,P|159:44|118:34,1,83.9999974365235,10|10,0:0|3:2,0:0:0:0:
317,119,55875,2,0,P|275:123|234:133,1,83.9999974365235,0|2,3:2|3:2,0:0:0:0:
426,38,56220,6,0,P|410:98|404:161,1,125.999996154785,12|0,0:0|0:0,0:0:0:0:
378,186,56565,2,0,P|388:226|392:268,1,83.9999974365235,12|0,0:0|3:2,0:0:0:0:
490,159,56909,1,0,3:2:0:0:
303,245,57082,1,8,0:0:0:0:
471,330,57254,2,0,P|481:289|485:247,1,83.9999974365235,2|2,3:2|3:2,0:0:0:0:
383,361,57599,1,14,0:0:0:0:
225,197,57772,5,10,3:2:0:0:
211,193,57858,1,8,0:0:0:0:
197,189,57944,2,0,B|180:240|220:265|229:262|261:293|244:340,1,167.999994873047,12|10,0:0|0:0,0:0:0:0:
108,239,58461,1,2,3:2:0:0:
304,159,58634,1,8,0:0:0:0:
101,105,58806,2,0,L|146:115,1,41.9999987182618,0|0,3:2|3:2,0:0:0:0:
322,151,58978,1,8,0:0:0:0:
80,325,59151,5,6,3:2:0:0:
314,150,60013,2,0,P|337:187|301:161,1,122.5,2|0,0:0|0:0,0:0:0:0:
218,139,60703,6,0,P|315:131|411:110,1,195.999994018555,6|8,3:2|0:0,0:0:0:0:
343,276,61220,1,2,0:0:0:0:
512,249,61392,2,0,P|464:236|416:231,1,97.9999970092774,0|0,3:2|0:0,0:0:0:0:
256,261,61737,1,8,0:0:0:0:
356,360,61909,1,2,0:0:0:0:
186,309,62082,6,0,P|137:314|90:326,1,97.9999970092774,2|0,3:2|0:0,0:0:0:0:
52,108,62427,2,0,P|101:102|149:91,1,97.9999970092774,10|0,0:0|0:0,0:0:0:0:
17,275,62772,2,0,P|12:226|0:179,1,97.9999970092774,2|0,3:2|0:0,0:0:0:0:
257,16,63116,2,0,P|262:64|274:111,1,97.9999970092774,10|2,0:0|3:2,0:0:0:0:
283,126,63375,1,2,3:2:0:0:
283,126,63461,6,0,P|352:116|407:164,1,146.999995513916,6|0,3:2|0:0,0:0:0:0:
436,161,63806,2,0,P|423:208|418:256,1,97.9999970092774,8|2,0:0|0:0,0:0:0:0:
329,200,64151,1,2,3:2:0:0:
453,71,64323,1,0,0:0:0:0:
265,30,64496,2,0,P|277:77|283:126,1,97.9999970092774,8|2,0:0|0:0,0:0:0:0:
46,176,64841,6,0,P|143:184|239:205,1,195.999994018555,2|8,3:2|0:0,0:0:0:0:
189,102,65358,1,0,0:0:0:0:
90,267,65530,2,0,P|102:314|107:362,1,97.9999970092774,2|2,3:2|3:2,0:0:0:0:
313,360,65875,5,10,0:0:0:0:
285,352,65961,1,8,0:0:0:0:
257,344,66048,1,8,0:0:0:0:
229,336,66134,1,8,0:0:0:0:
201,328,66220,2,0,P|191:258|239:204,1,146.999995513916,6|0,3:2|0:0,0:0:0:0:
268,209,66565,2,0,P|316:203|363:191,1,97.9999970092774,8|2,0:0|0:0,0:0:0:0:
460,46,66909,2,0,P|447:94|442:142,1,97.9999970092774,2|0,3:2|0:0,0:0:0:0:
391,280,67254,1,8,0:0:0:0:
303,117,67427,1,2,0:0:0:0:
172,191,67599,6,0,P|219:203|268:209,1,97.9999970092774,2|0,3:2|0:0,0:0:0:0:
366,46,67944,2,0,P|318:33|270:28,1,97.9999970092774,10|0,0:0|0:0,0:0:0:0:
120,101,68289,2,0,P|140:196|149:294,1,195.999994018555,2|10,3:2|0:0,0:0:0:0:
149,294,68806,1,0,0:0:0:0:
329,332,68979,6,0,P|258:322|205:369,1,146.999995513916,6|0,3:2|0:0,0:0:0:0:
185,384,69323,2,0,P|136:378|89:366,1,97.9999970092774,8|2,0:0|0:0,0:0:0:0:
236,234,69669,2,0,P|333:226|429:205,1,195.999994018555,2|8,3:2|0:0,0:0:0:0:
429,204,70185,1,2,0:0:0:0:
486,363,70358,2,0,P|491:314|503:267,1,97.9999970092774,2|0,3:2|0:0,0:0:0:0:
399,29,70703,2,0,P|393:77|381:124,1,97.9999970092774,8|0,0:0|3:2,0:0:0:0:
358,133,70961,5,0,3:2:0:0:
358,133,71047,1,2,3:2:0:0:
330,125,71133,1,0,3:2:0:0:
302,117,71220,1,0,3:2:0:0:
274,109,71306,1,2,3:2:0:0:
246,101,71392,5,8,0:0:0:0:
260,97,71478,1,8,0:0:0:0:
274,93,71565,1,10,0:0:0:0:
288,89,71651,1,8,0:0:0:0:
302,85,71737,1,6,3:2:0:0:
429,204,71909,1,0,0:0:0:0:
282,328,72082,6,0,P|211:337|158:290,1,146.999995513916,12|0,0:0|0:0,0:0:0:0:
154,270,72427,2,0,P|166:222|171:174,1,97.9999970092774,2|2,3:2|3:2,0:0:0:0:
246,101,72772,2,0,P|258:148|263:196,1,97.9999970092774,8|0,0:0|0:0,0:0:0:0:
79,205,73116,5,0,3:2:0:0:
79,205,73289,1,0,3:2:0:0:
27,130,73461,2,0,P|32:81|44:34,1,97.9999970092774,8|0,0:0|0:0,0:0:0:0:
246,101,73806,6,0,P|316:110|369:63,1,146.999995513916,2|0,3:2|0:0,0:0:0:0:
398,75,74151,2,0,P|403:123|415:170,1,97.9999970092774,10|0,0:0|0:0,0:0:0:0:
491,107,74496,5,2,3:2:0:0:
333,196,74668,1,0,3:2:0:0:
491,276,74841,2,0,P|443:263|395:258,1,97.9999970092774,8|2,0:0|0:0,0:0:0:0:
189,295,75185,1,0,3:2:0:0:
189,295,75358,1,0,3:2:0:0:
352,333,75530,2,0,P|304:345|256:350,1,97.9999970092774,10|0,0:0|0:0,0:0:0:0:
80,372,75875,6,0,P|100:276|109:178,1,195.999994018555,0|8,3:2|0:0,0:0:0:0:
76,15,76392,1,0,0:0:0:0:
59,105,76565,5,2,3:2:0:0:
75,99,76651,1,0,3:1:0:0:
92,96,76737,1,0,3:1:0:0:
108,93,76823,1,0,3:1:0:0:
126,92,76909,5,10,0:0:0:0:
158,104,76996,1,8,0:0:0:0:
192,110,77082,1,8,0:0:0:0:
224,116,77168,1,8,0:0:0:0:
260,118,77254,6,0,P|307:105|355:100,1,97.9999970092774,6|0,3:2|0:0,0:0:0:0:
409,9,77600,2,0,P|388:104|379:202,1,195.999994018555,14|0,0:0|3:2,0:0:0:0:
379,202,78116,1,0,3:2:0:0:
483,70,78289,2,0,P|472:118|469:167,1,97.9999970092774,10|0,0:0|0:0,0:0:0:0:
476,299,78634,6,0,P|405:289|352:336,1,146.999995513916,0|0,3:2|0:0,0:0:0:0:
328,314,78979,2,0,P|279:310|231:299,1,97.9999970092774,10|8,0:0|0:0,0:0:0:0:
165,361,79237,1,8,0:0:0:0:
165,361,79323,2,0,P|117:350|69:347,1,97.9999970092774,0|0,3:2|3:2,0:0:0:0:
292,222,79668,1,10,0:0:0:0:
146,266,79840,1,0,3:2:0:0:
256,132,80013,6,0,P|304:135|352:146,1,97.9999970092774,8|0,0:0|0:0,0:0:0:0:
438,119,80358,1,2,3:2:0:0:
372,52,80530,1,0,3:2:0:0:
447,162,80703,1,0,3:2:0:0:
463,31,80875,1,0,3:2:0:0:
468,245,81047,1,2,3:2:0:0:
468,245,81220,1,0,3:2:0:0:
372,52,81392,5,8,0:0:0:0:
339,299,81565,1,8,0:0:0:0:
222,99,81737,5,10,0:0:0:0:
255,346,81910,1,0,3:2:0:0:
255,346,81996,1,0,3:2:0:0:
255,346,82082,1,6,3:2:0:0:
256,192,82168,12,0,85185,0:0:0:0:
387,138,85531,6,0,B|336:121|311:161|314:170|283:202|236:185,1,167.999994873047,6|0,3:2|0:0,0:0:0:0:
136,156,86047,1,2,3:2:0:0:
136,156,86220,2,0,P|146:196|149:238,1,83.9999974365235,8|0,0:0|0:0,0:0:0:0:
48,169,86565,2,0,P|58:209|61:251,1,83.9999974365235,2|0,3:2|3:2,0:0:0:0:
117,323,86909,5,0,0:0:0:0:
237,185,87082,2,0,P|298:185|339:230,1,125.999996154785,10|0,0:0|0:0,0:0:0:0:
342,243,87427,1,0,3:2:0:0:
445,230,87599,2,0,P|434:270|431:312,1,83.9999974365235,10|0,0:0|3:2,0:0:0:0:
399,152,87944,1,8,0:0:0:0:
399,152,88116,1,0,3:2:0:0:
511,89,88289,6,0,B|460:106|435:66|438:57|407:25|360:42,1,167.999994873047,6|0,3:2|0:0,0:0:0:0:
313,117,88806,1,2,3:2:0:0:
313,117,88978,2,0,P|272:127|230:130,1,83.9999974365235,8|2,0:0|0:0,0:0:0:0:
84,80,89323,2,0,P|124:69|166:66,1,83.9999974365235,2|0,3:2|3:2,0:0:0:0:
287,213,89668,5,0,0:0:0:0:
287,213,89841,2,0,P|266:294|259:377,1,167.999994873047,8|0,0:0|3:2,0:0:0:0:
75,332,90358,2,0,P|136:331|177:286,1,125.999996154785,10|0,0:0|3:2,0:0:0:0:
180,274,90703,1,8,0:0:0:0:
352,317,90875,1,0,3:2:0:0:
384,237,91047,6,0,P|373:196|370:154,1,83.9999974365235,6|0,3:2|0:0,0:0:0:0:
432,19,91392,1,0,0:0:0:0:
432,19,91565,1,2,3:2:0:0:
474,96,91737,2,0,P|463:136|460:178,1,83.9999974365235,10|0,0:0|0:0,0:0:0:0:
460,178,92082,1,0,3:2:0:0:
303,94,92254,1,2,3:2:0:0:
259,172,92427,6,0,B|208:189|183:149|186:140|155:108|108:125,1,167.999994873047,2|0,3:2|0:0,0:0:0:0:
109,124,92944,1,2,3:2:0:0:
30,66,93116,6,0,P|27:107|16:148,1,83.9999974365235,10|0,0:0|3:2,0:0:0:0:
43,174,93375,2,0,P|45:215|56:256,1,83.9999974365235,2|0,0:0|0:0,0:0:0:0:
6,369,93634,2,0,P|9:348|11:327,1,41.9999987182618,2|0,3:2|0:0,0:0:0:0:
147,270,93806,5,6,3:2:0:0:
147,270,93979,1,2,3:2:0:0:
281,334,94151,1,10,0:0:0:0:
197,349,94324,2,0,P|176:268|169:185,1,167.999994873047,6|2,3:2|3:2,0:0:0:0:
168,184,94840,1,10,0:0:0:0:
233,29,95013,6,0,P|254:110|261:193,1,167.999994873047,2|10,3:2|0:0,0:0:0:0:
338,249,95530,2,0,P|349:208|351:166,1,83.9999974365235,8|2,0:0|3:2,0:0:0:0:
447,23,95875,6,0,P|443:43|441:64,1,41.9999987182618,10|0,0:0|0:0,0:0:0:0:
351,166,96047,1,0,3:2:0:0:
346,126,96134,1,0,3:2:0:0:
369,92,96220,1,0,3:2:0:0:
409,81,96306,1,0,3:2:0:0:
445,99,96392,1,0,3:2:0:0:
462,136,96478,1,0,3:2:0:0:
432,213,96565,6,0,B|415:264|455:289|464:286|496:317|479:364,1,167.999994873047,14|0,0:0|3:2,0:0:0:0:
476,375,96910,1,10,0:0:0:0:
390,350,97082,6,0,B|346:291|270:313|270:313|297:340,1,167.999994873047,6|0,3:2|3:2,0:0:0:0:
306,335,97513,1,0,3:2:0:0:
310,321,97599,1,8,0:0:0:0:
314,307,97685,1,0,3:2:0:0:
318,293,97772,1,8,0:0:0:0:
322,279,97858,1,8,0:0:0:0:
326,265,97944,1,14,0:0:0:0:
243,235,98116,5,2,3:2:0:0:
130,373,98289,1,10,0:0:0:0:
184,301,98461,2,0,P|143:290|101:286,1,83.9999974365235,6|0,3:2|0:0,0:0:0:0:
30,329,98720,1,0,3:2:0:0:
30,329,98806,2,0,P|26:349|24:370,1,41.9999987182618,0|0,3:2|3:2,0:0:0:0:
154,202,98978,1,8,0:0:0:0:
148,181,99064,1,8,0:0:0:0:
142,160,99151,1,8,0:0:0:0:
136,139,99237,1,8,0:0:0:0:
130,118,99323,6,0,P|133:76|144:35,1,83.9999974365235,2|0,3:2|0:0,0:0:0:0:
44,66,99668,1,8,0:0:0:0:
221,91,99841,2,0,P|261:80|303:76,1,83.9999974365235,2|0,0:0|3:2,0:0:0:0:
364,17,100185,1,0,0:0:0:0:
278,166,100358,2,0,P|281:207|292:248,1,83.9999974365235,10|0,0:0|0:0,0:0:0:0:
455,209,100703,6,0,P|414:198|372:194,1,83.9999974365235,14|0,0:0|3:2,0:0:0:0:
228,306,101047,1,2,3:2:0:0:
200,298,101133,1,0,3:2:0:0:
172,290,101220,1,0,3:2:0:0:
144,282,101306,1,0,3:2:0:0:
116,274,101392,5,2,3:2:0:0:
112,260,101478,1,0,3:2:0:0:
107,243,101565,2,0,L|100:218,1,20.9999993591309,0|0,3:2|3:2,0:0:0:0:
188,184,101737,5,10,0:0:0:0:
186,191,101823,1,8,0:0:0:0:
184,198,101910,1,8,0:0:0:0:
182,205,101996,1,8,0:0:0:0:
256,96,102772,1,6,3:2:0:0:
256,192,102858,12,0,110358,0:0:0:0:
