osu file format v14

[General]
AudioFilename: audio.mp3
AudioLeadIn: 0
PreviewTime: 59001
Countdown: 0
SampleSet: Soft
StackLeniency: 0.7
Mode: 3
LetterboxInBreaks: 0
SpecialStyle: 0
WidescreenStoryboard: 0

[Editor]
DistanceSpacing: 0.8
BeatDivisor: 4
GridSize: 32
TimelineZoom: 1.2

[Metadata]
Title:Caesura of Despair
TitleUnicode:Caesura of Despair
Artist:IRyS
ArtistUnicode:IRyS
Creator:Takodachi-
Version:Melodies for You
Source:
Tags:Yuiazu- Kanon Matsubara LLENN- Onii_ue japanese female vocal pop jpop j-pop english hololive production ホロライブプロダクション en vsinger holoen project hope projecthope vtuber virtual youtuber バーチャル ユーチューバー cover corporation corp original short version ver. ||:Caesura buzzG Coch TOKYO TOWER
BeatmapID:3204748
BeatmapSetID:1569343

[Difficulty]
HPDrainRate:8
CircleSize:4
OverallDifficulty:8
ApproachRate:5
SliderMultiplier:1.4
SliderTickRate:1

[Events]
//Background and Video events
0,0,"IR2.jpg",0,0
Video,-1045,"IRySocool.m4v"
//Break Periods
//Storyboard Layer 0 (Background)
//Storyboard Layer 1 (Fail)
//Storyboard Layer 2 (Pass)
//Storyboard Layer 3 (Foreground)
//Storyboard Layer 4 (Overlay)
//Storyboard Sound Samples

[TimingPoints]
3139,344.827586206897,4,2,1,40,1,0
15552,-100,4,2,1,70,0,0
26587,-100,4,2,1,50,0,0
37621,-100,4,2,1,60,0,0
59690,-100,4,2,1,75,0,1
81070,-100,4,2,1,75,0,0
84518,-100,4,2,1,65,0,0
99690,-100,4,2,1,30,0,0
100380,-100,4,2,1,40,0,0
100725,-100,4,2,1,50,0,0
101759,-100,4,2,1,60,0,0

[HitObjects]
64,192,552,128,0,2449:0:0:0:0:
448,192,2449,1,0,0:0:0:0:
192,192,2707,1,0,0:0:0:0:
448,192,2966,1,0,0:0:0:0:
64,192,3138,128,0,4518:0:0:0:0:
320,192,3138,1,0,0:0:0:0:
192,192,3311,1,0,0:0:0:0:
448,192,3483,1,0,0:0:0:0:
320,192,3656,1,0,0:0:0:0:
192,192,3828,1,0,0:0:0:0:
448,192,4001,1,0,0:0:0:0:
320,192,4173,1,0,0:0:0:0:
192,192,4345,1,0,0:0:0:0:
320,192,4518,1,0,0:0:0:0:
448,192,4518,128,0,5897:0:0:0:0:
64,192,4690,1,0,0:0:0:0:
192,192,4863,1,0,0:0:0:0:
320,192,5035,1,0,0:0:0:0:
64,192,5207,1,0,0:0:0:0:
192,192,5380,1,0,0:0:0:0:
320,192,5552,1,0,0:0:0:0:
192,192,5725,1,0,0:0:0:0:
64,192,5897,1,0,0:0:0:0:
320,192,5897,128,0,6587:0:0:0:0:
192,192,6070,1,0,0:0:0:0:
448,192,6242,1,0,0:0:0:0:
64,192,6414,1,0,0:0:0:0:
192,192,6587,128,0,7276:0:0:0:0:
448,192,6587,1,0,0:0:0:0:
320,192,6759,1,0,0:0:0:0:
64,192,6932,1,0,0:0:0:0:
448,192,7104,1,0,0:0:0:0:
64,192,7276,128,0,7966:0:0:0:0:
320,192,7276,1,0,0:0:0:0:
192,192,7449,1,0,0:0:0:0:
448,192,7621,1,0,0:0:0:0:
320,192,7794,1,0,0:0:0:0:
192,192,7966,1,0,0:0:0:0:
448,192,7966,128,0,8656:0:0:0:0:
64,192,8139,1,0,0:0:0:0:
192,192,8311,1,0,0:0:0:0:
320,192,8483,1,0,0:0:0:0:
64,192,8656,128,0,8914:0:0:0:0:
192,192,8656,1,0,0:0:0:0:
320,192,8699,1,0,0:0:0:0:
448,192,8742,128,0,9949:0:0:0:0:
192,192,9001,128,0,9259:0:0:0:0:
320,192,9345,128,0,9518:0:0:0:0:
64,192,9690,128,0,10294:0:0:0:0:
192,192,10035,1,0,0:0:0:0:
320,192,10035,1,0,0:0:0:0:
448,192,10078,128,0,11328:0:0:0:0:
320,192,10380,128,0,10983:0:0:0:0:
64,192,10725,1,0,0:0:0:0:
192,192,11070,128,0,11156:0:0:0:0:
64,192,11242,128,0,12363:0:0:0:0:
320,192,11414,128,0,15466:0:0:0:0:
448,192,11414,1,0,0:0:0:0:
448,192,12449,128,0,12621:0:0:0:0:
192,192,12707,128,0,14518:0:0:0:0:
64,192,13828,128,0,15466:0:0:0:0:
448,192,15121,128,0,15466:0:0:0:0:
64,192,15552,128,2,15897:0:0:0:0:
192,192,15552,1,4,0:0:0:0:
448,192,15552,1,0,0:0:0:0:
320,192,15725,1,0,0:0:0:0:
192,192,15897,128,2,16242:0:0:0:0:
448,192,15897,1,0,0:0:0:0:
64,192,16070,1,0,0:0:0:0:
320,192,16242,128,2,16587:0:0:0:0:
448,192,16242,1,0,0:0:0:0:
192,192,16414,1,0,0:0:0:0:
64,192,16587,1,2,0:0:0:0:
448,192,16587,128,0,16932:0:0:0:0:
192,192,16759,1,0,0:0:0:0:
64,192,16932,1,2,0:0:0:0:
192,192,16932,1,4,0:0:0:0:
320,192,16932,128,8,17276:0:0:0:0:
448,192,17104,1,0,0:0:0:0:
64,192,17276,1,2,0:0:0:0:
192,192,17276,128,0,17621:0:0:0:0:
320,192,17449,1,0,0:0:0:0:
64,192,17621,128,2,17966:0:0:0:0:
448,192,17621,1,0,0:0:0:0:
192,192,17794,1,0,0:0:0:50:Tom 1.wav
320,192,17966,1,2,0:0:0:0:
448,192,17966,128,0,18311:0:0:0:0:
192,192,18139,1,0,0:0:0:60:Tom 2.wav
64,192,18311,1,2,0:0:0:0:
192,192,18311,1,0,0:0:0:70:Crash 2.wav
320,192,18311,128,0,18656:0:0:0:0:
64,192,18483,1,0,0:0:0:0:
192,192,18656,128,2,18828:0:0:0:0:
448,192,18656,1,0,0:0:0:0:
64,192,18828,128,0,19345:0:0:0:0:
192,192,19001,1,2,0:0:0:0:
448,192,19001,1,0,0:0:0:0:
320,192,19173,1,0,0:0:0:0:
192,192,19345,1,2,0:0:0:0:
448,192,19345,128,0,19518:0:0:0:0:
320,192,19518,128,0,19690:0:0:0:0:
64,192,19690,1,2,0:0:0:0:
192,192,19690,1,8,0:0:0:0:
448,192,19690,1,4,0:0:0:0:
320,192,19863,1,8,0:0:0:0:
448,192,19863,1,0,0:0:0:0:
64,192,19949,1,8,0:0:0:0:
192,192,19949,1,0,0:0:0:0:
320,192,20035,1,2,0:0:0:0:
448,192,20035,1,0,0:0:0:0:
64,192,20207,1,8,0:0:0:0:
192,192,20207,1,0,0:0:0:0:
320,192,20207,1,0,0:0:0:0:
64,192,20380,1,2,0:0:0:0:
192,192,20380,1,4,0:0:0:0:
448,192,20380,1,0,0:0:0:0:
320,192,20552,1,8,0:0:0:0:
448,192,20552,1,0,0:0:0:0:
64,192,20639,1,8,0:0:0:0:
192,192,20639,1,0,0:0:0:0:
320,192,20725,1,2,0:0:0:0:
448,192,20725,1,0,0:0:0:50:Tom 1.wav
64,192,20811,1,0,0:0:0:50:Tom 1.wav
192,192,20897,1,0,0:0:0:60:Tom 2.wav
320,192,20983,1,0,0:0:0:60:Tom 3.wav
64,192,21070,1,2,0:0:0:0:
192,192,21070,1,0,0:0:0:70:Crash 2.wav
448,192,21070,1,0,0:0:0:0:
320,192,21242,1,0,0:0:0:0:
64,192,21328,1,8,0:0:0:0:
192,192,21328,1,0,0:0:0:0:
320,192,21414,1,8,0:0:0:0:
448,192,21414,1,0,0:0:0:0:
64,192,21587,128,2,21932:0:0:0:0:
192,192,21587,1,4,0:0:0:0:
448,192,21587,1,0,0:0:0:0:
320,192,21932,1,2,0:0:0:0:
448,192,21932,1,0,0:0:0:0:
64,192,22104,1,8,0:0:0:0:
192,192,22104,1,0,0:0:0:0:
448,192,22104,1,0,0:0:0:0:
64,192,22276,1,8,0:0:0:0:
320,192,22276,1,0,0:0:0:0:
192,192,22363,1,8,0:0:0:0:
64,192,22449,1,2,0:0:0:0:
320,192,22449,1,4,0:0:0:0:
448,192,22449,1,0,0:0:0:0:
192,192,22621,1,0,0:0:0:0:
320,192,22707,1,8,0:0:0:0:
448,192,22707,1,0,0:0:0:0:
64,192,22794,1,0,0:0:0:70:Tom 1.wav
192,192,22794,1,0,0:0:0:0:
64,192,22966,1,2,0:0:0:0:
320,192,22966,128,0,23311:0:0:0:70:Crash 2.wav
448,192,22966,1,0,0:0:0:0:
64,192,23311,1,8,0:0:0:0:
192,192,23311,1,0,0:0:0:0:
448,192,23311,1,0,0:0:0:0:
320,192,23397,1,8,0:0:0:0:
64,192,23483,1,2,0:0:0:0:
192,192,23483,1,0,0:0:0:50:Tom 1.wav
320,192,23570,1,0,0:0:0:50:Tom 1.wav
448,192,23570,1,0,0:0:0:0:
64,192,23656,1,0,0:0:0:60:Tom 2.wav
192,192,23656,1,0,0:0:0:0:
320,192,23742,1,0,0:0:0:60:Tom 3.wav
64,192,23828,1,2,0:0:0:0:
192,192,23828,1,0,0:0:0:70:Crash 2.wav
448,192,23828,1,0,0:0:0:0:
320,192,24001,128,0,24173:0:0:0:0:
64,192,24173,1,2,0:0:0:0:
192,192,24173,1,8,0:0:0:0:
448,192,24173,1,0,0:0:0:0:
448,192,24345,128,0,24518:0:0:0:0:
64,192,24518,1,2,0:0:0:0:
192,192,24518,1,0,0:0:0:0:
320,192,24690,128,0,24863:0:0:0:0:
64,192,24863,1,2,0:0:0:0:
192,192,24863,1,8,0:0:0:0:
448,192,24863,1,0,0:0:0:0:
64,192,25035,128,0,25207:0:0:0:0:
192,192,25207,1,2,0:0:0:0:
320,192,25207,1,8,0:0:0:0:
448,192,25207,1,4,0:0:0:0:
64,192,25380,1,0,0:0:0:50:Tom 1.wav
192,192,25380,1,0,0:0:0:0:
320,192,25552,1,0,0:0:0:60:Tom 2.wav
448,192,25552,1,0,0:0:0:0:
64,192,25725,1,2,0:0:0:0:
192,192,25725,1,0,0:0:0:70:Crash 2.wav
448,192,25725,1,0,0:0:0:0:
64,192,26070,1,8,0:0:0:0:
192,192,26070,1,0,0:0:0:60:Tom 3.wav
320,192,26070,1,0,0:0:0:0:
192,192,26242,1,8,0:0:0:0:
320,192,26242,1,0,0:0:0:60:Tom 3.wav
448,192,26242,1,0,0:0:0:0:
64,192,26414,1,2,0:0:0:0:
192,192,26414,1,8,0:0:0:0:
448,192,26414,128,0,26587:0:0:0:0:
64,192,26587,128,0,26932:0:0:0:0:
320,192,26587,1,0,0:0:0:0:
192,192,26932,128,0,27104:0:0:0:0:
320,192,27104,128,0,27449:0:0:0:0:
448,192,27449,128,0,27794:0:0:0:0:
64,192,27794,128,0,28139:0:0:0:0:
320,192,28139,128,0,28483:0:0:0:0:
192,192,28483,128,0,28828:0:0:0:0:
448,192,28828,128,0,29173:0:0:0:0:
64,192,29173,128,0,29345:0:0:0:0:
192,192,29345,128,0,29690:0:0:0:0:
320,192,29345,1,0,0:0:0:0:
448,192,29690,128,0,29863:0:0:0:0:
64,192,29863,128,0,30207:0:0:0:0:
320,192,30207,128,0,30552:0:0:0:0:
448,192,30552,128,0,31414:0:0:0:0:
64,192,30725,128,0,31932:0:0:0:0:
448,192,31932,1,0,0:0:0:0:
64,192,32104,1,0,0:0:0:0:
192,192,32104,1,0,0:0:0:0:
320,192,32147,128,0,32492:0:0:0:0:
64,192,32449,128,0,32621:0:0:0:0:
448,192,32621,128,0,32966:0:0:0:0:
192,192,32966,128,0,33311:0:0:0:0:
64,192,33311,128,0,33656:0:0:0:0:
448,192,33483,1,0,0:0:0:0:
320,192,33656,128,0,34001:0:0:0:0:
192,192,34001,128,0,34345:0:0:0:0:
448,192,34345,128,0,34690:0:0:0:0:
320,192,34690,128,0,34863:0:0:0:0:
192,192,34863,1,0,0:0:0:0:
448,192,34863,1,0,0:0:0:0:
64,192,34906,128,0,35207:0:0:0:0:
448,192,35207,128,0,35380:0:0:0:0:
192,192,35380,128,0,35725:0:0:0:0:
320,192,35725,128,0,36070:0:0:0:0:
64,192,36070,128,0,36242:0:0:0:0:
448,192,36242,1,0,0:0:0:0:
320,192,36285,1,0,0:0:0:0:
192,192,36328,1,0,0:0:0:0:
448,192,36932,128,0,37018:0:0:0:0:
448,192,37104,128,0,37276:0:0:0:0:
64,192,37276,128,0,37621:0:0:0:0:
192,192,37621,128,2,38225:0:0:0:0:
320,192,37621,1,0,0:0:0:70:Crash 2.wav
448,192,37621,1,0,0:0:0:0:
64,192,37966,1,2,0:0:0:0:
448,192,37966,1,0,0:0:0:0:
320,192,38225,128,0,38656:0:0:0:0:
64,192,38656,128,2,39001:0:0:0:0:
192,192,38656,1,0,0:0:0:0:
320,192,38828,128,0,39001:0:0:0:0:
192,192,39001,1,0,0:0:0:0:
448,192,39001,128,0,39345:0:0:0:0:
192,192,39345,1,2,0:0:0:0:
320,192,39345,1,0,0:0:0:0:
64,192,39690,128,0,40035:0:0:0:0:
448,192,39690,1,0,0:0:0:0:
192,192,40035,128,2,40380:0:0:0:0:
320,192,40035,1,0,0:0:0:0:
64,192,40380,1,0,0:0:0:0:
448,192,40380,128,0,40725:0:0:0:0:
64,192,40725,1,2,0:0:0:0:
192,192,40725,1,0,0:0:0:0:
320,192,40897,128,0,41242:0:0:0:0:
64,192,41070,1,0,0:0:0:0:
192,192,41070,1,0,0:0:0:0:
64,192,41414,128,2,41759:0:0:0:0:
448,192,41414,1,0,0:0:0:0:
448,192,41630,128,0,41759:0:0:0:0:
192,192,41759,1,0,0:0:0:0:
320,192,41759,1,0,0:0:0:0:
320,192,42018,1,0,0:0:0:0:
64,192,42104,1,2,0:0:0:0:
448,192,42104,1,0,0:0:0:0:
320,192,42449,1,0,0:0:0:0:
448,192,42449,1,0,0:0:0:0:
192,192,42794,1,2,0:0:0:0:
448,192,42794,128,0,43139:0:0:0:0:
64,192,43139,1,0,0:0:0:0:
192,192,43139,128,0,43483:0:0:0:0:
320,192,43483,128,2,43828:0:0:0:0:
448,192,43483,1,0,0:0:0:0:
448,192,43785,1,0,0:0:0:0:
64,192,43828,128,0,44173:0:0:0:0:
192,192,43828,1,0,0:0:0:0:
320,192,44173,1,2,0:0:0:0:
448,192,44173,128,0,44863:0:0:0:0:
192,192,44432,1,0,0:0:0:0:
320,192,44518,1,0,0:0:0:0:
64,192,44690,128,0,44863:0:0:0:0:
192,192,44863,128,2,45552:0:0:0:0:
320,192,44863,1,0,0:0:0:0:
320,192,45207,1,0,0:0:0:0:
320,192,45509,1,0,0:0:0:0:
64,192,45552,1,2,0:0:0:0:
448,192,45552,128,0,45897:0:0:0:0:
64,192,45897,1,2,0:0:0:0:
192,192,45897,1,8,0:0:0:0:
320,192,45897,1,0,0:0:0:70:Crash 2.wav
192,192,46242,1,2,0:0:0:0:
448,192,46242,1,0,0:0:0:0:
64,192,46414,1,0,0:0:0:0:
320,192,46414,1,0,0:0:0:0:
192,192,46587,1,2,0:0:0:0:
448,192,46587,1,0,0:0:0:60:Tom 2.wav
64,192,46759,1,0,0:0:0:60:Tom 2.wav
448,192,46759,1,0,0:0:0:0:
64,192,46932,1,2,0:0:0:0:
192,192,46932,1,8,0:0:0:0:
320,192,46932,1,0,0:0:0:60:Tom 2.wav
192,192,47104,1,8,0:0:0:0:
320,192,47104,1,0,0:0:0:60:Tom 2.wav
448,192,47104,1,0,0:0:0:0:
64,192,47276,1,2,0:0:0:0:
192,192,47276,1,8,0:0:0:0:
448,192,47276,1,0,0:0:0:60:Tom 2.wav
64,192,47449,1,8,0:0:0:0:
320,192,47449,1,0,0:0:0:60:Tom 2.wav
448,192,47449,1,0,0:0:0:0:
64,192,47621,1,2,0:0:0:0:
192,192,47621,1,8,0:0:0:0:
320,192,47621,1,0,0:0:0:60:Tom 2.wav
192,192,47794,1,8,0:0:0:0:
320,192,47794,1,0,0:0:0:60:Tom 2.wav
448,192,47794,1,0,0:0:0:0:
64,192,47966,1,2,0:0:0:0:
192,192,47966,1,8,0:0:0:0:
448,192,47966,1,0,0:0:0:70:Crash 2.wav
320,192,48139,1,0,0:0:0:60:Tom 2.wav
448,192,48139,1,0,0:0:0:0:
192,192,48225,1,0,0:0:0:0:
64,192,48311,1,2,0:0:0:0:
320,192,48311,1,0,0:0:0:0:
192,192,48483,1,0,0:0:0:60:Tom 3.wav
448,192,48483,1,0,0:0:0:0:
64,192,48656,1,2,0:0:0:0:
320,192,48656,1,4,0:0:0:70:Crash 2.wav
448,192,48656,1,0,0:0:0:0:
64,192,48828,1,8,0:0:0:0:
192,192,48828,1,0,0:0:0:0:
448,192,48828,1,0,0:0:0:0:
192,192,49001,1,2,0:0:0:0:
320,192,49001,1,0,0:0:0:0:
64,192,49173,1,8,0:0:0:0:
320,192,49173,1,0,0:0:0:0:
448,192,49173,1,0,0:0:0:0:
64,192,49345,1,2,0:0:0:0:
192,192,49345,1,0,0:0:0:0:
320,192,49518,1,2,0:0:0:0:
448,192,49518,1,0,0:0:0:0:
64,192,49690,1,8,0:0:0:0:
192,192,49690,1,0,0:0:0:70:Crash 2.wav
448,192,49690,1,0,0:0:0:0:
320,192,49863,1,0,0:0:0:0:
64,192,50035,1,8,0:0:0:0:
320,192,50035,1,4,0:0:0:0:
448,192,50035,1,0,0:0:0:0:
64,192,50207,1,2,0:0:0:0:
192,192,50207,1,0,0:0:0:0:
192,192,50380,1,2,0:0:0:0:
320,192,50380,1,0,0:0:0:0:
64,192,50552,1,0,0:0:0:70:Tom 3.wav
448,192,50552,1,0,0:0:0:0:
192,192,50725,1,2,0:0:0:0:
448,192,50725,1,0,0:0:0:0:
64,192,50897,1,2,0:0:0:0:
320,192,50897,1,0,0:0:0:0:
64,192,51070,1,8,0:0:0:0:
192,192,51070,1,4,0:0:0:0:
448,192,51070,1,0,0:0:0:0:
320,192,51242,1,2,0:0:0:0:
448,192,51242,1,0,0:0:0:0:
64,192,51414,1,2,0:0:0:0:
192,192,51414,1,0,0:0:0:70:Crash 2.wav
320,192,51414,1,0,0:0:0:0:
64,192,51587,1,8,0:0:0:0:
192,192,51587,1,0,0:0:0:0:
448,192,51587,1,0,0:0:0:0:
320,192,51759,1,2,0:0:0:0:
448,192,51759,1,0,0:0:0:0:
64,192,51932,1,8,0:0:0:0:
192,192,51932,1,0,0:0:0:0:
320,192,51932,1,0,0:0:0:0:
64,192,52104,1,2,0:0:0:0:
192,192,52104,1,0,0:0:0:0:
320,192,52276,1,2,0:0:0:0:
448,192,52276,1,0,0:0:0:0:
64,192,52449,1,8,0:0:0:0:
192,192,52449,1,0,0:0:0:70:Crash 2.wav
448,192,52449,1,0,0:0:0:0:
192,192,52621,1,2,0:0:0:0:
320,192,52621,1,0,0:0:0:0:
64,192,52794,1,8,0:0:0:0:
320,192,52794,1,4,0:0:0:0:
448,192,52794,1,0,0:0:0:0:
192,192,52966,1,2,0:0:0:0:
320,192,52966,1,0,0:0:0:0:
64,192,53139,1,2,0:0:0:0:
448,192,53139,1,0,0:0:0:0:
64,192,53311,1,0,0:0:0:70:Tom 3.wav
192,192,53311,1,0,0:0:0:0:
192,192,53483,1,2,0:0:0:0:
320,192,53483,1,0,0:0:0:0:
64,192,53656,1,2,0:0:0:0:
448,192,53656,1,0,0:0:0:0:
192,192,53828,1,8,0:0:0:0:
320,192,53828,1,0,0:0:0:70:Crash 2.wav
448,192,53828,1,0,0:0:0:0:
64,192,54001,1,8,0:0:0:0:
192,192,54001,1,0,0:0:0:0:
320,192,54087,1,8,0:0:0:0:
64,192,54173,1,2,0:0:0:0:
192,192,54173,1,4,0:0:0:0:
448,192,54173,1,0,0:0:0:0:
64,192,54345,1,8,0:0:0:0:
320,192,54345,1,0,0:0:0:0:
448,192,54345,1,0,0:0:0:0:
192,192,54518,1,2,0:0:0:0:
320,192,54518,1,0,0:0:0:0:
64,192,54690,1,8,0:0:0:0:
192,192,54690,1,0,0:0:0:0:
448,192,54690,1,0,0:0:0:0:
320,192,54863,1,2,0:0:0:0:
448,192,54863,1,0,0:0:0:0:
64,192,55035,1,2,0:0:0:0:
192,192,55035,1,0,0:0:0:0:
64,192,55207,1,8,0:0:0:0:
320,192,55207,1,0,0:0:0:70:Crash 2.wav
448,192,55207,1,0,0:0:0:0:
192,192,55380,1,2,0:0:0:0:
320,192,55380,1,0,0:0:0:0:
64,192,55552,1,8,0:0:0:0:
192,192,55552,1,0,0:0:0:70:Crash 2.wav
448,192,55552,1,0,0:0:0:0:
320,192,55725,1,2,0:0:0:0:
448,192,55725,1,0,0:0:0:0:
64,192,55897,1,2,0:0:0:0:
192,192,55897,1,0,0:0:0:0:
64,192,56070,1,0,0:0:0:70:Tom 3.wav
320,192,56070,1,0,0:0:0:0:
192,192,56242,1,2,0:0:0:0:
448,192,56242,1,0,0:0:0:0:
64,192,56414,1,2,0:0:0:0:
320,192,56414,1,0,0:0:0:0:
64,192,56587,1,8,0:0:0:0:
192,192,56587,1,0,0:0:0:0:
448,192,56587,1,0,0:0:0:0:
320,192,56759,1,8,0:0:0:0:
448,192,56759,1,0,0:0:0:0:
192,192,56845,1,8,0:0:0:0:
64,192,56932,1,2,0:0:0:0:
320,192,56932,1,4,0:0:0:0:
448,192,56932,1,0,0:0:0:0:
64,192,57276,1,8,0:0:0:0:
192,192,57276,1,0,0:0:0:0:
448,192,57276,1,0,0:0:0:0:
320,192,57449,1,2,0:0:0:0:
448,192,57449,1,0,0:0:0:0:
64,192,57621,1,8,0:0:0:0:
192,192,57621,1,0,0:0:0:0:
320,192,57621,1,0,0:0:0:0:
192,192,57794,1,2,0:0:0:0:
448,192,57794,1,0,0:0:0:0:
320,192,57880,1,2,0:0:0:0:
64,192,57966,1,8,0:0:0:0:
192,192,57966,1,0,0:0:0:0:
448,192,57966,1,0,0:0:0:0:
64,192,58139,1,2,0:0:0:0:
320,192,58139,128,4,58656:0:0:0:0:
448,192,58139,128,0,58656:0:0:0:0:
64,192,59001,128,0,59518:0:0:0:0:
448,192,59345,128,0,59518:0:0:0:0:
64,192,59690,1,2,0:0:0:0:
320,192,59690,128,4,59863:0:0:0:0:
448,192,59690,1,0,0:0:0:0:
192,192,59863,128,0,60035:0:0:0:0:
64,192,60035,128,2,60207:0:0:0:0:
320,192,60035,1,8,0:0:0:0:
448,192,60035,1,0,0:0:0:0:
448,192,60207,128,0,60380:0:0:0:0:
64,192,60380,1,2,0:0:0:0:
192,192,60380,128,0,60552:0:0:0:0:
320,192,60552,128,0,60725:0:0:0:0:
64,192,60725,128,2,60897:0:0:0:0:
192,192,60725,1,8,0:0:0:0:
448,192,60725,1,0,0:0:0:0:
448,192,60897,128,0,61070:0:0:0:0:
64,192,61070,1,2,0:0:0:0:
320,192,61070,128,0,61242:0:0:0:0:
192,192,61242,128,0,61414:0:0:0:0:
64,192,61414,128,2,61587:0:0:0:0:
320,192,61414,1,8,0:0:0:0:
448,192,61414,1,0,0:0:0:0:
448,192,61587,128,0,61759:0:0:0:0:
64,192,61759,1,2,0:0:0:0:
192,192,61759,128,0,61932:0:0:0:0:
320,192,61932,128,0,62104:0:0:0:0:
64,192,62104,1,2,0:0:0:0:
192,192,62104,1,8,0:0:0:0:
448,192,62104,128,0,62276:0:0:0:0:
192,192,62276,128,0,62449:0:0:0:0:
320,192,62363,1,8,0:0:0:0:
64,192,62449,128,2,62621:0:0:0:0:
448,192,62449,1,0,0:0:0:0:
320,192,62621,128,0,62794:0:0:0:0:
64,192,62794,1,2,0:0:0:0:
192,192,62794,1,8,0:0:0:0:
448,192,62794,128,0,62966:0:0:0:0:
192,192,62966,128,0,63139:0:0:0:0:
64,192,63139,128,2,63311:0:0:0:0:
448,192,63139,1,0,0:0:0:0:
320,192,63311,128,0,63483:0:0:0:0:
64,192,63483,1,2,0:0:0:0:
192,192,63483,128,8,63656:0:0:0:0:
448,192,63483,1,0,0:0:0:0:
448,192,63656,128,0,63828:0:0:0:0:
64,192,63828,128,2,64001:0:0:0:0:
192,192,63828,1,0,0:0:0:0:
320,192,64001,128,0,64173:0:0:0:0:
64,192,64173,1,2,0:0:0:0:
192,192,64173,128,8,64345:0:0:0:0:
448,192,64173,1,0,0:0:0:0:
448,192,64345,128,0,64518:0:0:0:0:
192,192,64518,128,2,64690:0:0:0:0:
320,192,64518,1,0,0:0:0:0:
64,192,64690,128,0,64863:0:0:0:0:
192,192,64863,1,2,0:0:0:0:
320,192,64863,1,8,0:0:0:0:
448,192,64863,128,0,65035:0:0:0:0:
64,192,65035,1,8,0:0:0:0:
192,192,65035,1,0,0:0:0:0:
320,192,65121,1,8,0:0:0:0:
64,192,65207,128,2,65380:0:0:0:0:
192,192,65207,1,4,0:0:0:0:
448,192,65207,1,0,0:0:0:0:
320,192,65380,128,0,65552:0:0:0:0:
64,192,65552,1,2,0:0:0:0:
192,192,65552,1,8,0:0:0:0:
448,192,65552,128,0,65725:0:0:0:0:
192,192,65725,128,0,65897:0:0:0:0:
64,192,65897,1,2,0:0:0:0:
320,192,65897,128,0,66070:0:0:0:0:
448,192,66070,128,0,66242:0:0:0:0:
64,192,66242,128,2,66414:0:0:0:0:
192,192,66242,1,8,0:0:0:0:
320,192,66242,1,0,0:0:0:0:
320,192,66414,128,0,66587:0:0:0:0:
64,192,66587,1,2,0:0:0:0:
448,192,66587,128,0,66759:0:0:0:0:
192,192,66759,128,0,66932:0:0:0:0:
64,192,66932,128,2,67104:0:0:0:0:
320,192,66932,1,8,0:0:0:0:
448,192,66932,1,0,0:0:0:0:
320,192,67104,128,0,67276:0:0:0:0:
192,192,67276,1,2,0:0:0:0:
448,192,67276,128,0,67449:0:0:0:0:
64,192,67449,128,0,67621:0:0:0:0:
192,192,67621,128,2,67794:0:0:0:0:
320,192,67621,1,8,0:0:0:0:
448,192,67621,1,0,0:0:0:0:
320,192,67794,128,0,67966:0:0:0:0:
64,192,67966,128,2,68311:0:0:0:0:
192,192,67966,1,4,0:0:0:0:
448,192,67966,1,0,0:0:0:0:
192,192,68311,1,2,0:0:0:0:
320,192,68311,1,8,0:0:0:0:
448,192,68311,1,0,0:0:0:0:
320,192,68483,128,0,68656:0:0:0:0:
64,192,68656,1,2,0:0:0:0:
448,192,68656,128,0,69001:0:0:0:0:
64,192,69001,1,2,0:0:0:0:
192,192,69001,1,8,0:0:0:0:
320,192,69001,1,0,0:0:0:0:
192,192,69173,128,0,69345:0:0:0:0:
64,192,69345,128,2,69690:0:0:0:0:
448,192,69345,1,0,0:0:0:0:
192,192,69690,1,2,0:0:0:0:
320,192,69690,1,8,0:0:0:0:
448,192,69690,1,0,0:0:0:0:
64,192,69863,1,8,0:0:0:0:
192,192,69863,1,0,0:0:0:0:
320,192,69949,1,8,0:0:0:0:
448,192,69949,1,0,0:0:0:0:
64,192,70035,1,2,0:0:0:0:
192,192,70035,1,8,0:0:0:0:
320,192,70121,1,8,0:0:0:0:
448,192,70121,1,0,0:0:0:0:
64,192,70207,1,8,0:0:0:0:
192,192,70207,1,0,0:0:0:0:
320,192,70294,1,8,0:0:0:0:
448,192,70294,1,0,0:0:0:0:
64,192,70380,1,2,0:0:0:0:
192,192,70380,1,8,0:0:0:0:
320,192,70466,1,0,0:0:0:50:Tom 1.wav
64,192,70552,1,0,0:0:0:60:Tom 2.wav
448,192,70552,1,0,0:0:0:0:
192,192,70639,1,0,0:0:0:60:Tom 3.wav
64,192,70725,1,2,0:0:0:0:
320,192,70725,128,0,71070:0:0:0:70:Crash 2.wav
448,192,70725,1,0,0:0:0:0:
64,192,71070,1,8,0:0:0:0:
192,192,71070,1,4,0:0:0:0:
448,192,71070,1,0,0:0:0:0:
320,192,71242,1,0,0:0:0:0:
192,192,71414,1,2,0:0:0:0:
448,192,71414,1,0,0:0:0:0:
64,192,71587,1,2,0:0:0:0:
320,192,71587,1,0,0:0:0:0:
64,192,71759,1,8,0:0:0:0:
192,192,71759,1,0,0:0:0:0:
448,192,71759,1,0,0:0:0:0:
320,192,71932,1,0,0:0:0:0:
448,192,72018,1,0,0:0:0:0:
64,192,72104,1,2,0:0:0:0:
192,192,72104,1,0,0:0:0:0:
192,192,72276,1,2,0:0:0:0:
448,192,72276,1,0,0:0:0:0:
64,192,72449,1,8,0:0:0:0:
320,192,72449,1,0,0:0:0:0:
448,192,72449,1,0,0:0:0:0:
192,192,72621,1,0,0:0:0:0:
320,192,72794,1,2,0:0:0:0:
448,192,72794,128,0,73139:0:0:0:0:
64,192,72966,1,2,0:0:0:0:
192,192,72966,1,0,0:0:0:0:
64,192,73139,128,8,73483:0:0:0:0:
192,192,73139,1,0,0:0:0:0:
320,192,73139,1,0,0:0:0:0:
448,192,73311,1,0,0:0:0:0:
320,192,73397,1,8,0:0:0:0:
192,192,73483,128,2,73828:0:0:0:0:
448,192,73483,1,0,0:0:0:0:
64,192,73828,1,8,0:0:0:0:
320,192,73828,1,0,0:0:0:0:
448,192,73828,1,0,0:0:0:0:
64,192,74001,128,0,74345:0:0:0:0:
192,192,74173,1,2,0:0:0:0:
320,192,74173,1,0,0:0:0:0:
192,192,74345,1,2,0:0:0:0:
448,192,74345,1,0,0:0:0:0:
64,192,74518,1,8,0:0:0:0:
320,192,74518,1,0,0:0:0:0:
448,192,74518,128,0,74863:0:0:0:0:
192,192,74690,1,0,0:0:0:0:
64,192,74776,1,0,0:0:0:0:
192,192,74863,1,2,0:0:0:0:
320,192,74863,1,0,0:0:0:0:
64,192,75035,1,2,0:0:0:0:
448,192,75035,1,0,0:0:0:0:
192,192,75207,1,8,0:0:0:0:
320,192,75207,1,0,0:0:0:0:
448,192,75207,1,0,0:0:0:0:
64,192,75552,1,2,0:0:0:0:
192,192,75552,1,8,0:0:0:0:
320,192,75552,1,0,0:0:0:0:
320,192,75725,1,8,0:0:0:0:
448,192,75725,1,0,0:0:0:0:
192,192,75811,1,8,0:0:0:0:
64,192,75897,1,2,0:0:0:0:
320,192,75897,1,8,0:0:0:0:
448,192,75897,1,0,0:0:0:0:
64,192,76070,1,8,0:0:0:0:
192,192,76070,1,0,0:0:0:0:
320,192,76156,1,8,0:0:0:0:
64,192,76242,1,2,0:0:0:0:
192,192,76242,1,0,0:0:0:70:Crash 2.wav
448,192,76242,128,0,76587:0:0:0:0:
64,192,76587,1,8,0:0:0:0:
192,192,76587,128,0,76932:0:0:0:0:
320,192,76587,1,0,0:0:0:0:
448,192,76759,1,0,0:0:0:0:
64,192,76932,1,2,0:0:0:0:
320,192,76932,1,0,0:0:0:0:
192,192,77104,1,2,0:0:0:0:
448,192,77104,1,0,0:0:0:0:
64,192,77276,128,8,77621:0:0:0:0:
320,192,77276,1,0,0:0:0:0:
448,192,77276,1,0,0:0:0:0:
192,192,77449,1,0,0:0:0:0:
320,192,77621,1,2,0:0:0:0:
448,192,77621,1,0,0:0:0:0:
192,192,77794,1,2,0:0:0:0:
64,192,77794,1,0,0:0:0:0:
192,192,77966,1,8,0:0:0:0:
320,192,77966,128,0,78311:0:0:0:0:
448,192,77966,1,0,0:0:0:0:
64,192,78225,1,8,0:0:0:0:
192,192,78311,1,2,0:0:0:0:
448,192,78311,1,0,0:0:0:0:
64,192,78483,1,2,0:0:0:0:
320,192,78483,1,0,0:0:0:0:
64,192,78656,128,8,79001:0:0:0:0:
192,192,78656,1,0,0:0:0:0:
448,192,78656,1,0,0:0:0:0:
320,192,78828,1,2,0:0:0:0:
192,192,78914,1,2,0:0:0:0:
320,192,79001,1,8,0:0:0:0:
448,192,79001,128,0,79345:0:0:0:0:
64,192,79345,1,10,0:0:0:0:
192,192,79345,1,0,0:0:0:60:Tom 2.wav
192,192,79518,1,8,0:0:0:0:
448,192,79518,1,0,0:0:0:60:Tom 2.wav
320,192,79690,1,10,0:0:0:0:
448,192,79690,1,0,0:0:0:60:Tom 2.wav
64,192,79863,1,8,0:0:0:0:
192,192,79863,1,0,0:0:0:60:Tom 2.wav
320,192,79863,1,0,0:0:0:0:
64,192,80035,1,2,0:0:0:0:
192,192,80035,1,8,0:0:0:0:
448,192,80035,1,0,0:0:0:60:Tom 2.wav
192,192,80207,1,8,0:0:0:0:
320,192,80207,1,0,0:0:0:60:Tom 2.wav
448,192,80207,1,0,0:0:0:0:
64,192,80380,1,2,0:0:0:0:
320,192,80380,1,8,0:0:0:0:
448,192,80380,1,0,0:0:0:60:Tom 2.wav
64,192,80552,1,8,0:0:0:0:
192,192,80552,1,0,0:0:0:60:Tom 2.wav
320,192,80552,1,0,0:0:0:0:
64,192,80725,1,2,0:0:0:0:
192,192,80725,1,8,0:0:0:0:
448,192,80725,1,0,0:0:0:60:Tom 2.wav
320,192,80897,1,0,0:0:0:50:Tom 1.wav
448,192,80897,1,0,0:0:0:0:
64,192,80983,1,0,0:0:0:60:Tom 2.wav
192,192,80983,1,0,0:0:0:0:
320,192,81070,128,2,82966:0:0:0:0:
448,192,81070,128,0,82966:0:0:0:0:
320,192,83139,128,0,84432:0:0:0:0:
64,192,83828,128,0,84432:0:0:0:0:
64,192,84518,1,2,0:0:0:0:
320,192,84518,1,4,0:0:0:0:
448,192,84518,128,0,84863:0:0:0:0:
192,192,84863,1,0,0:0:0:0:
64,192,85035,1,2,0:0:0:0:
320,192,85035,1,0,0:0:0:0:
64,192,85207,1,8,0:0:0:0:
192,192,85207,1,0,0:0:0:0:
448,192,85207,1,0,0:0:0:0:
320,192,85380,1,0,0:0:0:0:
64,192,85552,1,2,0:0:0:0:
192,192,85552,1,0,0:0:0:0:
320,192,85725,1,2,0:0:0:0:
448,192,85725,1,0,0:0:0:0:
192,192,85897,1,0,0:0:0:0:
64,192,86070,1,8,0:0:0:0:
320,192,86070,1,0,0:0:0:0:
448,192,86070,1,0,0:0:0:0:
192,192,86242,1,0,0:0:0:0:
320,192,86414,1,2,0:0:0:0:
448,192,86414,1,0,0:0:0:0:
64,192,86587,1,8,0:0:0:0:
192,192,86587,1,0,0:0:0:0:
448,192,86587,1,0,0:0:0:0:
64,192,86759,1,2,0:0:0:0:
320,192,86759,1,0,0:0:0:0:
448,192,86932,1,0,0:0:0:0:
64,192,87104,1,2,0:0:0:0:
192,192,87104,1,0,0:0:0:0:
64,192,87276,1,2,0:0:0:0:
320,192,87276,1,4,0:0:0:0:
448,192,87276,128,0,87794:0:0:0:0:
192,192,87449,1,0,0:0:0:0:
320,192,87621,1,0,0:0:0:0:
64,192,87794,1,2,0:0:0:0:
192,192,87794,1,0,0:0:0:0:
64,192,87966,1,8,0:0:0:0:
320,192,87966,1,0,0:0:0:0:
448,192,87966,1,0,0:0:0:0:
192,192,88139,1,0,0:0:0:0:
320,192,88311,1,2,0:0:0:0:
448,192,88311,1,0,0:0:0:0:
64,192,88483,1,2,0:0:0:0:
192,192,88483,1,0,0:0:0:0:
448,192,88656,1,0,0:0:0:0:
64,192,88828,1,8,0:0:0:0:
192,192,88828,1,0,0:0:0:0:
320,192,88828,1,0,0:0:0:0:
448,192,89001,1,0,0:0:0:0:
192,192,89173,1,2,0:0:0:0:
320,192,89173,1,0,0:0:0:0:
64,192,89345,1,8,0:0:0:0:
320,192,89345,1,0,0:0:0:0:
448,192,89345,1,0,0:0:0:0:
64,192,89518,1,0,0:0:0:0:
192,192,89518,1,0,0:0:0:0:
320,192,89604,1,8,0:0:0:0:
448,192,89604,1,0,0:0:0:0:
64,192,89690,1,2,0:0:0:0:
192,192,89690,1,0,0:0:0:0:
320,192,89863,1,0,0:0:0:60:Tom 2.wav
448,192,89863,1,0,0:0:0:0:
64,192,90035,128,2,90380:0:0:0:0:
192,192,90035,1,0,0:0:0:70:Crash 2.wav
448,192,90035,1,0,0:0:0:0:
320,192,90380,1,0,0:0:0:0:
192,192,90552,1,2,0:0:0:0:
448,192,90552,1,0,0:0:0:0:
64,192,90725,1,8,0:0:0:0:
320,192,90725,1,0,0:0:0:0:
448,192,90725,128,0,91070:0:0:0:0:
320,192,91070,1,0,0:0:0:0:
64,192,91242,128,2,91328:0:0:0:0:
192,192,91242,1,0,0:0:0:0:
64,192,91414,128,2,91759:0:0:0:0:
448,192,91414,1,0,0:0:0:0:
192,192,91759,1,0,0:0:0:0:
320,192,91932,128,2,92104:0:0:0:0:
448,192,91932,1,0,0:0:0:0:
64,192,92104,128,8,92276:0:0:0:0:
192,192,92104,128,0,92276:0:0:0:0:
448,192,92104,1,0,0:0:0:0:
192,192,92363,128,0,92535:0:0:0:50:Tom 1.wav
320,192,92363,128,0,92535:0:0:0:0:
320,192,92621,128,0,92794:0:0:0:60:Tom 2.wav
448,192,92621,128,0,92794:0:0:0:0:
64,192,92794,1,2,0:0:0:0:
192,192,92794,1,4,0:0:0:0:
320,192,92966,1,2,0:0:0:0:
448,192,92966,1,0,0:0:0:0:
64,192,93139,1,8,0:0:0:0:
192,192,93139,1,0,0:0:0:0:
448,192,93139,1,0,0:0:0:0:
64,192,93311,1,2,0:0:0:0:
320,192,93311,1,0,0:0:0:70:Crash 2.wav
448,192,93311,128,0,93656:0:0:0:0:
64,192,93656,1,2,0:0:0:0:
192,192,93656,1,0,0:0:0:0:
64,192,93828,1,8,0:0:0:0:
320,192,93828,1,0,0:0:0:0:
448,192,93828,1,0,0:0:0:0:
64,192,94001,128,2,94345:0:0:0:0:
192,192,94001,1,4,0:0:0:0:
448,192,94001,1,0,0:0:0:0:
320,192,94345,1,8,0:0:0:0:
448,192,94345,1,0,0:0:0:0:
192,192,94432,1,0,0:0:0:0:
64,192,94518,1,8,0:0:0:0:
320,192,94518,1,0,0:0:0:0:
448,192,94518,1,0,0:0:0:0:
64,192,94690,1,2,0:0:0:0:
192,192,94690,1,0,0:0:0:0:
192,192,94863,1,8,0:0:0:0:
320,192,94863,1,0,0:0:0:70:Crash 2.wav
448,192,94863,1,0,0:0:0:0:
64,192,95035,1,0,0:0:0:0:
320,192,95121,1,8,0:0:0:0:
448,192,95121,1,0,0:0:0:0:
64,192,95207,1,2,0:0:0:0:
192,192,95207,1,0,0:0:0:50:Tom 1.wav
448,192,95294,1,0,0:0:0:50:Tom 1.wav
320,192,95380,1,0,0:0:0:60:Tom 2.wav
192,192,95466,1,0,0:0:0:60:Tom 3.wav
64,192,95552,1,2,0:0:0:0:
320,192,95552,1,4,0:0:0:0:
448,192,95552,1,0,0:0:0:0:
192,192,95725,1,2,0:0:0:0:
448,192,95725,1,0,0:0:0:0:
64,192,95897,1,8,0:0:0:0:
192,192,95897,1,0,0:0:0:0:
320,192,95897,1,0,0:0:0:0:
64,192,96070,1,2,0:0:0:0:
320,192,96070,1,0,0:0:0:70:Crash 2.wav
448,192,96070,1,0,0:0:0:0:
320,192,96414,1,8,0:0:0:0:
448,192,96414,1,0,0:0:0:0:
64,192,96501,1,8,0:0:0:0:
192,192,96501,1,0,0:0:0:0:
320,192,96587,1,2,0:0:0:0:
448,192,96587,1,0,0:0:0:0:
64,192,96673,1,8,0:0:0:0:
192,192,96673,1,0,0:0:0:0:
320,192,96759,1,8,0:0:0:70:Tom 1.wav
448,192,96759,1,0,0:0:0:0:
64,192,96932,1,2,0:0:0:0:
192,192,96932,1,0,0:0:0:70:Crash 2.wav
448,192,96932,1,0,0:0:0:0:
192,192,97104,1,2,0:0:0:0:
320,192,97104,1,0,0:0:0:0:
64,192,97276,1,8,0:0:0:0:
320,192,97276,1,0,0:0:0:0:
448,192,97276,1,0,0:0:0:0:
64,192,97449,1,2,0:0:0:0:
192,192,97449,1,4,0:0:0:0:
448,192,97449,1,0,0:0:0:0:
320,192,97621,1,8,0:0:0:0:
448,192,97621,1,0,0:0:0:0:
64,192,97707,1,8,0:0:0:0:
192,192,97707,1,0,0:0:0:0:
64,192,97880,1,8,0:0:0:0:
192,192,97880,1,0,0:0:0:0:
320,192,97966,1,2,0:0:0:0:
448,192,97966,1,8,0:0:0:0:
64,192,98139,1,8,0:0:0:0:
192,192,98139,1,0,0:0:0:0:
320,192,98225,1,8,0:0:0:0:
64,192,98311,1,2,0:0:0:0:
192,192,98311,1,0,0:0:0:70:Crash 2.wav
448,192,98311,1,0,0:0:0:0:
320,192,98483,128,0,98656:0:0:0:0:
64,192,98656,1,2,0:0:0:0:
192,192,98656,1,8,0:0:0:0:
448,192,98656,1,0,0:0:0:0:
448,192,98828,128,0,99001:0:0:0:0:
64,192,99001,1,2,0:0:0:0:
320,192,99001,1,0,0:0:0:0:
192,192,99173,128,0,99345:0:0:0:0:
64,192,99345,1,2,0:0:0:0:
320,192,99345,1,8,0:0:0:0:
448,192,99345,1,0,0:0:0:0:
64,192,99518,128,0,99690:0:0:0:0:
192,192,99690,1,2,0:0:0:0:
320,192,99690,1,8,0:0:0:0:
448,192,99690,1,0,0:0:0:70:Crash 2.wav
64,192,99776,1,8,0:0:0:0:
448,192,99863,1,8,0:0:0:0:
320,192,99949,1,8,0:0:0:0:
64,192,100035,1,2,0:0:0:0:
192,192,100035,1,8,0:0:0:0:
320,192,100121,1,8,0:0:0:0:
448,192,100121,1,0,0:0:0:0:
64,192,100207,1,8,0:0:0:0:
192,192,100207,1,0,0:0:0:0:
320,192,100294,1,8,0:0:0:0:
64,192,100380,1,2,0:0:0:0:
448,192,100380,1,8,0:0:0:0:
192,192,100466,1,8,0:0:0:0:
320,192,100466,1,0,0:0:0:0:
64,192,100552,1,8,0:0:0:0:
448,192,100552,1,0,0:0:0:0:
192,192,100639,1,8,0:0:0:0:
320,192,100725,1,2,0:0:0:0:
448,192,100725,1,8,0:0:0:0:
64,192,100811,1,8,0:0:0:0:
192,192,100897,1,2,0:0:0:0:
320,192,100897,1,8,0:0:0:0:
448,192,100983,1,0,0:0:0:0:
64,192,101759,128,2,104259:0:0:0:0:
192,192,101759,128,4,102966:0:0:0:0:
448,192,101759,128,0,109345:0:0:0:0:
320,192,102449,128,0,103570:0:0:0:0:
192,192,103052,128,0,105035:0:0:0:0:
320,192,103656,128,0,104949:0:0:0:0:
64,192,104345,128,0,106759:0:0:0:0:
320,192,105035,128,0,105811:0:0:0:0:
192,192,105811,128,0,106759:0:0:0:0:
320,192,106759,128,0,108656:0:0:0:0:
64,192,107621,128,0,109345:0:0:0:0:
192,192,108656,128,0,109345:0:0:0:0:
