osu file format v14

[General]
AudioFilename: audio.ogg
AudioLeadIn: 0
PreviewTime: 58921
Countdown: 0
SampleSet: Normal
StackLeniency: 0.7
Mode: 1
LetterboxInBreaks: 0
WidescreenStoryboard: 1

[Editor]
Bookmarks: 45271
DistanceSpacing: 0.8
BeatDivisor: 4
GridSize: 32
TimelineZoom: 1.6

[Metadata]
Title:Caesura of Despair
TitleUnicode:Caesura of Despair
Artist:IRyS
ArtistUnicode:IRyS
Creator:Jerry
Version:Muzukashii
Source:
Tags:buzzG Coch japanese pop jpop j-pop english hololive production ホロライブプロダクション en vsinger holoen project hope projecthope vtuber virtual youtuber バーチャル ユーチューバー cover corporation corp original short version ver. ||:Caesura
BeatmapID:3104909
BeatmapSetID:1516675

[Difficulty]
HPDrainRate:6
CircleSize:5
OverallDifficulty:5
ApproachRate:5
SliderMultiplier:1.4
SliderTickRate:1

[Events]
//Background and Video events
0,0,"BG.jpg",0,-10
Video,-1033,"irys.mp4"
//Break Periods
2,81765,83324
//Storyboard Layer 0 (Background)
//Storyboard Layer 1 (Fail)
//Storyboard Layer 2 (Pass)
//Storyboard Layer 3 (Foreground)
//Storyboard Layer 4 (Overlay)
//Storyboard Sound Samples

[TimingPoints]
-2372,344.827586206897,4,1,0,80,1,0
128,-133.333333333333,4,1,0,50,0,0
11248,-133.333333333333,4,1,0,20,0,0
15386,-100,4,1,0,80,0,0
15559,344.827586206897,4,1,0,80,1,0
26938,-100,4,1,0,50,0,0
37455,-100,4,1,0,80,0,0
59696,-100,4,1,0,80,0,1
81076,-100,4,1,0,80,0,0
81162,-100,4,1,0,20,0,0
84438,-100,4,1,0,80,0,0
84524,344.827586206897,4,1,0,80,1,0

[HitObjects]
256,192,3145,5,8,0:0:0:0:
256,192,3490,1,0,0:0:0:0:
256,192,3662,1,8,0:0:0:0:
256,192,4179,1,8,0:0:0:0:
256,192,4524,1,0,0:0:0:0:
256,192,4696,1,8,0:0:0:0:
256,192,5041,1,0,0:0:0:0:
256,192,5214,1,8,0:0:0:0:
256,192,5559,1,8,0:0:0:0:
256,192,5903,1,0,0:0:0:0:
256,192,6248,1,8,0:0:0:0:
256,192,6421,1,0,0:0:0:0:
256,192,6938,1,8,0:0:0:0:
256,192,7283,1,0,0:0:0:0:
256,192,7455,1,8,0:0:0:0:
256,192,7800,1,8,0:0:0:0:
256,192,7972,1,8,0:0:0:0:
256,192,8317,1,8,0:0:0:0:
256,192,8662,1,0,0:0:0:0:
256,192,10041,1,8,0:0:0:0:
256,192,11421,12,0,15128,0:0:0:0:
256,192,15559,5,4,0:0:0:0:
256,192,15903,1,8,0:0:0:0:
256,192,16248,1,0,0:0:0:0:
256,192,16421,1,0,0:0:0:0:
256,192,16593,1,8,0:0:0:0:
256,192,16765,1,0,0:0:0:0:
256,192,16938,1,0,0:0:0:0:
256,192,17283,1,8,0:0:0:0:
256,192,17627,1,0,0:0:0:0:
256,192,17800,1,8,0:0:0:0:
256,192,17972,1,8,0:0:0:0:
256,192,18145,1,0,0:0:0:0:
256,192,18317,1,0,0:0:0:0:
256,192,18662,1,8,0:0:0:0:
256,192,19007,1,0,0:0:0:0:
256,192,19352,1,8,0:0:0:0:
256,192,19524,1,0,0:0:0:0:
256,192,19696,1,0,0:0:0:0:
256,192,20041,1,8,0:0:0:0:
256,192,20214,1,0,0:0:0:0:
256,192,20300,1,0,0:0:0:0:
256,192,20386,1,0,0:0:0:0:
256,192,20559,1,0,0:0:0:0:
256,192,20731,1,8,0:0:0:0:
256,192,21076,1,4,0:0:0:0:
256,192,21334,1,0,0:0:0:0:
256,192,21421,1,8,0:0:0:0:
256,192,21593,1,0,0:0:0:0:
256,192,22110,1,0,0:0:0:0:
256,192,22455,1,12,0:0:0:0:
256,192,22714,1,8,0:0:0:0:
256,192,22800,1,0,0:0:0:0:
256,192,22972,1,8,0:0:0:0:
256,192,23490,1,8,0:0:0:0:
256,192,23834,1,0,0:0:0:0:
256,192,24179,1,0,0:0:0:0:
256,192,24524,1,8,0:0:0:0:
256,192,24869,1,0,0:0:0:0:
256,192,25214,1,8,0:0:0:0:
256,192,25386,1,8,0:0:0:0:
256,192,25472,1,8,0:0:0:0:
256,192,25559,1,8,0:0:0:0:
256,192,25731,1,0,0:0:0:0:
256,192,26076,1,8,0:0:0:0:
256,192,26248,1,8,0:0:0:0:
256,192,26593,1,0,0:0:0:0:
256,192,29352,1,0,0:0:0:0:
256,192,32110,1,8,0:0:0:0:
256,192,34869,1,8,0:0:0:0:
256,192,36248,1,0,0:0:0:0:
256,192,37627,1,4,0:0:0:0:
256,192,37972,1,8,0:0:0:0:
256,192,38145,1,0,0:0:0:0:
256,192,38662,1,8,0:0:0:0:
256,192,39007,1,0,0:0:0:0:
256,192,39352,1,8,0:0:0:0:
256,192,39524,1,8,0:0:0:0:
256,192,39869,1,0,0:0:0:0:
256,192,40041,1,8,0:0:0:0:
256,192,40386,1,0,0:0:0:0:
256,192,40731,1,8,0:0:0:0:
256,192,40903,1,0,0:0:0:0:
256,192,41421,1,8,0:0:0:0:
256,192,41765,1,0,0:0:0:0:
256,192,42110,1,8,0:0:0:0:
256,192,42283,1,8,0:0:0:0:
256,192,42800,1,8,0:0:0:0:
256,192,43145,1,0,0:0:0:0:
256,192,43490,1,8,0:0:0:0:
256,192,43662,1,0,0:0:0:0:
256,192,44179,1,8,0:0:0:0:
256,192,44524,1,0,0:0:0:0:
256,192,44869,1,8,0:0:0:0:
256,192,45041,1,8,0:0:0:0:
256,192,45386,1,0,0:0:0:0:
256,192,45559,1,8,0:0:0:0:
256,192,45903,1,4,0:0:0:0:
256,192,46248,1,8,0:0:0:0:
256,192,46421,1,0,0:0:0:0:
256,192,46507,1,0,0:0:0:0:
256,192,46593,1,0,0:0:0:0:
256,192,46765,1,8,0:0:0:0:
256,192,46938,1,8,0:0:0:0:
256,192,47110,1,0,0:0:0:0:
256,192,47283,1,8,0:0:0:0:
256,192,47455,1,0,0:0:0:0:
256,192,47627,1,0,0:0:0:0:
256,192,47800,1,8,0:0:0:0:
256,192,47886,1,8,0:0:0:0:
256,192,47972,1,8,0:0:0:0:
256,192,48145,1,0,0:0:0:0:
256,192,48317,1,8,0:0:0:0:
256,192,48662,1,0,0:0:0:0:
256,192,49179,1,8,0:0:0:0:
256,192,49524,1,8,0:0:0:0:
256,192,49696,1,8,0:0:0:0:
256,192,49869,1,0,0:0:0:0:
256,192,50041,1,0,0:0:0:0:
256,192,50386,1,8,0:0:0:0:
256,192,50559,1,0,0:0:0:0:
256,192,50903,1,8,0:0:0:0:
256,192,50990,1,8,0:0:0:0:
256,192,51076,1,8,0:0:0:0:
256,192,51248,1,8,0:0:0:0:
256,192,51421,1,0,0:0:0:0:
256,192,51765,1,8,0:0:0:0:
256,192,51938,1,0,0:0:0:0:
256,192,52283,1,0,0:0:0:0:
256,192,52455,1,8,0:0:0:0:
256,192,52627,1,0,0:0:0:0:
256,192,52800,1,0,0:0:0:0:
256,192,52972,1,8,0:0:0:0:
256,192,53145,1,8,0:0:0:0:
256,192,53317,1,0,0:0:0:0:
256,192,53403,1,0,0:0:0:0:
256,192,53490,1,0,0:0:0:0:
256,192,53662,1,8,0:0:0:0:
256,192,53834,1,8,0:0:0:0:
256,192,54179,1,0,0:0:0:0:
256,192,54696,1,8,0:0:0:0:
256,192,55041,1,0,0:0:0:0:
256,192,55214,1,8,0:0:0:0:
256,192,55386,1,0,0:0:0:0:
256,192,55559,1,0,0:0:0:0:
256,192,55903,1,8,0:0:0:0:
256,192,56076,1,0,0:0:0:0:
256,192,56248,1,0,0:0:0:0:
256,192,56421,1,8,0:0:0:0:
256,192,56593,1,0,0:0:0:0:
256,192,56765,1,8,0:0:0:0:
256,192,56852,1,8,0:0:0:0:
256,192,56938,1,8,0:0:0:0:
256,192,57283,1,8,0:0:0:0:
256,192,57455,1,0,0:0:0:0:
256,192,57800,1,8,0:0:0:0:
256,192,58145,1,4,0:0:0:0:
256,192,59696,1,4,0:0:0:0:
256,192,59955,1,8,0:0:0:0:
256,192,60041,1,0,0:0:0:0:
256,192,60214,1,8,0:0:0:0:
256,192,60386,1,0,0:0:0:0:
256,192,60559,1,8,0:0:0:0:
256,192,60731,1,8,0:0:0:0:
256,192,61076,1,0,0:0:0:0:
256,192,61421,1,8,0:0:0:0:
256,192,61593,1,0,0:0:0:0:
256,192,61679,1,0,0:0:0:0:
256,192,61765,1,0,0:0:0:0:
256,192,61938,1,0,0:0:0:0:
256,192,62110,1,8,0:0:0:0:
256,192,62455,1,0,0:0:0:0:
256,192,62800,1,8,0:0:0:0:
256,192,62972,1,8,0:0:0:0:
256,192,63145,1,0,0:0:0:0:
256,192,63490,1,0,0:0:0:0:
256,192,63662,1,8,0:0:0:0:
256,192,63834,1,0,0:0:0:0:
256,192,64179,1,8,0:0:0:0:
256,192,64524,1,0,0:0:0:0:
256,192,64696,1,0,0:0:0:0:
256,192,64869,1,8,0:0:0:0:
256,192,65214,1,4,0:0:0:0:
256,192,65472,1,8,0:0:0:0:
256,192,65559,1,0,0:0:0:0:
256,192,65731,1,8,0:0:0:0:
256,192,65903,1,0,0:0:0:0:
256,192,66076,1,0,0:0:0:0:
256,192,66248,1,8,0:0:0:0:
256,192,66593,1,0,0:0:0:0:
256,192,66938,1,8,0:0:0:0:
256,192,67110,1,0,0:0:0:0:
256,192,67196,1,0,0:0:0:0:
256,192,67283,1,0,0:0:0:0:
256,192,67455,1,0,0:0:0:0:
256,192,67627,1,8,0:0:0:0:
256,192,67972,1,0,0:0:0:0:
256,192,68317,1,8,0:0:0:0:
256,192,68490,1,8,0:0:0:0:
256,192,68662,1,0,0:0:0:0:
256,192,69007,1,0,0:0:0:0:
256,192,69179,1,8,0:0:0:0:
256,192,69352,1,0,0:0:0:0:
256,192,70041,1,0,0:0:0:0:
256,192,70300,1,8,0:0:0:0:
256,192,70559,1,8,0:0:0:0:
256,192,70731,1,4,0:0:0:0:
256,192,71076,1,8,0:0:0:0:
256,192,71248,1,0,0:0:0:0:
256,192,71334,1,0,0:0:0:0:
256,192,71421,1,0,0:0:0:0:
256,192,71593,1,0,0:0:0:0:
256,192,71765,1,8,0:0:0:0:
256,192,72110,1,8,0:0:0:0:
256,192,72283,1,0,0:0:0:0:
256,192,72455,1,8,0:0:0:0:
256,192,72800,1,0,0:0:0:0:
256,192,73145,1,8,0:0:0:0:
256,192,73490,1,0,0:0:0:0:
256,192,73834,1,8,0:0:0:0:
256,192,74007,1,0,0:0:0:0:
256,192,74093,1,0,0:0:0:0:
256,192,74179,1,0,0:0:0:0:
256,192,74352,1,0,0:0:0:0:
256,192,74524,1,8,0:0:0:0:
256,192,74869,1,0,0:0:0:0:
256,192,75041,1,0,0:0:0:0:
256,192,75214,1,8,0:0:0:0:
256,192,75559,1,0,0:0:0:0:
256,192,75903,1,8,0:0:0:0:
256,192,76248,1,4,0:0:0:0:
256,192,76593,1,8,0:0:0:0:
256,192,76938,1,0,0:0:0:0:
256,192,77110,1,0,0:0:0:0:
256,192,77283,1,8,0:0:0:0:
256,192,77627,1,0,0:0:0:0:
256,192,77972,1,8,0:0:0:0:
256,192,78145,1,8,0:0:0:0:
256,192,78317,1,0,0:0:0:0:
256,192,78662,1,8,0:0:0:0:
256,192,79007,1,0,0:0:0:0:
256,192,79179,1,0,0:0:0:0:
256,192,79265,1,0,0:0:0:0:
256,192,79352,1,0,0:0:0:0:
256,192,79524,1,0,0:0:0:0:
256,192,79696,1,8,0:0:0:0:
256,192,80041,1,0,0:0:0:0:
256,192,80386,1,8,0:0:0:0:
256,192,80559,1,8,0:0:0:0:
256,192,80645,1,8,0:0:0:0:
256,192,80731,1,8,0:0:0:0:
256,192,80903,1,0,0:0:0:0:
256,192,81076,1,8,0:0:0:0:
256,192,84524,5,4,0:0:0:0:
256,192,85041,1,8,0:0:0:0:
256,192,85213,1,0,0:0:0:0:
256,192,85558,1,8,0:0:0:0:
256,192,85730,1,8,0:0:0:0:
256,192,86075,1,0,0:0:0:0:
256,192,86161,1,0,0:0:0:0:
256,192,86248,1,0,0:0:0:0:
256,192,86420,1,0,0:0:0:0:
256,192,86592,1,8,0:0:0:0:
256,192,87282,1,0,0:0:0:0:
256,192,87799,1,8,0:0:0:0:
256,192,87972,1,0,0:0:0:0:
256,192,88317,1,0,0:0:0:0:
256,192,88489,1,8,0:0:0:0:
256,192,88834,1,8,0:0:0:0:
256,192,88920,1,8,0:0:0:0:
256,192,89006,1,8,0:0:0:0:
256,192,89179,1,0,0:0:0:0:
256,192,89351,1,8,0:0:0:0:
256,192,90041,1,4,0:0:0:0:
256,192,90558,1,8,0:0:0:0:
256,192,90730,1,0,0:0:0:0:
256,192,91075,1,0,0:0:0:0:
256,192,91248,1,8,0:0:0:0:
256,192,91420,1,0,0:0:0:0:
256,192,91937,1,0,0:0:0:0:
256,192,92110,1,8,0:0:0:0:
256,192,92368,1,8,0:0:0:0:
256,192,92627,1,8,0:0:0:0:
256,192,92799,1,0,0:0:0:0:
256,192,92972,1,0,0:0:0:0:
256,192,93317,1,8,0:0:0:0:
256,192,93661,1,0,0:0:0:0:
256,192,93834,1,8,0:0:0:0:
256,192,94006,1,0,0:0:0:0:
256,192,94351,1,8,0:0:0:0:
256,192,94437,1,8,0:0:0:0:
256,192,94524,1,8,0:0:0:0:
256,192,94696,1,0,0:0:0:0:
256,192,94868,1,8,0:0:0:0:
256,192,95558,1,8,0:0:0:0:
256,192,95817,1,0,0:0:0:0:
256,192,95903,1,8,0:0:0:0:
256,192,96075,1,8,0:0:0:0:
256,192,96420,1,0,0:0:0:0:
256,192,96592,1,8,0:0:0:0:
256,192,96937,1,0,0:0:0:0:
256,192,97196,1,8,0:0:0:0:
256,192,97282,1,0,0:0:0:0:
256,192,97455,1,8,0:0:0:0:
256,192,97799,1,0,0:0:0:0:
256,192,97972,1,8,0:0:0:0:
256,192,98317,1,0,0:0:0:0:
256,192,98661,1,8,0:0:0:0:
256,192,99006,1,0,0:0:0:0:
256,192,99179,1,0,0:0:0:0:
256,192,99351,1,8,0:0:0:0:
256,192,99696,1,0,0:0:0:0:
256,192,99868,1,0,0:0:0:0:
256,192,100041,1,8,0:0:0:0:
256,192,100213,1,0,0:0:0:0:
256,192,100299,1,0,0:0:0:0:
256,192,100386,1,0,0:0:0:0:
256,192,100558,1,0,0:0:0:0:
256,192,100730,1,8,0:0:0:0:
256,192,100903,1,8,0:0:0:0:
256,192,101765,1,4,0:0:0:0:
