osu file format v14

[General]
AudioFilename: audio.ogg
AudioLeadIn: 0
PreviewTime: 58921
Countdown: 0
SampleSet: Normal
StackLeniency: 0.7
Mode: 1
LetterboxInBreaks: 0
WidescreenStoryboard: 1

[Editor]
Bookmarks: 45271
DistanceSpacing: 0.8
BeatDivisor: 4
GridSize: 32
TimelineZoom: 0.9999999

[Metadata]
Title:Caesura of Despair
TitleUnicode:Caesura of Despair
Artist:IRyS
ArtistUnicode:IRyS
Creator:Jerry
Version:Futsuu
Source:
Tags:buzzG Coch japanese pop jpop j-pop english hololive production ホロライブプロダクション en vsinger holoen project hope projecthope vtuber virtual youtuber バーチャル ユーチューバー cover corporation corp original short version ver. ||:Caesura
BeatmapID:3104907
BeatmapSetID:1516675

[Difficulty]
HPDrainRate:7
CircleSize:5
OverallDifficulty:4
ApproachRate:5
SliderMultiplier:1.4
SliderTickRate:1

[Events]
//Background and Video events
0,0,"BG.jpg",0,-10
Video,-1033,"irys.mp4"
//Break Periods
2,81765,83324
//Storyboard Layer 0 (Background)
//Storyboard Layer 1 (Fail)
//Storyboard Layer 2 (Pass)
//Storyboard Layer 3 (Foreground)
//Storyboard Layer 4 (Overlay)
//Storyboard Sound Samples

[TimingPoints]
-2372,344.827586206897,4,1,0,80,1,0
128,-133.333333333333,4,1,0,50,0,0
11248,-133.333333333333,4,1,0,20,0,0
15386,-100,4,1,0,80,0,0
15559,344.827586206897,4,1,0,80,1,0
26938,-100,4,1,0,50,0,0
37455,-100,4,1,0,80,0,0
59696,-100,4,1,0,80,0,1
81076,-100,4,1,0,80,0,0
81162,-100,4,1,0,20,0,0
84438,-100,4,1,0,80,0,0
84524,344.827586206897,4,1,0,80,1,0

[HitObjects]
256,192,3145,5,0,0:0:0:0:
256,192,3662,1,8,0:0:0:0:
256,192,4179,1,0,0:0:0:0:
256,192,5214,1,0,0:0:0:0:
256,192,5559,1,0,0:0:0:0:
256,192,5903,1,8,0:0:0:0:
256,192,6421,1,0,0:0:0:0:
256,192,6938,1,0,0:0:0:0:
256,192,7972,1,0,0:0:0:0:
256,192,8317,1,8,0:0:0:0:
256,192,8662,1,0,0:0:0:0:
256,192,10041,1,8,0:0:0:0:
256,192,11421,12,0,15128,0:0:0:0:
256,192,15559,5,4,0:0:0:0:
256,192,16248,1,0,0:0:0:0:
256,192,16593,1,8,0:0:0:0:
256,192,16765,1,0,0:0:0:0:
256,192,16938,1,0,0:0:0:0:
256,192,17283,1,8,0:0:0:0:
256,192,17627,1,0,0:0:0:0:
256,192,17972,1,0,0:0:0:0:
256,192,18317,1,8,0:0:0:0:
256,192,19007,1,0,0:0:0:0:
256,192,19352,1,8,0:0:0:0:
256,192,19524,1,0,0:0:0:0:
256,192,19696,1,0,0:0:0:0:
256,192,20041,1,8,0:0:0:0:
256,192,20386,1,0,0:0:0:0:
256,192,20559,1,0,0:0:0:0:
256,192,20731,1,8,0:0:0:0:
256,192,21076,1,4,0:0:0:0:
256,192,21593,1,0,0:0:0:0:
256,192,22455,1,12,0:0:0:0:
256,192,22972,1,8,0:0:0:0:
256,192,23834,1,0,0:0:0:0:
256,192,24352,1,8,0:0:0:0:
256,192,24869,1,8,0:0:0:0:
256,192,25214,1,0,0:0:0:0:
256,192,25559,1,8,0:0:0:0:
256,192,25731,1,8,0:0:0:0:
256,192,26248,1,8,0:0:0:0:
256,192,26593,1,0,0:0:0:0:
256,192,29352,1,0,0:0:0:0:
256,192,32110,1,8,0:0:0:0:
256,192,34869,1,8,0:0:0:0:
256,192,36248,1,0,0:0:0:0:
256,192,37627,1,4,0:0:0:0:
256,192,37972,1,8,0:0:0:0:
256,192,38662,1,8,0:0:0:0:
256,192,39007,1,0,0:0:0:0:
256,192,39352,1,8,0:0:0:0:
256,192,40041,1,0,0:0:0:0:
256,192,40386,1,0,0:0:0:0:
256,192,40731,1,8,0:0:0:0:
256,192,41421,1,8,0:0:0:0:
256,192,41765,1,0,0:0:0:0:
256,192,42110,1,8,0:0:0:0:
256,192,42800,1,0,0:0:0:0:
256,192,43145,1,0,0:0:0:0:
256,192,43490,1,8,0:0:0:0:
256,192,44007,1,0,0:0:0:0:
256,192,44179,1,8,0:0:0:0:
256,192,44524,1,0,0:0:0:0:
256,192,44869,1,8,0:0:0:0:
256,192,45386,1,8,0:0:0:0:
256,192,45559,1,0,0:0:0:0:
256,192,45903,1,4,0:0:0:0:
256,192,46248,1,8,0:0:0:0:
256,192,46593,1,0,0:0:0:0:
256,192,46765,1,0,0:0:0:0:
256,192,46938,1,8,0:0:0:0:
256,192,47283,1,0,0:0:0:0:
256,192,47627,1,8,0:0:0:0:
256,192,47972,1,8,0:0:0:0:
256,192,48145,1,0,0:0:0:0:
256,192,48317,1,8,0:0:0:0:
256,192,48662,1,0,0:0:0:0:
256,192,49179,1,8,0:0:0:0:
256,192,49524,1,0,0:0:0:0:
256,192,49696,1,0,0:0:0:0:
256,192,50041,1,8,0:0:0:0:
256,192,50731,1,8,0:0:0:0:
256,192,51076,1,0,0:0:0:0:
256,192,51421,1,0,0:0:0:0:
256,192,51765,1,8,0:0:0:0:
256,192,51938,1,0,0:0:0:0:
256,192,52283,1,8,0:0:0:0:
256,192,52627,1,0,0:0:0:0:
256,192,52800,1,0,0:0:0:0:
256,192,53490,1,8,0:0:0:0:
256,192,53834,1,0,0:0:0:0:
256,192,54179,1,0,0:0:0:0:
256,192,54524,1,8,0:0:0:0:
256,192,54696,1,0,0:0:0:0:
256,192,55041,1,8,0:0:0:0:
256,192,55386,1,0,0:0:0:0:
256,192,56248,1,0,0:0:0:0:
256,192,56593,1,8,0:0:0:0:
256,192,56938,1,0,0:0:0:0:
256,192,57283,1,8,0:0:0:0:
256,192,57455,1,0,0:0:0:0:
256,192,57800,1,8,0:0:0:0:
256,192,58145,1,4,0:0:0:0:
256,192,59696,1,4,0:0:0:0:
256,192,60041,1,8,0:0:0:0:
256,192,60214,1,0,0:0:0:0:
256,192,60731,1,8,0:0:0:0:
256,192,61076,1,0,0:0:0:0:
256,192,61421,1,0,0:0:0:0:
256,192,61765,1,8,0:0:0:0:
256,192,62110,1,8,0:0:0:0:
256,192,62455,1,0,0:0:0:0:
256,192,62972,1,8,0:0:0:0:
256,192,63145,1,0,0:0:0:0:
256,192,63662,1,8,0:0:0:0:
256,192,63834,1,8,0:0:0:0:
256,192,64524,1,0,0:0:0:0:
256,192,64869,1,8,0:0:0:0:
256,192,65214,1,4,0:0:0:0:
256,192,65731,1,8,0:0:0:0:
256,192,65903,1,0,0:0:0:0:
256,192,66421,1,0,0:0:0:0:
256,192,66593,1,8,0:0:0:0:
256,192,66938,1,8,0:0:0:0:
256,192,67283,1,0,0:0:0:0:
256,192,67627,1,8,0:0:0:0:
256,192,67972,1,0,0:0:0:0:
256,192,68490,1,8,0:0:0:0:
256,192,68662,1,0,0:0:0:0:
256,192,69179,1,8,0:0:0:0:
256,192,69352,1,8,0:0:0:0:
256,192,70041,1,0,0:0:0:0:
256,192,70386,1,0,0:0:0:0:
256,192,70731,1,12,0:0:0:0:
256,192,71248,1,0,0:0:0:0:
256,192,71765,1,8,0:0:0:0:
256,192,72800,1,8,0:0:0:0:
256,192,73145,1,0,0:0:0:0:
256,192,73490,1,0,0:0:0:0:
256,192,74007,1,8,0:0:0:0:
256,192,74524,1,0,0:0:0:0:
256,192,75559,1,0,0:0:0:0:
256,192,75903,1,8,0:0:0:0:
256,192,76248,1,4,0:0:0:0:
256,192,76593,1,8,0:0:0:0:
256,192,77110,1,0,0:0:0:0:
256,192,77283,1,8,0:0:0:0:
256,192,77627,1,0,0:0:0:0:
256,192,77972,1,8,0:0:0:0:
256,192,78490,1,8,0:0:0:0:
256,192,78662,1,0,0:0:0:0:
256,192,79007,1,8,0:0:0:0:
256,192,79352,1,0,0:0:0:0:
256,192,79696,1,8,0:0:0:0:
256,192,80041,1,8,0:0:0:0:
256,192,80386,1,0,0:0:0:0:
256,192,80559,1,0,0:0:0:0:
256,192,80731,1,0,0:0:0:0:
256,192,81076,1,8,0:0:0:0:
256,192,84524,5,4,0:0:0:0:
256,192,85041,1,0,0:0:0:0:
256,192,85213,1,8,0:0:0:0:
256,192,85558,1,0,0:0:0:0:
256,192,85730,1,0,0:0:0:0:
256,192,86592,1,8,0:0:0:0:
256,192,86937,1,8,0:0:0:0:
256,192,87282,1,0,0:0:0:0:
256,192,87799,1,0,0:0:0:0:
256,192,87972,1,8,0:0:0:0:
256,192,88317,1,0,0:0:0:0:
256,192,88489,1,0,0:0:0:0:
256,192,89351,1,8,0:0:0:0:
256,192,89696,1,0,0:0:0:0:
256,192,90041,1,4,0:0:0:0:
256,192,90558,1,8,0:0:0:0:
256,192,90730,1,8,0:0:0:0:
256,192,91248,1,0,0:0:0:0:
256,192,91420,1,8,0:0:0:0:
256,192,91937,1,8,0:0:0:0:
256,192,92110,1,0,0:0:0:0:
256,192,92799,1,0,0:0:0:0:
256,192,93144,1,8,0:0:0:0:
256,192,93317,1,0,0:0:0:0:
256,192,93834,1,8,0:0:0:0:
256,192,94006,1,0,0:0:0:0:
256,192,94351,1,8,0:0:0:0:
256,192,94524,1,8,0:0:0:0:
256,192,94868,1,8,0:0:0:0:
256,192,95558,1,0,0:0:0:0:
256,192,96075,1,8,0:0:0:0:
256,192,96420,1,8,0:0:0:0:
256,192,96592,1,8,0:0:0:0:
256,192,96937,1,0,0:0:0:0:
256,192,97455,1,8,0:0:0:0:
256,192,97799,1,0,0:0:0:0:
256,192,97972,1,8,0:0:0:0:
256,192,98317,1,0,0:0:0:0:
256,192,99006,1,8,0:0:0:0:
256,192,99696,1,0,0:0:0:0:
256,192,100041,1,0,0:0:0:0:
256,192,100386,1,8,0:0:0:0:
256,192,100558,1,0,0:0:0:0:
256,192,100730,1,8,0:0:0:0:
256,192,100903,1,8,0:0:0:0:
256,192,101765,1,4,0:0:0:0:
