osu file format v14

[General]
AudioFilename: audio.mp3
AudioLeadIn: 0
PreviewTime: 28197
Countdown: 0
SampleSet: Soft
StackLeniency: 0.2
Mode: 0
LetterboxInBreaks: 0
WidescreenStoryboard: 1

[Editor]
Bookmarks: 5653,16947,28241,39535,50829,62123,73417,79064,90358,101653,112947,124241,135535,146829,158123,160947
DistanceSpacing: 1.4
BeatDivisor: 4
GridSize: 4
TimelineZoom: 2

[Metadata]
Title:SILENT WAR
TitleUnicode:SILENT WAR
Artist:IOVANOVICI
ArtistUnicode:IOVANOVICI
Creator:Yauxo
Version:Insane
Source:
Tags:Wivaiien Yauxo German Mapping Contest #3 Streams
BeatmapID:1236217
BeatmapSetID:584338

[Difficulty]
HPDrainRate:5.5
CircleSize:3.8
OverallDifficulty:6.5
ApproachRate:9
SliderMultiplier:1.6
SliderTickRate:1

[Events]
//Background and Video events
0,0,"848766146954-wallpaper-cool-thevectorart-image-stylish-space-fantasy-abstract-background-blue-wallpapers-wallwuzz-array.jpg",0,0
//Break Periods
2,79264,88558
//Storyboard Layer 0 (Background)
//Storyboard Layer 1 (Fail)
//Storyboard Layer 2 (Pass)
//Storyboard Layer 3 (Foreground)
//Storyboard Sound Samples

[TimingPoints]
6,352.941176470588,4,2,1,50,1,0
5653,-133.333333333333,4,2,1,50,0,0
16947,-117.647058823529,4,2,1,50,0,0
26829,-100,4,2,1,50,0,0
27535,-166.666666666667,4,2,1,50,0,0
28241,-105.263157894737,4,2,1,50,0,0

[Colours]
Combo1 : 17,254,176
Combo2 : 173,255,95
Combo3 : 255,88,100
Combo4 : 255,94,55

[HitObjects]
172,152,5653,6,0,B|181:127|172:105|172:105|162:80|172:53|172:53|181:77,1,120.000004577637
256,100,6182,1,0,0:0:0:0:
333,70,6358,2,0,B|339:52|339:52|349:79|339:104|339:104|330:126|339:151,1,120.000004577637
339,151,7064,6,0,B|354:196|338:244|338:244|312:224,1,120.000004577637
256,172,7594,1,0,0:0:0:0:
194,226,7770,2,0,B|174:242|174:242|158:194|173:149,1,120.000004577637
173,150,8476,6,0,B|148:141|126:150|126:150|101:160|74:150|74:150|98:141,1,120.000004577637
220,76,9005,1,0,0:0:0:0:
312,228,9182,2,0,B|337:219|359:228|359:228|384:238|411:228|411:228|387:219,1,120.000004577637
265,154,9711,1,0,0:0:0:0:
173,306,9888,5,0,0:0:0:0:
173,306,10241,1,0,0:0:0:0:
173,306,10594,2,0,L|244:320,2,60.0000022888184
112,248,11123,6,0,P|88:292|104:352,1,90.0000034332277
100,352,11476,1,0,0:0:0:0:
192,224,11653,2,0,L|178:153,1,60.0000022888184
112,80,12005,2,0,L|100:138,1,60.0000022888184
128,68,12358,1,0,0:0:0:0:
42,199,12535,6,0,P|86:223|146:207,1,90.0000034332277
146,211,12888,1,0,0:0:0:0:
212,84,13064,2,0,L|283:98,1,60.0000022888184
340,152,13417,2,0,L|411:138,1,60.0000022888184
328,168,13770,1,0,0:0:0:0:
459,198,13947,6,0,P|483:154|467:94,1,90.0000034332277
471,94,14300,1,0,0:0:0:0:
384,240,14476,2,0,L|398:311,1,60.0000022888184
292,364,14828,2,0,L|303:305,1,60.0000022888184
276,376,15181,1,0,0:0:0:0:
246,245,15358,6,0,P|290:221|350:237,1,90.0000034332277
350,233,15711,1,0,0:0:0:0:
204,324,15888,2,0,L|133:310,1,60.0000022888184
76,256,16241,2,0,L|5:270,1,60.0000022888184
88,240,16594,1,0,0:0:0:0:
157,296,16770,1,0,0:0:0:0:
241,267,16947,5,0,0:0:0:0:
145,280,17123,1,0,0:0:0:0:
310,323,17300,1,0,0:0:0:0:
310,323,17829,5,0,0:0:0:0:
314,317,17917,1,0,0:0:0:0:
318,311,18005,1,0,0:0:0:0:
395,267,18182,1,0,0:0:0:0:
391,261,18270,1,0,0:0:0:0:
387,255,18358,5,0,0:0:0:0:
483,268,18534,1,0,0:0:0:0:
318,311,18711,1,0,0:0:0:0:
318,311,19241,5,0,0:0:0:0:
322,305,19329,1,0,0:0:0:0:
326,299,19417,1,0,0:0:0:0:
403,255,19594,1,0,0:0:0:0:
399,249,19682,1,0,0:0:0:0:
395,243,19770,5,0,0:0:0:0:
491,256,19946,1,0,0:0:0:0:
326,299,20123,1,0,0:0:0:0:
326,299,20653,5,0,0:0:0:0:
330,293,20741,1,0,0:0:0:0:
334,287,20829,1,0,0:0:0:0:
411,243,21006,1,0,0:0:0:0:
407,237,21094,1,0,0:0:0:0:
403,231,21182,5,0,0:0:0:0:
499,244,21358,1,0,0:0:0:0:
334,287,21535,1,0,0:0:0:0:
334,287,22064,5,0,0:0:0:0:
338,281,22152,1,0,0:0:0:0:
342,275,22240,1,0,0:0:0:0:
419,231,22417,1,0,0:0:0:0:
415,225,22505,1,0,0:0:0:0:
411,219,22594,6,0,L|428:148,1,68.0000012969971
299,126,22947,2,0,L|284:56,1,68.0000012969971
442,140,23300,1,0,0:0:0:0:
283,114,23476,1,0,0:0:0:0:
426,152,23653,2,0,L|440:218,1,68.0000012969971
445,244,23917,1,0,0:0:0:0:
451,271,24005,5,0,0:0:0:0:
324,212,24182,1,0,0:0:0:0:
442,140,24358,1,0,0:0:0:0:
368,288,24535,1,0,0:0:0:0:
202,179,24711,2,0,L|135:164,1,68.0000012969971
109,159,24975,1,0,0:0:0:0:
82,153,25063,1,0,0:0:0:0:
216,196,25241,1,0,0:0:0:0:
243,190,25329,1,0,0:0:0:0:
269,184,25417,5,0,0:0:0:0:
403,227,25594,1,0,0:0:0:0:
260,192,25770,1,0,0:0:0:0:
412,220,25947,1,0,0:0:0:0:
252,200,26123,1,0,0:0:0:0:
420,212,26300,1,0,0:0:0:0:
244,208,26476,1,0,0:0:0:0:
428,204,26653,1,0,0:0:0:0:
240,216,26829,6,0,L|251:260,3,40
332,148,27182,2,0,L|348:100,3,40
421,209,27535,6,0,P|454:225|394:228,1,167.999994873047
348,156,28241,5,0,0:0:0:0:
353,129,28329,1,0,0:0:0:0:
359,103,28417,1,0,0:0:0:0:
436,52,28594,1,0,0:0:0:0:
284,8,28770,1,0,0:0:0:0:
279,35,28858,1,0,0:0:0:0:
273,61,28946,1,0,0:0:0:0:
252,152,29123,1,0,0:0:0:0:
388,120,29300,1,0,0:0:0:0:
184,64,29476,1,0,0:0:0:0:
336,204,29653,6,0,L|315:303,1,75.9999979705811
313,307,29917,1,0,0:0:0:0:
307,337,30005,2,0,L|381:321,1,75.9999979705811
220,236,30358,2,0,L|196:308,1,75.9999979705811
350,211,30711,2,0,L|299:154,1,75.9999979705811
232,92,31064,5,0,0:0:0:0:
205,97,31152,1,0,0:0:0:0:
179,103,31240,1,0,0:0:0:0:
96,64,31417,1,0,0:0:0:0:
72,224,31594,1,0,0:0:0:0:
99,219,31682,1,0,0:0:0:0:
125,213,31770,1,0,0:0:0:0:
152,208,31858,1,0,0:0:0:0:
178,202,31947,1,0,0:0:0:0:
205,197,32035,1,0,0:0:0:0:
231,191,32124,1,0,0:0:0:0:
256,186,32212,1,0,0:0:0:0:
269,210,32300,1,0,0:0:0:0:
248,228,32388,1,0,0:0:0:0:
226,216,32476,6,0,L|214:272,3,37.9999989852906
332,171,32829,2,0,L|320:115,3,37.9999989852906
244,83,33182,2,0,L|188:71,3,37.9999989852906
332,39,33535,2,0,L|388:27,3,37.9999989852906
256,99,33888,5,0,0:0:0:0:
230,94,33976,1,0,0:0:0:0:
204,88,34064,1,0,0:0:0:0:
116,68,34241,1,0,0:0:0:0:
4,192,34417,5,0,0:0:0:0:
30,187,34505,1,0,0:0:0:0:
56,181,34593,1,0,0:0:0:0:
144,161,34770,2,0,L|200:173,5,37.9999989852906
124,156,35300,6,0,L|145:255,1,75.9999979705811
164,320,35653,1,0,0:0:0:0:
288,196,35829,2,0,L|189:175,1,75.9999979705811
124,156,36182,1,0,0:0:0:0:
244,272,36358,1,0,0:0:0:0:
308,108,36535,1,0,0:0:0:0:
213,180,36711,5,0,0:0:0:0:
239,185,36799,1,0,0:0:0:0:
265,191,36887,1,0,0:0:0:0:
291,196,36976,1,0,0:0:0:0:
317,202,37064,1,0,0:0:0:0:
352,296,37241,1,0,0:0:0:0:
378,290,37329,1,0,0:0:0:0:
404,285,37417,1,0,0:0:0:0:
430,280,37506,1,0,0:0:0:0:
456,274,37594,1,0,0:0:0:0:
482,269,37682,1,0,0:0:0:0:
508,263,37770,2,0,L|496:319,3,37.9999989852906
468,184,38123,5,0,0:0:0:0:
462,158,38211,1,0,0:0:0:0:
457,132,38299,1,0,0:0:0:0:
452,106,38388,1,0,0:0:0:0:
446,80,38476,2,0,L|502:92,1,37.9999989852906
360,32,38653,2,0,L|322:39,1,37.9999989852906
240,96,38829,1,0,0:0:0:0:
214,90,38917,1,0,0:0:0:0:
188,85,39005,1,0,0:0:0:0:
162,80,39094,1,0,0:0:0:0:
136,74,39182,2,0,L|80:86,3,37.9999989852906
128,160,39535,5,0,0:0:0:0:
123,187,39623,1,0,0:0:0:0:
117,213,39711,1,0,0:0:0:0:
40,264,39888,1,0,0:0:0:0:
192,308,40064,1,0,0:0:0:0:
197,281,40152,1,0,0:0:0:0:
203,255,40240,1,0,0:0:0:0:
224,164,40417,1,0,0:0:0:0:
88,196,40594,1,0,0:0:0:0:
292,252,40770,1,0,0:0:0:0:
140,112,40947,6,0,L|41:91,1,75.9999979705811
37,89,41211,1,0,0:0:0:0:
7,83,41299,2,0,L|23:157,1,75.9999979705811
124,320,41653,2,0,L|140:246,1,75.9999979705811
241,83,42005,2,0,L|257:157,1,75.9999979705811
280,244,42358,5,0,0:0:0:0:
307,249,42446,1,0,0:0:0:0:
333,255,42534,1,0,0:0:0:0:
420,276,42711,1,0,0:0:0:0:
272,340,42888,1,0,0:0:0:0:
245,335,42976,1,0,0:0:0:0:
219,329,43064,1,0,0:0:0:0:
192,324,43152,1,0,0:0:0:0:
166,318,43241,1,0,0:0:0:0:
139,313,43329,1,0,0:0:0:0:
113,307,43418,1,0,0:0:0:0:
88,302,43506,1,0,0:0:0:0:
75,326,43594,1,0,0:0:0:0:
96,344,43682,1,0,0:0:0:0:
118,332,43770,6,0,L|130:388,3,37.9999989852906
176,236,44123,6,0,L|188:180,3,37.9999989852906
118,140,44476,1,0,0:0:0:0:
264,164,44653,1,0,0:0:0:0:
106,156,44829,1,0,0:0:0:0:
276,148,45005,1,0,0:0:0:0:
118,140,45182,5,0,0:0:0:0:
123,167,45270,1,0,0:0:0:0:
129,193,45358,1,0,0:0:0:0:
150,280,45535,1,0,0:0:0:0:
264,212,45711,5,0,0:0:0:0:
269,239,45799,1,0,0:0:0:0:
275,265,45887,1,0,0:0:0:0:
296,352,46064,2,0,L|240:340,5,37.9999989852906
316,357,46594,6,0,L|295:258,1,75.9999979705811
344,200,46947,1,0,0:0:0:0:
208,268,47123,1,0,0:0:0:0:
356,216,47300,1,0,0:0:0:0:
128,168,47476,1,0,0:0:0:0:
128,168,47564,1,0,0:0:0:0:
128,168,47653,1,0,0:0:0:0:
196,284,47829,1,0,0:0:0:0:
260,172,48005,5,0,0:0:0:0:
255,146,48093,1,0,0:0:0:0:
249,120,48181,1,0,0:0:0:0:
244,94,48270,1,0,0:0:0:0:
238,68,48358,1,0,0:0:0:0:
140,152,48535,1,0,0:0:0:0:
146,178,48623,1,0,0:0:0:0:
151,204,48711,1,0,0:0:0:0:
156,230,48800,1,0,0:0:0:0:
162,256,48888,1,0,0:0:0:0:
167,282,48976,1,0,0:0:0:0:
173,308,49064,2,0,L|117:296,3,37.9999989852906
272,348,49417,5,0,0:0:0:0:
298,343,49505,1,0,0:0:0:0:
324,337,49593,1,0,0:0:0:0:
350,332,49682,1,0,0:0:0:0:
376,326,49770,2,0,L|432:338,1,37.9999989852906
500,260,49947,2,0,L|462:252,1,37.9999989852906
363,212,50123,5,0,0:0:0:0:
337,217,50211,1,0,0:0:0:0:
311,223,50299,1,0,0:0:0:0:
285,228,50388,1,0,0:0:0:0:
259,233,50476,2,0,L|203:221,3,37.9999989852906
264,136,50829,5,0,0:0:0:0:
389,206,51005,1,0,0:0:0:0:
207,244,51182,1,0,0:0:0:0:
280,125,51358,1,0,0:0:0:0:
376,326,51535,1,0,0:0:0:0:
376,326,51623,1,0,0:0:0:0:
376,326,51711,1,0,0:0:0:0:
376,326,51800,1,0,0:0:0:0:
376,326,51888,2,0,L|413:333,3,37.9999989852906
356,324,52241,6,0,L|257:345,1,75.9999979705811
254,344,52505,1,0,0:0:0:0:
228,350,52593,1,0,0:0:0:0:
144,316,52770,1,0,0:0:0:0:
252,232,52947,1,0,0:0:0:0:
252,232,53035,1,0,0:0:0:0:
252,232,53123,1,0,0:0:0:0:
252,232,53211,1,0,0:0:0:0:
252,232,53300,6,0,L|153:211,1,75.9999979705811
150,210,53564,1,0,0:0:0:0:
124,204,53653,2,0,L|87:211,3,37.9999989852906
200,140,54005,2,0,L|237:147,2,37.9999989852906
200,140,54535,5,0,0:0:0:0:
244,256,54711,1,0,0:0:0:0:
288,92,54888,1,0,0:0:0:0:
232,240,55065,5,0,0:0:0:0:
237,266,55153,1,0,0:0:0:0:
243,292,55241,1,0,0:0:0:0:
248,318,55330,1,0,0:0:0:0:
254,344,55417,2,0,L|217:337,3,37.9999989852906
336,292,55770,2,0,L|373:285,3,37.9999989852906
254,240,56123,2,0,L|217:233,3,37.9999989852906
336,188,56476,5,0,0:0:0:0:
362,193,56564,1,0,0:0:0:0:
388,199,56652,1,0,0:0:0:0:
414,204,56741,1,0,0:0:0:0:
452,232,56829,5,0,0:0:0:0:
426,237,56917,1,0,0:0:0:0:
400,243,57005,1,0,0:0:0:0:
374,248,57094,1,0,0:0:0:0:
336,276,57182,5,0,0:0:0:0:
292,148,57358,1,0,0:0:0:0:
319,153,57446,1,0,0:0:0:0:
345,159,57534,1,0,0:0:0:0:
436,180,57711,1,0,0:0:0:0:
256,232,57888,5,0,0:0:0:0:
230,227,57976,1,0,0:0:0:0:
204,221,58064,1,0,0:0:0:0:
178,216,58153,1,0,0:0:0:0:
152,210,58241,2,0,L|145:173,3,37.9999989852906
236,128,58594,5,0,0:0:0:0:
262,133,58682,1,0,0:0:0:0:
288,139,58770,1,0,0:0:0:0:
314,144,58859,1,0,0:0:0:0:
340,150,58947,2,0,L|347:187,3,37.9999989852906
256,232,59300,6,0,L|235:331,1,75.9999979705811
236,334,59564,1,0,0:0:0:0:
230,360,59652,1,0,0:0:0:0:
340,284,59829,1,0,0:0:0:0:
345,257,59917,1,0,0:0:0:0:
351,231,60005,2,0,L|388:224,3,37.9999989852906
268,184,60358,2,0,L|231:177,3,37.9999989852906
352,132,60711,5,0,0:0:0:0:
357,106,60799,1,0,0:0:0:0:
363,80,60887,1,0,0:0:0:0:
368,54,60976,1,0,0:0:0:0:
374,28,61064,2,0,L|337:35,3,37.9999989852906
452,96,61417,5,0,0:0:0:0:
447,122,61505,1,0,0:0:0:0:
441,148,61593,1,0,0:0:0:0:
436,174,61682,1,0,0:0:0:0:
430,200,61770,2,0,L|467:193,3,37.9999989852906
348,252,62124,5,0,0:0:0:0:
321,254,62212,1,0,0:0:0:0:
294,250,62300,1,0,0:0:0:0:
270,241,62388,1,0,0:0:0:0:
248,226,62477,1,0,0:0:0:0:
226,210,62565,1,0,0:0:0:0:
202,200,62653,1,0,0:0:0:0:
175,197,62741,1,0,0:0:0:0:
149,200,62829,1,0,0:0:0:0:
126,213,62917,1,0,0:0:0:0:
109,233,63005,1,0,0:0:0:0:
101,259,63093,1,0,0:0:0:0:
103,285,63182,1,0,0:0:0:0:
114,309,63270,1,0,0:0:0:0:
132,328,63358,1,0,0:0:0:0:
156,339,63446,1,0,0:0:0:0:
183,341,63535,6,0,L|220:334,3,37.9999989852906
284,268,63888,2,0,L|321:275,3,37.9999989852906
208,200,64241,2,0,L|171:207,3,37.9999989852906
107,273,64594,2,0,L|70:266,3,37.9999989852906
183,341,64947,5,0,0:0:0:0:
210,343,65035,1,0,0:0:0:0:
237,339,65123,1,0,0:0:0:0:
261,330,65211,1,0,0:0:0:0:
283,315,65300,1,0,0:0:0:0:
305,300,65389,1,0,0:0:0:0:
329,291,65477,1,0,0:0:0:0:
356,287,65565,1,0,0:0:0:0:
383,289,65653,2,0,L|376:252,3,37.9999989852906
460,340,66005,2,0,L|453:377,3,37.9999989852906
504,244,66358,5,0,0:0:0:0:
499,218,66446,1,0,0:0:0:0:
493,192,66534,1,0,0:0:0:0:
488,166,66623,1,0,0:0:0:0:
483,140,66711,1,0,0:0:0:0:
477,114,66799,1,0,0:0:0:0:
472,88,66888,1,0,0:0:0:0:
467,62,66976,1,0,0:0:0:0:
461,36,67064,5,0,0:0:0:0:
388,112,67241,1,0,0:0:0:0:
393,139,67329,1,0,0:0:0:0:
399,165,67417,1,0,0:0:0:0:
472,236,67594,1,0,0:0:0:0:
467,263,67682,1,0,0:0:0:0:
461,289,67770,6,0,L|424:296,3,37.9999989852906
359,230,68123,2,0,L|322:223,3,37.9999989852906
257,289,68476,2,0,L|220:296,3,37.9999989852906
155,230,68829,2,0,L|118:223,3,37.9999989852906
232,176,69182,5,0,0:0:0:0:
237,150,69270,1,0,0:0:0:0:
243,124,69358,1,0,0:0:0:0:
248,98,69447,1,0,0:0:0:0:
253,72,69535,2,0,L|216:79,3,37.9999989852906
336,116,69888,5,0,0:0:0:0:
362,121,69976,1,0,0:0:0:0:
388,127,70064,1,0,0:0:0:0:
414,132,70153,1,0,0:0:0:0:
440,137,70241,2,0,L|433:100,3,37.9999989852906
392,224,70593,5,0,0:0:0:0:
387,250,70681,1,0,0:0:0:0:
381,276,70769,1,0,0:0:0:0:
376,302,70858,1,0,0:0:0:0:
371,328,70947,2,0,L|408:321,1,37.9999989852906
296,268,71123,2,0,L|259:275,1,37.9999989852906
194,341,71300,6,0,L|157:334,3,37.9999989852906
92,268,71653,2,0,L|55:275,3,37.9999989852906
172,212,72005,5,0,0:0:0:0:
190,182,72093,1,0,0:0:0:0:
197,149,72181,1,0,0:0:0:0:
193,115,72269,1,0,0:0:0:0:
178,84,72359,1,0,0:0:0:0:
161,114,72447,1,0,0:0:0:0:
154,147,72535,1,0,0:0:0:0:
158,181,72623,1,0,0:0:0:0:
172,211,72711,5,0,0:0:0:0:
189,241,72800,1,0,0:0:0:0:
196,274,72888,1,0,0:0:0:0:
192,308,72976,1,0,0:0:0:0:
178,338,73064,1,0,0:0:0:0:
161,308,73153,1,0,0:0:0:0:
154,275,73241,1,0,0:0:0:0:
158,241,73329,1,0,0:0:0:0:
172,211,73417,5,0,0:0:0:0:
256,192,73505,12,0,79064,0:0:0:0:
172,128,90358,6,0,L|184:72,2,37.9999989852906
256,44,90800,1,0,0:0:0:0:
256,44,90889,1,0,0:0:0:0:
172,128,91153,1,0,0:0:0:0:
172,128,91417,1,0,0:0:0:0:
340,128,93182,6,0,L|328:72,2,37.9999989852906
256,44,93624,1,0,0:0:0:0:
256,44,93713,1,0,0:0:0:0:
340,128,93977,1,0,0:0:0:0:
340,128,94241,1,0,0:0:0:0:
256,192,96005,6,0,L|268:248,2,37.9999989852906
340,276,96447,1,0,0:0:0:0:
340,276,96536,1,0,0:0:0:0:
256,192,96800,2,0,P|299:149|309:187,1,113.999996955872
256,192,97417,6,0,L|244:248,2,37.9999989852906
172,276,97859,1,0,0:0:0:0:
172,276,97948,1,0,0:0:0:0:
256,192,98211,2,0,P|212:149|202:187,1,113.999996955872
256,192,98829,6,0,L|293:199,3,37.9999989852906
168,176,99182,5,0,0:0:0:0:
171,194,99270,1,0,0:0:0:0:
175,213,99358,1,0,0:0:0:0:
179,231,99446,1,0,0:0:0:0:
183,250,99535,2,0,L|145:257,3,37.9999989852906
271,234,99888,5,0,0:0:0:0:
268,252,99976,1,0,0:0:0:0:
264,271,100064,1,0,0:0:0:0:
260,289,100152,1,0,0:0:0:0:
256,308,100241,2,0,L|293:315,3,37.9999989852906
183,250,100594,2,0,L|145:257,3,37.9999989852906
256,192,100947,2,0,L|293:199,3,37.9999989852906
183,134,101300,2,0,L|145:141,3,37.9999989852906
256,76,101653,5,0,0:0:0:0:
283,81,101741,1,0,0:0:0:0:
309,87,101829,1,0,0:0:0:0:
392,52,102005,1,0,0:0:0:0:
496,164,102182,1,0,0:0:0:0:
469,159,102270,1,0,0:0:0:0:
443,153,102358,1,0,0:0:0:0:
360,188,102534,1,0,0:0:0:0:
392,52,102711,1,0,0:0:0:0:
476,233,102888,1,0,0:0:0:0:
476,233,102976,1,0,0:0:0:0:
476,233,103064,6,0,L|377:254,1,75.9999979705811
373,256,103328,1,0,0:0:0:0:
343,262,103417,2,0,L|359:188,1,75.9999979705811
472,64,103770,2,0,L|456:138,1,75.9999979705811
252,200,104123,2,0,L|268:126,1,75.9999979705811
352,4,104476,5,0,0:0:0:0:
357,31,104564,1,0,0:0:0:0:
363,57,104652,1,0,0:0:0:0:
384,148,104829,1,0,0:0:0:0:
256,68,105005,1,0,0:0:0:0:
251,95,105093,1,0,0:0:0:0:
245,121,105181,1,0,0:0:0:0:
240,148,105269,1,0,0:0:0:0:
234,174,105358,1,0,0:0:0:0:
229,201,105446,1,0,0:0:0:0:
223,227,105535,1,0,0:0:0:0:
218,252,105623,1,0,0:0:0:0:
242,265,105711,1,0,0:0:0:0:
260,244,105799,1,0,0:0:0:0:
248,222,105888,6,0,L|304:210,3,37.9999989852906
144,176,106241,2,0,L|88:164,3,37.9999989852906
40,272,106594,2,0,L|96:260,3,37.9999989852906
144,368,106947,2,0,L|88:356,3,37.9999989852906
232,312,107300,5,0,0:0:0:0:
259,307,107388,1,0,0:0:0:0:
285,301,107476,1,0,0:0:0:0:
376,280,107653,1,0,0:0:0:0:
264,164,107829,5,0,0:0:0:0:
259,191,107917,1,0,0:0:0:0:
253,217,108005,1,0,0:0:0:0:
232,312,108182,2,0,L|176:324,5,37.9999989852906
252,324,108711,6,0,L|351:303,1,75.9999979705811
356,316,108976,1,0,0:0:0:0:
356,316,109064,1,0,0:0:0:0:
436,144,109241,1,0,0:0:0:0:
488,228,109417,2,0,L|389:249,1,75.9999979705811
264,160,109770,2,0,L|363:181,1,75.9999979705811
425,259,110124,5,0,0:0:0:0:
399,264,110212,1,0,0:0:0:0:
373,270,110300,1,0,0:0:0:0:
347,275,110389,1,0,0:0:0:0:
321,281,110477,1,0,0:0:0:0:
260,356,110653,1,0,0:0:0:0:
234,350,110741,1,0,0:0:0:0:
208,345,110829,1,0,0:0:0:0:
182,340,110918,1,0,0:0:0:0:
156,334,111006,1,0,0:0:0:0:
130,329,111094,1,0,0:0:0:0:
104,323,111182,2,0,L|116:379,3,37.9999989852906
124,232,111535,5,0,0:0:0:0:
118,206,111623,1,0,0:0:0:0:
113,180,111711,1,0,0:0:0:0:
108,154,111800,1,0,0:0:0:0:
102,128,111888,2,0,L|158:140,1,37.9999989852906
260,208,112064,2,0,L|204:196,1,37.9999989852906
112,248,112241,1,0,0:0:0:0:
106,222,112329,1,0,0:0:0:0:
101,196,112417,1,0,0:0:0:0:
96,170,112506,1,0,0:0:0:0:
90,144,112594,2,0,L|97:106,3,37.9999989852906
188,144,112947,5,0,0:0:0:0:
215,139,113035,1,0,0:0:0:0:
241,133,113123,1,0,0:0:0:0:
332,112,113300,1,0,0:0:0:0:
228,232,113476,5,0,0:0:0:0:
201,237,113564,1,0,0:0:0:0:
175,243,113652,1,0,0:0:0:0:
84,264,113829,1,0,0:0:0:0:
176,136,114005,1,0,0:0:0:0:
308,312,114182,1,0,0:0:0:0:
281,317,114270,1,0,0:0:0:0:
255,323,114359,6,0,L|156:344,1,75.9999979705811
152,346,114623,1,0,0:0:0:0:
122,352,114711,2,0,L|138:278,1,75.9999979705811
236,164,115064,2,0,L|220:90,1,75.9999979705811
36,148,115417,2,0,L|110:164,1,75.9999979705811
248,272,115770,5,0,0:0:0:0:
275,267,115858,1,0,0:0:0:0:
301,261,115946,1,0,0:0:0:0:
384,296,116123,1,0,0:0:0:0:
472,180,116300,1,0,0:0:0:0:
445,175,116388,1,0,0:0:0:0:
419,169,116476,1,0,0:0:0:0:
392,164,116564,1,0,0:0:0:0:
366,158,116653,1,0,0:0:0:0:
339,153,116741,1,0,0:0:0:0:
313,147,116830,1,0,0:0:0:0:
288,142,116918,1,0,0:0:0:0:
275,166,117006,1,0,0:0:0:0:
296,184,117094,1,0,0:0:0:0:
318,172,117182,6,0,L|330:228,3,37.9999989852906
384,76,117535,2,0,L|391:38,3,37.9999989852906
268,12,117888,2,0,L|296:37,3,37.9999989852906
184,104,118241,2,0,L|221:96,3,37.9999989852906
100,164,118594,5,0,0:0:0:0:
73,159,118682,1,0,0:0:0:0:
47,153,118770,1,0,0:0:0:0:
184,104,118947,1,0,0:0:0:0:
280,224,119123,5,0,0:0:0:0:
307,219,119211,1,0,0:0:0:0:
333,213,119299,1,0,0:0:0:0:
432,240,119476,5,0,0:0:0:0:
437,214,119564,1,0,0:0:0:0:
443,188,119652,1,0,0:0:0:0:
448,162,119741,1,0,0:0:0:0:
454,136,119829,1,0,0:0:0:0:
459,110,119917,1,0,0:0:0:0:
465,84,120005,6,0,L|366:105,1,75.9999979705811
362,107,120270,1,0,0:0:0:0:
332,113,120358,1,0,0:0:0:0:
470,58,120535,1,0,0:0:0:0:
302,119,120711,1,0,0:0:0:0:
504,164,120888,1,0,0:0:0:0:
504,164,120976,1,0,0:0:0:0:
504,164,121064,1,0,0:0:0:0:
480,40,121241,1,0,0:0:0:0:
400,144,121417,5,0,0:0:0:0:
405,170,121505,1,0,0:0:0:0:
411,196,121593,1,0,0:0:0:0:
416,222,121682,1,0,0:0:0:0:
422,248,121770,1,0,0:0:0:0:
332,324,121947,1,0,0:0:0:0:
326,298,122035,1,0,0:0:0:0:
321,272,122123,1,0,0:0:0:0:
316,246,122212,1,0,0:0:0:0:
310,220,122300,1,0,0:0:0:0:
305,194,122388,1,0,0:0:0:0:
299,168,122476,2,0,L|243:156,3,37.9999989852906
184,216,122829,5,0,0:0:0:0:
158,211,122917,1,0,0:0:0:0:
132,205,123005,1,0,0:0:0:0:
106,200,123094,1,0,0:0:0:0:
80,194,123182,2,0,L|24:206,1,37.9999989852906
156,112,123358,2,0,L|193:119,1,37.9999989852906
272,176,123535,5,0,0:0:0:0:
298,181,123623,1,0,0:0:0:0:
324,187,123711,1,0,0:0:0:0:
350,192,123800,1,0,0:0:0:0:
376,197,123888,2,0,L|432:185,3,37.9999989852906
372,104,124241,5,0,0:0:0:0:
246,171,124417,1,0,0:0:0:0:
428,207,124594,1,0,0:0:0:0:
356,93,124770,1,0,0:0:0:0:
312,304,124947,1,0,0:0:0:0:
312,304,125035,1,0,0:0:0:0:
312,304,125123,1,0,0:0:0:0:
312,304,125212,1,0,0:0:0:0:
312,304,125300,2,0,L|319:341,3,37.9999989852906
324,280,125653,6,0,L|225:259,1,75.9999979705811
222,260,125917,1,0,0:0:0:0:
196,254,126005,1,0,0:0:0:0:
112,292,126182,1,0,0:0:0:0:
316,188,126358,1,0,0:0:0:0:
316,188,126446,1,0,0:0:0:0:
316,188,126534,1,0,0:0:0:0:
316,188,126622,1,0,0:0:0:0:
316,188,126711,6,0,L|415:209,1,75.9999979705811
418,210,126975,1,0,0:0:0:0:
444,216,127064,1,0,0:0:0:0:
324,280,127241,1,0,0:0:0:0:
412,112,127417,2,0,L|405:75,3,37.9999989852906
412,112,127947,5,0,0:0:0:0:
368,228,128123,1,0,0:0:0:0:
324,64,128300,1,0,0:0:0:0:
380,212,128477,5,0,0:0:0:0:
375,238,128565,1,0,0:0:0:0:
369,264,128653,1,0,0:0:0:0:
364,290,128742,1,0,0:0:0:0:
358,316,128829,2,0,L|395:309,3,37.9999989852906
268,256,129182,2,0,L|231:249,3,37.9999989852906
380,212,129535,1,0,0:0:0:0:
264,352,129711,1,0,0:0:0:0:
152,148,129888,5,0,0:0:0:0:
178,153,129976,1,0,0:0:0:0:
204,159,130064,1,0,0:0:0:0:
230,164,130153,1,0,0:0:0:0:
268,192,130241,5,0,0:0:0:0:
242,197,130329,1,0,0:0:0:0:
216,203,130417,1,0,0:0:0:0:
190,208,130506,1,0,0:0:0:0:
152,236,130594,6,0,L|115:229,3,37.9999989852906
236,296,130947,2,0,L|273:289,3,37.9999989852906
352,224,131300,5,0,0:0:0:0:
378,229,131388,1,0,0:0:0:0:
404,235,131476,1,0,0:0:0:0:
430,240,131565,1,0,0:0:0:0:
456,246,131653,2,0,L|463:283,3,37.9999989852906
448,148,132005,5,0,0:0:0:0:
422,143,132093,1,0,0:0:0:0:
396,137,132181,1,0,0:0:0:0:
370,132,132270,1,0,0:0:0:0:
344,126,132358,2,0,L|337:89,3,37.9999989852906
256,144,132711,6,0,L|277:243,1,75.9999979705811
279,247,132976,1,0,0:0:0:0:
285,277,133064,1,0,0:0:0:0:
176,216,133241,1,0,0:0:0:0:
181,243,133329,1,0,0:0:0:0:
187,269,133417,1,0,0:0:0:0:
78,212,133594,1,0,0:0:0:0:
83,239,133682,1,0,0:0:0:0:
89,265,133770,1,0,0:0:0:0:
136,128,133947,5,0,0:0:0:0:
131,101,134035,1,0,0:0:0:0:
125,75,134123,2,0,L|118:38,3,37.9999989852906
232,120,134476,2,0,L|225:83,3,37.9999989852906
252,220,134829,2,0,L|259:257,3,37.9999989852906
145,175,135182,2,0,L|152:212,3,37.9999989852906
231,120,135535,5,0,0:0:0:0:
258,118,135623,1,0,0:0:0:0:
284,124,135711,1,0,0:0:0:0:
307,136,135799,1,0,0:0:0:0:
327,154,135887,1,0,0:0:0:0:
341,176,135976,1,0,0:0:0:0:
349,202,136064,1,0,0:0:0:0:
349,228,136152,1,0,0:0:0:0:
343,254,136240,1,0,0:0:0:0:
330,277,136329,1,0,0:0:0:0:
312,296,136417,1,0,0:0:0:0:
289,310,136505,1,0,0:0:0:0:
264,317,136593,1,0,0:0:0:0:
237,317,136682,1,0,0:0:0:0:
212,310,136770,1,0,0:0:0:0:
189,297,136858,1,0,0:0:0:0:
170,278,136947,6,0,L|177:241,3,37.9999989852906
88,188,137300,2,0,L|81:151,3,37.9999989852906
170,98,137653,2,0,L|177:61,3,37.9999989852906
259,150,138005,2,0,L|252:187,3,37.9999989852906
348,98,138359,5,0,0:0:0:0:
366,118,138447,1,0,0:0:0:0:
378,141,138535,1,0,0:0:0:0:
384,167,138623,1,0,0:0:0:0:
382,193,138711,1,0,0:0:0:0:
380,219,138800,1,0,0:0:0:0:
386,245,138888,1,0,0:0:0:0:
398,268,138976,1,0,0:0:0:0:
416,288,139064,2,0,L|453:295,3,37.9999989852906
332,344,139417,2,0,L|295:351,3,37.9999989852906
216,288,139770,5,0,0:0:0:0:
190,283,139858,1,0,0:0:0:0:
164,277,139946,1,0,0:0:0:0:
138,272,140035,1,0,0:0:0:0:
112,267,140123,1,0,0:0:0:0:
86,261,140211,1,0,0:0:0:0:
60,256,140300,1,0,0:0:0:0:
34,251,140388,1,0,0:0:0:0:
8,244,140476,5,0,0:0:0:0:
84,171,140653,1,0,0:0:0:0:
111,176,140741,1,0,0:0:0:0:
137,182,140829,2,0,L|174:189,3,37.9999989852906
245,262,141182,6,0,L|282:269,3,37.9999989852906
276,172,141535,2,0,L|269:135,3,37.9999989852906
364,216,141888,2,0,L|401:223,3,37.9999989852906
395,126,142241,2,0,L|388:89,3,37.9999989852906
484,172,142594,5,0,0:0:0:0:
489,198,142682,1,0,0:0:0:0:
495,224,142770,1,0,0:0:0:0:
500,250,142859,1,0,0:0:0:0:
505,276,142947,2,0,L|468:269,3,37.9999989852906
376,296,143300,5,0,0:0:0:0:
371,270,143388,1,0,0:0:0:0:
365,244,143476,1,0,0:0:0:0:
360,218,143565,1,0,0:0:0:0:
355,192,143653,2,0,L|392:199,3,37.9999989852906
268,240,144005,6,0,L|169:219,1,75.9999979705811
166,220,144269,1,0,0:0:0:0:
140,214,144357,1,0,0:0:0:0:
248,144,144535,1,0,0:0:0:0:
312,348,144711,2,0,L|213:327,1,75.9999979705811
210,328,144975,1,0,0:0:0:0:
184,322,145064,2,0,L|147:329,3,37.9999989852906
268,240,145417,5,0,0:0:0:0:
268,240,145505,2,0,L|305:247,2,37.9999989852906
184,158,145770,1,0,0:0:0:0:
184,158,145858,2,0,L|147:165,2,37.9999989852906
296,104,146123,1,0,0:0:0:0:
296,104,146211,2,0,L|289:141,2,37.9999989852906
204,44,146476,1,0,0:0:0:0:
204,44,146564,2,0,L|197:7,2,37.9999989852906
136,136,146829,5,0,0:0:0:0:
166,154,146917,1,0,0:0:0:0:
199,161,147005,1,0,0:0:0:0:
233,157,147093,1,0,0:0:0:0:
264,142,147183,1,0,0:0:0:0:
234,125,147271,1,0,0:0:0:0:
201,118,147359,1,0,0:0:0:0:
167,122,147447,1,0,0:0:0:0:
137,136,147535,5,0,0:0:0:0:
107,153,147624,1,0,0:0:0:0:
74,160,147712,1,0,0:0:0:0:
40,156,147800,1,0,0:0:0:0:
10,142,147888,1,0,0:0:0:0:
40,125,147977,1,0,0:0:0:0:
73,118,148065,1,0,0:0:0:0:
107,122,148153,1,0,0:0:0:0:
137,136,148241,6,0,L|121:61,1,75.9999979705811
72,224,148594,2,0,L|146:239,1,75.9999979705811
308,164,148947,2,0,L|233:179,2,75.9999979705811
308,164,149653,5,0,0:0:0:0:
326,134,149741,1,0,0:0:0:0:
333,101,149829,1,0,0:0:0:0:
329,67,149917,1,0,0:0:0:0:
314,36,150007,1,0,0:0:0:0:
297,66,150095,1,0,0:0:0:0:
290,99,150183,1,0,0:0:0:0:
294,133,150271,1,0,0:0:0:0:
308,163,150359,5,0,0:0:0:0:
325,193,150448,1,0,0:0:0:0:
332,226,150536,1,0,0:0:0:0:
328,260,150624,1,0,0:0:0:0:
314,290,150712,1,0,0:0:0:0:
297,260,150801,1,0,0:0:0:0:
290,227,150889,1,0,0:0:0:0:
294,193,150977,1,0,0:0:0:0:
308,163,151065,6,0,L|233:178,1,75.9999979705811
69,220,151417,2,0,L|144:236,1,75.9999979705811
314,290,151770,2,0,L|388:274,2,75.9999979705811
314,290,152476,5,0,0:0:0:0:
344,308,152564,1,0,0:0:0:0:
377,315,152652,1,0,0:0:0:0:
411,311,152740,1,0,0:0:0:0:
442,296,152830,1,0,0:0:0:0:
412,279,152918,1,0,0:0:0:0:
379,272,153006,1,0,0:0:0:0:
345,276,153094,1,0,0:0:0:0:
315,290,153182,5,0,0:0:0:0:
285,307,153271,1,0,0:0:0:0:
252,314,153359,1,0,0:0:0:0:
218,310,153447,1,0,0:0:0:0:
188,296,153535,1,0,0:0:0:0:
218,279,153624,1,0,0:0:0:0:
251,272,153712,1,0,0:0:0:0:
285,276,153800,1,0,0:0:0:0:
315,290,153888,6,0,L|322:327,3,37.9999989852906
432,288,154241,2,0,L|460:263,3,37.9999989852906
371,187,154594,2,0,L|335:174,3,37.9999989852906
252,240,154947,2,0,L|216:252,3,37.9999989852906
335,174,155300,5,0,0:0:0:0:
353,144,155388,1,0,0:0:0:0:
360,111,155476,1,0,0:0:0:0:
356,77,155564,1,0,0:0:0:0:
341,46,155654,1,0,0:0:0:0:
324,76,155742,1,0,0:0:0:0:
317,109,155830,1,0,0:0:0:0:
321,143,155918,1,0,0:0:0:0:
335,173,156006,5,0,0:0:0:0:
352,203,156095,1,0,0:0:0:0:
359,236,156183,1,0,0:0:0:0:
355,270,156271,1,0,0:0:0:0:
341,300,156359,1,0,0:0:0:0:
324,270,156448,1,0,0:0:0:0:
317,237,156536,1,0,0:0:0:0:
321,203,156624,1,0,0:0:0:0:
335,173,156711,6,0,L|372:166,3,37.9999989852906
232,208,157064,2,0,L|195:201,3,37.9999989852906
320,280,157417,2,0,L|313:317,3,37.9999989852906
204,324,157770,2,0,L|211:361,3,37.9999989852906
256,192,158123,12,0,160947,0:0:0:0:
