osu file format v14

[General]
AudioFilename: audio.mp3
AudioLeadIn: 0
PreviewTime: 50322
Countdown: 0
SampleSet: Soft
StackLeniency: 0.3
Mode: 0
LetterboxInBreaks: 0
WidescreenStoryboard: 1

[Editor]
Bookmarks: 13818,23888,35426,40671,42350,45706,50741,57454,64168,70881,75496,75916,79692,82629
DistanceSpacing: 0.1
BeatDivisor: 4
GridSize: 16
TimelineZoom: 3.000002

[Metadata]
Title:Stalemate! (TV Size)
TitleUnicode:すているめいと!(TV Size)
Artist:IOSYS jk Girls
ArtistUnicode:イオシスjkガールズ
Creator:IceKalt
Version:Schachmatt!
Source:ディーふらぐ!
Tags:anime d-fragments opening shanipika mirash naotoshi nao_tomori alternate
BeatmapID:1627982
BeatmapSetID:774580

[Difficulty]
HPDrainRate:5.7
CircleSize:3.8
OverallDifficulty:8
ApproachRate:9.5
SliderMultiplier:2.8
SliderTickRate:1

[Events]
//Background and Video events
0,0,"d-frag.jpg",0,0
//Break Periods
//Storyboard Layer 0 (Background)
//Storyboard Layer 1 (Fail)
//Storyboard Layer 2 (Pass)
//Storyboard Layer 3 (Foreground)
//Storyboard Sound Samples

[TimingPoints]
392,419.58041958042,4,2,1,55,1,0
392,-71.4285714285714,4,2,1,55,0,0
1336,-55.5555555555556,4,2,1,55,0,0
1650,-125,4,2,1,55,0,0
2070,-71.4285714285714,4,2,1,55,0,0
3014,-55.5555555555556,4,2,1,55,0,0
3329,-125,4,2,1,55,0,0
3748,-62.5,4,2,1,55,0,0
5426,-62.5,4,2,1,65,0,0
6056,-125,4,2,1,60,0,0
6475,-55.5555555555556,4,2,1,70,0,0
7105,-66.6666666666667,4,2,1,60,0,0
8783,-83.3333333333333,4,2,1,50,0,0
10461,-66.6666666666667,4,2,1,60,0,0
12140,-55.5555555555556,4,2,1,70,0,0
13818,-71.4285714285714,4,2,1,60,0,0
20531,-90.9090909090909,4,2,1,60,0,0
22210,-66.6666666666667,4,2,1,60,0,0
23049,-62.5,4,2,1,60,0,0
23888,-100,4,2,1,50,0,0
30601,-83.3333333333333,4,2,1,60,0,0
33958,-58.8235294117647,4,2,1,70,0,0
35426,-100,4,2,1,45,0,0
40671,-76.9230769230769,4,2,1,60,0,0
41720,-66.6666666666667,4,2,1,70,0,0
42350,-66.6666666666667,4,2,1,40,0,0
44028,-58.8235294117647,4,2,1,70,0,0
44395,-125,4,2,1,40,0,0
45706,-55.5555555555556,4,2,1,70,0,0
47385,-62.5,4,2,1,70,0,0
48119,-60.6060606060606,4,2,1,70,0,0
49063,-58.8235294117647,4,2,1,70,0,0
50322,-58.8235294117647,4,2,1,60,0,0
50741,-57.1428571428571,4,2,1,70,0,0
57454,-64.5161290322581,4,2,1,60,0,0
59972,-58.8235294117647,4,2,1,60,0,0
63329,-50,4,2,1,60,0,0
63748,-58.8235294117647,4,2,1,60,0,0
64168,-55.5555555555556,4,2,1,70,0,0
70881,-71.4285714285714,4,2,1,40,0,0
73923,-111.111111111111,4,2,1,40,0,0
75916,-76.9230769230769,4,2,1,60,0,0
77070,-64.5161290322581,4,2,1,60,0,0
77909,-58.8235294117647,4,2,1,70,0,0
78748,-52.6315789473684,4,2,1,80,0,0
79587,-52.6315789473684,4,2,1,5,0,0
79692,-66.6666666666667,4,2,1,60,0,0
82629,-58.8235294117647,4,2,1,70,0,0
83468,-55.5555555555556,4,2,1,70,0,0
84308,-52.6315789473684,4,2,1,70,0,0
85147,-50,4,2,1,70,0,0
85986,-55.5555555555556,4,2,1,70,0,0
87664,-52.6315789473684,4,2,1,70,0,0
89343,-52.6315789473684,4,2,1,5,0,0

[Colours]
Combo1 : 225,118,0
Combo2 : 255,55,165
Combo3 : 48,172,233
Combo4 : 224,233,67

[HitObjects]
332,251,392,6,0,P|404:212|459:307,1,195.999994018555,4|0,3:3|3:3,3:3:0:0:
314,49,706,2,0,P|335:142|414:197,1,195.999994018555,0|0,3:3|3:3,3:3:0:0:
246,318,1021,2,0,P|316:252|324:157,1,195.999994018555,0|0,3:3|3:3,3:3:0:0:
128,173,1336,6,0,P|145:234|212:135,1,251.999992309571,2|0,3:1|3:3,3:3:0:0:
100,34,1650,1,0,3:3:0:0:
162,92,1755,1,0,3:3:0:0:
195,67,1860,2,0,P|221:60|264:66,1,56,0|0,3:3|3:3,3:3:0:0:
380,140,2070,6,0,P|332:66|400:2,1,195.999994018555,4|0,3:3|3:3,3:3:0:0:
355,316,2385,2,0,P|417:231|385:138,1,195.999994018555,0|0,3:3|3:3,3:3:0:0:
170,346,2699,2,0,P|255:284|348:316,1,195.999994018555,0|0,3:3|3:3,3:3:0:0:
167,216,3014,6,0,B|156:139|199:98|199:98|261:118|278:188,1,251.999992309571,2|0,3:1|3:3,3:3:0:0:
84,290,3329,1,0,3:3:0:0:
24,223,3433,1,0,3:3:0:0:
36,189,3538,2,0,P|69:183|88:164,1,56,0|0,3:3|3:3,3:3:0:0:
154,26,3748,6,0,P|199:53|274:55,1,112,4|0,3:3|3:3,3:3:0:0:
383,180,3958,1,0,3:3:0:0:
328,110,4063,1,0,0:0:0:0:
328,110,4168,2,0,P|381:94|434:111,1,112,0|0,3:3|3:3,3:3:0:0:
257,58,4378,2,0,P|218:92|207:171,1,112,0|0,3:3|3:3,3:3:0:0:
135,258,4587,1,0,3:3:0:0:
135,258,4693,2,0,P|95:220|84:167,1,112,0|0,3:3|3:3,3:3:0:0:
317,146,4902,1,8,3:3:0:0:
283,221,5007,5,2,3:3:0:0:
302,288,5112,1,2,3:3:0:0:
366,314,5217,1,2,3:3:0:0:
406,255,5322,1,2,3:3:0:0:
387,188,5426,1,4,3:3:0:0:
317,146,5531,5,4,3:3:0:0:
397,177,5636,1,4,3:3:0:0:
420,259,5741,1,4,3:3:0:0:
371,330,5846,1,4,3:3:0:0:
292,299,5951,1,4,3:3:0:0:
269,217,6056,6,0,B|231:190|152:194|160:252|104:217,1,168,0|0,3:3|3:3,3:3:0:0:
106,199,6475,6,0,P|177:148|89:280,1,629.999980773926,2|0,0:1|0:0,0:0:0:0:
5,200,7105,6,0,P|53:213|117:190,1,105.000004005432,6|0,0:1|0:0,0:0:0:0:
253,74,7315,2,0,P|202:61|153:76,1,105.000004005432
399,210,7524,2,0,B|408:236|430:257|430:257|492:202|461:97,1,210.000008010865,2|0,0:0|0:0,0:0:0:0:
445,130,7839,2,0,P|449:194|326:286,1,210.000008010865,2|0,0:1|0:0,0:0:0:0:
98,258,8154,2,0,P|157:287|217:292,1,105.000004005432
314,164,8364,2,0,B|319:133|351:113|351:113|258:88|169:128|169:128|204:143|215:173,1,315.000012016297,2|0,0:0|0:0,0:0:0:0:
276,334,8783,6,0,L|268:251,1,83.9999974365235,2|0,0:0|0:0,0:0:0:0:
194,344,8993,1,0,0:0:0:0:
185,260,9097,1,0,0:0:0:0:
112,354,9203,2,0,L|103:270,1,83.9999974365235,2|0,0:0|0:0,0:0:0:0:
26,118,9412,1,0,0:0:0:0:
35,202,9516,1,0,0:0:0:0:
185,143,9622,2,0,L|101:151,1,83.9999974365235,2|0,0:0|0:0,0:0:0:0:
133,66,9832,1,0,0:0:0:0:
133,66,9937,2,0,B|203:59|223:-3|223:-3|230:117|302:105|276:230,1,335.999989746094,2|0,0:0|0:0,0:0:0:0:
329,375,10461,6,0,P|325:327|340:273,1,105.000004005432,6|0,0:1|0:0,0:0:0:0:
308,123,10671,2,0,P|339:78|392:54,1,105.000004005432
512,194,10881,2,0,B|508:230|493:242|493:242|439:173|488:76,1,210.000008010865,2|0,0:0|0:0,0:0:0:0:
471,73,11196,2,0,P|447:151|499:275,1,210.000008010865,2|0,0:1|0:0,0:0:0:0:
362,375,11510,2,0,P|366:327|351:273,1,105.000004005432
204,183,11720,5,4,3:0:0:0:
138,235,11825,1,4,3:0:0:0:
54,223,11930,1,4,3:0:0:0:
9,151,12035,1,4,3:0:0:0:
117,90,12140,6,0,B|158:205|64:209|114:338,1,251.999992309571,6|0,0:1|0:0,0:0:0:0:
335,351,12454,2,0,B|390:303|390:303|175:269,1,251.999992309571,2|0,0:1|0:0,0:0:0:0:
405,219,12769,2,0,L|249:194,1,125.999996154785,2|0,0:1|0:0,0:0:0:0:
117,90,12979,6,0,B|247:131|312:58|312:58|380:-30|491:32|491:32|418:124|313:58|313:58|283:14|212:8|190:69,1,755.999976928712,6|0,0:1|0:0,0:0:0:0:
42,318,13818,6,0,P|65:275|66:227,1,97.9999970092774,4|0,0:0|0:0,0:0:0:0:
196,384,14028,2,0,P|172:341|171:293,1,97.9999970092774,8|0,0:0|0:0,0:0:0:0:
234,134,14238,2,0,P|234:182|258:224,1,97.9999970092774
381,354,14447,2,0,P|332:353|290:330,1,97.9999970092774,8|0,0:0|0:0,0:0:0:0:
410,106,14657,6,0,P|422:148|412:223,1,97.9999970092774,2|0,0:0|0:0,0:0:0:0:
251,22,14867,1,10,0:0:0:0:
251,22,14972,2,0,P|287:46|327:110,1,97.9999970092774,2|0,0:0|0:0,0:0:0:0:
82,55,15182,2,0,P|130:51|177:63,1,97.9999970092774,2|8,0:0|0:0,0:0:0:0:
131,253,15391,1,2,0:0:0:0:
131,253,15496,6,0,P|115:208|123:160,1,97.9999970092774,4|0,0:0|0:0,0:0:0:0:
289,342,15706,2,0,P|243:325|212:288,1,97.9999970092774,8|0,0:0|0:0,0:0:0:0:
445,149,15916,2,0,P|409:118|361:109,1,97.9999970092774
206,202,16126,2,0,P|243:171|290:163,1,97.9999970092774,8|0,0:0|0:0,0:0:0:0:
291,36,16336,6,0,P|243:37|198:56,1,97.9999970092774,2|0,0:0|0:0,0:0:0:0:
71,123,16545,1,10,0:0:0:0:
71,123,16650,2,0,P|88:72|124:32,1,97.9999970092774,2|0,0:0|0:0,0:0:0:0:
32,287,16860,1,2,0:0:0:0:
32,287,16965,2,0,P|12:236|15:183,1,97.9999970092774,10|0,0:0|0:0,0:0:0:0:
202,322,17175,6,0,L|98:345,1,97.9999970092774,4|0,0:0|0:0,0:0:0:0:
312,253,17385,2,0,L|206:239,1,97.9999970092774,8|0,0:0|0:0,0:0:0:0:
377,356,17594,2,0,P|331:320|441:322,1,293.999991027832,2|0,0:1|0:0,0:0:0:0:
485,165,18014,6,0,L|389:143,1,97.9999970092774,2|0,0:0|0:0,0:0:0:0:
186,81,18224,2,0,L|283:68,1,97.9999970092774,8|0,0:0|0:0,0:0:0:0:
229,252,18433,2,0,B|254:116|112:129|124:8|169:-8|200:3,1,293.999991027832,2|0,0:1|0:0,0:0:0:0:
33,204,18853,5,2,0:0:0:0:
33,204,18958,2,0,L|144:218,1,97.9999970092774,0|8,0:0|0:0,0:0:0:0:
342,138,19168,1,2,0:0:0:0:
342,138,19273,2,0,L|231:152,1,97.9999970092774
247,290,19482,2,0,L|358:304,1,97.9999970092774,8|0,0:0|0:0,0:0:0:0:
437,168,19692,6,0,P|447:216|437:264,1,97.9999970092774
244,150,19902,2,0,P|234:102|244:54,1,97.9999970092774,8|0,0:0|0:0,0:0:0:0:
299,269,20112,2,0,B|293:321|252:353|252:353|161:291|58:356,1,293.999991027832,2|0,0:1|0:0,0:0:0:0:
62,111,20531,6,0,P|156:170|163:282,1,231.000007049561,4|0,0:0|0:0,0:0:0:0:
317,15,20952,2,0,P|219:67|119:16,1,231.000007049561,2|0,0:1|0:0,0:0:0:0:
269,284,21372,2,0,P|273:173|367:112,1,231.000007049561
189,170,21790,2,0,B|141:162|122:86|122:86|198:59|232:98,1,231.000007049561,2|0,0:1|0:0,0:0:0:0:
458,243,22210,6,0,P|399:272|343:268,1,105.000004005432,4|0,0:0|0:0,0:0:0:0:
82,304,22419,1,10,0:0:0:0:
86,282,22524,2,0,P|145:253|201:257,1,105.000004005432
458,243,22734,1,2,0:0:0:0:
454,265,22839,2,0,P|395:294|339:290,1,105.000004005432,8|0,0:0|0:0,0:0:0:0:
216,185,23049,5,4,0:3:0:0:
191,109,23154,1,4,0:3:0:0:
236,45,23259,1,4,0:3:0:0:
313,32,23364,1,4,0:3:0:0:
362,93,23468,1,4,0:3:0:0:
353,171,23573,1,4,0:3:0:0:
285,210,23678,1,4,0:3:0:0:
226,263,23783,1,4,0:3:0:0:
219,343,23888,6,0,P|191:334|136:330,1,70,2|0,0:0|0:0,0:0:0:0:
16,302,24098,2,0,P|44:293|99:289,1,70,8|0,0:0|0:0,0:0:0:0:
226,263,24308,2,0,P|198:254|143:250,1,70
23,222,24518,2,0,P|51:213|106:209,1,70,8|0,0:0|0:0,0:0:0:0:
176,99,24727,6,0,L|161:176,1,70,2|0,0:0|0:0,0:0:0:0:
287,89,24937,1,10,0:0:0:0:
287,89,25042,2,0,L|246:156,1,70,2|0,0:0|0:0,0:0:0:0:
395,121,25252,2,0,L|340:164,1,70,2|8,2:0|2:0,2:0:0:0:
410,311,25461,1,2,2:0:0:0:
410,311,25566,6,0,P|409:276|401:241,1,70,2|0,0:0|0:0,0:0:0:0:
331,325,25776,2,0,P|330:290|322:255,1,70,8|0,0:0|0:0,0:0:0:0:
153,317,25986,2,0,P|153:282|161:247,1,70
232,331,26196,2,0,P|232:296|240:261,1,70,8|0,0:0|0:0,0:0:0:0:
352,154,26405,6,0,L|280:153,1,70,2|0,0:0|0:0,0:0:0:0:
145,106,26615,1,10,0:0:0:0:
145,106,26720,2,0,L|217:105,1,70,2|0,0:0|0:0,0:0:0:0:
352,56,26930,1,2,0:0:0:0:
352,56,27035,2,0,L|280:55,1,70,10|0,0:0|0:0,0:0:0:0:
74,46,27245,5,2,0:0:0:0:
55,113,27350,1,0,0:0:0:0:
61,182,27454,2,0,P|68:220|92:254,1,70,8|0,0:0|0:0,0:0:0:0:
113,258,27664,2,0,P|93:203|176:248,1,210,2|0,0:1|0:0,0:0:0:0:
233,345,28084,5,2,0:0:0:0:
294,311,28189,1,0,0:0:0:0:
363,318,28294,2,0,P|396:334|424:366,1,70,8|0,0:0|0:0,0:0:0:0:
393,378,28503,2,0,P|390:314|493:342,1,210,2|0,0:1|0:0,0:0:0:0:
373,210,28923,5,2,0:0:0:0:
349,144,29028,2,0,P|353:102|369:62,1,70,0|8,0:0|0:0,0:0:0:0:
384,223,29237,5,2,0:0:0:0:
360,157,29342,1,0,0:0:0:0:
372,88,29447,2,0,P|392:52|430:23,1,70,0|8,0:0|0:0,0:0:0:0:
267,8,29657,1,0,0:0:0:0:
186,17,29762,6,0,P|220:26|255:25,1,70,2|0,0:0|0:0,0:0:0:0:
284,220,29972,2,0,P|275:186|257:157,1,70,8|0,0:0|0:0,0:0:0:0:
229,158,30182,2,0,P|258:267|178:312,1,210,2|0,0:1|0:0,0:0:0:0:
167,327,30601,6,0,B|293:379|292:261|438:347,1,251.999992309571,4|0,0:0|0:0,0:0:0:0:
403,177,31021,2,0,P|381:273|429:349,1,167.999994873047
495,126,31440,6,0,B|313:131|313:131|364:75,1,251.999992309571,4|0,0:0|0:0,0:0:0:0:
114,96,31860,2,0,B|185:130|251:66|251:66|210:108|228:167,1,251.999992309571,2|0,0:1|0:0,0:0:0:0:
344,271,32280,5,2,3:0:0:0:
312,281,32385,1,2,3:0:0:0:
278,279,32489,1,2,3:0:0:0:
247,265,32594,1,2,3:0:0:0:
221,243,32699,5,2,3:0:0:0:
172,228,32804,1,2,3:0:0:0:
122,236,32909,1,2,3:0:0:0:
83,269,33014,1,2,3:0:0:0:
67,316,33119,5,4,3:0:0:0:
138,340,33224,1,4,3:0:0:0:
208,311,33329,1,4,3:0:0:0:
244,245,33433,1,4,3:0:0:0:
302,197,33538,5,4,3:3:0:0:
380,164,33643,1,4,3:3:0:0:
435,227,33748,1,4,3:3:0:0:
391,300,33853,1,4,3:3:0:0:
310,281,33958,6,0,B|189:255|209:352|85:324,1,238.00000453949,6|0,0:1|0:0,0:0:0:0:
84,96,34273,2,0,P|120:124|25:235,1,238.00000453949,2|0,0:1|0:0,0:0:0:0:
152,44,34587,2,0,B|212:88|215:171|215:171|292:49|428:84|428:84|398:117|354:115,1,476.00000907898,2|0,0:1|0:0,0:0:0:0:
354,131,35217,1,2,0:0:0:0:
189,128,35426,5,2,0:0:0:0:
198,147,35636,2,0,P|279:198|355:127,1,210,2|0,0:0|0:0,0:0:0:0:
471,197,36266,1,0,0:0:0:0:
462,216,36476,2,0,P|381:267|305:196,1,210,2|0,0:0|0:0,0:0:0:0:
227,70,37105,5,0,0:0:0:0:
247,79,37315,2,0,P|292:133|305:204,1,140,2|0,0:0|0:0,0:0:0:0:
109,225,37734,2,0,P|179:225|242:260,1,140,2|0,0:0|0:0,0:0:0:0:
369,371,38154,1,0,0:0:0:0:
450,322,38259,2,0,P|379:321|316:286,1,140,2|0,0:0|0:0,0:0:0:0:
448,140,38783,5,2,0:0:0:0:
429,153,38993,2,0,B|342:165|369:69|224:71,1,210,2|0,0:0|0:0,0:0:0:0:
41,226,39622,1,0,0:0:0:0:
60,239,39832,2,0,B|147:251|120:155|265:157,1,210,2|0,0:0|0:0,0:0:0:0:
337,297,40462,1,0,0:0:0:0:
395,242,40672,6,0,B|448:170|448:170|456:73,1,181.999991668702,6|0,0:1|0:0,0:0:0:0:
298,226,40986,2,0,B|272:139|272:139|297:46,1,181.999991668702,2|0,0:1|0:0,0:0:0:0:
323,384,41301,1,2,0:1:0:0:
323,384,41720,6,0,P|240:336|117:346,1,210.000008010865,6|0,0:1|0:0,0:0:0:0:
385,298,42035,2,0,P|310:237|275:119,1,210.000008010865,2|0,0:1|0:0,0:0:0:0:
73,111,42349,5,0,3:0:0:0:
110,130,42559,1,0,3:0:0:0:
152,130,42769,1,0,3:0:0:0:
189,110,42979,1,0,3:0:0:0:
210,73,43189,1,0,3:0:0:0:
245,50,43398,1,0,3:0:0:0:
287,48,43608,1,0,3:0:0:0:
325,64,43818,1,0,3:0:0:0:
359,292,44028,6,0,B|297:278|296:220|213:188|213:188|277:137|299:208|397:157,1,357.000006809235,4|0,0:0|0:0,0:0:0:0:
406,158,44395,6,0,L|420:94,4,56,0|0|0|0|0,3:0|3:0|3:0|3:0|3:0,3:0:0:0:
507,170,44972,1,0,3:0:0:0:
492,215,45182,1,0,3:0:0:0:
458,249,45392,2,0,L|452:323,2,56,0|0|0,3:0|3:0|3:0,3:0:0:0:
406,158,45706,6,0,P|334:230|191:216,1,251.999992309571,6|0,0:1|0:0,0:0:0:0:
129,67,46021,2,0,P|137:168|256:249,1,251.999992309571,2|0,0:1|0:0,0:0:0:0:
271,37,46336,2,0,P|307:1|288:49,1,125.999996154785,2|0,0:1|0:0,0:0:0:0:
320,363,46545,2,0,P|362:251|337:107,1,251.999992309571,6|0,0:1|0:0,0:0:0:0:
51,264,46860,2,0,P|94:152|209:62,1,251.999992309571,2|0,0:1|0:0,0:0:0:0:
224,371,47175,2,0,P|162:361|110:327,1,125.999996154785,2|0,0:1|0:0,0:0:0:0:
344,122,47385,5,2,0:1:0:0:
344,122,47489,2,0,P|301:136|224:120,1,112,2|0,0:0|0:0,0:0:0:0:
53,144,47699,2,0,P|97:177|152:185,1,112,2|0,0:0|0:0,0:0:0:0:
318,265,47909,2,0,P|275:279|198:263,1,112,2|0,0:0|0:0,0:0:0:0:
165,36,48119,5,0,0:0:0:0:
283,53,48224,1,2,0:1:0:0:
151,53,48329,2,0,P|135:108|160:181,1,115.500001101494,2|0,0:0|0:0,0:0:0:0:
103,346,48538,2,0,P|156:332|199:292,1,115.500001101494,2|0,0:0|0:0,0:0:0:0:
379,239,48748,2,0,P|342:199|282:180,1,115.500001101494,2|0,0:0|0:0,0:0:0:0:
24,161,48958,5,0,0:0:0:0:
115,45,49063,1,2,0:1:0:0:
27,180,49168,2,0,P|68:223|123:242,1,119.000002269745,2|0,0:0|0:0,0:0:0:0:
327,68,49378,2,0,P|270:82|225:121,1,119.000002269745,2|0,0:0|0:0,0:0:0:0:
275,382,49587,2,0,P|292:326|281:268,1,119.000002269745,2|0,0:0|0:0,0:0:0:0:
0,18,49797,5,0,0:0:0:0:
52,81,49902,2,0,B|212:130|184:22|316:68|316:68|298:101|240:102,1,357.000006809235,2|0,0:1|0:0,0:0:0:0:
243,102,50322,6,0,P|193:97|136:42,1,119.000002269745,2|0,0:0|0:0,0:0:0:0:
194,246,50531,2,0,P|162:196|165:137,1,119.000002269745,2|0,0:0|0:0,0:0:0:0:
150,320,50741,6,0,P|92:255|104:71,1,245.000002336502,4|8,0:0|0:0,0:0:0:0:
248,174,51056,1,0,0:0:0:0:
194,246,51161,2,0,P|163:196|167:132,1,122.500001168251
301,101,51371,2,0,P|332:151|328:215,1,122.500001168251,8|0,0:0|0:0,0:0:0:0:
407,247,51580,6,0,P|414:127|343:30,1,245.000002336502,0|8,0:0|0:0,0:0:0:0:
74,1,51895,1,0,0:0:0:0:
147,48,52000,2,0,P|207:54|263:26,1,122.500001168251
117,141,52210,2,0,P|158:185|220:198,1,122.500001168251,8|0,0:0|0:0,0:0:0:0:
500,214,52419,6,0,P|458:169|396:156,1,122.500001168251,2|0,0:0|0:0,0:0:0:0:
319,352,52629,1,8,0:0:0:0:
306,169,52734,1,0,0:0:0:0:
295,363,52839,2,0,P|277:306|285:246,1,122.500001168251
295,51,53049,2,0,P|314:114|302:177,1,122.500001168251,8|0,0:0|0:0,0:0:0:0:
41,189,53259,6,0,P|56:117|215:67,1,245.000002336502,0|8,0:0|0:0,0:0:0:0:
250,267,53573,1,0,0:0:0:0:
155,296,53678,2,0,L|161:174,1,122.500001168251,8|0,0:0|0:0,0:0:0:0:
383,9,53888,2,0,L|388:131,1,122.500001168251,8|0,0:0|0:0,0:0:0:0:
321,365,54098,6,0,B|261:281|261:281|279:227|279:227|275:137,1,245.000002336502,4|8,0:0|0:0,0:0:0:0:
170,11,54412,1,0,0:0:0:0:
108,70,54517,2,0,P|173:96|233:70,1,122.500001168251
389,132,54727,2,0,P|324:158|263:132,1,122.500001168251,8|0,0:0|0:0,0:0:0:0:
16,220,54937,6,0,P|119:177|251:258,1,245.000002336502,2|8,0:0|0:0,0:0:0:0:
453,255,55252,1,0,0:0:0:0:
505,173,55357,2,0,P|402:216|270:135,1,245.000002336502,2|8,0:0|0:0,0:0:0:0:
316,381,55671,1,0,0:0:0:0:
400,359,55776,6,0,P|440:314|452:249,1,122.500001168251,4|0,0:0|0:0,0:0:0:0:
71,160,55986,2,0,L|211:161,1,122.500001168251,10|0,0:0|0:0,0:0:0:0:
333,232,56196,1,2,3:3:0:0:
243,86,56301,1,2,3:3:0:0:
49,138,56405,2,0,L|189:139,1,122.500001168251,10|0,0:0|0:0,0:0:0:0:
405,86,56615,6,0,P|357:49|284:32,1,122.500001168251
34,120,56825,2,0,L|174:121,1,122.500001168251,10|0,0:0|0:0,0:0:0:0:
366,215,57035,1,2,3:0:0:0:
262,108,57140,1,2,3:0:0:0:
307,279,57245,1,2,3:0:0:0:
345,132,57350,1,2,3:0:0:0:
223,301,57454,6,0,P|159:299|54:146,1,217.000001655579,4|8,0:0|0:0,0:0:0:0:
191,0,57769,2,0,P|221:56|141:223,1,217.000001655579,10|0,0:0|0:0,0:0:0:0:
0,98,58084,2,0,P|51:83|121:105,1,108.500000827789,10|0,0:0|0:0,0:0:0:0:
453,215,58294,6,0,L|225:139,1,217.000001655579,2|8,0:0|0:0,0:0:0:0:
284,358,58608,2,0,L|136:198,1,217.000001655579,10|0,0:0|0:0,0:0:0:0:
38,305,58924,2,0,L|-7:119,1,108.500000827789,10|0,0:0|0:0,0:0:0:0:
147,22,59133,6,0,P|241:69|342:37,1,217.000001655579,6|8,0:0|0:0,0:0:0:0:
510,203,59447,2,0,P|404:211|322:144,1,217.000001655579,10|0,0:0|0:0,0:0:0:0:
194,239,59763,2,0,P|245:254|299:251,1,108.500000827789,10|0,0:0|0:0,0:0:0:0:
132,319,59972,6,0,P|85:205|144:72,1,238.00000453949,2|8,0:0|0:0,0:0:0:0:
345,342,60287,2,0,P|411:237|376:96,1,238.00000453949,10|0,0:0|0:0,0:0:0:0:
271,0,60601,1,10,0:0:0:0:
271,0,61021,6,0,P|264:62|232:108,1,119.000002269745,10|0,0:0|0:0,0:0:0:0:
139,238,61231,2,0,P|192:212|250:217,1,119.000002269745,2|0,0:0|0:0,0:0:0:0:
41,43,61440,2,0,P|66:96|114:129,1,119.000002269745,10|0,0:0|0:0,0:0:0:0:
387,113,61650,5,0,0:0:0:0:
362,196,61755,2,0,P|308:221|250:216,1,119.000002269745,2|8,0:0|0:0,0:0:0:0:
27,257,61965,2,0,P|80:231|138:237,1,119.000002269745,2|0,0:0|0:0,0:0:0:0:
270,340,62174,1,0,0:0:0:0:
362,196,62280,1,8,0:0:0:0:
375,365,62385,1,2,0:0:0:0:
374,180,62489,6,0,P|362:61|229:3,1,238.00000453949,2|8,0:0|0:0,0:0:0:0:
193,250,62804,1,0,0:0:0:0:
298,152,62909,2,0,P|301:120|229:181,1,238.00000453949,2|8,0:0|0:0,0:0:0:0:
413,326,63224,1,0,0:0:0:0:
319,358,63329,6,0,B|227:375|172:292|59:373|59:373|131:317|102:219,1,420,2|0,0:0|0:0,0:0:0:0:
108,241,63748,6,0,P|85:196|13:162,1,119.000002269745,2|0,0:0|0:0,0:0:0:0:
224,143,63958,2,0,P|174:130|102:164,1,119.000002269745,2|0,0:0|0:0,0:0:0:0:
349,247,64168,6,0,P|281:185|316:27,1,251.999992309571,4|8,0:0|0:0,0:0:0:0:
455,208,64483,1,0,0:0:0:0:
428,295,64588,2,0,P|387:332|314:332,1,125.999996154785
197,121,64797,2,0,P|255:141|285:195,1,125.999996154785,8|0,0:0|0:0,0:0:0:0:
178,353,65007,6,0,P|226:258|168:87,1,251.999992309571,0|8,0:0|0:0,0:0:0:0:
24,288,65322,1,0,0:0:0:0:
117,294,65427,2,0,P|136:234|124:174,1,125.999996154785
15,18,65636,2,0,P|56:64|115:83,1,125.999996154785,8|0,0:0|0:0,0:0:0:0:
345,7,65846,6,0,P|325:59|335:142,1,125.999996154785,2|0,0:0|0:0,0:0:0:0:
464,285,66056,1,8,0:0:0:0:
331,217,66161,1,0,0:0:0:0:
473,299,66266,2,0,P|449:351|387:375,1,125.999996154785
244,204,66475,2,0,P|268:152|330:128,1,125.999996154785,8|0,0:0|0:0,0:0:0:0:
186,345,66686,6,0,P|215:238|142:110,1,251.999992309571,0|8,0:0|0:0,0:0:0:0:
0,27,67000,1,0,0:0:0:0:
34,112,67105,2,0,P|93:133|159:112,1,125.999996154785,8|0,0:0|0:0,0:0:0:0:
468,45,67315,2,0,P|409:24|342:44,1,125.999996154785,8|0,0:0|0:0,0:0:0:0:
305,258,67525,6,0,B|261:178|261:178|269:117|269:117|219:14,1,251.999992309571,4|8,0:0|0:0,0:0:0:0:
348,160,67839,1,0,0:0:0:0:
298,279,67944,2,0,L|236:170,1,125.999996154785
98,338,68154,2,0,L|216:382,1,125.999996154785,8|0,0:0|0:0,0:0:0:0:
223,151,68364,6,0,P|112:204|26:91,1,251.999992309571,2|8,0:0|0:0,0:0:0:0:
348,160,68679,1,0,0:0:0:0:
441,272,68783,2,0,P|352:193|246:247,1,251.999992309571,2|8,0:0|0:0,0:0:0:0:
69,319,69098,1,0,0:0:0:0:
148,384,69203,6,0,P|165:323|148:257,1,125.999996154785,4|0,0:0|0:0,0:0:0:0:
9,89,69413,2,0,L|135:100,1,125.999996154785,8|0,0:0|0:0,0:0:0:0:
320,46,69622,1,0,0:0:0:0:
210,148,69728,1,0,0:0:0:0:
20,71,69832,2,0,L|146:82,1,125.999996154785,8|0,0:0|0:0,0:0:0:0:
404,98,70042,6,0,P|351:140|270:134,1,125.999996154785
30,56,70252,2,0,L|156:67,1,125.999996154785,8|0,0:0|0:0,0:0:0:0:
274,252,70462,1,4,3:0:0:0:
210,148,70566,1,4,3:0:0:0:
188,271,70672,1,6,3:0:0:0:
206,134,70777,1,4,3:0:0:0:
93,325,70881,6,0,P|92:276|107:230,1,97.9999970092774,4|0,0:0|0:0,0:0:0:0:
215,164,71090,1,0,3:3:0:0:
111,116,71196,1,0,3:3:0:0:
292,30,71405,5,2,3:3:0:0:
125,0,71615,1,0,3:3:0:0:
276,119,71825,5,2,3:3:0:0:
443,89,72035,1,0,3:3:0:0:
291,202,72245,5,2,3:3:0:0:
124,172,72455,1,0,3:3:0:0:
275,291,72665,5,2,3:3:0:0:
442,261,72875,1,0,3:3:0:0:
291,380,73084,5,2,3:3:0:0:
124,350,73294,1,0,3:3:0:0:
275,291,73503,5,2,3:3:0:0:
442,261,73713,1,0,3:3:0:0:
291,202,73923,6,0,L|292:130,1,62.9999980773926,2|0,3:3|0:0,0:0:0:0:
97,38,74133,1,0,3:3:0:0:
97,38,74238,6,0,B|54:108|121:138|117:187|117:187|193:282|57:370|-1:221|115:188|115:188|158:152|196:260|302:197,1,629.999980773926,6|0,0:0|0:0,0:0:0:0:
304,180,75496,5,2,0:3:0:0:
464,130,75601,1,2,0:3:0:0:
309,97,75706,1,2,0:3:0:0:
469,47,75811,1,2,0:3:0:0:
474,245,75916,6,0,P|483:202|475:131,1,90.9999958343508
402,354,76126,1,8,0:0:0:0:
402,354,76231,2,0,P|306:318|186:350,1,181.999991668702,2|0,0:1|0:0,0:0:0:0:
20,215,76545,1,8,0:0:0:0:
56,301,76650,2,0,P|152:337|273:306,1,181.999991668702,2|2,0:1|0:0,0:0:0:0:
234,140,76965,5,0,0:0:0:0:
258,223,77070,2,0,P|254:277|215:345,1,108.500000827789,2|0,0:1|0:0,0:0:0:0:
282,52,77280,2,0,P|314:95|328:172,1,108.500000827789,2|2,0:0|0:0,0:0:0:0:
471,29,77489,2,0,P|417:35|343:8,1,108.500000827789,2|0,0:1|0:0,0:0:0:0:
402,205,77699,2,0,P|423:155|483:104,1,108.500000827789,2|2,0:0|0:0,0:0:0:0:
365,291,77909,6,0,P|328:264|253:247,1,119.000002269745,2|0,0:1|0:0,0:0:0:0:
95,120,78119,2,0,P|131:146|206:163,1,119.000002269745,2|2,0:0|0:0,0:0:0:0:
355,317,78329,2,0,P|313:301|235:303,1,119.000002269745,2|0,0:1|0:0,0:0:0:0:
104,93,78538,2,0,P|145:108|223:106,1,119.000002269745,2|2,0:0|0:0,0:0:0:0:
353,345,78748,6,0,P|308:340|221:365,1,132.999996448517,2|0,0:1|0:0,0:0:0:0:
109,69,78958,2,0,P|153:73|240:48,1,132.999996448517,2|2,0:0|0:0,0:0:0:0:
494,133,79168,6,0,B|473:216|374:203|374:203|245:146|153:248|153:248|218:302|289:261,1,531.999985794068,2|0,0:1|0:0,0:0:0:0:
393,124,79692,6,0,P|269:102|91:195,1,315.000012016297,6|0,0:1|0:0,0:0:0:0:
246,344,80112,2,0,P|327:248|335:47,1,315.000012016297,2|0,0:1|0:0,0:0:0:0:
128,107,80531,2,0,P|171:225|341:333,1,315.000012016297,2|0,0:1|0:0,0:0:0:0:
383,107,80951,2,0,P|340:225|170:333,1,315.000012016297,6|0,0:1|0:0,0:0:0:0:
118,123,81371,2,0,P|243:101|421:195,1,315.000012016297,2|0,0:1|0:0,0:0:0:0:
129,346,81790,5,4,3:0:0:0:
128,302,81895,1,4,3:0:0:0:
148,252,82000,1,4,3:0:0:0:
192,207,82105,1,4,3:0:0:0:
265,190,82210,1,4,3:0:0:0:
338,229,82315,1,4,3:0:0:0:
431,219,82419,1,4,3:0:0:0:
499,138,82524,1,4,3:0:0:0:
466,21,82629,6,0,P|338:18|243:95,1,238.00000453949,4|8,0:0|0:0,0:0:0:0:
326,350,82944,2,0,P|390:252|382:136,1,238.00000453949,8|0,0:0|0:0,0:0:0:0:
149,162,83259,2,0,P|201:199|258:212,1,119.000002269745,8|0,0:0|0:0,0:0:0:0:
466,21,83468,6,0,P|338:18|243:95,1,251.999992309571,4|8,0:0|0:0,0:0:0:0:
337,363,83783,2,0,P|401:265|395:126,1,251.999992309571,8|0,0:0|0:0,0:0:0:0:
138,178,84098,2,0,P|190:215|258:229,1,125.999996154785,8|0,0:0|0:0,0:0:0:0:
466,21,84308,6,0,P|338:18|237:109,1,265.999992897034,4|8,0:0|0:0,0:0:0:0:
352,378,84623,2,0,P|416:280|411:129,1,265.999992897034,8|0,0:0|0:0,0:0:0:0:
127,192,84938,2,0,P|179:229|247:243,1,132.999996448517,8|0,0:0|0:0,0:0:0:0:
224,8,85147,5,4,0:0:0:0:
323,35,85253,2,0,P|380:73|413:134,1,140,2|0,0:0|0:0,0:0:0:0:
296,309,85461,2,0,L|283:170,1,140,8|0,0:0|0:0,0:0:0:0:
500,11,85671,1,2,0:0:0:0:
492,113,85776,2,0,L|476:274,1,140,8|0,0:0|0:0,0:0:0:0:
135,262,85986,6,0,P|134:189|303:148,1,251.999992309571,4|8,0:0|0:0,0:0:0:0:
374,363,86301,1,0,0:0:0:0:
398,279,86405,2,0,P|384:200|314:151,1,125.999996154785
220,378,86615,2,0,P|234:299|304:250,1,125.999996154785,8|0,0:0|0:0,0:0:0:0:
436,141,86825,5,4,3:0:0:0:
415,68,86930,1,4,3:0:0:0:
348,32,87035,1,4,3:0:0:0:
272,36,87140,1,4,3:0:0:0:
217,88,87245,1,4,3:3:0:0:
163,173,87350,1,4,3:3:0:0:
63,180,87454,1,4,3:3:0:0:
10,93,87559,1,4,3:3:0:0:
63,0,87664,6,0,P|117:47|122:246,1,265.999992897034,4|8,0:0|0:0,0:0:0:0:
395,69,87979,2,0,P|328:94|255:279,1,265.999992897034,12|8,0:0|0:0,0:0:0:0:
237,7,88294,1,2,0:0:0:0:
103,320,88713,6,0,P|174:318|235:359,1,132.999996448517,2|0,0:0|0:0,0:0:0:0:
165,228,88923,2,0,B|192:160|70:167|136:21|222:88|222:88|337:54|335:268|210:139|178:289,1,531.999985794068,2|0,0:1|0:0,0:0:0:0:
