osu file format v14

[General]
AudioFilename: audio.mp3
AudioLeadIn: 0
PreviewTime: 50322
Countdown: 0
SampleSet: Soft
StackLeniency: 0.3
Mode: 0
LetterboxInBreaks: 0
WidescreenStoryboard: 0

[Editor]
Bookmarks: 13818,23888,35426,40671,42350,45706,50741,57454,64168,70881,75496,75916,79692,82629
DistanceSpacing: 1.1
BeatDivisor: 4
GridSize: 16
TimelineZoom: 3.000002

[Metadata]
Title:Stalemate! (TV Size)
TitleUnicode:すているめいと!(TV Size)
Artist:IOSYS jk Girls
ArtistUnicode:イオシスjkガールズ
Creator:IceKalt
Version:Normal!
Source:ディーふらぐ!
Tags:anime d-fragments opening shanipika mirash naotoshi nao_tomori alternate
BeatmapID:1628252
BeatmapSetID:774580

[Difficulty]
HPDrainRate:3
CircleSize:3
OverallDifficulty:4
ApproachRate:5.5
SliderMultiplier:1.5
SliderTickRate:1

[Events]
//Background and Video events
0,0,"d-frag.jpg",0,0
//Break Periods
//Storyboard Layer 0 (Background)
//Storyboard Layer 1 (Fail)
//Storyboard Layer 2 (Pass)
//Storyboard Layer 3 (Foreground)
//Storyboard Sound Samples

[TimingPoints]
392,419.58041958042,4,2,1,55,1,0
392,-100,4,2,1,55,0,0
1336,-100,4,2,1,55,0,0
1650,-100,4,2,1,55,0,0
2070,-100,4,2,1,55,0,0
3014,-100,4,2,1,55,0,0
3329,-100,4,2,1,55,0,0
3748,-100,4,2,1,55,0,0
6056,-100,4,2,1,55,0,0
6475,-100,4,2,1,70,0,0
7105,-100,4,2,1,60,0,0
8783,-100,4,2,1,50,0,0
10461,-100,4,2,1,60,0,0
12140,-100,4,2,1,60,0,0
13818,-100,4,2,1,55,0,0
20531,-100,4,2,1,55,0,0
22210,-100,4,2,1,55,0,0
23049,-100,4,2,1,55,0,0
23783,-100,4,2,1,5,0,0
23888,-100,4,2,1,45,0,0
30601,-100,4,2,1,60,0,0
33958,-100,4,2,1,70,0,0
35426,-100,4,2,1,70,0,0
35636,-100,4,2,1,40,0,0
40671,-100,4,2,1,60,0,0
41720,-100,4,2,1,70,0,0
44028,-100,4,2,1,70,0,0
44447,-100,4,2,1,70,0,0
45706,-100,4,2,1,70,0,0
47385,-100,4,2,1,70,0,0
49063,-100,4,2,1,70,0,0
50741,-100,4,2,1,70,0,0
57454,-100,4,2,1,60,0,0
59972,-100,4,2,1,60,0,0
63329,-100,4,2,1,60,0,0
63748,-100,4,2,1,60,0,0
64168,-100,4,2,1,70,0,0
70881,-100,4,2,1,40,0,0
73923,-100,4,2,1,40,0,0
74238,-100,4,2,1,60,0,0
75916,-100,4,2,1,60,0,0
77804,-100,4,2,1,70,0,0
77909,-100,4,2,1,70,0,0
78748,-100,4,2,1,70,0,0
79587,-100,4,2,1,5,0,0
79692,-100,4,2,1,60,0,0
82629,-100,4,2,1,70,0,0
83468,-100,4,2,1,70,0,0
84308,-100,4,2,1,70,0,0
85147,-100,4,2,1,70,0,0
85986,-100,4,2,1,70,0,0
87664,-100,4,2,1,70,0,0
89343,-100,4,2,1,5,0,0

[Colours]
Combo1 : 225,118,0
Combo2 : 255,55,165
Combo3 : 48,172,233
Combo4 : 224,233,67

[HitObjects]
128,154,392,6,0,P|71:170|5:174,2,112.5,4|0|0,3:3|3:3|3:3,0:0:0:0:
229,83,1336,1,2,3:1:0:0:
274,197,1650,2,0,L|275:276,1,74.9999999999999,0|0,3:3|3:3,0:0:0:0:
332,331,2070,2,0,P|389:347|455:351,2,112.5,4|0|0,3:3|3:3|3:3,0:0:0:0:
214,370,3014,1,2,3:1:0:0:
169,254,3329,2,0,L|168:177,1,74.9999999999999,0|0,3:3|3:3,0:0:0:0:
117,114,3748,6,0,P|57:96|4:50,2,112.5,4|0|0,3:3|3:3|3:3,0:0:0:0:
234,73,4692,2,0,P|294:91|347:137,1,112.5,0|8,3:3|3:3,0:0:0:0:
376,191,5217,1,8,3:3:0:0:
458,191,5426,2,0,B|493:254|473:335|473:335|369:384|368:298|245:346,1,375,4|2,3:3|0:1,0:0:0:0:
252,343,7105,6,0,P|218:322|162:304,1,74.9999999999999,6|0,0:1|0:0,0:0:0:0:
102,307,7524,1,2,0:0:0:0:
20,212,7840,2,0,P|63:186|137:174,1,112.5,2|0,0:1|0:0,0:0:0:0:
205,182,8364,1,2,0:0:0:0:
357,118,8783,6,0,L|311:272,1,150,2|2,0:0|0:0,0:0:0:0:
365,326,9412,1,0,0:0:0:0:
435,369,9622,2,0,L|477:225,1,150,2|2,0:0|0:0,0:0:0:0:
357,118,10461,6,0,P|311:103|269:98,1,75,6|0,0:1|0:0,0:0:0:0:
203,117,10881,1,2,0:0:0:0:
181,239,11196,2,0,P|227:254|298:252,1,112.5,2|0,0:1|0:0,0:0:0:0:
362,212,11720,1,4,3:0:0:0:
502,298,12140,6,0,B|558:168|429:165|530:11|530:11|466:45|382:22,1,450,6|0,0:1|0:0,0:0:0:0:
235,91,13818,6,0,P|151:72|76:84,1,150,4|0,0:0|0:0,0:0:0:0:
36,144,14447,1,8,0:0:0:0:
36,226,14657,2,0,P|35:294|8:345,1,112.5,2|2,0:0|0:0,0:0:0:0:
145,172,15496,2,0,P|220:156|297:172,1,150,4|0,0:0|0:0,0:0:0:0:
323,245,16126,1,8,0:0:0:0:
384,299,16336,2,0,P|452:317|521:302,2,112.5,2|2|10,0:0|0:0|0:0,0:0:0:0:
402,218,17175,6,0,L|407:131,2,75,4|8|2,0:0|0:0|0:1,0:0:0:0:
243,171,18014,2,0,L|230:88,2,75,2|8|2,0:0|0:0|0:1,0:0:0:0:
302,15,18853,2,0,B|380:45|447:18|447:18|474:55|473:108,1,225,2|8,0:0|0:0,0:0:0:0:
452,168,19692,2,0,P|476:201|486:244,2,75,0|8|2,0:0|0:0|0:1,0:0:0:0:
310,253,20531,6,0,P|231:265|141:231,2,150,4|2|0,0:0|0:1|0:0,0:0:0:0:
384,105,21790,1,2,0:1:0:0:
247,12,22210,2,0,B|229:165|109:117|45:212|45:212|166:220|129:294|275:283,1,525,4|0,0:0|0:0,0:0:0:0:
302,218,23888,6,0,P|384:173|514:180,1,225,2|8,0:0|0:0,0:0:0:0:
506,261,24727,2,0,P|488:312|496:392,1,112.5,2|2,0:0|0:0,0:0:0:0:
345,221,25566,2,0,P|252:251|120:224,1,225,2|8,0:0|0:0,0:0:0:0:
147,148,26405,2,0,P|167:103|159:31,1,112.5,2|2,0:0|0:0,0:0:0:0:
371,129,27245,6,0,B|387:204|387:204|363:281,1,150,2|2,0:0|0:1,0:0:0:0:
215,204,28084,2,0,B|199:279|199:279|223:356,1,150,2|2,0:0|0:1,0:0:0:0:
383,377,28923,2,0,B|404:307|404:307|388:232,2,150,2|2|2,0:0|0:0|0:0,0:0:0:0:
220,348,30182,1,2,0:1:0:0:
162,193,30601,6,0,P|83:181|-7:215,2,150,4|0|4,0:0|0:0|0:0,0:0:0:0:
299,285,31860,1,2,0:1:0:0:
451,221,32280,2,0,B|396:90|298:163|250:16|250:16|207:95|247:193,1,450,0|4,3:0|3:3,0:0:0:0:
284,321,33958,6,0,L|156:312,1,112.5,6|2,0:1|0:1,0:0:0:0:
55,356,34587,2,0,B|103:247|13:247|77:141,1,225,2|2,0:1|0:0,0:0:0:0:
223,62,35636,6,0,L|360:87,2,112.5,2|0|0,0:0|0:0|0:0,0:0:0:0:
159,114,36475,2,0,L|22:139,2,112.5,2|0|0,0:0|0:0|0:0,0:0:0:0:
222,167,37315,2,0,L|371:196,2,150,2|2|0,0:0|0:0|0:0,0:0:0:0:
222,167,38993,6,0,L|205:307,2,112.5,2|0|0,0:0|0:0|0:0,0:0:0:0:
288,117,39832,2,0,L|271:-23,2,112.5,2|0|0,0:0|0:0|0:0,0:0:0:0:
353,167,40671,5,6,0:1:0:0:
459,103,40986,1,2,0:1:0:0:
487,224,41301,1,2,0:1:0:0:
359,328,41720,5,6,0:1:0:0:
237,304,42035,1,2,0:1:0:0:
115,280,42350,1,0,3:0:0:0:
117,260,44028,5,4,0:0:0:0:
118,243,45706,6,0,L|86:111,2,112.5,6|2|2,0:1|0:1|0:1,0:0:0:0:
195,270,46545,2,0,L|221:379,2,112.5,6|2|2,0:1|0:1|0:1,0:0:0:0:
250,208,47385,1,0,0:0:0:0:
256,192,47489,12,2,49902,0:0:0:0:
187,150,50741,6,0,P|263:167|344:159,1,150,4|0,0:0|0:0,0:0:0:0:
405,118,51371,1,8,0:0:0:0:
464,174,51580,2,0,P|481:250|473:331,1,150,0|0,0:0|0:0,0:0:0:0:
406,367,52210,1,8,0:0:0:0:
327,341,52419,2,0,P|263:346|200:370,2,112.5,2|0|8,0:0|0:0|0:0,0:0:0:0:
388,285,53259,1,0,0:0:0:0:
287,154,53678,6,0,P|221:168|121:145,2,150,8|4|0,0:0|0:0|0:0,0:0:0:0:
334,86,54727,1,8,0:0:0:0:
291,15,54937,2,0,P|225:1|125:24,1,150,2|2,0:0|0:0,0:0:0:0:
52,152,55776,1,4,0:0:0:0:
63,233,55986,2,0,L|82:394,2,150
167,105,57245,5,4,3:0:0:0:
167,105,57454,2,0,L|311:123,1,112.5,4|10,0:0|0:0,0:0:0:0:
285,243,58084,1,10,0:0:0:0:
285,243,58293,2,0,L|141:261,1,112.5,2|10,0:0|0:0,0:0:0:0:
88,347,58923,1,10,0:0:0:0:
88,347,59132,2,0,L|232:365,1,112.5,6|10,0:0|0:0,0:0:0:0:
323,361,59762,1,10,0:0:0:0:
345,281,59972,2,0,L|334:145,2,112.5,2|10|10,0:0|0:0|0:0,0:0:0:0:
182,252,61021,6,0,L|102:264,2,75,2|10|2,0:0|0:0|0:0,0:0:0:0:
228,183,61650,2,0,P|234:84|227:44,2,112.5,8|8|8,0:0|0:0|0:0,0:0:0:0:
266,255,62489,2,0,P|329:294|413:135,1,300,2|2,0:0|0:0,0:0:0:0:
288,43,63748,1,2,0:0:0:0:
288,43,63958,1,2,0:0:0:0:
288,43,64168,6,0,P|217:63|128:36,1,150,4|0,0:0|0:0,0:0:0:0:
73,3,64798,1,8,0:0:0:0:
8,54,65007,2,0,P|-9:126|10:197,1,150,0|0,0:0|0:0,0:0:0:0:
92,211,65637,1,8,0:0:0:0:
138,279,65846,2,0,P|156:328|208:380,2,112.5,2|0|8,0:0|0:0|0:0,0:0:0:0:
175,204,66686,1,0,0:0:0:0:
335,241,67105,6,0,L|437:254,1,75,8|8,0:0|0:0,0:0:0:0:
483,213,67524,2,0,P|511:169|475:62,1,150,4|0,0:0|0:0,0:0:0:0:
409,81,68154,1,8,0:0:0:0:
343,31,68364,2,0,P|259:16|177:40,1,150,2|2,0:0|0:0,0:0:0:0:
123,177,69203,1,4,0:0:0:0:
63,233,69412,2,0,L|21:381,2,150,8|0|0,0:0|0:0|0:0,0:0:0:0:
123,177,70461,2,0,P|198:199|280:188,1,150,4|4,3:0|0:0,0:0:0:0:
390,165,71196,6,0,P|402:223|380:315,2,150,0|0|0,3:3|3:3|3:3,0:0:0:0:
225,175,72454,2,0,P|213:117|235:25,2,150,0|0|0,3:3|3:3|3:3,0:0:0:0:
376,241,73713,2,0,P|402:205|308:112,1,187.5,0|6,3:3|0:0,0:0:0:0:
328,108,75496,5,2,0:3:0:0:
328,108,75706,1,2,0:3:0:0:
328,108,75916,2,0,L|195:96,1,112.5,0|2,0:0|0:1,0:0:0:0:
157,155,76440,2,0,L|61:161,2,75,0|2|2,0:0|0:1|0:0,0:0:0:0:
227,199,77070,2,0,L|323:205,1,75,2|2,0:1|0:0,0:0:0:0:
371,158,77489,2,0,L|467:164,1,75,2|2,0:1|0:0,0:0:0:0:
489,92,77909,6,0,L|446:5,1,75,2|2,0:1|0:0,0:0:0:0:
372,21,78329,2,0,L|318:101,1,75,2|2,0:1|0:0,0:0:0:0:
371,158,78748,2,0,L|467:164,1,75,2|2,0:1|0:0,0:0:0:0:
489,92,79168,1,2,0:1:0:0:
396,276,79692,6,0,B|324:271|281:191|281:191|207:239|132:207,2,300,6|2|2,0:1|0:1|0:1,0:0:0:0:
496,144,81790,2,0,P|435:123|338:140,1,150,4|4,3:0|3:0,0:0:0:0:
245,259,82629,6,0,P|161:250|125:211,1,112.5,4|8,0:0|0:0,0:0:0:0:
121,111,83259,1,8,0:0:0:0:
174,48,83468,2,0,P|258:57|294:96,1,112.5,4|8,0:0|0:0,0:0:0:0:
298,196,84098,1,8,0:0:0:0:
245,259,84308,2,0,P|161:250|125:211,1,112.5,4|8,0:0|0:0,0:0:0:0:
121,111,84938,1,8,0:0:0:0:
174,48,85147,2,0,P|266:72|299:129,1,150,4|2,0:0|0:0,0:0:0:0:
338,183,85776,1,8,0:0:0:0:
345,265,85986,6,0,B|181:373|50:343|-7:263|-18:204|-1:145|40:112|98:109|130:153|150:187|99:242,1,600,4|4,0:0|0:0,0:0:0:0:
229,230,88713,5,2,0:0:0:0:
229,230,88923,2,0,B|204:180|206:132|229:99|273:113,1,150,2|0,0:1|0:0,0:0:0:0:
