osu file format v14

[General]
AudioFilename: audio.mp3
AudioLeadIn: 0
PreviewTime: 50322
Countdown: 0
SampleSet: Soft
StackLeniency: 0.3
Mode: 0
LetterboxInBreaks: 0
WidescreenStoryboard: 1

[Editor]
Bookmarks: 13818,23888,35426,40671,42350,45706,50741,57454,64168,70881,75496,75916,79692,82629
DistanceSpacing: 0.1
BeatDivisor: 4
GridSize: 16
TimelineZoom: 3.000002

[Metadata]
Title:Stalemate! (TV Size)
TitleUnicode:すているめいと!(TV Size)
Artist:IOSYS jk Girls
ArtistUnicode:イオシスjkガールズ
Creator:IceKalt
Version:Insane!
Source:ディーふらぐ!
Tags:anime d-fragments opening shanipika mirash naotoshi nao_tomori alternate
BeatmapID:1629306
BeatmapSetID:774580

[Difficulty]
HPDrainRate:5
CircleSize:4
OverallDifficulty:7.1
ApproachRate:8.9
SliderMultiplier:2
SliderTickRate:1

[Events]
//Background and Video events
0,0,"d-frag.jpg",0,0
//Break Periods
//Storyboard Layer 0 (Background)
//Storyboard Layer 1 (Fail)
//Storyboard Layer 2 (Pass)
//Storyboard Layer 3 (Foreground)
//Storyboard Sound Samples

[TimingPoints]
392,419.58041958042,4,2,1,55,1,0
392,-83.3333333333333,4,2,1,55,0,0
5426,-83.3333333333333,4,2,1,65,0,0
6475,-111.111111111111,4,2,1,70,0,0
7105,-76.9230769230769,4,2,1,60,0,0
8783,-90.9090909090909,4,2,1,50,0,0
10461,-76.9230769230769,4,2,1,60,0,0
12140,-90.9090909090909,4,2,1,70,0,0
13818,-66.6666666666667,4,2,1,60,0,0
17594,-55.5555555555556,4,2,1,60,0,0
18014,-66.6666666666667,4,2,1,60,0,0
18433,-55.5555555555556,4,2,1,60,0,0
18853,-66.6666666666667,4,2,1,60,0,0
20112,-55.5555555555556,4,2,1,60,0,0
20531,-76.9230769230769,4,2,1,60,0,0
22210,-66.6666666666667,4,2,1,60,0,0
23888,-71.4285714285714,4,2,1,50,0,0
30601,-90.9090909090909,4,2,1,60,0,0
33119,-90.9090909090909,4,2,1,65,0,0
33958,-62.5,4,2,1,70,0,0
35426,-100,4,2,1,45,0,0
40671,-66.6666666666667,4,2,1,70,0,0
45706,-58.8235294117647,4,2,1,70,0,0
50741,-62.5,4,2,1,70,0,0
57454,-66.6666666666667,4,2,1,60,0,0
64168,-58.8235294117647,4,2,1,70,0,0
70881,-83.3333333333333,4,2,1,40,0,0
74238,-100,4,2,1,60,0,0
75496,-66.6666666666667,4,2,1,60,0,0
77804,-58.8235294117647,4,2,1,70,0,0
78748,-58.8235294117647,4,2,1,80,0,0
79587,-58.8235294117647,4,2,1,5,0,0
79692,-66.6666666666667,4,2,1,60,0,0
82629,-62.5,4,2,1,70,0,0
83468,-60.6060606060606,4,2,1,70,0,0
84308,-58.8235294117647,4,2,1,70,0,0
85147,-57.1428571428571,4,2,1,70,0,0
89343,-57.1428571428571,4,2,1,5,0,0

[Colours]
Combo1 : 225,118,0
Combo2 : 255,55,165
Combo3 : 48,172,233
Combo4 : 224,233,67

[HitObjects]
244,179,392,6,0,P|205:210|137:218,1,119.999996337891,4|0,3:3|3:3,0:0:0:0:
227,168,706,2,0,P|252:126|255:54,1,119.999996337891,0|0,3:3|3:3,0:0:0:0:
208,159,1021,2,0,P|161:175|93:159,1,119.999996337891,0|0,3:3|3:3,0:0:0:0:
147,46,1336,2,0,P|180:75|127:82,1,119.999996337891,2|0,3:1|3:3,0:0:0:0:
13,26,1650,2,0,P|45:31|92:17,1,59.9999981689454,0|0,3:3|3:3,0:0:0:0:
226,0,1860,2,0,P|247:-2|285:6,1,59.9999981689454,0|0,3:3|3:3,0:0:0:0:
374,134,2070,6,0,P|335:103|266:95,1,119.999996337891,4|0,3:3|3:3,0:0:0:0:
357,144,2384,2,0,P|382:186|384:258,1,119.999996337891,0|0,3:3|3:3,0:0:0:0:
338,154,2699,2,0,P|291:137|223:154,1,119.999996337891,0|0,3:3|3:3,0:0:0:0:
277,267,3014,2,0,P|310:238|257:231,1,119.999996337891,2|0,3:1|3:3,0:0:0:0:
136,280,3328,2,0,P|168:285|215:271,1,59.9999981689454,0|0,3:3|3:3,0:0:0:0:
338,330,3538,2,0,P|355:318|379:287,1,59.9999981689454,0|0,3:3|3:3,2:0:0:0:
470,192,3748,6,0,P|404:205|327:150,1,119.999996337891,4|0,3:3|3:3,0:0:0:0:
319,98,4063,2,0,P|264:78|169:93,1,119.999996337891,0|0,3:3|3:3,0:0:0:0:
116,196,4378,2,0,L|101:61,1,119.999996337891,0|0,3:3|3:3,0:0:0:0:
238,285,4692,2,0,L|253:150,1,119.999996337891,0|8,3:3|3:3,0:0:0:0:
49,238,5007,5,8,3:3:0:0:
49,286,5112,1,8,3:3:0:0:
73,327,5217,1,8,3:3:0:0:
115,348,5322,1,8,3:3:0:0:
162,345,5426,6,0,P|201:355|230:385,3,59.9999981689454,4|4|4|4,3:3|3:3|3:3|3:3,0:0:0:0:
354,318,5846,2,0,P|315:308|286:278,3,59.9999981689454,4|4|4|4,3:3|3:3|3:3|3:3,0:0:0:0:
290,196,6266,1,4,3:3:0:0:
200,194,6475,6,0,B|159:190|148:152|148:152|255:146|297:204,1,224.999993133545,2|0,0:1|0:0,0:0:0:0:
290,196,7105,6,0,P|311:166|320:124,1,64.9999970245363,6|0,0:1|0:0,0:0:0:0:
342,66,7315,2,0,P|321:96|312:138,1,64.9999970245363,0|0,0:0|0:0,0:0:0:0:
448,173,7524,2,0,P|384:181|327:153,1,129.999994049073,2|0,0:0|0:0,0:0:0:0:
243,277,7839,2,0,P|306:285|363:256,1,129.999994049073,2|0,0:1|0:0,0:0:0:0:
372,339,8154,2,0,P|381:305|378:269,1,64.9999970245363,0|0,0:0|0:0,0:0:0:0:
452,333,8364,2,0,P|431:304|402:283,1,64.9999970245363,2|0,0:0|0:0,0:0:0:0:
379,156,8678,1,0,0:0:0:0:
379,156,8783,6,0,P|347:181|281:166,1,110.000003356934,2|0,0:0|0:0,0:0:0:0:
187,180,9098,1,0,0:0:0:0:
187,180,9203,2,0,P|219:155|285:170,1,110.000003356934,2|0,0:0|0:0,0:0:0:0:
298,277,9517,1,0,0:0:0:0:
298,277,9622,2,0,L|280:146,1,110.000003356934,2|0,0:0|0:0,0:0:0:0:
215,266,9937,2,0,P|123:261|94:195,1,165.000005035401,2|0,0:0|0:0,0:0:0:0:
139,18,10461,6,0,P|136:56|118:84,1,64.9999970245363,6|0,0:1|0:0,0:0:0:0:
67,128,10671,2,0,P|103:116|126:92,1,64.9999970245363,0|0,0:0|0:0,0:0:0:0:
222,125,10881,2,0,P|188:97|91:93,1,129.999994049073,2|0,0:0|0:0,0:0:0:0:
186,237,11196,2,0,P|220:209|317:205,1,129.999994049073,2|0,0:1|0:0,0:0:0:0:
374,160,11510,2,0,P|352:186|320:198,1,64.9999970245363,0|0,0:0|0:0,0:0:0:0:
367,262,11720,2,0,P|337:244|320:215,1,64.9999970245363,4|4,3:0|3:0,0:0:0:0:
340,75,11930,1,4,3:0:0:0:
340,75,12035,1,4,3:0:0:0:
340,75,12140,6,0,L|511:104,2,165.000005035401,6|2|2,0:1|0:1|0:1,0:0:0:0:
264,120,12979,2,0,P|198:126|290:29,1,330.000010070801,6|0,0:1|0:0,0:0:0:0:
149,129,13818,6,0,P|129:191|140:293,1,150.000005722046,4|8,0:0|0:0,0:0:0:0:
354,277,14238,2,0,P|292:319|220:336,1,150.000005722046,0|8,0:0|0:0,0:0:0:0:
285,153,14657,2,0,L|241:214,1,75.0000028610231,2|0,0:0|0:0,0:0:0:0:
361,109,14867,1,10,0:0:0:0:
361,109,14972,2,0,L|288:127,1,75.0000028610231,2|0,0:0|0:0,0:0:0:0:
447,121,15182,2,2,L|379:88,1,75.0000028610231,0|10,0:0|0:0,0:0:0:0:
478,266,15392,1,0,0:0:0:0:
478,266,15496,6,0,P|401:246|347:195,1,150.000005722046,4|8,0:0|0:0,0:0:0:0:
137,291,15916,2,0,P|192:234|263:213,1,150.000005722046,0|8,0:0|0:0,0:0:0:0:
247,65,16336,2,0,L|291:125,1,75.0000028610231,2|0,0:0|0:0,0:0:0:0:
171,20,16546,1,10,0:0:0:0:
171,20,16651,2,0,L|243:38,1,75.0000028610231,2|0,0:0|0:0,0:0:0:0:
85,32,16861,1,2,0:0:0:0:
85,32,16966,2,0,L|152:0,1,75.0000028610231,10|0,0:0|0:0,0:0:0:0:
69,162,17175,6,0,B|125:213|125:213|150:142,1,150.000005722046,4|8,0:0|0:0,0:0:0:0:
168,336,17594,2,0,P|138:255|200:272,1,179.999994506836,2|0,0:1|0:0,0:0:0:0:
442,162,18014,2,0,B|387:213|387:213|362:142,1,150.000005722046,2|8,0:0|0:0,0:0:0:0:
344,336,18433,2,0,P|374:255|312:272,1,179.999994506836,2|0,0:1|0:0,0:0:0:0:
255,194,18853,6,0,L|255:119,2,75.0000028610231,2|0|8,0:0|0:0|0:0,0:0:0:0:
219,271,19168,1,2,0:0:0:0:
219,271,19273,2,0,L|135:286,1,75.0000028610231,0|0,0:0|0:0,0:0:0:0:
283,335,19482,2,0,L|367:350,1,75.0000028610231,8|0,0:0|0:0,0:0:0:0:
455,270,19693,2,0,B|430:198|430:198|374:249,1,150.000005722046,0|8,0:0|0:0,0:0:0:0:
472,75,20112,2,0,P|442:156|504:139,1,179.999994506836,2|0,0:1|0:0,0:0:0:0:
317,54,20531,6,0,P|257:35|195:53,1,129.999994049073,4|0,0:0|0:0,0:0:0:0:
193,175,20846,1,0,0:0:0:0:
193,175,20951,2,0,P|212:115|194:53,1,129.999994049073,2|0,0:1|0:0,0:0:0:0:
275,241,21371,2,0,P|328:207|354:148,1,129.999994049073,0|0,0:0|0:0,0:0:0:0:
447,226,21685,1,0,0:0:0:0:
447,226,21790,2,0,P|412:172|353:146,1,129.999994049073,2|0,0:1|0:0,0:0:0:0:
147,336,22210,6,0,L|321:321,1,150.000005722046,4|10,0:0|0:0,0:0:0:0:
119,261,22524,2,0,L|242:137,1,150.000005722046,0|2,0:0|0:0,0:0:0:0:
54,216,22839,2,0,L|64:96,1,75.0000028610231,8|0,0:0|0:0,0:0:0:0:
47,12,23049,5,4,0:3:0:0:
75,64,23154,1,4,0:3:0:0:
120,90,23259,1,4,0:3:0:0:
164,93,23364,1,4,0:3:0:0:
200,82,23469,1,4,0:3:0:0:
229,78,23573,1,4,0:3:0:0:
251,80,23678,1,4,0:3:0:0:
264,87,23783,1,4,0:3:0:0:
269,92,23888,6,0,L|286:233,1,139.999995727539,2|8,0:0|0:0,0:0:0:0:
410,162,24308,2,0,L|393:303,1,139.999995727539,0|8,0:0|0:0,0:0:0:0:
197,330,24727,2,0,L|294:335,1,69.9999978637696,2|0,0:0|0:0,0:0:0:0:
119,264,24937,1,10,0:0:0:0:
119,264,25042,2,0,L|208:301,1,69.9999978637696,2|0,0:0|0:0,0:0:0:0:
70,173,25252,2,0,L|121:220,1,69.9999978637696,0|10,2:0|2:0,0:0:0:0:
216,124,25461,1,2,2:0:0:0:
216,124,25566,6,0,L|74:85,1,139.999995727539,2|8,0:0|0:0,0:0:0:0:
326,7,25986,2,0,L|184:14,1,139.999995727539,0|8,0:0|0:0,0:0:0:0:
330,153,26405,2,0,L|335:56,1,69.9999978637696,2|0,0:0|0:0,0:0:0:0:
264,231,26615,1,10,0:0:0:0:
264,231,26720,2,0,L|301:141,1,69.9999978637696,2|0,0:0|0:0,0:0:0:0:
173,280,26930,1,2,0:0:0:0:
173,280,27035,2,0,L|239:208,1,69.9999978637696,10|0,0:0|0:0,0:0:0:0:
319,351,27245,5,2,0:0:0:0:
319,351,27350,1,0,0:0:0:0:
319,351,27454,2,0,L|249:338,1,69.9999978637696,8|0,0:0|0:0,0:0:0:0:
250,338,27664,2,0,P|200:372|112:355,1,139.999995727539,2|0,0:1|0:0,0:0:0:0:
56,240,28084,5,2,0:0:0:0:
56,240,28189,1,0,0:0:0:0:
56,240,28293,2,0,L|126:227,1,69.9999978637696,8|0,0:0|0:0,0:0:0:0:
125,227,28503,2,0,P|175:261|263:244,1,139.999995727539,2|0,0:1|0:0,0:0:0:0:
321,136,28923,5,2,0:0:0:0:
321,136,29028,2,0,L|251:123,1,69.9999978637696,0|8,0:0|0:0,0:0:0:0:
185,34,29238,1,2,0:0:0:0:
185,34,29343,1,0,0:0:0:0:
185,34,29447,2,0,L|255:21,1,69.9999978637696,0|8,0:0|0:0,0:0:0:0:
330,152,29657,1,0,0:0:0:0:
330,152,29762,2,0,L|260:139,1,69.9999978637696,2|0,0:0|0:0,0:0:0:0:
179,51,29972,2,0,L|249:38,1,69.9999978637696,8|0,0:0|0:0,0:0:0:0:
379,27,30182,2,0,P|317:52|240:33,1,139.999995727539,2|0,0:1|0:0,0:0:0:0:
90,0,30601,6,0,P|101:94|32:34,2,220.000006713867,4|0|4,0:0|0:0|0:0,0:0:0:0:
133,105,31860,2,0,P|140:154|121:215,1,110.000003356934,2|0,0:1|0:0,0:0:0:0:
28,338,32280,6,0,P|35:307|57:276,3,55.0000016784668,0|0|0|0,3:0|3:0|3:0|3:0,0:0:0:0:
185,294,32699,2,0,P|210:274|247:265,3,55.0000016784668,0|0|0|0,3:0|3:0|3:0|3:0,0:0:0:0:
286,158,33119,5,4,3:0:0:0:
319,158,33224,1,4,3:0:0:0:
355,176,33329,1,4,3:0:0:0:
389,202,33433,1,4,3:0:0:0:
438,206,33538,1,4,3:3:0:0:
484,177,33643,1,4,3:3:0:0:
496,117,33748,1,4,3:3:0:0:
470,56,33853,1,4,3:3:0:0:
400,39,33958,6,0,P|366:69|279:17,1,160,6|0,0:1|0:0,0:0:0:0:
129,129,34273,2,0,P|163:159|250:107,1,160,2|0,0:1|0:0,0:0:0:0:
399,224,34587,2,0,B|331:269|331:269|272:204,2,160,2|0|0,0:1|0:0|0:0,0:0:0:0:
256,349,35217,1,2,0:0:0:0:
163,373,35426,1,2,0:0:0:0:
185,279,35636,6,0,P|154:203|31:186,1,200,2|0,0:0|0:0,0:0:0:0:
191,187,36266,1,0,0:0:0:0:
252,129,36475,2,0,P|271:83|185:111,1,200,2|0,0:0|0:0,0:0:0:0:
240,268,37105,1,0,0:0:0:0:
325,245,37315,6,0,P|346:204|330:133,2,100,2|0|2,0:0|0:0|0:0,0:0:0:0:
191,341,37944,1,0,0:0:0:0:
372,346,38154,1,0,0:0:0:0:
372,346,38259,2,0,L|261:343,1,100,2|0,0:0|0:0,0:0:0:0:
65,266,38783,1,2,0:0:0:0:
41,178,38993,6,0,P|48:132|178:116,1,200,2|0,0:0|0:0,0:0:0:0:
250,245,39622,1,0,0:0:0:0:
285,164,39832,2,0,B|294:105|272:30|272:30|310:40|325:76,1,200,2|0,0:0|0:0,0:0:0:0:
428,279,40461,1,0,0:0:0:0:
350,341,40671,6,0,P|274:350|206:301,1,150.000005722046,6|0,0:1|0:0,0:0:0:0:
78,283,40986,2,0,P|154:274|222:323,1,150.000005722046,2|0,0:1|0:0,0:0:0:0:
130,380,41301,1,2,0:1:0:0:
130,380,41720,6,0,P|139:304|90:236,1,150.000005722046,6|0,0:1|0:0,0:0:0:0:
23,106,42035,2,0,P|14:182|63:250,1,150.000005722046,2|0,0:1|0:0,0:0:0:0:
189,137,42350,5,0,3:0:0:0:
511,17,44028,5,4,0:0:0:0:
153,302,45706,6,0,P|119:224|135:139,1,170.000003242493,6|0,0:1|0:0,0:0:0:0:
262,46,46021,2,0,P|183:75|133:142,1,170.000003242493,2|0,0:1|0:0,0:0:0:0:
45,282,46336,2,0,P|84:250|102:210,1,85.0000016212464,2|0,0:1|0:0,0:0:0:0:
228,156,46545,2,0,P|312:165|378:221,1,170.000003242493,6|0,0:1|0:0,0:0:0:0:
396,378,46860,2,0,P|409:295|376:218,1,170.000003242493,2|0,0:1|0:0,0:0:0:0:
204,233,47175,2,0,P|212:282|237:318,1,85.0000016212464,2|0,0:1|0:0,0:0:0:0:
396,378,47385,5,2,0:1:0:0:
487,331,47489,1,2,0:0:0:0:
480,315,47699,1,2,0:0:0:0:
474,299,47909,1,2,0:0:0:0:
467,283,48119,1,0,0:0:0:0:
355,201,48224,5,2,0:1:0:0:
329,297,48329,1,2,0:0:0:0:
311,305,48539,1,2,0:0:0:0:
292,312,48749,1,2,0:0:0:0:
274,320,48959,1,0,0:0:0:0:
138,263,49063,5,2,0:1:0:0:
192,178,49168,2,0,P|235:161|277:162,1,85.0000016212464,2|0,0:0|0:0,0:0:0:0:
418,113,49378,2,0,P|379:97|337:97,1,85.0000016212464,2|0,0:0|0:0,0:0:0:0:
193,49,49587,2,0,P|236:32|278:33,1,85.0000016212464,2|0,0:0|0:0,0:0:0:0:
364,184,49797,1,0,0:0:0:0:
364,184,49902,2,0,P|388:277|264:262,1,255.000004863739,2|0,0:1|0:0,0:0:0:0:
148,285,50322,6,0,P|168:245|175:199,1,85.0000016212464,2|0,0:0|0:0,0:0:0:0:
51,266,50531,2,0,P|46:221|57:176,1,85.0000016212464,2|0,0:0|0:0,0:0:0:0:
128,125,50741,6,0,P|197:153|283:130,1,160,4|8,0:0|0:0,0:0:0:0:
414,72,51056,1,0,0:0:0:0:
366,9,51161,2,0,L|351:173,1,160,0|8,0:0|0:0,0:0:0:0:
501,265,51580,2,0,P|432:237|346:260,1,160,0|8,0:0|0:0,0:0:0:0:
201,316,51895,1,0,0:0:0:0:
255,384,52000,2,0,P|286:308|233:237,1,160,0|8,0:0|0:0,0:0:0:0:
25,123,52419,6,0,P|31:194|100:261,1,160,2|8,0:0|0:0,0:0:0:0:
249,245,52734,2,0,L|81:257,1,160,0|0,0:0|0:0,0:0:0:0:
191,145,53049,2,0,L|282:153,1,80,8|0,0:0|0:0,0:0:0:0:
415,21,53259,2,0,P|405:99|350:154,1,160,0|8,0:0|0:0,0:0:0:0:
40,101,53678,1,8,0:0:0:0:
271,32,53888,1,8,0:0:0:0:
190,341,54098,6,0,P|160:279|262:340,1,320,4|0,0:0|0:0,0:0:0:0:
36,365,54727,1,8,0:0:0:0:
154,106,54937,2,0,P|173:179|161:265,1,160,2|8,0:0|0:0,0:0:0:0:
6,269,55252,1,0,0:0:0:0:
6,269,55357,2,0,P|79:250|165:262,1,160,2|8,0:0|0:0,0:0:0:0:
346,368,55776,6,0,P|333:331|332:291,1,80,4|0,0:0|0:0,0:0:0:0:
422,141,55986,1,10,0:0:0:0:
364,341,56196,2,0,P|351:304|350:264,1,80
422,141,56405,1,10,0:0:0:0:
381,323,56615,2,0,P|368:286|367:246,1,80
422,141,56825,1,10,0:0:0:0:
295,301,57035,5,4,3:0:0:0:
257,270,57140,1,4,3:0:0:0:
239,225,57245,1,4,3:0:0:0:
241,177,57350,1,4,3:0:0:0:
265,137,57454,6,0,P|208:159|121:103,1,150.000005722046,4|8,0:0|0:0,0:0:0:0:
0,107,57769,2,0,P|57:85|144:141,1,150.000005722046,10|0,0:0|0:0,0:0:0:0:
23,239,58084,1,10,0:0:0:0:
23,239,58294,2,0,P|90:266|174:221,1,150.000005722046,2|8,0:0|0:0,0:0:0:0:
295,239,58608,2,0,P|228:266|144:221,1,150.000005722046,10|0,0:0|0:0,0:0:0:0:
207,77,58923,1,10,0:0:0:0:
207,77,59133,6,0,L|365:95,1,150.000005722046,6|8,0:0|0:0,0:0:0:0:
505,77,59447,2,0,L|347:95,1,150.000005722046,10|0,0:0|0:0,0:0:0:0:
441,256,59762,1,10,0:0:0:0:
441,256,59972,2,0,P|368:274|291:238,1,150.000005722046,2|8,0:0|0:0,0:0:0:0:
258,112,60287,2,0,P|257:185|299:246,1,150.000005722046,10|0,0:0|0:0,0:0:0:0:
510,191,60601,1,10,0:0:0:0:
510,191,61021,6,0,P|472:164|421:154,1,75.0000028610231,2|0,0:0|0:0,0:0:0:0:
368,277,61231,2,0,P|410:257|444:218,1,75.0000028610231,10|0,0:0|0:0,0:0:0:0:
365,111,61440,2,0,P|360:157|377:206,1,75.0000028610231,2|0,0:0|0:0,0:0:0:0:
462,45,61650,1,8,0:0:0:0:
462,45,61755,2,0,L|336:23,1,75.0000028610231,2|0,0:0|0:0,0:0:0:0:
227,57,61965,2,0,L|353:35,1,75.0000028610231,8|2,0:0|0:0,0:0:0:0:
269,170,62175,1,0,0:0:0:0:
242,169,62280,1,8,0:0:0:0:
229,176,62385,1,2,0:0:0:0:
217,183,62489,6,0,P|121:164|132:42,1,225.000008583069,2|0,0:0|0:0,0:0:0:0:
78,230,62909,2,0,P|41:247|-16:246,2,75.0000028610231,2|0|8,0:0|0:0|0:0,0:0:0:0:
236,270,63224,1,0,0:0:0:0:
236,270,63329,2,0,B|194:296|194:296|233:208|196:122,1,225.000008583069,2|0,0:0|0:0,0:0:0:0:
8,15,63748,1,2,0:0:0:0:
98,265,63958,1,2,0:0:0:0:
296,99,64168,6,0,P|240:39|157:36,1,170.000003242493,4|8,0:0|0:0,0:0:0:0:
208,207,64482,1,0,0:0:0:0:
292,225,64587,2,0,P|372:206|416:136,1,170.000003242493,0|8,0:0|0:0,0:0:0:0:
483,330,65007,2,0,L|304:306,1,170.000003242493,0|8,0:0|0:0,0:0:0:0:
161,290,65322,1,0,0:0:0:0:
185,375,65426,2,0,L|208:207,1,170.000003242493,0|8,0:0|0:0,0:0:0:0:
18,123,65846,6,0,P|91:155|195:119,1,170.000003242493,2|8,0:0|0:0,0:0:0:0:
333,145,66161,2,0,P|260:113|156:149,1,170.000003242493,0|0,0:0|0:0,0:0:0:0:
245,289,66476,6,0,L|253:200,1,85.0000016212464,8|0,0:0|0:0,0:0:0:0:
408,8,66686,2,0,P|398:86|332:145,1,170.000003242493
87,63,67105,1,8,0:0:0:0:
161,281,67315,1,8,0:0:0:0:
339,65,67524,6,0,B|256:97|194:36|194:36|209:143|99:177,1,340.000006484985,4|0,0:0|0:0,0:0:0:0:
229,372,68154,1,8,0:0:0:0:
384,179,68364,2,0,P|309:223|303:299,1,170.000003242493,2|8,0:0|0:0,0:0:0:0:
446,319,68678,1,0,0:0:0:0:
446,319,68783,2,0,P|363:345|302:298,1,170.000003242493,2|8,0:0|0:0,0:0:0:0:
304,22,69203,6,0,P|318:64|315:118,1,85.0000016212464,4|0,0:0|0:0,0:0:0:0:
174,177,69413,1,8,0:0:0:0:
335,53,69622,2,0,P|333:97|312:146,1,85.0000016212464,0|0,0:0|0:0,0:0:0:0:
174,177,69832,1,8,0:0:0:0:
354,93,70042,2,0,P|337:134|300:173,1,85.0000016212464,0|0,0:0|0:0,0:0:0:0:
174,177,70252,1,8,0:0:0:0:
347,276,70462,5,4,3:0:0:0:
306,307,70567,1,4,3:0:0:0:
255,309,70672,1,6,3:0:0:0:
206,292,70777,1,4,3:0:0:0:
157,307,70881,6,0,P|178:247|163:184,1,119.999996337891,4|0,0:0|3:3,0:0:0:0:
135,175,71196,2,0,P|130:150|132:110,1,59.9999981689454,0|0,3:3|0:0,0:0:0:0:
149,84,71405,1,2,3:3:0:0:
332,29,71615,5,0,3:3:0:0:
338,52,71825,1,2,3:3:0:0:
248,108,72035,5,0,3:3:0:0:
242,131,72245,1,2,3:3:0:0:
369,143,72454,5,0,3:3:0:0:
375,166,72664,1,2,3:3:0:0:
216,222,72874,5,0,3:3:0:0:
210,245,73084,1,2,3:3:0:0:
410,253,73294,5,0,3:3:0:0:
416,276,73504,1,2,3:3:0:0:
183,334,73713,5,0,3:3:0:0:
324,356,73923,1,2,3:3:0:0:
324,356,74028,2,0,P|273:362|242:360,1,59.9999981689454,0|0,0:0|3:3,0:0:0:0:
249,284,74238,6,0,B|254:207|184:172|184:172|279:170|343:105|340:19|295:-15|232:-16|197:11|194:58|234:68,1,500,6|0,0:0|0:0,0:0:0:0:
345,168,75496,5,2,0:3:0:0:
329,187,75601,1,2,0:3:0:0:
302,209,75706,1,2,0:3:0:0:
260,226,75811,1,2,0:3:0:0:
204,227,75916,2,0,P|167:233|128:254,1,75.0000028610231,0|0,0:0|0:0,0:0:0:0:
178,384,76126,5,8,0:0:0:0:
178,384,76231,2,0,P|237:360|194:304,1,150.000005722046,2|0,0:1|0:0,0:0:0:0:
132,167,76545,1,8,0:0:0:0:
132,167,76650,2,0,P|81:206|138:248,1,150.000005722046,2|2,0:1|0:0,0:0:0:0:
272,261,76965,1,0,0:0:0:0:
272,261,77070,2,0,P|223:235|131:250,1,150.000005722046,2|2,0:1|0:0,0:0:0:0:
411,249,77385,1,2,0:0:0:0:
411,249,77490,2,0,P|362:275|270:260,1,150.000005722046,2|2,0:1|0:0,0:0:0:0:
308,113,77804,5,2,0:0:0:0:
308,113,77909,2,0,P|327:156|324:204,1,85.0000016212464,2|0,0:1|0:0,0:0:0:0:
184,112,78119,2,0,P|165:155|168:203,1,85.0000016212464,2|2,0:0|0:0,0:0:0:0:
373,170,78329,2,0,P|359:215|326:249,1,85.0000016212464,2|0,0:1|0:0,0:0:0:0:
117,170,78538,2,0,P|130:215|163:249,1,85.0000016212464,2|2,0:0|0:0,0:0:0:0:
441,249,78748,2,0,P|401:275|354:280,1,85.0000016212464,2|0,0:1|0:0,0:0:0:0:
49,249,78958,2,0,P|88:275|135:280,1,85.0000016212464,2|2,0:0|0:0,0:0:0:0:
245,167,79168,6,0,B|290:140|343:145|343:145|265:126|244:38|119:100,1,340.000006484985,2|0,0:1|0:0,0:0:0:0:
69,299,79692,6,0,P|128:214|122:89,1,225.000008583069,6|0,0:1|0:0,0:0:0:0:
69,299,80112,2,0,P|168:271|244:172,1,225.000008583069,2|0,0:1|0:0,0:0:0:0:
69,299,80531,2,0,P|162:342|285:314,1,225.000008583069,2|0,0:1|0:0,0:0:0:0:
487,338,80951,2,0,P|393:294|270:322,1,225.000008583069,6|0,0:1|0:0,0:0:0:0:
487,338,81371,2,0,P|442:244|331:187,1,225.000008583069,2|0,0:1|0:0,0:0:0:0:
487,338,81790,2,0,P|513:237|464:122,1,225.000008583069,4|4,3:0|3:0,0:0:0:0:
359,10,82210,5,4,3:0:0:0:
331,46,82315,1,4,3:0:0:0:
285,71,82419,1,4,3:0:0:0:
225,80,82524,1,4,3:0:0:0:
158,63,82629,6,0,P|164:133|114:224,1,160,4|8,0:0|0:0,0:0:0:0:
95,361,82944,2,0,P|90:282|126:211,1,160,8|0,0:0|0:0,0:0:0:0:
288,304,83259,2,0,L|209:307,1,80,8|0,0:0|0:0,0:0:0:0:
147,56,83468,6,0,P|153:126|103:217,1,165.000001573563,4|8,0:0|0:0,0:0:0:0:
77,362,83783,2,0,P|70:291|120:200,1,165.000001573563,8|0,0:0|0:0,0:0:0:0:
288,304,84098,2,0,L|197:322,1,82.5000007867813,8|0,0:0|0:0,0:0:0:0:
137,49,84308,6,0,P|143:119|93:210,1,170.000003242493,4|8,0:0|0:0,0:0:0:0:
60,362,84623,2,0,P|53:291|103:200,1,170.000003242493,8|0,0:0|0:0,0:0:0:0:
288,304,84937,2,0,L|200:337,1,85.0000016212464,8|0,0:0|0:0,0:0:0:0:
301,218,85147,5,2,0:0:0:0:
171,131,85253,2,0,P|185:172|211:208,1,87.500000834465,4|0,0:0|0:0,0:0:0:0:
347,141,85461,2,0,P|310:128|258:138,1,87.500000834465,8|0,0:0|0:0,0:0:0:0:
442,139,85671,1,2,0:0:0:0:
425,61,85776,1,8,0:0:0:0:
359,17,85881,1,0,0:0:0:0:
281,20,85986,6,0,B|196:44|196:44|105:9,1,175.00000166893,4|8,0:0|0:0,0:0:0:0:
52,149,86301,1,0,0:0:0:0:
52,149,86405,2,0,P|46:92|58:55,1,87.500000834465,0|0,0:0|0:0,0:0:0:0:
142,255,86615,2,0,P|148:198|136:161,1,87.500000834465,8|0,0:0|0:0,0:0:0:0:
52,312,86825,5,4,3:0:0:0:
68,332,86930,1,4,3:0:0:0:
98,350,87035,1,4,3:0:0:0:
141,349,87140,1,4,3:0:0:0:
190,330,87245,1,4,3:3:0:0:
238,292,87350,1,4,3:3:0:0:
306,279,87454,1,4,3:3:0:0:
380,305,87559,1,4,3:3:0:0:
434,373,87664,6,0,P|418:300|459:201,1,175.00000166893,4|8,0:0|0:0,0:0:0:0:
470,44,87979,2,0,P|486:117|445:216,1,175.00000166893,2|2,0:0|0:0,0:0:0:0:
266,105,88294,2,0,P|362:52|369:162,1,262.500002503395,2|0,0:0|0:0,0:0:0:0:
205,192,88713,6,0,P|260:196|290:181,1,87.500000834465,2|0,0:0|0:0,0:0:0:0:
173,76,88923,2,0,B|163:136|99:151|99:151|170:267|45:364,1,350.00000333786,2|0,0:1|0:0,0:0:0:0:
