osu file format v14

[General]
AudioFilename: audio.mp3
AudioLeadIn: 0
PreviewTime: 50322
Countdown: 0
SampleSet: Soft
StackLeniency: 0.3
Mode: 0
LetterboxInBreaks: 0
WidescreenStoryboard: 1

[Editor]
Bookmarks: 13818,23888,35426,40671,42350,45706,50741,57454,64168,70881,75496,75916,79692,82629
DistanceSpacing: 1.1
BeatDivisor: 4
GridSize: 16
TimelineZoom: 3.000002

[Metadata]
Title:Stalemate! (TV Size)
TitleUnicode:すているめいと!(TV Size)
Artist:IOSYS jk Girls
ArtistUnicode:イオシスjkガールズ
Creator:IceKalt
Version:Advanced!
Source:ディーふらぐ!
Tags:anime d-fragments opening shanipika mirash naotoshi nao_tomori alternate
BeatmapID:1628496
BeatmapSetID:774580

[Difficulty]
HPDrainRate:4.3
CircleSize:3.5
OverallDifficulty:5
ApproachRate:6.5
SliderMultiplier:1.7
SliderTickRate:1

[Events]
//Background and Video events
0,0,"d-frag.jpg",0,0
//Break Periods
//Storyboard Layer 0 (Background)
//Storyboard Layer 1 (Fail)
//Storyboard Layer 2 (Pass)
//Storyboard Layer 3 (Foreground)
//Storyboard Sound Samples

[TimingPoints]
392,419.58041958042,4,2,1,55,1,0
392,-100,4,2,1,55,0,0
1336,-100,4,2,1,55,0,0
1650,-100,4,2,1,55,0,0
2070,-100,4,2,1,55,0,0
3014,-100,4,2,1,55,0,0
3329,-100,4,2,1,55,0,0
3748,-100,4,2,1,55,0,0
6056,-100,4,2,1,55,0,0
6475,-100,4,2,1,70,0,0
7105,-100,4,2,1,60,0,0
8783,-100,4,2,1,50,0,0
10461,-100,4,2,1,60,0,0
12140,-100,4,2,1,60,0,0
13818,-100,4,2,1,55,0,0
20531,-100,4,2,1,55,0,0
22210,-100,4,2,1,55,0,0
23049,-100,4,2,1,55,0,0
23783,-100,4,2,1,5,0,0
23888,-100,4,2,1,45,0,0
30601,-100,4,2,1,60,0,0
33958,-100,4,2,1,70,0,0
35426,-100,4,2,1,70,0,0
35636,-100,4,2,1,40,0,0
40671,-100,4,2,1,60,0,0
41720,-100,4,2,1,70,0,0
44028,-100,4,2,1,70,0,0
44447,-100,4,2,1,70,0,0
45706,-100,4,2,1,70,0,0
47385,-100,4,2,1,70,0,0
49063,-100,4,2,1,70,0,0
50741,-100,4,2,1,70,0,0
57454,-100,4,2,1,60,0,0
59972,-100,4,2,1,60,0,0
63329,-100,4,2,1,60,0,0
63748,-100,4,2,1,60,0,0
64168,-100,4,2,1,70,0,0
70881,-100,4,2,1,40,0,0
73923,-100,4,2,1,40,0,0
74238,-100,4,2,1,60,0,0
75916,-100,4,2,1,60,0,0
77804,-100,4,2,1,70,0,0
77909,-100,4,2,1,70,0,0
78748,-100,4,2,1,70,0,0
79587,-100,4,2,1,5,0,0
79692,-100,4,2,1,60,0,0
82629,-100,4,2,1,70,0,0
83468,-100,4,2,1,70,0,0
84308,-100,4,2,1,70,0,0
85147,-100,4,2,1,70,0,0
85986,-100,4,2,1,70,0,0
87664,-100,4,2,1,70,0,0
89343,-100,4,2,1,5,0,0

[Colours]
Combo1 : 225,118,0
Combo2 : 255,55,165
Combo3 : 48,172,233
Combo4 : 224,233,67

[HitObjects]
194,208,392,6,0,P|127:211|63:195,2,127.5,4|0|0,3:3|3:3|3:3,0:0:0:0:
331,178,1336,2,0,P|311:125|243:147,1,127.5,2|0,3:1|3:3,0:0:0:0:
194,208,1860,1,0,3:3:0:0:
253,280,2070,2,0,P|312:295|382:271,2,127.5,4|0|0,3:3|3:3|3:3,0:0:0:0:
115,307,3014,2,0,P|70:257|126:217,1,127.5,2|0,3:1|3:3,0:0:0:0:
194,208,3538,1,0,3:3:0:0:
268,150,3748,6,0,P|261:92|226:43,2,85,4|0|0,3:3|3:3|3:3,0:0:0:0:
328,222,4378,2,0,P|335:280|370:329,2,85,2|0|0,3:3|3:3|3:3,0:0:0:0:
249,272,5007,2,0,P|209:288|167:291,1,85,2|0,3:3|3:3,3:3:0:0:
80,257,5426,2,0,P|73:315|22:380,2,127.5,2|2|2,3:3|3:3|3:3,3:3:0:0:
33,175,6266,1,0,3:3:0:0:
127,177,6475,1,4,3:3:0:0:
127,177,7105,6,0,L|241:182,1,85,6|0,0:1|0:0,0:0:0:0:
290,130,7524,2,0,P|292:99|211:105,2,127.5,2|2|0,0:0|0:1|0:0,0:0:0:0:
296,223,8364,1,2,0:0:0:0:
152,342,8783,6,0,P|128:274|131:233,1,85,2|0,0:0|0:0,0:0:0:0:
137,215,9098,1,0,0:0:0:0:
172,184,9203,2,0,P|196:116|193:75,1,85,2|0,0:0|0:0,0:0:0:0:
178,12,9622,2,0,P|252:7|348:36,1,170,2|0,0:0|0:0,0:0:0:0:
384,216,10461,6,0,L|270:221,1,85,6|0,0:1|0:0,0:0:0:0:
221,169,10880,2,0,P|219:138|300:144,2,127.5,2|2|0,0:0|0:1|0:0,0:0:0:0:
215,262,11720,1,4,3:0:0:0:
384,341,12140,2,0,P|407:273|391:199,2,127.5,6|2|2,0:1|0:1|0:1,0:0:0:0:
292,361,12979,2,0,B|257:327|201:321|182:411|82:388|81:304|115:266|156:269,1,255,6|0,0:1|0:0,0:0:0:0:
167,197,13818,6,0,P|133:189|71:202,2,85,4|8|0,0:0|0:0|0:0,0:0:0:0:
243,251,14447,1,8,0:0:0:0:
296,174,14657,2,0,P|306:98|279:31,2,127.5,2|2|10,0:0|0:0|0:0,0:0:0:0:
335,258,15496,2,0,P|369:266|431:253,2,85,4|8|0,0:0|0:0|0:0,0:0:0:0:
296,174,16126,1,8,0:0:0:0:
343,93,16336,2,0,P|413:83|470:100,2,127.5,2|2|10,0:0|0:0|0:0,0:0:0:0:
249,92,17175,6,0,L|157:77,1,85,4|8,0:0|0:0,0:0:0:0:
74,102,17594,2,0,P|66:146|81:208,1,85,2|0,0:1|0:0,0:0:0:0:
151,235,18014,2,0,L|243:220,1,85,2|8,0:0|0:0,0:0:0:0:
324,249,18433,2,0,P|332:293|317:355,1,85,2|0,0:1|0:0,0:0:0:0:
237,364,18853,2,0,B|153:339|162:395|70:361,1,170,2|0,0:0|0:0,0:0:0:0:
20,282,19482,1,8,0:0:0:0:
80,210,19692,2,0,P|83:168|72:104,1,85,0|8,0:0|0:0,0:0:0:0:
34,42,20112,2,0,L|140:34,1,85,0|8,0:0|0:0,0:0:0:0:
206,72,20531,6,0,P|278:86|365:51,1,170,4|2,0:0|0:1,0:0:0:0:
486,193,21371,2,0,P|414:207|327:172,1,170,0|2,0:0|0:1,0:0:0:0:
209,318,22210,2,0,P|280:346|364:337,2,127.5,4|0|8,0:0|0:0|0:0,0:0:0:0:
138,258,23049,1,8,0:0:0:0:
138,258,23888,6,0,P|111:202|108:155,2,85,2|8|0,0:0|0:0|0:0,0:0:0:0:
226,289,24517,1,8,0:0:0:0:
302,235,24727,2,0,P|363:224|434:238,2,127.5,2|2|10,0:0|0:0|2:0,0:0:0:0:
215,198,25566,2,0,P|203:154|209:110,2,85,2|8|0,0:0|0:0|0:0,0:0:0:0:
302,235,26196,1,8,0:0:0:0:
370,171,26405,2,0,P|364:104|321:40,2,127.5,2|2|10,0:0|0:0|0:0,0:0:0:0:
388,263,27245,6,0,L|209:273,1,170,2|2,0:0|0:1,0:0:0:0:
95,131,28084,2,0,L|274:141,1,170,2|2,0:0|0:1,0:0:0:0:
440,204,28923,2,0,P|476:132|472:19,2,170,2|2|2,0:0|0:0|0:0,0:0:0:0:
258,251,30182,1,2,0:1:0:0:
304,70,30601,6,0,P|234:117|152:141,1,170,4|0,0:0|0:0,0:0:0:0:
20,274,31440,2,0,P|89:321|171:345,1,170,4|2,0:0|0:1,0:0:0:0:
356,374,32280,2,0,B|311:304|346:222|346:222|456:175|453:61|388:15|301:17|280:108|339:123,1,510,0|4,3:0|3:3,0:0:0:0:
164,193,33958,6,0,P|125:142|108:63,2,127.5,6|2|2,0:1|0:1|0:1,0:0:0:0:
299,141,35007,1,0,0:0:0:0:
299,141,35216,1,2,0:0:0:0:
348,223,35426,5,2,0:0:0:0:
348,223,35636,2,0,P|442:211|493:158,1,170,2|0,0:0|0:0,0:0:0:0:
444,78,36266,1,0,0:0:0:0:
444,78,36476,2,0,P|350:90|299:143,1,170,2|0,0:0|0:0,0:0:0:0:
252,222,37105,1,0,0:0:0:0:
252,222,37315,2,0,P|190:278|107:285,1,170,2|2,0:0|0:0,0:0:0:0:
30,115,38154,2,0,P|91:58|174:51,1,170,0|0,0:0|0:0,0:0:0:0:
246,111,38783,1,2,0:0:0:0:
246,111,38993,6,0,P|304:129|412:98,1,170,2|0,0:0|0:0,0:0:0:0:
459,179,39622,1,0,0:0:0:0:
459,179,39832,2,0,P|405:207|350:305,1,170,2|0,0:0|0:0,0:0:0:0:
274,352,40461,1,0,0:0:0:0:
274,352,40671,5,6,0:1:0:0:
207,228,40986,1,2,0:1:0:0:
131,346,41301,1,2,0:1:0:0:
75,167,41720,5,6,0:1:0:0:
210,131,42035,1,2,0:1:0:0:
342,177,42350,1,0,3:0:0:0:
342,177,44028,5,4,0:0:0:0:
342,177,45706,6,0,P|285:143|211:127,2,127.5,6|2|2,0:1|0:1|0:1,0:0:0:0:
380,262,46545,2,0,P|437:228|511:212,2,127.5,6|2|2,0:1|0:1|0:1,0:0:0:0:
343,348,47385,1,0,0:0:0:0:
256,192,47489,12,2,49902,0:0:0:0:
450,110,50741,6,0,P|376:121|273:87,1,170,4|0,0:0|0:0,0:0:0:0:
219,28,51371,1,8,0:0:0:0:
137,73,51580,2,0,P|115:130|129:176,1,85,0|8,0:0|0:0,0:0:0:0:
150,186,51895,1,0,0:0:0:0:
189,210,52000,2,0,P|211:267|197:313,1,85,0|8,0:0|0:0,0:0:0:0:
132,345,52419,2,0,L|284:358,2,127.5,2|0|8,0:0|0:0|0:0,0:0:0:0:
68,276,53259,2,0,P|89:231|125:199,1,85,0|8,0:0|0:0,0:0:0:0:
205,223,53678,1,8,0:0:0:0:
265,151,53888,1,8,0:0:0:0:
358,156,54098,6,0,P|412:148|443:119,1,85,4|8,0:0|0:0,0:0:0:0:
441,83,54412,1,0,0:0:0:0:
425,38,54517,2,0,P|387:19|345:21,1,85,0|8,0:0|0:0,0:0:0:0:
287,94,54937,2,0,L|96:78,2,170,2|2|4,0:0|0:0|0:0,0:0:0:0:
370,135,55986,6,0,L|419:144,1,42.5,10|0,0:0|0:0,0:0:0:0:
340,263,56405,2,0,L|371:301,1,42.5,10|0,0:0|0:0,0:0:0:0:
231,335,56825,2,0,L|230:384,1,42.5,10|0,0:0|0:0,0:0:0:0:
103,317,57245,1,4,3:0:0:0:
103,317,57454,6,0,P|66:261|50:185,2,127.5,4|10|10,0:0|0:0|0:0,0:0:0:0:
151,236,58294,2,0,P|158:169|195:100,2,127.5,2|10|10,0:0|0:0|0:0,0:0:0:0:
203,313,59133,2,0,P|259:350|335:366,2,127.5,6|10|10,0:0|0:0|0:0,0:0:0:0:
284,265,59973,2,0,P|350:257|419:220,2,127.5,2|10|10,0:0|0:0|0:0,0:0:0:0:
145,139,61021,6,0,P|136:176|144:240,2,85,2|10|2,0:0|0:0|0:0,0:0:0:0:
219,82,61650,1,8,0:0:0:0:
219,82,61755,2,0,P|210:45|218:-19,2,85,2|2|2,0:0|0:0|0:0,0:0:0:0:
311,62,62385,1,2,0:0:0:0:
311,62,62489,2,0,B|398:108|483:73|483:73|427:139|489:168|421:248,1,340,2|2,0:0|0:0,0:0:0:0:
438,224,64168,6,0,P|351:208|263:231,1,170,4|0,0:0|0:0,0:0:0:0:
194,277,64798,1,8,0:0:0:0:
134,205,65007,2,0,P|121:160|130:116,1,85,0|8,0:0|0:0,0:0:0:0:
148,80,65322,1,0,0:0:0:0:
194,76,65426,2,0,P|239:89|283:80,1,85,0|8,0:0|0:0,0:0:0:0:
358,37,65846,2,0,L|492:22,2,127.5,2|0|8,0:0|0:0|0:0,0:0:0:0:
363,134,66686,2,0,P|378:183|407:214,1,85,0|8,0:0|0:0,0:0:0:0:
480,254,67105,1,8,0:0:0:0:
470,347,67315,1,8,0:0:0:0:
381,376,67525,6,0,P|327:368|296:339,1,85,4|8,0:0|0:0,0:0:0:0:
276,311,67839,1,0,0:0:0:0:
267,264,67944,2,0,P|232:240|190:237,1,85,0|8,0:0|0:0,0:0:0:0:
155,325,68364,2,0,L|126:149,2,170,2|2|4,0:0|0:0|0:0,0:0:0:0:
246,342,69413,6,0,L|276:381,1,42.5,8|0,0:0|0:0,0:0:0:0:
345,255,69832,2,0,L|393:264,1,42.5,8|0,0:0|0:0,0:0:0:0:
357,125,70252,2,0,L|399:101,1,42.5,8|0,0:0|0:0,0:0:0:0:
168,42,70881,6,0,L|76:57,1,85,4|0,0:0|3:3,0:0:0:0:
52,90,71196,2,0,P|48:141|58:182,1,85,0|2,3:3|3:3,0:0:0:0:
139,214,71615,2,0,P|143:163|133:122,2,85,0|2|0,3:3|3:3|3:3,0:0:0:0:
76,284,72245,1,2,3:3:0:0:
154,334,72454,2,0,P|205:338|246:328,2,85,0|2|0,3:3|3:3|3:3,0:0:0:0:
76,284,73084,1,2,3:3:0:0:
33,200,73295,2,0,P|28:157|35:116,2,85,0|2|0,3:3|3:3|3:3,0:0:0:0:
125,205,73923,1,2,3:3:0:0:
240,124,74238,6,0,P|368:138|236:191,1,340,6|0,0:0|0:0,0:0:0:0:
259,219,75496,2,0,L|260:292,3,42.5,2|2|2|2,0:3|0:3|0:3|0:3,0:0:0:0:
231,299,75916,6,0,L|137:304,1,85,0|8,0:0|0:0,0:0:0:0:
106,277,76231,2,0,P|98:235|103:193,1,85,2|0,0:1|0:0,0:0:0:0:
133,104,76650,2,0,P|88:105|41:92,2,85,2|2|2,0:1|0:0|0:1,0:0:0:0:
209,49,77280,1,2,0:0:0:0:
283,104,77489,2,0,P|328:105|375:92,1,85,2|2,0:1|0:0,0:0:0:0:
404,181,77909,2,0,P|403:226|416:273,1,85,2|2,0:1|0:0,0:0:0:0:
318,273,78329,2,0,P|273:272|226:285,1,85,2|2,0:1|0:0,0:0:0:0:
197,195,78748,2,0,P|198:150|185:103,1,85,2|2,0:1|0:0,0:0:0:0:
283,104,79168,1,2,0:1:0:0:
283,104,79692,6,0,P|382:115|440:64,2,170,6|2|2,0:1|0:1|0:1,0:0:0:0:
186,264,80951,2,0,P|87:253|29:304,2,170,6|2|4,0:1|0:1|3:0,0:0:0:0:
339,370,82210,1,4,3:0:0:0:
471,237,82629,6,0,L|459:90,1,127.5,4|8,0:0|0:0,0:0:0:0:
338,40,83259,1,8,0:0:0:0:
292,121,83468,2,0,L|304:268,1,127.5,4|8,0:0|0:0,0:0:0:0:
419,325,84098,1,8,0:0:0:0:
344,365,84308,6,0,L|197:377,1,127.5,4|8,0:0|0:0,0:0:0:0:
94,305,84937,1,8,0:0:0:0:
175,258,85147,2,0,L|322:246,1,127.5,4|8,0:0|0:0,0:0:0:0:
419,325,85776,1,8,0:0:0:0:
490,264,85986,6,0,B|488:192|431:180|409:146|409:146|379:32|500:-4|549:129|439:146|439:146|294:207|304:108|186:143,1,680,4|4,0:0|0:0,0:0:0:0:
91,245,87979,1,12,0:0:0:0:
230,260,88294,1,2,0:0:0:0:
390,164,88713,5,2,0:0:0:0:
390,164,88923,2,0,B|328:174|260:140|254:96|284:73,1,170,2|0,0:1|0:0,0:0:0:0:
