osu file format v14

[General]
AudioFilename: audio.mp3
AudioLeadIn: 0
PreviewTime: 53395
Countdown: 0
SampleSet: Soft
StackLeniency: 0.4
Mode: 0
LetterboxInBreaks: 0
WidescreenStoryboard: 1

[Editor]
Bookmarks: 812,822,10412,22412,32012,41612,51212,56012,72812,84812,94412,104012,113612,118412,134012,135212,137612,147212,156812,161612,166412,171212,176012,184412,185612,188012,190412,206012,207212,211870,216812,220787,221612,225212,226412,228812,231212
DistanceSpacing: 1.2
BeatDivisor: 4
GridSize: 16
TimelineZoom: 2.7

[Metadata]
Title:Judgment Day Has Come
TitleUnicode:Judgment Day Has Come
Artist:IOSYS feat. Nanahira
ArtistUnicode:IOSYS feat. ななひら
Creator:-Tynamo
Version:xidorn's Insane
Source:東方緋想天 ~ Scarlet Weather Rhapsody.
Tags:Minami 有頂天変 ~ Wonderful Heaven BarkingMadDog bmd Bibbity Bill judgement tenshi hinanawi theme japanese power metal zun 上海アリス幻樂団 Yoshimi Youno 東方極楽湯界─イオシス東方コンピレーション vol.24 夕野ヨシミ Confetto team shanghai alice star stream star_stream touhou project 10.5 th10.5 Catastrophe in Bhavaagra Hisouten rock video game Hakurei Shrine Autumn Reitaisai 3 xidorn 比那名居 天子 東方project イオシス
BeatmapID:3038203
BeatmapSetID:1152650

[Difficulty]
HPDrainRate:5
CircleSize:3.5
OverallDifficulty:8
ApproachRate:9
SliderMultiplier:1.5
SliderTickRate:1

[Events]
//Background and Video events
0,0,"judgementday.jpg",0,0
//Break Periods
2,176070,177220
2,178470,179620
//Storyboard Layer 0 (Background)
//Storyboard Layer 1 (Fail)
//Storyboard Layer 2 (Pass)
//Storyboard Layer 3 (Foreground)
//Storyboard Layer 4 (Overlay)
//Storyboard Sound Samples

[TimingPoints]
670,300,4,2,1,40,1,0
670,-83.3333333333333,4,2,1,40,0,0
1120,-166.666666666667,4,2,1,40,0,0
1870,-83.3333333333333,4,2,1,40,0,0
2320,-166.666666666667,4,2,1,40,0,0
3070,-83.3333333333333,4,2,1,40,0,0
3520,-166.666666666667,4,2,1,40,0,0
4270,-200,4,2,1,40,0,0
5470,-83.3333333333333,4,2,1,40,0,0
6370,-166.666666666667,4,2,1,40,0,0
6595,-166.666666666667,4,2,0,5,0,0
6670,-83.3333333333333,4,2,1,40,0,0
8770,-166.666666666667,4,2,1,40,0,0
8995,-166.666666666667,4,2,0,5,0,0
9070,-83.3333333333334,4,2,1,40,0,0
9295,-83.3333333333334,4,2,0,5,0,0
9370,-83.3333333333334,4,2,1,40,0,0
9595,-83.3333333333334,4,2,0,5,0,0
9670,-100,4,2,1,40,0,0
9970,-100,4,2,0,60,0,0
10270,-100,4,2,1,50,0,0
10420,-76.9230769230769,4,2,1,50,0,0
18745,-76.9230769230769,4,2,0,60,0,0
18820,-76.9230769230769,4,2,1,50,0,0
20470,-66.6666666666667,4,2,2,50,0,0
20695,-66.6666666666667,4,2,1,50,0,0
20770,-76.9230769230769,4,2,3,50,0,0
20845,-76.9230769230769,4,2,2,50,0,0
21070,-100,4,2,4,50,0,0
21145,-100,4,2,3,50,0,0
21370,-125,4,2,5,50,0,0
21445,-125,4,2,4,50,0,0
21670,-125,4,2,1,50,0,0
22270,-125,4,2,1,60,0,0
22420,-125,4,2,2,60,0,0
22570,-90.9090909090909,4,2,1,60,0,0
22720,-90.9090909090909,4,2,6,60,0,0
22870,-90.9090909090909,4,2,1,60,0,0
23020,-90.9090909090909,4,2,2,60,0,0
23320,-90.9090909090909,4,2,6,60,0,0
23470,-90.9090909090909,4,2,1,60,0,0
23620,-90.9090909090909,4,2,3,60,0,0
23770,-90.9090909090909,4,2,7,60,0,0
24220,-90.9090909090909,4,2,3,60,0,0
24370,-90.9090909090909,4,2,6,60,0,0
24670,-90.9090909090909,4,2,1,60,0,0
24820,-90.9090909090909,4,2,3,60,0,0
24970,-90.9090909090909,4,2,1,60,0,0
25120,-90.9090909090909,4,2,7,60,0,0
25270,-90.9090909090909,4,2,1,60,0,0
25420,-90.9090909090909,4,2,3,60,0,0
25570,-90.9090909090909,4,2,7,60,0,0
26020,-90.9090909090909,4,2,3,60,0,0
26170,-90.9090909090909,4,2,6,60,0,0
27220,-90.9090909090909,4,2,2,60,0,0
27370,-90.9090909090909,4,2,1,60,0,0
27520,-90.9090909090909,4,2,6,60,0,0
27670,-90.9090909090909,4,2,1,60,0,0
27820,-90.9090909090909,4,2,2,60,0,0
28120,-90.9090909090909,4,2,6,60,0,0
28270,-90.9090909090909,4,2,1,60,0,0
28420,-90.9090909090909,4,2,3,60,0,0
28570,-90.9090909090909,4,2,7,60,0,0
29020,-90.9090909090909,4,2,3,60,0,0
29170,-90.9090909090909,4,2,6,60,0,0
29470,-90.9090909090909,4,2,1,60,0,0
29620,-90.9090909090909,4,2,3,60,0,0
29770,-90.9090909090909,4,2,1,60,0,0
29920,-90.9090909090909,4,2,7,60,0,0
30070,-90.9090909090909,4,2,1,60,0,0
30220,-90.9090909090909,4,2,3,60,0,0
30370,-90.9090909090909,4,2,7,60,0,0
30820,-90.9090909090909,4,2,3,60,0,0
30970,-90.9090909090909,4,2,6,60,0,0
31270,-90.9090909090909,4,2,2,60,0,0
31645,-90.9090909090909,4,2,1,60,0,0
32020,-90.9090909090909,4,2,2,60,0,0
32170,-90.9090909090909,4,2,1,60,0,0
32320,-90.9090909090909,4,2,6,60,0,0
32470,-90.9090909090909,4,2,1,60,0,0
32620,-90.9090909090909,4,2,2,60,0,0
32920,-90.9090909090909,4,2,6,60,0,0
33070,-90.9090909090909,4,2,1,60,0,0
33220,-90.9090909090909,4,2,3,60,0,0
33295,-90.9090909090909,4,2,0,60,0,0
33370,-90.9090909090909,4,2,7,60,0,0
33820,-90.9090909090909,4,2,3,60,0,0
33970,-90.9090909090909,4,2,6,60,0,0
34270,-90.9090909090909,4,2,1,60,0,0
34420,-90.9090909090909,4,2,3,60,0,0
34570,-90.9090909090909,4,2,1,60,0,0
34720,-90.9090909090909,4,2,7,60,0,0
34870,-90.9090909090909,4,2,1,60,0,0
35020,-90.9090909090909,4,2,3,60,0,0
35170,-90.9090909090909,4,2,1,60,0,0
35320,-90.9090909090909,4,2,7,60,0,0
35620,-90.9090909090909,4,2,3,60,0,0
35770,-90.9090909090909,4,2,6,60,0,0
36595,-90.9090909090909,4,2,6,5,0,0
36670,-90.9090909090909,4,2,6,60,0,0
36820,-90.9090909090909,4,2,2,60,0,0
36970,-90.9090909090909,4,2,6,60,0,0
37270,-90.9090909090909,4,2,1,60,0,0
37420,-90.9090909090909,4,2,3,60,0,0
37570,-90.9090909090909,4,2,6,60,0,0
37870,-90.9090909090909,4,2,1,60,0,0
38020,-90.9090909090909,4,2,3,60,0,0
38095,-90.9090909090909,4,2,0,60,0,0
38170,-90.9090909090909,4,2,7,60,0,0
38620,-90.9090909090909,4,2,3,60,0,0
38770,-90.9090909090909,4,2,6,60,0,0
39070,-90.9090909090909,4,2,1,60,0,0
39220,-90.9090909090909,4,2,3,60,0,0
39370,-90.9090909090909,4,2,1,60,0,0
39520,-90.9090909090909,4,2,6,60,0,0
39670,-90.9090909090909,4,2,1,60,0,0
39820,-90.9090909090909,4,2,3,60,0,0
39970,-90.9090909090909,4,2,7,60,0,0
40420,-90.9090909090909,4,2,7,5,0,0
40570,-90.9090909090909,4,2,7,60,0,0
40645,-90.9090909090909,4,2,2,60,0,0
40945,-90.9090909090909,4,2,1,60,0,0
41170,-90.9090909090909,4,2,3,60,0,0
41245,-90.9090909090909,4,2,2,60,0,0
41470,-90.9090909090909,4,2,1,60,0,0
41770,-125,4,2,1,60,0,0
42670,-100,4,2,1,60,0,0
44170,-125,4,2,1,60,0,0
45070,-100,4,2,1,60,0,0
46570,-125,4,2,1,60,0,0
47470,-100,4,2,1,60,0,0
48670,-90.9090909090909,4,2,1,60,0,0
50170,-90.9090909090909,4,2,2,60,0,0
50245,-90.9090909090909,4,2,1,60,0,0
50470,-142.857142857143,4,2,8,60,0,0
50545,-142.857142857143,4,2,2,60,0,0
50770,-142.857142857143,4,2,4,60,0,0
50845,-142.857142857143,4,2,3,60,0,0
51070,-142.857142857143,4,2,1,60,0,0
51220,-142.857142857143,4,2,3,60,0,0
51370,-142.857142857143,4,2,6,60,0,0
51520,-100,4,2,6,60,0,0
51820,-100,4,2,3,60,0,0
51970,-100,4,2,1,60,0,0
52120,-100,4,2,6,60,0,0
52270,-100,4,2,1,60,0,0
52720,-100,4,2,6,60,0,0
52870,-100,4,2,1,60,0,0
53020,-100,4,2,3,60,0,0
53170,-100,4,2,6,60,0,0
53470,-100,4,2,1,60,0,0
53770,-100,4,2,2,60,0,0
53920,-100,4,2,1,60,0,0
54070,-100,4,2,3,60,0,0
54145,-100,4,2,2,60,0,0
54670,-100,4,2,4,60,0,0
54820,-100,4,2,3,60,0,0
54970,-100,4,2,5,60,0,0
55045,-100,4,2,4,60,0,0
55270,-100,4,2,1,60,0,0
55870,-71.4285714285714,4,2,1,80,0,1
60370,-100,4,2,1,80,0,0
60670,-100,4,2,1,80,0,1
64270,-100,4,2,1,80,0,0
64870,-100,4,2,2,80,0,0
64945,-100,4,2,1,80,0,0
65170,-100,4,2,3,80,0,0
65245,-100,4,2,2,80,0,0
65470,-71.4285714285714,4,2,1,80,0,1
69970,-71.4285714285714,4,2,1,80,0,0
70270,-71.4285714285714,4,2,1,80,0,1
70570,-100,4,2,1,80,0,1
70870,-125,4,2,1,80,0,1
71470,-125,4,2,1,60,0,0
72670,-125,4,2,1,50,0,0
72820,-76.9230769230769,4,2,1,50,0,0
79945,-76.9230769230769,4,2,0,60,0,0
80020,-76.9230769230769,4,2,1,50,0,0
82870,-76.9230769230769,4,2,2,50,0,0
83095,-76.9230769230769,4,2,1,50,0,0
83170,-100,4,2,3,50,0,0
83245,-100,4,2,2,50,0,0
83470,-125,4,2,4,50,0,0
83545,-125,4,2,3,50,0,0
83770,-166.666666666667,4,2,5,50,0,0
83845,-166.666666666667,4,2,4,50,0,0
84070,-166.666666666667,4,2,1,50,0,0
84670,-166.666666666667,4,2,6,60,0,0
84820,-166.666666666667,4,2,1,60,0,0
84970,-100,4,2,7,60,0,0
85420,-100,4,2,1,60,0,0
85570,-100,4,2,6,60,0,0
85870,-100,4,2,7,60,0,0
86170,-100,4,2,6,60,0,0
86320,-100,4,2,1,60,0,0
86470,-100,4,2,6,60,0,0
87070,-100,4,2,7,60,0,0
87520,-100,4,2,1,60,0,0
87670,-100,4,2,7,60,0,0
87970,-100,4,2,6,60,0,0
88120,-100,4,2,1,60,0,0
88570,-100,4,2,6,60,0,0
89620,-100,4,2,1,60,0,0
89770,-100,4,2,7,60,0,0
90220,-100,4,2,1,60,0,0
90370,-100,4,2,6,60,0,0
90670,-100,4,2,7,60,0,0
90970,-100,4,2,6,60,0,0
91120,-100,4,2,1,60,0,0
91270,-100,4,2,6,60,0,0
91870,-100,4,2,7,60,0,0
92470,-100,4,2,1,60,0,0
92920,-90.9090909090909,4,2,1,60,0,0
93220,-90.9090909090909,4,2,1,5,0,0
93295,-90.9090909090909,4,2,0,60,0,0
93370,-90.9090909090909,4,2,1,60,0,0
93670,-90.9090909090909,4,2,2,60,0,0
93745,-90.9090909090909,4,2,1,60,0,0
93970,-90.9090909090909,4,2,3,60,0,0
94045,-90.9090909090909,4,2,2,60,0,0
94270,-90.9090909090909,4,2,1,60,0,0
94420,-90.9090909090909,4,2,2,60,0,0
94570,-90.9090909090909,4,2,1,60,0,0
94720,-90.9090909090909,4,2,6,60,0,0
94870,-90.9090909090909,4,2,1,60,0,0
95020,-90.9090909090909,4,2,2,60,0,0
95320,-90.9090909090909,4,2,6,60,0,0
95470,-90.9090909090909,4,2,1,60,0,0
95920,-90.9090909090909,4,2,7,60,0,0
96220,-90.9090909090909,4,2,3,60,0,0
96370,-90.9090909090909,4,2,6,60,0,0
96670,-90.9090909090909,4,2,1,60,0,0
96820,-90.9090909090909,4,2,3,60,0,0
96970,-90.9090909090909,4,2,1,60,0,0
97120,-90.9090909090909,4,2,7,60,0,0
97270,-90.9090909090909,4,2,1,60,0,0
97420,-90.9090909090909,4,2,3,60,0,0
97570,-90.9090909090909,4,2,7,60,0,0
98020,-90.9090909090909,4,2,3,60,0,0
98170,-90.9090909090909,4,2,7,60,0,0
98320,-90.9090909090909,4,2,6,60,0,0
98995,-90.9090909090909,4,2,6,5,0,0
99070,-90.9090909090909,4,2,6,60,0,0
99220,-90.9090909090909,4,2,2,60,0,0
99370,-90.9090909090909,4,2,1,60,0,0
99520,-90.9090909090909,4,2,6,60,0,0
99670,-90.9090909090909,4,2,1,60,0,0
99820,-90.9090909090909,4,2,2,60,0,0
99970,-90.9090909090909,4,2,6,60,0,0
100270,-90.9090909090909,4,2,1,60,0,0
100420,-90.9090909090909,4,2,3,60,0,0
100495,-90.9090909090909,4,2,0,60,0,0
100570,-90.9090909090909,4,2,7,60,0,0
101020,-90.9090909090909,4,2,3,60,0,0
101170,-90.9090909090909,4,2,6,60,0,0
101470,-90.9090909090909,4,2,1,60,0,0
101620,-90.9090909090909,4,2,3,60,0,0
101770,-90.9090909090909,4,2,1,60,0,0
101920,-90.9090909090909,4,2,7,60,0,0
102070,-90.9090909090909,4,2,1,60,0,0
102220,-90.9090909090909,4,2,3,60,0,0
102370,-90.9090909090909,4,2,7,60,0,0
102520,-76.9230769230769,4,2,7,60,0,0
102820,-76.9230769230769,4,2,7,5,0,0
102970,-90.9090909090909,4,2,2,60,0,0
103345,-90.9090909090909,4,2,1,60,0,0
103570,-90.9090909090909,4,2,3,60,0,0
103645,-90.9090909090909,4,2,2,60,0,0
103870,-90.9090909090909,4,2,1,60,0,0
104170,-125,4,2,1,60,0,0
105070,-90.9090909090909,4,2,1,60,0,0
106570,-125,4,2,1,60,0,0
107470,-90.9090909090909,4,2,1,60,0,0
108970,-125,4,2,1,60,0,0
109870,-100,4,2,1,60,0,0
112570,-100,4,2,2,60,0,0
112645,-100,4,2,1,60,0,0
112870,-125,4,2,8,60,0,0
112945,-125,4,2,3,60,0,0
113020,-125,4,2,2,60,0,0
113170,-125,4,2,4,60,0,0
113245,-125,4,2,3,60,0,0
113320,-125,4,2,3,60,0,0
113470,-125,4,2,1,60,0,0
113620,-125,4,2,3,60,0,0
113770,-125,4,2,6,60,0,0
113920,-100,4,2,6,60,0,0
114220,-100,4,2,3,60,0,0
114370,-100,4,2,1,60,0,0
114520,-100,4,2,6,60,0,0
114670,-100,4,2,1,60,0,0
115120,-100,4,2,6,60,0,0
115270,-100,4,2,1,60,0,0
115420,-100,4,2,3,60,0,0
115570,-100,4,2,6,60,0,0
115870,-100,4,2,1,60,0,0
116170,-100,4,2,2,60,0,0
116320,-100,4,2,1,60,0,0
116470,-100,4,2,3,60,0,0
116545,-100,4,2,2,60,0,0
117070,-100,4,2,4,60,0,0
117220,-100,4,2,3,60,0,0
117370,-100,4,2,5,60,0,0
117445,-100,4,2,4,60,0,0
117670,-100,4,2,1,60,0,0
118270,-71.4285714285714,4,2,1,80,0,1
122770,-100,4,2,1,80,0,0
123070,-100,4,2,1,80,0,1
126670,-100,4,2,1,80,0,0
127270,-100,4,2,2,80,0,0
127345,-100,4,2,1,80,0,0
127570,-100,4,2,3,80,0,0
127645,-100,4,2,2,80,0,0
127870,-71.4285714285714,4,2,1,80,0,1
132370,-71.4285714285714,4,2,1,80,0,0
132670,-71.4285714285714,4,2,1,80,0,1
133870,-71.4285714285714,4,2,1,60,0,0
135070,-1000,4,2,1,50,0,0
136570,-100,4,2,12,50,0,0
136645,-100,4,2,1,50,0,0
137170,-100,4,2,13,50,0,0
137245,-100,4,2,2,50,0,0
137470,-100,4,2,1,80,0,1
137620,-100,4,2,2,80,0,1
137695,-100,4,2,1,80,0,1
137770,-66.6666666666667,4,2,1,80,0,1
137920,-66.6666666666667,4,2,7,80,0,1
137995,-66.6666666666667,4,2,1,80,0,1
138220,-66.6666666666667,4,2,2,80,0,1
138295,-66.6666666666667,4,2,1,80,0,1
138520,-66.6666666666667,4,2,7,80,0,1
138595,-66.6666666666667,4,2,1,80,0,1
138820,-66.6666666666667,4,2,2,80,0,1
138895,-66.6666666666667,4,2,1,80,0,1
139120,-66.6666666666667,4,2,7,80,0,1
139195,-66.6666666666667,4,2,1,80,0,1
139420,-66.6666666666667,4,2,2,80,0,1
139495,-66.6666666666667,4,2,1,80,0,1
139795,-66.6666666666667,4,2,0,60,0,1
139870,-66.6666666666667,4,2,1,80,0,1
140020,-66.6666666666667,4,2,2,80,0,1
140095,-66.6666666666667,4,2,1,80,0,1
140320,-66.6666666666667,4,2,7,80,0,1
140395,-66.6666666666667,4,2,1,80,0,1
140620,-66.6666666666667,4,2,2,80,0,1
140695,-66.6666666666667,4,2,1,80,0,1
140920,-66.6666666666667,4,2,7,80,0,1
141070,-66.6666666666667,4,2,1,80,0,1
141220,-66.6666666666667,4,2,3,80,0,1
141295,-66.6666666666667,4,2,1,80,0,1
141520,-66.6666666666667,4,2,7,80,0,1
141670,-66.6666666666667,4,2,1,80,0,1
141745,-66.6666666666667,4,2,0,60,0,1
141820,-66.6666666666667,4,2,3,80,0,1
142045,-66.6666666666667,4,2,1,80,0,1
142120,-66.6666666666667,4,2,7,80,0,1
142195,-66.6666666666667,4,2,7,60,0,1
142270,-66.6666666666667,4,2,1,80,0,1
142420,-66.6666666666667,4,2,3,80,0,1
142495,-66.6666666666667,4,2,1,80,0,1
142720,-66.6666666666667,4,2,7,80,0,1
142945,-66.6666666666667,4,2,1,80,0,1
143020,-66.6666666666667,4,2,3,80,0,1
143170,-66.6666666666667,4,2,1,80,0,1
143320,-66.6666666666667,4,2,6,80,0,1
143470,-66.6666666666667,4,2,10,80,0,1
143620,-66.6666666666667,4,2,1,80,0,1
143695,-66.6666666666667,4,2,0,60,0,1
143770,-66.6666666666667,4,2,1,80,0,1
143920,-66.6666666666667,4,2,7,80,0,1
144070,-66.6666666666667,4,2,1,80,0,0
144295,-66.6666666666667,4,2,1,60,0,0
144520,-66.6666666666667,4,2,7,80,0,0
144670,-66.6666666666667,4,2,1,80,0,1
144820,-66.6666666666667,4,2,2,80,0,1
144895,-66.6666666666667,4,2,1,80,0,1
145120,-66.6666666666667,4,2,7,80,0,1
145195,-66.6666666666667,4,2,1,80,0,1
145420,-66.6666666666667,4,2,2,80,0,1
145495,-66.6666666666667,4,2,1,80,0,1
145720,-66.6666666666667,4,2,7,80,0,1
145795,-66.6666666666667,4,2,1,80,0,1
146020,-66.6666666666667,4,2,2,80,0,1
146095,-66.6666666666667,4,2,1,80,0,1
146320,-66.6666666666667,4,2,7,80,0,1
146395,-66.6666666666667,4,2,1,80,0,1
146620,-66.6666666666667,4,2,2,80,0,1
146695,-66.6666666666667,4,2,1,80,0,1
146845,-66.6666666666667,4,2,1,80,0,0
147070,-66.6666666666667,4,2,1,80,0,1
147220,-66.6666666666667,4,2,2,80,0,1
147295,-66.6666666666667,4,2,1,80,0,1
147520,-66.6666666666667,4,2,7,80,0,1
147595,-66.6666666666667,4,2,1,80,0,1
147820,-66.6666666666667,4,2,2,80,0,1
147895,-66.6666666666667,4,2,1,80,0,1
148195,-66.6666666666667,4,2,0,5,0,1
148270,-66.6666666666667,4,2,1,80,0,1
148420,-66.6666666666667,4,2,2,80,0,1
148495,-66.6666666666667,4,2,1,80,0,1
148720,-66.6666666666667,4,2,7,80,0,1
148795,-66.6666666666667,4,2,1,80,0,1
149020,-66.6666666666667,4,2,2,80,0,1
149095,-66.6666666666667,4,2,1,80,0,1
149320,-66.6666666666667,4,2,7,80,0,1
149470,-66.6666666666667,4,2,1,80,0,1
149620,-66.6666666666667,4,2,2,80,0,1
149695,-66.6666666666667,4,2,1,80,0,1
149920,-66.6666666666667,4,2,7,80,0,1
149995,-66.6666666666667,4,2,1,80,0,1
150220,-66.6666666666667,4,2,2,80,0,1
150295,-66.6666666666667,4,2,1,80,0,1
150520,-66.6666666666667,4,2,7,80,0,1
150595,-66.6666666666667,4,2,1,80,0,1
150820,-66.6666666666667,4,2,2,80,0,1
150895,-66.6666666666667,4,2,1,80,0,1
151120,-66.6666666666667,4,2,7,80,0,1
151195,-66.6666666666667,4,2,1,80,0,1
152020,-66.6666666666667,4,2,2,80,0,1
152170,-66.6666666666667,4,2,1,80,0,1
152320,-66.6666666666667,4,2,7,80,0,1
152470,-66.6666666666667,4,2,1,80,0,1
152620,-66.6666666666667,4,2,2,80,0,1
152920,-66.6666666666667,4,2,7,80,0,1
152995,-66.6666666666667,4,2,1,80,0,1
153220,-66.6666666666667,4,2,2,80,0,1
153520,-66.6666666666667,4,2,7,80,0,1
153595,-66.6666666666667,4,2,1,80,0,1
153820,-66.6666666666667,4,2,2,80,0,1
153970,-66.6666666666667,4,2,1,80,0,1
154120,-66.6666666666667,4,2,7,80,0,1
154270,-66.6666666666667,4,2,1,80,0,1
155020,-66.6666666666667,4,2,2,80,0,1
155095,-66.6666666666667,4,2,1,80,0,1
155320,-66.6666666666667,4,2,7,80,0,1
155395,-66.6666666666667,4,2,1,80,0,1
155470,-66.6666666666667,4,2,1,80,0,0
155770,-66.6666666666667,4,2,9,80,0,0
155845,-66.6666666666667,4,2,1,80,0,0
156070,-66.6666666666667,4,2,8,80,0,0
156145,-66.6666666666667,4,2,5,80,0,0
156370,-66.6666666666667,4,2,4,80,0,0
156445,-66.6666666666667,4,2,8,80,0,0
156670,-76.9230769230769,4,2,1,80,0,0
157120,-76.9230769230769,4,2,6,80,0,0
157420,-76.9230769230769,4,2,2,80,0,0
157570,-76.9230769230769,4,2,7,80,0,0
157870,-76.9230769230769,4,2,1,80,0,0
158020,-76.9230769230769,4,2,3,80,0,0
158095,-76.9230769230769,4,2,1,80,0,0
158320,-76.9230769230769,4,2,7,80,0,0
158470,-76.9230769230769,4,2,1,80,0,0
158920,-76.9230769230769,4,2,6,80,0,0
159070,-76.9230769230769,4,2,1,80,0,0
159220,-76.9230769230769,4,2,3,80,0,0
159295,-76.9230769230769,4,2,1,80,0,0
159520,-76.9230769230769,4,2,7,80,0,0
159670,-76.9230769230769,4,2,1,80,0,0
159820,-76.9230769230769,4,2,3,80,0,0
159895,-76.9230769230769,4,2,1,80,0,0
160120,-76.9230769230769,4,2,7,80,0,0
160270,-76.9230769230769,4,2,1,80,0,0
160720,-76.9230769230769,4,2,7,80,0,0
161020,-76.9230769230769,4,2,3,80,0,0
161170,-76.9230769230769,4,2,6,80,0,0
161470,-76.9230769230769,4,2,1,80,0,1
161770,-71.4285714285714,4,2,1,80,0,1
165070,-71.4285714285714,4,2,1,80,0,0
165445,-71.4285714285714,4,2,1,60,0,0
165520,-71.4285714285714,4,2,1,80,0,0
165670,-71.4285714285714,4,2,13,80,0,0
165820,-71.4285714285714,4,2,2,80,0,0
166270,-71.4285714285714,4,2,1,80,0,0
166720,-71.4285714285714,4,2,6,80,0,0
167020,-71.4285714285714,4,2,2,80,0,0
167245,-71.4285714285714,4,2,7,5,0,0
167320,-71.4285714285714,4,2,7,80,0,0
167470,-71.4285714285714,4,2,1,80,0,0
167620,-71.4285714285714,4,2,3,80,0,0
167695,-71.4285714285714,4,2,1,80,0,0
167920,-71.4285714285714,4,2,7,80,0,0
168070,-71.4285714285714,4,2,1,80,0,0
168220,-71.4285714285714,4,2,3,80,0,0
168295,-71.4285714285714,4,2,1,80,0,0
168520,-71.4285714285714,4,2,7,80,0,0
168670,-71.4285714285714,4,2,1,80,0,0
169120,-71.4285714285714,4,2,11,80,0,0
169420,-71.4285714285714,4,2,3,80,0,0
169570,-71.4285714285714,4,2,7,80,0,0
169870,-71.4285714285714,4,2,1,80,0,0
170320,-71.4285714285714,4,2,11,80,0,0
170920,-71.4285714285714,4,2,6,80,0,0
171070,-71.4285714285714,4,2,1,80,0,1
171370,-66.6666666666667,4,2,1,80,0,1
174595,-66.6666666666667,4,2,1,80,0,0
174670,-66.6666666666667,4,2,1,80,0,1
175120,-66.6666666666667,4,2,1,80,0,1
175270,-100,4,2,13,80,0,1
175420,-100,4,2,2,80,0,1
175570,-100,4,2,4,80,0,1
175720,-100,4,2,3,80,0,1
175870,-100,4,2,1,50,0,0
184270,-100,4,2,1,60,0,0
184570,-100,4,2,2,60,0,0
184645,-100,4,2,1,60,0,0
184870,-100,4,2,8,60,0,0
184945,-100,4,2,2,60,0,0
185170,-100,4,2,4,60,0,0
185245,-100,4,2,3,60,0,0
185470,-100,4,2,1,60,0,0
185620,-100,4,2,3,60,0,0
185770,-100,4,2,6,60,0,0
186220,-100,4,2,3,60,0,0
186370,-100,4,2,1,60,0,0
186520,-100,4,2,6,60,0,0
186670,-100,4,2,1,60,0,0
187120,-100,4,2,6,60,0,0
187270,-100,4,2,1,60,0,0
187420,-100,4,2,3,60,0,0
187570,-100,4,2,6,60,0,0
187870,-100,4,2,1,60,0,0
188170,-100,4,2,2,60,0,0
188245,-100,4,2,1,60,0,0
188470,-100,4,2,3,60,0,0
188545,-100,4,2,2,60,0,0
189070,-100,4,2,4,60,0,0
189145,-100,4,2,3,60,0,0
189220,-100,4,2,3,60,0,0
189370,-100,4,2,5,60,0,0
189445,-100,4,2,3,60,0,0
189520,-100,4,2,4,60,0,0
189670,-100,4,2,1,60,0,0
190270,-71.4285714285714,4,2,1,80,0,1
194770,-100,4,2,1,80,0,0
195070,-100,4,2,1,80,0,1
198670,-100,4,2,1,80,0,0
199270,-100,4,2,2,80,0,0
199345,-100,4,2,1,80,0,0
199570,-100,4,2,3,80,0,0
199645,-100,4,2,2,80,0,0
199870,-71.4285714285714,4,2,1,80,0,1
204370,-71.4285714285714,4,2,1,80,0,0
204670,-71.4285714285714,4,2,1,80,0,1
205870,-71.4285714285714,4,2,1,60,0,0
207070,-76.9230769230769,4,2,1,50,0,0
209545,-76.9230769230769,4,2,0,60,0,0
209620,-76.9230769230769,4,2,1,50,0,0
211945,-76.9230769230769,4,2,0,60,0,0
212020,-76.9230769230769,4,2,1,50,0,0
215545,-76.9230769230769,4,2,0,60,0,0
215620,-76.9230769230769,4,2,1,50,0,0
215695,-76.9230769230769,4,2,0,60,0,0
215770,-76.9230769230769,4,2,1,50,0,0
215995,-76.9230769230769,4,2,0,60,0,0
216070,-76.9230769230769,4,2,1,50,0,0
221470,-76.9230769230769,4,2,1,70,0,1
222070,-66.6666666666667,4,2,1,70,0,1
226270,-66.6666666666667,4,2,1,50,0,0
226870,-76.9230769230769,4,2,2,50,0,0
227095,-76.9230769230769,4,2,1,50,0,0
227170,-90.9090909090909,4,2,3,50,0,0
227245,-90.9090909090909,4,2,2,50,0,0
227470,-100,4,2,4,50,0,0
227545,-100,4,2,3,50,0,0
227770,-125,4,2,5,50,0,0
227845,-125,4,2,4,50,0,0
228070,-125,4,2,1,50,0,0
228670,-125,4,2,1,50,0,0
229495,-125,4,2,5,50,0,0
229870,-100,4,2,1,50,0,0
230470,-58.8235294117647,4,2,1,60,0,1
231070,-58.8235294117647,4,2,0,60,0,0

[Colours]
Combo1 : 255,79,79
Combo2 : 0,213,213
Combo3 : 47,187,240
Combo4 : 74,74,255
Combo5 : 255,106,34

[HitObjects]
24,19,670,6,0,B|57:13|57:13|163:57|163:57|212:46,1,180,14|0,2:0|1:0,2:0:0:0:
344,85,1120,2,0,L|397:103,3,44.9999999999999,2|2|2|2,1:2|2:0|1:2|1:2,2:0:0:0:
284,30,1870,6,0,B|278:63|278:63|322:169|322:169|311:218,1,180,14|0,2:0|1:0,2:0:0:0:
274,338,2320,2,0,L|253:393,3,44.9999999999999,2|2|2|2,1:2|2:0|1:2|1:2,2:0:0:0:
191,298,3070,6,0,B|224:292|224:292|330:336|330:336|379:325,1,180,14|0,2:0|1:0,2:0:0:0:
462,302,3520,2,0,L|466:347,3,44.9999999999999,2|2|2|2,1:2|2:0|1:2|1:2,2:0:0:0:
512,252,4270,38,0,B|494:266|466:263|466:263|422:149|422:149|403:125|370:160,1,225,14|0,2:0|2:0,2:0:0:0:
508,260,5470,6,0,B|502:226|502:226|385:180|385:180|359:128,1,180,14|0,2:0|1:0,2:0:0:0:
452,102,5920,1,2,1:2:0:0:
457,80,6070,1,2,2:0:0:0:
461,58,6220,1,2,1:2:0:0:
379,36,6370,6,0,L|313:62,1,67.4999999999999,14|0,1:2|3:0,2:0:0:0:
381,7,6670,38,0,B|348:1|348:1|242:45|242:45|193:34,1,180,14|0,2:0|1:0,2:0:0:0:
125,57,7120,1,2,1:2:0:0:
103,64,7270,1,2,2:0:0:0:
81,70,7420,1,2,1:2:0:0:
59,76,7570,1,2,1:2:0:0:
0,0,7870,6,0,B|-6:33|-6:33|38:139|38:139|27:188,1,180,14|0,2:0|1:0,2:0:0:0:
163,247,8320,1,2,1:2:0:0:
165,269,8470,1,2,2:0:0:0:
167,291,8620,1,2,1:2:0:0:
258,310,8770,6,0,L|334:318,1,67.4999999999999,14|0,1:2|3:0,2:0:0:0:
259,276,9070,38,0,B|340:268|340:268|293:229,1,135,14|0,2:0|3:0,2:0:0:0:
362,186,9370,2,0,B|409:208|409:208|380:130,1,135,12|0,2:0|3:0,2:0:0:0:
491,176,9670,6,0,L|426:26,1,150,14|0,2:0|3:0,2:0:0:0:
431,38,10270,5,6,1:2:0:0:
298,87,10420,2,0,B|255:101|255:101|190:74,1,97.5,10|2,2:0|1:2,2:0:0:0:
260,7,10720,37,10,1:2:0:0:
380,130,10870,2,0,B|394:173|394:173|367:238,1,97.5,2|10,1:2|2:0,2:0:0:0:
285,210,11170,1,2,1:2:0:0:
275,207,11245,1,2,1:2:0:0:
266,203,11320,1,10,1:2:0:0:
318,291,11470,5,2,1:2:0:0:
186,351,11620,2,0,B|132:357|132:357|94:328,1,97.5,10|2,2:0|1:2,2:0:0:0:
170,260,11920,5,10,1:2:0:0:
54,244,12070,2,0,B|48:190|48:190|77:152,1,97.5,2|10,1:2|2:0,2:0:0:0:
154,103,12370,1,2,1:2:0:0:
153,93,12445,1,2,1:2:0:0:
155,83,12520,1,10,1:2:0:0:
248,107,12670,37,2,1:2:0:0:
292,214,12820,2,0,B|342:228|342:228|397:196,1,97.5,10|2,2:0|1:2,2:0:0:0:
389,123,13120,5,10,1:2:0:0:
201,215,13270,2,0,B|213:265|213:265|269:296,1,97.5,2|10,1:2|2:0,2:0:0:0:
426,264,13570,1,2,1:2:0:0:
435,264,13645,1,2,1:2:0:0:
444,264,13720,1,10,1:2:0:0:
453,262,13795,1,2,2:0:0:0:
461,256,13870,6,0,P|464:224|451:200,3,48.75,2|0|10|0,1:2|1:0|1:2|1:0,2:0:0:0:
474,347,14170,2,0,P|503:333|517:310,3,48.75,2|0|10|0,1:2|1:0|1:2|1:0,2:0:0:0:
398,369,14470,2,0,B|351:347|351:347|279:374,1,97.5,2|10,1:2|1:2,2:0:0:0:
208,362,14770,1,2,1:2:0:0:
206,352,14845,1,2,1:2:0:0:
205,342,14920,1,10,1:2:0:0:
204,332,14995,1,2,1:2:0:0:
202,322,15070,37,6,1:2:0:0:
92,340,15220,2,0,B|40:324|40:324|-17:345,1,97.5,10|2,2:0|1:2,2:0:0:0:
74,215,15520,5,10,1:2:0:0:
7,142,15670,2,0,B|1:97|1:97|23:47,1,97.5,2|10,1:2|2:0,2:0:0:0:
138,16,15970,1,2,1:2:0:0:
147,16,16045,1,2,1:2:0:0:
156,16,16120,1,10,1:2:0:0:
120,119,16270,5,2,1:2:0:0:
217,75,16420,2,0,B|269:67|269:67|326:96,1,97.5,10|2,2:0|1:2,2:0:0:0:
394,157,16720,37,10,1:2:0:0:
373,30,16870,2,0,B|320:46|320:46|300:116,1,97.5,2|10,1:2|2:0,2:0:0:0:
311,228,17170,1,2,1:2:0:0:
301,227,17245,1,2,1:2:0:0:
291,227,17320,1,10,1:2:0:0:
414,265,17470,5,2,1:2:0:0:
499,181,17620,2,0,B|525:138|525:138|502:53,1,97.5,10|2,2:0|1:2,2:0:0:0:
499,0,17920,5,10,1:2:0:0:
373,30,18070,2,0,B|324:50|324:50|248:22,1,97.5,2|10,1:2|2:0,2:0:0:0:
169,46,18370,2,0,L|154:-3,2,48.75,2|2|10,1:2|1:2|1:2,2:0:0:0:
237,125,18670,37,2,1:2:0:0:
246,121,18745,1,0,3:0:0:0:
255,119,18820,1,10,2:0:0:0:
166,194,18970,2,0,B|155:235|155:235|191:280,1,97.5,2|10,1:2|1:2,2:0:0:0:
263,336,19270,1,2,1:2:0:0:
330,289,19420,1,10,2:0:0:0:
394,355,19570,1,2,1:2:0:0:
393,364,19645,1,2,1:2:0:0:
392,373,19720,1,10,1:2:0:0:
505,364,19870,5,6,1:2:0:0:
505,364,20170,1,8,2:0:0:0:
498,345,20245,1,8,2:0:0:0:
493,326,20320,1,8,2:0:0:0:
486,307,20395,1,8,2:0:0:0:
481,292,20470,6,0,B|466:243|466:243|481:199|481:199|462:129,1,168.75,0|0,1:0|3:0,2:0:0:0:
459,48,20770,2,0,P|460:29|473:2,3,48.75,0|0|0|0,1:0|3:0|3:0|3:0,2:0:0:0:
384,72,21070,2,0,P|379:56|378:25,3,37.5,0|0|0|0,1:0|3:0|3:0|3:0,2:0:0:0:
319,109,21370,2,0,P|308:97|303:80,3,30,0|0|0|0,1:0|3:0|3:0|3:0,2:0:0:0:
350,204,21670,37,8,2:0:0:0:
12,357,22270,5,4,1:2:0:0:
103,292,22420,1,10,2:0:0:0:
103,292,22570,2,0,B|115:286|115:286|157:317|157:317|175:310,1,82.5,2|10,1:2|1:2,2:0:0:0:
259,254,22870,1,2,1:2:0:0:
175,244,23020,2,0,B|149:253|149:253|133:355|133:355|97:371,1,165,10|10,2:0|1:2,2:0:0:0:
275,374,23470,5,2,1:2:0:0:
275,374,23620,2,0,P|318:360|369:371,1,82.5,10|0,2:0|1:0,2:0:0:0:
475,205,23920,2,0,B|377:225|377:225|336:288,1,165,10|10,1:2|2:0,2:0:0:0:
446,304,24370,1,0,1:0:0:0:
446,304,24445,1,0,1:0:0:0:
446,304,24520,1,10,1:2:0:0:
443,121,24670,38,0,P|450:86|479:49,1,82.5,2|10,1:2|2:0,2:0:0:0:
393,11,24970,1,2,1:2:0:0:
393,11,25120,1,10,1:2:0:0:
329,74,25270,1,2,1:2:0:0:
240,24,25420,2,0,L|142:17,1,82.5,10|0,2:0|1:0,2:0:0:0:
252,127,25720,6,0,B|259:187|259:187|278:214|278:214|287:312,1,165,14|10,1:2|2:0,2:0:0:0:
187,336,26170,2,0,L|123:325,3,41.25,0|0|10|0,1:0|1:0|1:2|1:0,2:0:0:0:
68,339,26470,2,0,L|44:277,3,41.25,0|0|10|0,1:0|1:0|1:2|1:0,2:0:0:0:
5,237,26770,2,0,L|45:186,3,41.25,0|0|10|0,1:0|1:0|1:2|1:0,2:0:0:0:
32,122,27070,5,4,1:2:0:0:
151,95,27220,1,10,2:0:0:0:
151,95,27370,2,0,P|178:141|192:196,1,82.5,2|10,1:2|1:2,2:0:0:0:
160,290,27670,1,2,1:2:0:0:
106,192,27820,2,0,P|161:142|277:123,1,165,10|10,2:0|1:2,2:0:0:0:
293,37,28270,37,2,1:2:0:0:
293,37,28420,2,0,L|379:44,1,82.5,10|0,2:0|1:0,2:0:0:0:
492,86,28720,2,0,P|434:114|403:218,1,165,10|10,1:2|2:0,2:0:0:0:
503,188,29170,1,0,1:0:0:0:
503,188,29245,1,0,1:0:0:0:
503,188,29320,1,10,1:2:0:0:
433,280,29470,6,0,P|392:286|355:272,1,82.5,2|10,1:2|2:0,2:0:0:0:
301,199,29770,1,2,1:2:0:0:
301,199,29920,1,10,1:2:0:0:
195,258,30070,1,2,1:2:0:0:
128,201,30220,2,0,L|29:184,1,82.5,10|0,2:0|1:0,2:0:0:0:
74,347,30520,6,0,P|137:335|196:245,1,165,14|10,1:2|2:0,2:0:0:0:
182,136,30970,1,0,1:0:0:0:
227,60,31120,1,10,1:2:0:0:
141,19,31270,2,0,L|98:30,3,41.25,8|8|8|8,2:0|2:0|2:0|2:0,2:0:0:0:
10,30,31570,2,0,L|-3:75,3,41.25,0|0|0|0,1:0|3:0|3:0|3:0,2:0:0:0:
48,140,31870,37,4,1:2:0:0:
104,219,32020,1,10,2:0:0:0:
104,219,32170,2,0,L|90:318,1,82.5,2|10,1:2|1:2,2:0:0:0:
64,382,32470,1,2,1:2:0:0:
16,256,32620,2,0,L|201:289,1,165,10|10,2:0|1:2,2:0:0:0:
263,237,33070,5,2,1:2:0:0:
194,211,33220,1,10,2:0:0:0:
194,211,33295,1,0,3:0:0:0:
194,211,33370,1,0,1:0:0:0:
214,358,33520,1,10,1:2:0:0:
287,313,33670,2,0,P|342:306|388:335,1,82.5,0|10,1:0|2:0,2:0:0:0:
438,384,33970,1,0,1:0:0:0:
507,327,34120,1,10,1:2:0:0:
429,193,34270,6,0,L|443:280,1,82.5,2|10,1:2|2:0,2:0:0:0:
324,384,34570,1,2,1:2:0:0:
324,384,34720,1,10,1:2:0:0:
263,237,34870,1,2,1:2:0:0:
349,175,35020,2,0,L|444:197,1,82.5,10|0,2:0|1:0,2:0:0:0:
512,210,35320,38,0,B|500:144|500:144|470:119|470:119|458:61,1,165,14|10,1:2|2:0,2:0:0:0:
369,33,35770,2,0,P|356:16|339:4,3,41.25,0|0|10|0,1:0|1:0|1:2|3:0,2:0:0:0:
288,74,36070,1,0,1:0:0:0:
279,75,36145,1,0,1:0:0:0:
271,77,36220,1,10,1:2:0:0:
263,80,36295,1,0,1:0:0:0:
254,81,36370,2,0,B|228:79|206:94|206:94|175:68|175:68|175:89|132:82,1,123.75,0|0,1:0|1:0,2:0:0:0:
131,81,36670,5,4,1:2:0:0:
33,39,36820,1,10,2:0:0:0:
33,39,36970,2,0,L|19:-4,2,41.25,0|0|10,1:0|1:0|1:2,2:0:0:0:
42,141,37270,6,0,P|48:204|34:247,1,82.5,2|10,1:2|2:0,2:0:0:0:
18,313,37570,1,0,1:0:0:0:
107,291,37720,1,10,1:2:0:0:
206,368,37870,38,0,P|257:350|295:347,1,82.5,2|10,1:2|2:0,2:0:0:0:
300,333,38095,1,0,3:0:0:0:
300,333,38170,2,0,L|303:270,2,41.25,0|0|10,1:0|1:0|1:2,2:0:0:0:
206,253,38470,2,0,L|174:163,1,82.5,0|10,1:0|2:0,2:0:0:0:
217,102,38770,1,0,1:0:0:0:
148,40,38920,1,10,1:2:0:0:
238,98,39070,6,0,B|274:68|274:68|345:88,1,82.5,2|10,1:2|2:0,2:0:0:0:
395,109,39370,1,2,1:2:0:0:
395,109,39520,1,10,1:2:0:0:
463,51,39670,1,2,1:2:0:0:
455,174,39820,2,0,L|442:260,1,82.5,10|0,2:0|1:0,2:0:0:0:
319,160,40120,6,0,B|319:195|294:212|294:212|317:239|317:239|282:260|274:319,1,165,14|0,1:2|1:0,2:0:0:0:
179,333,40570,2,0,P|162:343|136:353,3,41.25,8|8|8|8,1:2|2:0|2:0|2:0,2:0:0:0:
94,282,40870,2,0,P|69:285|37:269,3,41.25,0|0|0|0,1:0|3:0|3:0|3:0,2:0:0:0:
0,346,41170,1,0,1:0:0:0:
6,351,41245,1,0,3:0:0:0:
12,356,41320,1,0,3:0:0:0:
86,206,41470,38,0,L|77:148,3,41.25,4|0|0|0,1:2|1:0|1:0|1:0,2:0:0:0:
129,87,41770,6,0,P|149:88|159:106,3,30,10|0|0|0,1:2|1:0|1:0|1:0,2:0:0:0:
232,64,42070,2,0,P|222:46|233:28,3,30,10|0|0|0,1:2|1:0|1:0|1:0,2:0:0:0:
245,152,42370,2,0,P|233:143|218:144,3,30,10|0|0|0,1:2|1:0|1:0|1:0,2:0:0:0:
348,87,42670,6,0,L|281:105,8,37.5,10|0|0|0|8|0|0|0|8,1:2|1:0|1:0|1:0|1:2|1:0|1:0|1:0|1:2,2:0:0:0:
470,17,43420,2,0,P|485:63|469:108,1,75,2|8,1:2|1:2,2:0:0:0:
436,159,43720,1,2,1:2:0:0:
436,159,43795,1,0,1:0:0:0:
436,159,43870,38,0,L|438:217,3,37.5,8|0|0|0,1:2|1:0|1:0|1:0,2:0:0:0:
375,262,44170,6,0,P|364:277|362:288,3,30,10|0|0|0,1:2|1:0|1:0|1:0,2:0:0:0:
375,366,44470,2,0,P|393:368|404:364,3,30,10|0|0|0,1:2|1:0|1:0|1:0,2:0:0:0:
465,314,44770,2,0,P|457:296|448:289,3,30,10|0|0|0,1:2|1:0|1:0|1:0,2:0:0:0:
283,343,45070,6,0,L|228:355,8,37.5,10|0|0|0|8|0|0|0|8,1:2|1:0|1:0|1:0|1:2|1:0|1:0|1:0|1:2,2:0:0:0:
161,235,45820,2,0,L|171:338,1,75,2|8,1:2|1:2,2:0:0:0:
90,360,46120,1,2,1:2:0:0:
90,360,46195,1,0,1:0:0:0:
90,360,46270,38,0,P|59:365|35:362,3,37.5,12|0|0|0,1:2|1:0|1:0|1:0,2:0:0:0:
51,256,46570,6,0,L|102:268,3,30,10|0|0|0,1:2|1:0|1:0|1:0,2:0:0:0:
32,181,46870,2,0,L|-15:194,3,30,10|0|0|0,1:2|1:0|1:0|1:0,2:0:0:0:
51,106,47170,2,0,L|98:119,3,30,10|0|0|0,1:2|1:0|1:0|1:0,2:0:0:0:
172,50,47470,6,0,L|114:34,7,37.5,10|0|0|0|8|0|0|0,1:2|1:0|1:0|1:0|1:2|1:0|1:0|1:0,2:0:0:0:
243,104,48070,38,0,L|243:150,3,37.5,10|0|0|0,1:2|1:0|1:0|1:0,2:0:0:0:
310,44,48370,2,0,L|368:28,3,37.5,10|0|0|0,1:2|1:0|1:0|1:0,2:0:0:0:
347,132,48670,6,0,P|382:140|400:134,11,41.25,10|0|0|0|8|0|0|0|8|0|0|0,1:2|1:0|1:0|1:0|1:2|1:0|1:0|1:0|1:2|1:0|1:0|1:0,2:0:0:0:
460,76,49570,2,0,P|449:41|435:29,3,41.25,14|0|0|0,1:2|2:0|1:0|2:0,2:0:0:0:
467,199,49870,5,10,2:0:0:0:
465,211,49945,1,8,2:0:0:0:
463,223,50020,1,8,2:0:0:0:
460,235,50095,1,8,2:0:0:0:
458,245,50170,2,0,P|446:267|447:295,3,41.25,0|0|0|0,1:0|3:0|3:0|3:0,2:0:0:0:
376,340,50470,38,0,P|381:354|378:370,3,26.25,2|0|0|0,1:2|3:0|3:0|3:0,2:0:0:0:
298,339,50770,2,0,P|294:353|300:369,3,26.25,2|0|0|0,1:2|3:0|3:0|3:0,2:0:0:0:
241,268,51070,5,6,1:2:0:0:
211,186,51220,1,10,2:0:0:0:
292,200,51370,1,0,1:0:0:0:
298,201,51445,1,0,1:0:0:0:
305,201,51520,2,0,L|395:205,2,75,10|0|10,1:2|1:0|2:0,2:0:0:0:
152,125,51970,2,0,P|130:165|129:205,1,75,2|10,1:2|1:2,2:0:0:0:
47,301,52270,6,0,L|28:132,1,150,2|0,1:2|1:0,2:0:0:0:
76,77,52720,1,10,1:2:0:0:
211,186,52870,2,0,L|298:203,1,75,2|10,1:2|2:0,2:0:0:0:
357,244,53170,1,0,1:0:0:0:
358,251,53245,1,0,1:0:0:0:
358,258,53320,1,10,1:2:0:0:
408,141,53470,6,0,L|349:119,1,37.5,10|8,2:0|2:0,2:0:0:0:
359,116,53620,2,0,L|362:60,2,37.5,8|8|0,2:0|2:0|1:0,2:0:0:0:
268,62,53920,6,0,L|209:40,1,37.5,0|0,3:0|3:0,2:0:0:0:
234,37,54070,2,0,L|231:-19,2,37.5,0|0|0,1:0|3:0|3:0,2:0:0:0:
144,80,54370,54,0,L|85:58,1,37.5,8|8,2:0|2:0,2:0:0:0:
96,65,54520,2,0,L|40:62,2,37.5,8|8|0,2:0|2:0|1:0,2:0:0:0:
143,188,54820,6,0,L|84:166,1,37.5,0|0,3:0|3:0,2:0:0:0:
98,175,54970,2,0,L|48:200,2,37.5,0|0|0,1:0|3:0|3:0,2:0:0:0:
256,193,55270,53,8,2:0:0:0:
0,384,55870,6,0,B|62:350|62:350|118:364|118:364|201:314,1,210,6|0,1:2|1:0,2:0:0:0:
277,271,56320,1,8,1:2:0:0:
279,384,56470,2,0,L|292:273,1,105,2|8,1:2|2:0,2:0:0:0:
342,186,56770,1,2,1:2:0:0:
345,172,56845,1,0,1:0:0:0:
349,159,56920,1,8,1:2:0:0:
437,165,57070,54,0,B|430:142|430:142|293:121|293:121|258:71,1,210,2|0,1:2|1:0,2:0:0:0:
250,59,57445,1,0,1:0:0:0:
250,59,57520,1,8,1:2:0:0:
92,90,57670,1,0,1:0:0:0:
157,17,57820,1,8,2:0:0:0:
232,171,57970,2,0,B|212:141|212:141|125:176,1,105,2|8,1:2|1:2,2:0:0:0:
127,250,58270,6,0,L|123:359,1,105,2|8,1:2|2:0,2:0:0:0:
209,384,58570,1,0,1:0:0:0:
267,321,58720,1,8,1:2:0:0:
394,351,58870,54,0,L|285:330,1,105,2|8,1:2|2:0,2:0:0:0:
231,229,59170,1,0,1:0:0:0:
295,147,59320,1,8,1:2:0:0:
203,89,59470,6,0,L|409:144,1,210,2|0,1:2|1:0,2:0:0:0:
406,144,59845,1,0,1:0:0:0:
406,144,59920,1,8,1:2:0:0:
492,137,60070,1,0,1:0:0:0:
439,65,60220,1,8,2:0:0:0:
367,222,60370,2,0,L|377:322,1,75,2|8,1:2|1:2,2:0:0:0:
484,369,60670,54,0,L|438:360,11,37.5,6|0|8|0|0|0|8|0|0|0|8|0,1:2|1:0|1:2|1:0|1:0|1:0|1:2|1:0|1:0|1:0|1:2|1:0,2:0:0:0:
374,296,61570,2,0,P|338:286|280:300,1,75,2|8,1:2|1:2,2:0:0:0:
136,358,61870,6,0,P|142:336|162:313,3,37.5,2|0|8|0,1:2|1:0|1:2|1:0,2:0:0:0:
172,245,62170,2,0,P|194:251|217:271,3,37.5,2|0|8|0,1:2|1:0|1:2|1:0,2:0:0:0:
90,269,62470,54,0,P|84:247|64:224,3,37.5,2|0|8|0,1:2|1:0|1:2|1:0,2:0:0:0:
54,156,62770,2,0,P|32:162|9:182,3,37.5,2|0|8|0,1:2|1:0|1:2|1:0,2:0:0:0:
59,63,63070,6,0,L|37:33,7,37.5,2|0|8|0|0|0|8|0,1:2|1:0|1:2|1:0|1:0|1:0|1:2|1:0,2:0:0:0:
138,21,63670,2,0,L|144:83,7,37.5,2|0|8|0|0|0|8|0,1:2|1:0|1:2|1:0|1:0|1:0|1:2|1:0,2:0:0:0:
224,38,64270,53,14,2:0:0:0:
304,83,64420,1,8,2:0:0:0:
318,86,64495,1,8,2:0:0:0:
331,92,64570,2,0,P|357:101|369:119,3,37.5,8|8|8|8,2:0|2:0|2:0|2:0,2:0:0:0:
423,21,64870,2,0,P|428:48|418:67,3,37.5,0|0|0|0,1:0|3:0|3:0|3:0,2:0:0:0:
490,109,65170,1,0,1:0:0:0:
486,123,65245,1,0,3:0:0:0:
482,137,65320,1,0,3:0:0:0:
478,151,65395,1,0,3:0:0:0:
473,165,65470,6,0,B|454:231|454:231|473:268|473:268|429:373,1,210,6|0,1:2|1:0,2:0:0:0:
512,384,65920,1,8,1:2:0:0:
374,279,66070,2,0,L|266:241,1,105,2|8,1:2|2:0,2:0:0:0:
191,289,66370,1,0,1:0:0:0:
173,284,66445,1,0,1:0:0:0:
155,278,66520,1,8,1:2:0:0:
76,353,66670,54,0,B|99:346|99:346|128:195|128:195|157:180,1,210,2|0,1:2|1:0,2:0:0:0:
168,172,67045,1,0,1:0:0:0:
185,166,67120,1,8,1:2:0:0:
270,105,67270,1,0,1:0:0:0:
194,27,67420,1,8,2:0:0:0:
292,3,67570,1,2,1:2:0:0:
300,2,67645,1,0,1:0:0:0:
308,0,67720,1,8,1:2:0:0:
107,11,67870,6,0,P|30:12|0:127,1,210,2|0,1:2|1:0,2:0:0:0:
5,131,68245,1,0,1:0:0:0:
8,138,68320,2,0,L|31:262,1,105,10|0,1:2|1:0,2:0:0:0:
113,254,68620,1,8,2:0:0:0:
102,339,68770,2,0,L|-7:373,1,105,2|8,1:2|1:2,2:0:0:0:
184,294,69070,54,0,P|216:294|251:319,4,52.5,2|0|8|0|0,1:2|1:0|1:2|1:0|1:0,2:0:0:0:
227,141,69520,1,10,1:2:0:0:
227,141,69595,1,0,1:0:0:0:
227,141,69670,2,0,L|288:256,1,105,2|8,1:2|1:2,2:0:0:0:
336,289,69970,1,0,1:0:0:0:
343,287,70045,1,0,1:0:0:0:
350,285,70120,1,8,1:2:0:0:
432,342,70270,6,0,L|475:308,3,52.5,6|0|0|0,1:2|1:0|1:0|1:0,2:0:0:0:
424,243,70570,2,0,L|418:204,3,37.5,12|0|2|0,1:2|1:0|1:2|1:0,2:0:0:0:
334,200,70870,2,0,L|304:189,3,30,12|0|0|0,1:2|1:0|1:0|1:0,2:0:0:0:
251,256,71170,1,14,1:2:0:0:
262,278,71245,1,0,1:0:0:0:
282,292,71320,1,0,1:0:0:0:
305,298,71395,1,0,1:0:0:0:
328,297,71470,53,14,1:2:0:0:
144,28,72670,37,6,1:2:0:0:
50,185,72820,2,0,B|61:133|61:133|45:91,1,97.5,10|2,2:0|1:2,2:0:0:0:
50,14,73120,5,10,1:2:0:0:
144,147,73270,2,0,B|129:204|129:204|161:262,1,97.5,2|10,1:2|2:0,2:0:0:0:
246,292,73570,1,2,1:2:0:0:
255,291,73645,1,2,1:2:0:0:
264,290,73720,1,10,1:2:0:0:
302,197,73870,53,2,1:2:0:0:
160,323,74020,2,0,B|112:345|112:345|44:317,1,97.5,10|2,2:0|1:2,2:0:0:0:
16,265,74320,5,10,1:2:0:0:
144,147,74470,2,0,B|187:126|187:126|259:147,1,97.5,2|10,1:2|2:0,2:0:0:0:
359,269,74770,1,2,1:2:0:0:
368,271,74845,1,2,1:2:0:0:
377,273,74920,1,10,1:2:0:0:
453,332,75070,53,2,1:2:0:0:
446,215,75220,2,0,B|449:165|449:165|425:113,1,97.5,10|2,2:0|1:2,2:0:0:0:
429,24,75520,5,10,1:2:0:0:
324,132,75670,2,0,B|285:154|285:154|192:127,1,97.5,2|10,1:2|2:0,2:0:0:0:
112,80,75970,1,2,1:2:0:0:
107,71,76045,1,2,1:2:0:0:
102,62,76120,1,10,1:2:0:0:
98,53,76195,1,2,2:0:0:0:
94,44,76270,54,0,P|63:12|25:8,3,48.75,2|0|10|0,1:2|1:0|1:2|1:0,2:0:0:0:
50,129,76570,2,0,P|7:116|-27:132,3,48.75,2|0|10|0,1:2|1:0|1:2|1:0,2:0:0:0:
121,167,76870,2,0,B|137:214|137:214|121:273,1,97.5,2|10,1:2|1:2,2:0:0:0:
31,273,77170,1,2,1:2:0:0:
31,282,77245,1,2,1:2:0:0:
30,291,77320,1,10,1:2:0:0:
29,300,77395,1,2,1:2:0:0:
27,309,77470,5,6,1:2:0:0:
124,260,77620,2,0,B|164:251|164:251|241:286,1,97.5,10|2,2:0|1:2,2:0:0:0:
367,325,77920,53,10,1:2:0:0:
306,260,78070,2,0,B|266:251|266:251|189:286,1,97.5,2|10,1:2|2:0,2:0:0:0:
199,355,78370,1,2,1:2:0:0:
208,357,78445,1,2,1:2:0:0:
217,359,78520,1,10,1:2:0:0:
113,345,78670,5,2,1:2:0:0:
216,188,78820,2,0,B|233:146|233:146|194:90,1,97.5,10|2,2:0|1:2,2:0:0:0:
135,32,79120,53,10,1:2:0:0:
274,67,79270,2,0,B|301:106|301:106|365:112,1,97.5,2|10,1:2|2:0,2:0:0:0:
441,43,79570,2,0,L|431:-14,2,48.75,2|2|10,1:2|1:2|1:2,2:0:0:0:
435,179,79870,5,2,1:2:0:0:
444,181,79945,1,0,3:0:0:0:
453,183,80020,2,0,B|480:231|480:231|449:293,1,97.5,10|2,2:0|1:2,2:0:0:0:
410,341,80320,53,10,1:2:0:0:
272,291,80470,2,0,B|227:280|227:280|181:307,1,97.5,2|10,1:2|2:0,2:0:0:0:
97,354,80770,1,2,1:2:0:0:
87,356,80845,1,2,1:2:0:0:
77,357,80920,1,10,1:2:0:0:
108,252,81070,5,2,1:2:0:0:
153,169,81220,2,0,B|160:123|160:123|131:79,1,97.5,10|2,2:0|1:2,2:0:0:0:
46,33,81520,53,10,1:2:0:0:
209,17,81670,2,0,B|256:0|256:0|322:43,1,97.5,2|10,1:2|2:0,2:0:0:0:
375,88,81970,1,2,1:2:0:0:
370,96,82045,1,2,1:2:0:0:
365,104,82120,1,10,1:2:0:0:
476,45,82270,5,6,1:2:0:0:
476,45,82570,1,8,2:0:0:0:
471,73,82645,1,8,2:0:0:0:
469,102,82720,1,8,2:0:0:0:
472,131,82795,1,8,2:0:0:0:
478,159,82870,2,0,B|452:176|452:176|360:138|360:138|314:146,1,146.25,0|0,1:0|3:0,2:0:0:0:
263,96,83170,54,0,P|250:82|228:42,3,37.5,0|0|0|0,1:0|3:0|3:0|3:0,2:0:0:0:
155,85,83470,2,0,P|152:99|141:115,3,30,0|0|0|0,1:0|3:0|3:0|3:0,2:0:0:0:
201,174,83770,2,0,P|214:167|230:170,3,22.5,0|0|0|0,1:0|3:0|3:0|3:0,2:0:0:0:
122,214,84070,5,0,1:0:0:0:
0,372,84370,53,12,2:0:0:0:
260,370,84670,5,6,1:2:0:0:
319,300,84820,1,2,1:2:0:0:
258,235,84970,2,0,L|250:150,1,75,10|0,1:2|1:0,2:0:0:0:
193,306,85270,53,2,1:2:0:0:
371,225,85420,2,0,L|456:210,1,75,2|10,1:2|1:2,2:0:0:0:
475,134,85720,1,0,1:0:0:0:
481,293,85870,5,2,1:2:0:0:
481,293,86020,1,0,1:0:0:0:
392,136,86170,2,0,L|378:58,1,75,10|2,1:2|1:2,2:0:0:0:
371,225,86470,1,2,1:2:0:0:
250,160,86620,2,0,L|236:82,1,75,0|10,1:0|1:2,2:0:0:0:
174,28,86920,1,0,1:0:0:0:
16,51,87070,54,0,P|79:69|100:104,1,75,2|0,1:2|1:0,2:0:0:0:
156,133,87370,1,10,1:2:0:0:
156,133,87520,1,2,1:2:0:0:
69,156,87670,1,2,1:2:0:0:
91,237,87820,2,0,L|120:308,1,75,0|10,1:0|1:2,2:0:0:0:
52,375,88120,6,0,P|117:328|215:324,1,150,6|0,1:2|1:0,2:0:0:0:
317,251,88570,1,10,1:2:0:0:
226,233,88720,1,0,1:0:0:0:
249,384,88870,1,2,1:2:0:0:
324,334,89020,1,0,1:0:0:0:
407,360,89170,2,0,L|491:373,1,75,10|0,1:2|1:0,2:0:0:0:
317,251,89470,53,6,1:2:0:0:
287,163,89620,1,2,1:2:0:0:
203,146,89770,2,0,L|114:157,1,75,10|0,1:2|1:0,2:0:0:0:
226,61,90070,5,2,1:2:0:0:
310,44,90220,2,0,L|399:55,1,75,2|10,1:2|1:2,2:0:0:0:
475,23,90520,1,0,1:0:0:0:
445,128,90670,53,2,1:2:0:0:
445,128,90820,1,0,1:0:0:0:
340,160,90970,2,0,L|447:140,1,75,10|2,1:2|1:2,2:0:0:0:
398,233,91270,5,2,1:2:0:0:
503,265,91420,2,0,L|396:245,1,75,0|10,1:0|1:2,2:0:0:0:
355,321,91720,1,0,1:0:0:0:
465,364,91870,53,6,1:2:0:0:
16,192,92470,5,6,2:0:0:0:
83,0,92920,54,0,B|106:27|79:64|79:64|102:77|102:77|70:133|90:163,1,165,6|0,2:0|2:0,2:0:0:0:
96,162,93295,1,0,3:0:0:0:
96,162,93370,2,0,L|159:150,3,41.25,8|8|8|8,2:0|2:0|2:0|2:0,2:0:0:0:
27,220,93670,2,0,L|-11:263,3,41.25,0|0|0|0,1:0|3:0|3:0|3:0,2:0:0:0:
109,243,93970,2,0,L|134:294,3,41.25,0|0|0|0,1:0|3:0|3:0|3:0,2:0:0:0:
50,324,94270,5,4,1:2:0:0:
144,364,94420,1,10,2:0:0:0:
215,307,94570,2,0,L|255:347,2,41.25,2|0|10,1:2|1:0|1:2,2:0:0:0:
222,210,94870,1,2,1:2:0:0:
337,171,95020,2,0,P|278:133|269:40,1,165,10|10,2:0|1:2,2:0:0:0:
291,259,95470,54,0,B|319:250|319:250|391:329|391:329|438:325,1,165,2|0,1:2|1:0,2:0:0:0:
448,335,95845,1,0,1:0:0:0:
448,335,95920,1,10,1:2:0:0:
482,236,96070,2,0,L|464:150,1,82.5,0|10,1:0|2:0,2:0:0:0:
470,75,96370,1,0,1:0:0:0:
400,24,96520,1,10,1:2:0:0:
249,50,96670,6,0,L|343:70,1,82.5,2|10,1:2|2:0,2:0:0:0:
378,139,96970,1,2,1:2:0:0:
314,203,97120,1,10,1:2:0:0:
314,203,97270,1,2,1:2:0:0:
233,143,97420,2,0,P|189:133|138:88,1,82.5,10|0,2:0|1:0,2:0:0:0:
233,250,97720,54,0,P|147:272|103:340,1,165,14|10,1:2|2:0,2:0:0:0:
14,364,98170,2,0,L|32:299,3,41.25,0|0|10|0,1:0|1:0|1:2|3:0,2:0:0:0:
50,250,98470,1,0,1:0:0:0:
47,237,98545,1,0,1:0:0:0:
44,224,98620,1,10,1:2:0:0:
42,211,98695,1,0,1:0:0:0:
38,199,98770,2,0,B|52:172|33:156|33:156|61:138|61:138|71:119|44:61,1,123.75,0|0,1:0|1:0,2:0:0:0:
70,56,99070,5,4,1:2:0:0:
193,38,99220,1,10,2:0:0:0:
193,38,99370,2,0,L|246:24,2,41.25,2|0|10,1:2|1:0|1:2,2:0:0:0:
233,142,99670,54,0,L|316:151,1,82.5,2|10,1:2|2:0,2:0:0:0:
400,180,99970,1,0,1:0:0:0:
388,98,100120,1,10,1:2:0:0:
345,288,100270,6,0,P|331:326|343:365,1,82.5,2|10,1:2|2:0,2:0:0:0:
316,370,100495,1,0,3:0:0:0:
316,370,100570,2,0,L|254:368,2,41.25,0|0|10,1:0|1:0|1:2,2:0:0:0:
489,350,100870,2,0,L|454:263,1,82.5,0|10,1:0|2:0,2:0:0:0:
400,180,101170,1,0,1:0:0:0:
296,179,101320,1,10,1:2:0:0:
353,297,101470,54,0,P|364:347|347:380,1,82.5,2|10,1:2|2:0,2:0:0:0:
266,342,101770,1,2,1:2:0:0:
189,367,101920,1,10,1:2:0:0:
143,211,102070,1,2,1:2:0:0:
143,211,102220,2,0,L|167:295,1,82.5,10|0,2:0|1:0,2:0:0:0:
81,138,102520,6,0,B|94:110|130:106|130:106|207:137|207:137|244:126|249:92,1,195,14|0,1:2|3:0,2:0:0:0:
371,27,102970,2,0,P|415:19|431:27,3,41.25,8|8|8|8,2:0|2:0|2:0|2:0,2:0:0:0:
421,98,103270,2,0,P|405:140|391:149,3,41.25,0|0|0|0,1:0|3:0|3:0|3:0,2:0:0:0:
334,105,103570,1,0,1:0:0:0:
327,100,103645,1,0,3:0:0:0:
320,95,103720,1,0,3:0:0:0:
459,210,103870,54,0,L|531:198,3,41.25,4|0|0|0,1:2|1:0|1:0|1:0,2:0:0:0:
367,218,104170,6,0,P|354:228|345:256,3,30,10|0|0|0,1:2|1:0|1:0|1:0,2:0:0:0:
293,314,104470,2,0,P|308:319|336:313,3,30,10|0|0|0,1:2|1:0|1:0|1:0,2:0:0:0:
413,330,104770,2,0,P|410:314|391:292,3,30,10|0|0|0,1:2|1:0|1:0|1:0,2:0:0:0:
505,379,105070,54,0,L|518:302,8,41.25,10|0|0|0|8|0|0|0|8,1:2|1:0|1:0|1:0|1:2|1:0|1:0|1:0|1:2,2:0:0:0:
403,333,105820,2,0,P|348:334|312:360,1,82.5,2|8,1:2|1:2,2:0:0:0:
224,337,106120,1,2,1:2:0:0:
224,337,106195,1,0,1:0:0:0:
224,337,106270,6,0,L|155:354,3,41.25,8|0|0|0,1:2|1:0|1:0|1:0,2:0:0:0:
112,284,106570,54,0,P|117:258|112:234,3,30,10|0|0|0,1:2|1:0|1:0|1:0,2:0:0:0:
190,210,106870,2,0,P|169:192|146:185,3,30,10|0|0|0,1:2|1:0|1:0|1:0,2:0:0:0:
185,102,107170,2,0,P|159:110|141:127,3,30,10|0|0|0,1:2|1:0|1:0|1:0,2:0:0:0:
46,159,107470,6,0,L|123:170,8,41.25,10|0|0|0|8|0|0|0|8,1:2|1:0|1:0|1:0|1:2|1:0|1:0|1:0|1:2,2:0:0:0:
6,10,108220,2,0,L|109:25,1,82.5,2|8,1:2|1:2,2:0:0:0:
265,50,108520,1,2,1:2:0:0:
265,50,108595,1,0,1:0:0:0:
265,50,108670,54,0,P|274:20|277:-15,3,41.25,12|0|0|0,1:2|1:0|1:0|1:0,2:0:0:0:
255,147,108970,6,0,L|207:128,3,30,10|0|0|0,1:2|1:0|1:0|1:0,2:0:0:0:
337,110,109270,2,0,L|341:139,3,30,10|0|0|0,1:2|1:0|1:0|1:0,2:0:0:0:
386,45,109570,2,0,L|409:26,3,30,10|0|0|0,1:2|1:0|1:0|1:0,2:0:0:0:
499,26,109870,54,0,P|498:59|509:82,7,37.5,10|0|0|0|8|0|0|0,1:2|1:0|1:0|1:0|1:2|1:0|1:0|1:0,2:0:0:0:
467,159,110470,6,0,B|455:156|455:156|430:167,3,37.5,10|0|0|0,1:2|1:0|1:0|1:0,2:0:0:0:
351,242,110770,2,0,B|363:245|363:245|388:234,3,37.5,10|0|0|0,1:2|1:0|1:0|1:0,2:0:0:0:
461,276,111070,54,0,P|469:317|468:329,11,37.5,10|0|0|0|8|0|0|0|8|0|0|0,1:2|1:0|1:0|1:0|1:2|1:0|1:0|1:0|1:2|1:0|1:0|1:0,2:0:0:0:
392,358,111970,2,0,P|384:317|385:305,3,37.5,14|0|0|0,1:2|2:0|1:0|2:0,2:0:0:0:
293,310,112270,5,10,2:0:0:0:
278,305,112345,1,8,2:0:0:0:
263,301,112420,1,8,2:0:0:0:
248,299,112495,1,8,2:0:0:0:
233,297,112570,2,0,L|195:301,3,37.5,0|0|0|0,1:0|3:0|3:0|3:0,2:0:0:0:
125,373,112870,54,0,L|127:338,3,30,2|0|0|0,1:2|3:0|3:0|3:0,2:0:0:0:
44,367,113170,2,0,L|46:332,3,30,2|0|0|0,1:2|3:0|3:0|3:0,2:0:0:0:
19,251,113470,5,6,1:2:0:0:
71,174,113620,1,10,2:0:0:0:
21,99,113770,1,0,1:0:0:0:
18,91,113845,1,0,1:0:0:0:
16,83,113920,2,0,L|0:2,2,75,10|0|10,1:2|1:0|2:0,2:0:0:0:
110,97,114370,2,0,P|161:77|205:91,1,75,2|10,1:2|1:2,2:0:0:0:
320,176,114670,54,0,L|149:157,1,150,2|0,1:2|1:0,2:0:0:0:
87,15,115120,1,10,1:2:0:0:
243,22,115270,2,0,P|263:73|249:117,1,75,2|10,1:2|2:0,2:0:0:0:
237,247,115570,1,0,1:0:0:0:
229,245,115645,1,0,1:0:0:0:
221,243,115720,1,10,1:2:0:0:
342,300,115870,22,0,P|329:325|320:359,1,37.5,10|8,2:0|2:0,2:0:0:0:
328,345,116020,2,0,P|343:375|361:385,2,37.5,8|8|0,2:0|2:0|1:0,2:0:0:0:
438,296,116320,6,0,P|445:326|478:344,1,37.5,0|0,3:0|3:0,2:0:0:0:
453,341,116470,2,0,P|486:343|504:332,2,37.5,0|0|0,1:0|3:0|3:0,2:0:0:0:
467,215,116770,54,0,P|480:190|489:156,1,37.5,8|8,2:0|2:0,2:0:0:0:
485,162,116920,2,0,P|470:132|452:122,2,37.5,8|8|0,2:0|2:0|1:0,2:0:0:0:
367,203,117220,6,0,P|359:172|326:154,1,37.5,0|0,3:0|3:0,2:0:0:0:
341,156,117370,2,0,P|307:153|289:164,2,37.5,0|0|0,1:0|3:0|3:0,2:0:0:0:
391,75,117670,53,8,2:0:0:0:
11,19,118270,6,0,P|100:24|158:139,1,210,6|0,1:2|1:0,2:0:0:0:
46,217,118720,1,8,1:2:0:0:
165,247,118870,2,0,L|39:225,1,105,2|8,1:2|2:0,2:0:0:0:
67,104,119170,1,2,1:2:0:0:
62,100,119245,1,0,1:0:0:0:
57,96,119320,1,8,1:2:0:0:
156,21,119470,54,0,L|394:56,1,210,2|0,1:2|1:0,2:0:0:0:
376,42,119845,1,0,1:0:0:0:
390,34,119920,1,8,1:2:0:0:
478,11,120070,1,0,1:0:0:0:
508,101,120220,1,8,2:0:0:0:
416,137,120370,2,0,P|357:151|316:186,1,105,2|8,1:2|1:2,2:0:0:0:
501,201,120670,6,0,P|494:258|455:310,1,105,2|8,1:2|2:0,2:0:0:0:
405,373,120970,1,0,1:0:0:0:
321,292,121120,1,8,1:2:0:0:
322,177,121270,54,0,P|327:236|308:295,1,105,2|8,1:2|2:0,2:0:0:0:
256,384,121570,1,0,1:0:0:0:
158,295,121720,1,8,1:2:0:0:
56,347,121870,6,0,B|84:352|84:352|132:200|132:200|191:211,1,210,2|0,1:2|1:0,2:0:0:0:
153,204,122245,1,0,1:0:0:0:
153,204,122320,1,8,1:2:0:0:
43,166,122470,1,0,1:0:0:0:
111,108,122620,1,8,2:0:0:0:
8,8,122770,2,0,L|111:27,1,75,2|8,1:2|1:2,2:0:0:0:
274,34,123070,54,0,P|257:59|232:53,11,37.5,2|0|8|0|0|0|8|0|0|0|8|0,1:2|1:0|1:2|1:0|1:0|1:0|1:2|1:0|1:0|1:0|1:2|1:0,2:0:0:0:
356,54,123970,2,0,P|424:74|448:102,1,75,2|8,1:2|1:2,2:0:0:0:
496,216,124270,6,0,L|494:167,3,37.5,2|0|8|0,1:2|1:0|1:2|1:0,2:0:0:0:
412,195,124570,2,0,L|410:146,3,37.5,2|0|8|0,1:2|1:0|1:2|1:0,2:0:0:0:
493,304,124870,54,0,L|491:353,3,37.5,2|0|8|0,1:2|1:0|1:2|1:0,2:0:0:0:
409,325,125170,2,0,L|407:374,3,37.5,2|0|8|0,1:2|1:0|1:2|1:0,2:0:0:0:
333,252,125470,6,0,P|294:239|276:239,7,37.5,2|0|8|0|0|0|8|0,1:2|1:0|1:2|1:0|1:0|1:0|1:2|1:0,2:0:0:0:
207,297,126070,2,0,P|246:310|264:310,7,37.5,2|0|8|0|0|0|8|0,1:2|1:0|1:2|1:0|1:0|1:0|1:2|1:0,2:0:0:0:
152,364,126670,53,14,2:0:0:0:
8,358,126820,1,8,2:0:0:0:
10,342,126895,1,8,2:0:0:0:
8,326,126970,2,0,L|0:266,3,37.5,8|8|8|8,2:0|2:0|2:0|2:0,2:0:0:0:
81,240,127270,2,0,L|96:302,3,37.5,0|0|0|0,1:0|3:0|3:0|3:0,2:0:0:0:
164,203,127570,1,0,1:0:0:0:
186,192,127645,1,0,3:0:0:0:
209,182,127720,1,0,3:0:0:0:
232,171,127795,1,0,3:0:0:0:
250,162,127870,6,0,B|214:112|156:105|156:105|101:105|52:23,1,210,6|0,1:2|1:0,2:0:0:0:
0,0,128320,1,8,1:2:0:0:
163,25,128470,2,0,L|275:5,1,105,2|8,1:2|2:0,2:0:0:0:
374,63,128770,1,0,1:0:0:0:
364,66,128845,1,0,1:0:0:0:
353,68,128920,1,8,1:2:0:0:
472,2,129070,54,0,P|411:48|439:174,1,210,2|0,1:2|1:0,2:0:0:0:
442,178,129445,1,0,1:0:0:0:
452,189,129520,1,8,1:2:0:0:
444,365,129670,1,0,1:0:0:0:
511,282,129820,1,8,2:0:0:0:
389,271,129970,1,2,1:2:0:0:
378,270,130045,1,0,1:0:0:0:
367,269,130120,1,8,1:2:0:0:
311,365,130270,6,0,B|307:335|307:335|178:274|178:274|178:231,1,210,2|0,1:2|1:0,2:0:0:0:
190,213,130645,1,0,1:0:0:0:
187,197,130720,2,0,L|71:155,1,105,10|0,1:2|1:0,2:0:0:0:
17,89,131020,1,8,2:0:0:0:
39,256,131170,2,0,P|46:338|18:384,1,105,2|8,1:2|1:2,2:0:0:0:
135,99,131470,54,0,P|161:67|150:25,4,52.5,2|0|8|0|0,1:2|1:0|1:2|1:0|1:0,2:0:0:0:
327,113,131920,1,10,1:2:0:0:
327,113,131995,1,0,1:0:0:0:
327,113,132070,2,0,L|180:141,1,105,2|8,1:2|1:2,2:0:0:0:
190,213,132370,1,0,1:0:0:0:
200,231,132445,1,0,1:0:0:0:
203,251,132520,1,8,1:2:0:0:
298,304,132670,6,0,P|308:284|352:260,3,52.5,6|0|0|0,1:2|1:0|1:0|1:0,2:0:0:0:
419,303,132970,2,0,P|417:280|443:237,3,52.5,12|0|2|0,1:2|1:0|1:2|1:0,2:0:0:0:
512,217,133270,2,0,P|499:198|500:148,3,52.5,12|0|0|0,1:2|1:0|1:0|1:0,2:0:0:0:
406,123,133570,1,14,1:2:0:0:
392,107,133645,1,0,1:0:0:0:
379,90,133720,1,0,1:0:0:0:
369,71,133795,1,0,1:0:0:0:
366,56,133870,53,6,1:2:0:0:
156,177,135070,54,0,L|105:190,1,52.5,6|0,2:0|2:0,2:0:0:0:
256,190,136270,37,10,2:2:0:0:
256,190,136345,1,8,2:0:0:0:
256,190,136420,1,8,2:0:0:0:
147,90,136570,6,0,L|118:44,2,37.5,2|0|0,1:2|3:0|3:0,2:0:0:0:
259,44,136870,6,0,L|257:-10,2,37.5,10|8|8,2:2|2:0|2:0,2:0:0:0:
378,60,137170,38,0,L|403:12,2,37.5,2|0|0,1:2|3:0|3:0,2:0:0:0:
480,142,137470,37,6,1:2:0:0:
452,149,137545,1,2,2:0:0:0:
424,155,137620,1,10,2:0:0:0:
396,161,137695,1,2,2:0:0:0:
368,166,137770,2,0,L|298:182,3,56.25,2|2|10|2,1:2|1:2|1:2|2:0,2:0:0:0:
392,270,138070,5,2,1:2:0:0:
408,274,138145,1,2,2:0:0:0:
424,278,138220,1,10,2:0:0:0:
440,281,138295,1,2,2:0:0:0:
456,284,138370,2,0,L|526:300,3,56.25,2|2|10|2,1:2|1:2|1:2|2:0,2:0:0:0:
437,367,138670,53,2,1:2:0:0:
425,368,138745,1,2,2:0:0:0:
413,369,138820,1,10,2:0:0:0:
401,370,138895,1,2,2:0:0:0:
389,371,138970,2,0,L|315:384,3,56.25,2|2|10|2,1:2|1:2|1:2|2:0,2:0:0:0:
263,311,139270,2,0,L|259:220,3,56.25,2|2|10|2,1:2|2:0|2:0|2:0,2:0:0:0:
186,333,139570,2,0,B|189:357|165:382|165:382|54:344,1,168.75,2|0,1:2|3:0,2:0:0:0:
25,258,139870,5,2,1:2:0:0:
31,219,139945,1,2,2:0:0:0:
31,179,140020,1,10,2:0:0:0:
22,140,140095,1,2,2:0:0:0:
9,102,140170,2,0,P|1:75|-25:43,3,56.25,2|2|10|2,1:2|1:2|1:2|2:0,2:0:0:0:
92,56,140470,2,0,P|98:28|92:-12,3,56.25,2|2|10|2,1:2|2:0|2:0|2:0,2:0:0:0:
173,110,140770,1,2,1:2:0:0:
173,110,140845,1,2,1:2:0:0:
173,110,140920,1,10,1:2:0:0:
333,21,141070,54,0,P|262:27|251:92,1,112.5,2|10,1:2|2:0,2:0:0:0:
356,100,141295,2,0,P|427:106|438:171,1,112.5,2|0,2:0|1:0,2:0:0:0:
318,176,141520,1,10,1:2:0:0:
318,176,141670,2,0,L|253:159,1,56.25,2|0,1:2|3:0,2:0:0:0:
512,206,141820,6,0,L|308:260,1,168.75,10|0,2:0|1:0,2:0:0:0:
331,270,142120,2,0,L|346:330,1,56.25,10|0,1:2|3:0,2:0:0:0:
240,348,142270,54,0,P|163:314|130:274,1,112.5,2|10,1:2|2:0,2:0:0:0:
121,261,142495,1,2,2:0:0:0:
121,261,142570,1,0,1:0:0:0:
27,362,142720,6,0,P|17:253|-6:226,1,112.5,10|0,1:2|1:0,2:0:0:0:
8,215,142945,1,2,2:0:0:0:
8,215,143020,1,10,2:0:0:0:
36,75,143170,54,0,B|35:49|35:49|10:33,2,56.25,2|0|10,1:2|2:0|1:2,2:0:0:0:
95,157,143470,6,0,P|170:139|203:83,1,112.5,2|8,1:2|2:0,2:0:0:0:
214,82,143695,1,0,3:0:0:0:
214,82,143770,1,2,1:2:0:0:
324,27,143920,1,10,1:2:0:0:
476,16,144070,2,0,B|442:17|442:17|405:46|405:46|305:61,2,168.75,2|2|10,1:2|3:2|1:2,2:0:0:0:
477,128,144670,53,2,1:2:0:0:
452,165,144745,1,2,2:0:0:0:
477,202,144820,2,0,L|537:213,3,56.25,10|2|2|2,2:0|2:0|1:2|1:2,2:0:0:0:
341,216,145120,5,10,1:2:0:0:
366,253,145195,1,2,2:0:0:0:
341,290,145270,2,0,L|281:301,3,56.25,2|2|10|2,1:2|2:0|2:0|2:0,2:0:0:0:
202,345,145570,53,2,1:2:0:0:
191,318,145645,1,2,1:2:0:0:
185,290,145720,1,10,1:2:0:0:
187,262,145795,1,2,2:0:0:0:
199,236,145870,6,0,P|209:201|207:169,3,56.25,2|2|10|2,1:2|2:0|2:0|2:0,2:0:0:0:
97,269,146170,2,0,P|71:242|42:228,3,56.25,2|2|10|2,1:2|1:2|1:2|2:0,2:0:0:0:
114,153,146470,1,2,1:2:0:0:
91,118,146545,1,2,2:0:0:0:
97,77,146620,1,10,2:0:0:0:
127,49,146695,1,2,2:0:0:0:
168,48,146770,2,0,P|186:100|203:198,1,112.500004291535,2|8,1:2|0:0,0:0:0:0:
472,50,147070,54,0,L|393:16,3,56.25,6|2|10|2,1:2|2:0|2:0|2:0,2:0:0:0:
336,58,147370,2,0,L|256:89,3,56.25,2|2|10|2,1:2|1:2|1:2|2:0,2:0:0:0:
405,114,147670,1,2,1:2:0:0:
405,130,147745,1,2,2:0:0:0:
405,158,147820,1,10,2:0:0:0:
421,187,147895,1,2,2:0:0:0:
441,213,147970,2,0,B|483:226|461:172|422:193|359:300,1,168.75,2|0,1:2|3:0,2:0:0:0:
340,332,148270,5,2,1:2:0:0:
219,191,148420,1,10,2:0:0:0:
219,191,148495,1,2,2:0:0:0:
219,191,148570,1,2,1:2:0:0:
212,328,148720,2,0,L|210:384,2,56.25,10|2|2,1:2|2:0|1:2,2:0:0:0:
305,240,149020,1,10,2:0:0:0:
305,240,149095,1,2,2:0:0:0:
305,240,149170,1,2,1:2:0:0:
151,259,149320,1,10,1:2:0:0:
33,372,149470,54,0,P|48:346|43:294,3,56.25,2|2|10|2,1:2|2:0|2:0|2:0,2:0:0:0:
44,236,149770,2,0,P|32:210|10:187,3,56.25,2|2|10|2,1:2|1:2|1:2|2:0,2:0:0:0:
136,163,150070,6,0,P|151:137|198:115,3,56.25,2|2|10|2,1:2|2:0|2:0|2:0,2:0:0:0:
248,85,150370,2,0,P|276:82|307:89,3,56.25,2|2|10|2,1:2|1:2|1:2|2:0,2:0:0:0:
173,29,150670,2,0,P|138:24|83:40,3,56.25,2|2|10|2,1:2|2:0|2:0|2:0,2:0:0:0:
248,164,150970,1,2,1:2:0:0:
275,183,151045,1,2,1:2:0:0:
308,187,151120,1,10,1:2:0:0:
341,181,151195,1,2,2:0:0:0:
372,170,151270,54,0,B|427:112|427:112|409:70|409:70|495:-11,1,225,2|0,1:2|2:0,2:0:0:0:
464,306,151870,6,0,L|477:369,2,56.25,2|2|10,1:2|2:0|2:0,2:0:0:0:
362,231,152170,1,2,1:2:0:0:
362,231,152245,1,2,1:2:0:0:
362,231,152320,1,10,1:2:0:0:
218,248,152470,1,2,1:2:0:0:
218,248,152545,1,2,2:0:0:0:
218,248,152620,54,0,B|150:241|150:241|88:286|88:286|-10:265,1,225,10|10,2:0|1:2,2:0:0:0:
4,265,152995,1,2,2:0:0:0:
4,265,153070,1,2,1:2:0:0:
141,358,153220,6,0,B|148:290|148:290|103:228|103:228|124:130,1,225,10|10,2:0|1:2,2:0:0:0:
139,121,153595,1,2,2:0:0:0:
139,121,153670,1,2,1:2:0:0:
74,13,153820,1,10,2:0:0:0:
201,2,153970,1,2,1:2:0:0:
198,13,154045,1,2,1:2:0:0:
195,24,154120,1,10,1:2:0:0:
374,50,154270,54,0,P|241:96|254:277,1,337.5,2|8,1:2|2:0,2:0:0:0:
127,227,154870,2,0,P|144:277|177:315,3,56.25,2|2|10|2,1:2|2:0|2:0|2:0,2:0:0:0:
39,224,155170,2,0,P|4:263|-12:311,3,56.25,2|2|10|2,1:2|1:2|1:2|2:0,2:0:0:0:
79,138,155470,5,10,2:0:0:0:
77,109,155545,1,10,2:0:0:0:
74,80,155620,1,10,2:0:0:0:
72,51,155695,1,10,2:0:0:0:
69,22,155770,2,0,L|5:-2,3,56.25,2|2|2|2,1:2|3:2|3:2|3:2,2:0:0:0:
154,47,156070,2,0,L|207:28,3,56.25,2|2|2|2,1:2|3:2|3:2|3:2,2:0:0:0:
285,2,156370,2,0,L|338:22,3,56.25,2|2|2|2,1:2|3:2|3:2|3:2,2:0:0:0:
482,26,156670,6,0,B|446:21|446:21|370:124|370:124|308:109,1,195,6|0,1:2|1:0,2:0:0:0:
322,110,157045,1,0,1:0:0:0:
322,110,157120,1,10,1:2:0:0:
420,188,157270,1,0,1:0:0:0:
296,186,157420,2,0,B|340:199|340:199|370:265,1,97.5,10|0,2:0|1:0,2:0:0:0:
414,313,157720,1,10,1:2:0:0:
231,353,157870,6,0,P|162:332|138:297,1,97.5,2|10,1:2|2:0,2:0:0:0:
113,322,158095,2,8,P|96:251|114:213,1,97.5,2|0,2:0|1:0,2:0:0:0:
116,205,158320,1,10,1:2:0:0:
218,185,158470,6,0,L|0:134,1,195,2|0,1:2|1:0,2:0:0:0:
18,117,158845,1,0,1:0:0:0:
18,117,158920,1,10,1:2:0:0:
143,10,159070,38,0,B|187:-7|187:-7|247:28,1,97.5,2|10,1:2|2:0,2:0:0:0:
228,100,159295,2,0,B|184:74|184:74|140:91,1,97.5,2|0,2:0|1:0,2:0:0:0:
76,48,159520,1,10,1:2:0:0:
162,189,159670,6,0,B|145:233|145:233|180:293,1,97.5,2|10,1:2|2:0,2:0:0:0:
259,271,159895,2,0,B|233:227|233:227|250:183,1,97.5,2|0,2:0|1:0,2:0:0:0:
307,125,160120,1,10,1:2:0:0:
322,11,160270,6,0,L|375:214,1,195,2|0,1:2|1:0,2:0:0:0:
393,219,160645,1,0,1:0:0:0:
393,219,160720,1,10,1:2:0:0:
506,238,160870,2,0,P|459:284|440:341,1,97.5,0|10,1:0|2:0,2:0:0:0:
373,357,161170,1,0,1:0:0:0:
311,303,161320,1,10,1:2:0:0:
105,356,161470,5,6,1:2:0:0:
162,271,161620,1,10,1:2:0:0:
166,249,161695,1,2,1:2:0:0:
162,226,161770,2,0,L|94:207,3,52.5,2|2|10|2,1:2|1:2|1:2|1:2,2:0:0:0:
259,184,162070,6,0,P|203:130|182:72,1,105,2|8,1:2|1:2,2:0:0:0:
176,78,162295,1,2,1:2:0:0:
176,78,162370,1,0,1:0:0:0:
23,13,162520,1,10,1:2:0:0:
80,83,162670,54,0,P|62:128|-2:158,1,105,2|8,1:2|1:2,2:0:0:0:
2,185,162895,1,0,1:0:0:0:
2,185,162970,1,0,1:0:0:0:
2,309,163120,2,0,B|81:309|81:309|102:290|102:290|126:316|126:316|224:332,1,210,10|8,1:2|1:2,2:0:0:0:
217,301,163495,1,0,1:0:0:0:
217,301,163570,1,2,1:2:0:0:
312,340,163720,1,8,1:2:0:0:
269,193,163870,6,0,B|302:186|302:186|324:51|324:51|371:44,1,210,2|0,1:2|1:0,2:0:0:0:
390,33,164245,1,0,1:0:0:0:
390,33,164320,1,8,1:2:0:0:
489,98,164470,1,0,1:0:0:0:
392,158,164620,1,8,1:2:0:0:
229,111,164770,2,0,L|239:45,2,52.5,0|0|8,1:0|1:0|1:2,2:0:0:0:
109,80,165070,53,8,2:0:0:0:
106,103,165145,1,8,2:0:0:0:
103,126,165220,2,0,B|127:149|127:149|183:130,3,52.5,10|0|0|0,2:0|2:0|2:0|3:0,2:0:0:0:
256,197,165520,1,2,3:2:0:0:
256,197,165595,1,2,3:2:0:0:
256,197,165670,2,0,B|269:242|269:242|223:298,1,105,2|0,1:2|3:2,2:0:0:0:
11,384,165970,1,10,2:0:0:0:
5,363,166045,1,8,2:0:0:0:
1,342,166120,1,8,2:0:0:0:
1,321,166195,1,8,2:0:0:0:
6,300,166270,22,0,B|47:296|61:249|61:249|111:264|111:264|128:221|187:209,1,210,6|0,1:2|1:0,2:0:0:0:
229,111,166720,1,10,1:2:0:0:
146,35,166870,1,0,1:0:0:0:
8,23,167020,6,0,P|72:42|113:129,1,157.5,10|0,2:0|2:0,2:0:0:0:
116,134,167320,1,10,1:2:0:0:
240,23,167470,6,0,P|303:11|348:27,1,105,2|10,1:2|2:0,2:0:0:0:
413,97,167695,2,0,P|350:109|305:93,1,105,2|0,2:0|1:0,2:0:0:0:
229,111,167920,1,10,1:2:0:0:
374,188,168070,38,0,P|386:251|370:296,1,105,2|10,1:2|2:0,2:0:0:0:
300,361,168295,2,0,P|288:298|304:253,1,105,2|0,2:0|1:0,2:0:0:0:
286,177,168520,1,10,1:2:0:0:
206,349,168670,6,0,B|88:342|88:342|42:324|81:235,1,210,2|0,1:2|1:0,2:0:0:0:
83,246,169045,1,0,1:0:0:0:
83,246,169120,1,10,1:2:0:0:
169,169,169270,1,2,1:2:0:0:
66,137,169420,1,10,2:0:0:0:
149,76,169570,1,0,1:0:0:0:
138,73,169645,1,0,1:0:0:0:
127,70,169720,1,10,1:2:0:0:
241,54,169870,6,0,B|282:51|323:124|323:124|346:168|422:191,1,210,2|0,1:2|1:0,2:0:0:0:
427,203,170245,1,0,1:0:0:0:
427,203,170320,1,10,1:2:0:0:
420,60,170470,38,0,B|379:57|338:130|338:130|315:174|239:197,1,210,2|0,1:2|1:0,2:0:0:0:
234,209,170845,1,0,1:0:0:0:
234,209,170920,1,10,1:2:0:0:
157,149,171070,37,6,1:2:0:0:
185,296,171220,1,10,1:2:0:0:
217,313,171295,1,2,1:2:0:0:
243,332,171370,2,0,L|248:399,3,56.25,2|2|10|2,1:2|1:2|1:2|1:2,2:0:0:0:
329,318,171670,1,2,1:2:0:0:
339,320,171745,1,2,1:2:0:0:
350,321,171820,1,10,1:2:0:0:
360,324,171895,1,2,1:2:0:0:
371,326,171970,6,0,B|404:328|404:328|441:371|441:371|513:369,1,112.5,2|8,1:2|2:0,2:0:0:0:
337,235,172270,53,2,1:2:0:0:
424,166,172420,1,10,1:2:0:0:
431,151,172495,1,2,1:2:0:0:
437,135,172570,2,0,P|453:102|452:76,3,56.25,2|2|10|2,1:2|1:2|1:2|1:2,2:0:0:0:
367,40,172870,2,0,P|346:9|323:-2,3,56.25,2|2|10|2,1:2|1:2|1:2|1:2,2:0:0:0:
309,103,173170,1,2,1:2:0:0:
292,98,173245,1,2,1:2:0:0:
275,93,173320,1,10,1:2:0:0:
258,88,173395,1,2,1:2:0:0:
241,84,173470,5,2,1:2:0:0:
46,29,173620,2,0,P|159:112|167:206,1,225,8|8,1:2|1:2,2:0:0:0:
169,205,173995,1,0,1:0:0:0:
169,205,174070,1,0,1:0:0:0:
281,214,174220,2,0,P|196:232|89:333,1,225,8|8,1:2|1:2,2:0:0:0:
242,348,174670,53,10,2:0:0:0:
258,342,174745,1,8,2:0:0:0:
273,335,174820,2,0,L|336:317,3,56.25,10|8|0|0,2:0|1:0|1:0|1:0,2:0:0:0:
419,361,175120,5,2,3:2:0:0:
421,344,175195,1,0,1:0:0:0:
425,327,175270,2,0,L|435:231,1,75,2|0,1:2|3:0,2:0:0:0:
495,202,175570,1,2,1:2:0:0:
425,160,175720,1,0,3:0:0:0:
328,215,175870,37,6,1:2:0:0:
5,14,178270,53,6,1:2:0:0:
474,364,180670,53,6,1:2:0:0:
469,30,181870,21,6,1:2:0:0:
5,203,183070,53,6,1:2:0:0:
241,20,184270,53,10,2:0:0:0:
237,30,184345,1,8,2:0:0:0:
233,40,184420,1,8,2:0:0:0:
231,51,184495,1,8,2:0:0:0:
229,62,184570,2,0,P|234:101|242:118,3,37.5,0|0|0|0,1:0|3:0|3:0|3:0,2:0:0:0:
229,197,184870,22,0,P|260:173|270:157,3,37.5,2|0|0|0,1:2|3:0|3:0|3:0,2:0:0:0:
345,129,185170,2,0,P|308:113|290:112,3,37.5,2|0|0|0,1:2|3:0|3:0|3:0,2:0:0:0:
427,115,185470,53,6,1:2:0:0:
490,220,185620,1,10,2:0:0:0:
395,281,185770,1,0,1:0:0:0:
383,279,185845,1,0,1:0:0:0:
371,277,185920,2,0,L|328:197,2,75,10|0|10,1:2|1:0|2:0,2:0:0:0:
469,345,186370,2,0,P|425:374|379:367,1,75,2|10,1:2|1:2,2:0:0:0:
490,220,186670,54,0,P|468:160|370:123,1,150,2|0,1:2|1:0,2:0:0:0:
311,113,187120,1,10,1:2:0:0:
262,247,187270,2,0,P|252:192|280:150,1,75,2|10,1:2|2:0,2:0:0:0:
250,49,187570,1,0,1:0:0:0:
254,38,187645,1,0,1:0:0:0:
258,27,187720,1,10,1:2:0:0:
137,87,187870,21,10,2:0:0:0:
126,82,187945,1,8,2:0:0:0:
115,78,188020,1,8,2:0:0:0:
103,76,188095,1,8,2:0:0:0:
91,76,188170,2,0,P|72:75|25:54,3,37.5,0|0|0|0,1:0|3:0|3:0|3:0,2:0:0:0:
37,162,188470,2,0,P|21:151|-9:109,3,37.5,0|0|0|0,1:0|3:0|3:0|3:0,2:0:0:0:
175,191,188770,53,8,2:0:0:0:
186,186,188845,1,8,2:0:0:0:
197,182,188920,1,8,2:0:0:0:
209,180,188995,1,8,2:0:0:0:
221,180,189070,2,0,P|239:179|287:158,3,37.5,0|0|0|0,1:0|3:0|3:0|3:0,2:0:0:0:
230,282,189370,2,0,P|245:271|276:229,3,37.5,0|0|0|0,1:0|3:0|3:0|3:0,2:0:0:0:
106,344,189670,53,8,2:0:0:0:
493,368,190270,38,0,B|472:329|446:319|446:319|375:302|375:302|337:259|332:197,1,210,6|0,1:2|1:0,2:0:0:0:
317,108,190720,1,8,1:2:0:0:
428,174,190870,2,0,P|376:156|333:117,1,105,2|8,1:2|2:0,2:0:0:0:
212,42,191170,1,2,1:2:0:0:
227,38,191245,1,0,1:0:0:0:
242,34,191320,1,8,1:2:0:0:
122,0,191470,6,0,B|154:7|154:7|191:139|191:139|232:146,1,210,2|0,1:2|1:0,2:0:0:0:
228,161,191845,1,0,1:0:0:0:
227,176,191920,1,8,1:2:0:0:
164,252,192070,1,0,1:0:0:0:
264,272,192220,1,8,2:0:0:0:
148,337,192370,2,0,P|95:302|72:242,1,105,2|8,1:2|1:2,2:0:0:0:
0,187,192670,54,0,L|100:146,1,105,2|8,1:2|2:0,2:0:0:0:
172,71,192970,1,0,1:0:0:0:
115,0,193120,1,8,1:2:0:0:
0,1,193270,6,0,L|122:9,1,105,2|8,1:2|2:0,2:0:0:0:
256,18,193570,1,0,1:0:0:0:
271,17,193645,1,0,2:0:0:0:
286,18,193720,1,8,1:2:0:0:
249,123,193870,54,0,L|297:347,1,210,2|0,1:2|1:0,2:0:0:0:
293,328,194245,1,0,1:0:0:0:
293,328,194320,1,8,1:2:0:0:
382,285,194470,1,0,1:0:0:0:
375,384,194620,1,8,2:0:0:0:
219,366,194770,2,0,P|170:359|114:375,1,75,2|8,1:2|1:2,2:0:0:0:
0,348,195070,6,0,L|71:344,11,37.5,6|0|8|0|0|0|8|0|0|0|8|0,1:2|1:0|1:2|1:0|1:0|1:0|1:2|1:0|1:0|1:0|1:2|1:0,2:0:0:0:
14,266,195970,2,0,L|31:176,1,75,2|8,1:2|1:2,2:0:0:0:
90,43,196270,54,0,L|74:-5,3,37.5,2|0|8|0,1:2|1:0|1:2|1:0,2:0:0:0:
109,129,196570,2,0,L|121:165,3,37.5,2|0|8|0,1:2|1:0|1:2|1:0,2:0:0:0:
265,167,196870,6,0,L|276:131,3,37.5,2|0|8|0,1:2|1:0|1:2|1:0,2:0:0:0:
296,45,197170,2,0,L|312:-3,3,37.5,2|0|8|0,1:2|1:0|1:2|1:0,2:0:0:0:
200,18,197470,53,2,1:2:0:0:
200,32,197545,1,0,1:0:0:0:
199,46,197620,1,8,1:2:0:0:
198,60,197695,1,0,1:0:0:0:
196,74,197770,2,0,L|188:143,3,37.5,0|0|8|0,1:0|1:0|1:2|1:0,2:0:0:0:
130,185,198070,1,2,1:2:0:0:
142,193,198145,1,0,1:0:0:0:
155,199,198220,1,8,1:2:0:0:
169,203,198295,1,0,1:0:0:0:
187,208,198370,2,0,P|230:206|249:198,3,37.5,0|0|8|0,1:0|1:0|1:2|1:0,2:0:0:0:
313,191,198670,5,12,2:0:0:0:
358,76,198820,1,8,2:0:0:0:
364,58,198895,1,8,2:0:0:0:
371,41,198970,2,0,P|375:20|372:-11,3,37.5,10|8|8|8,2:0|2:0|2:0|2:0,2:0:0:0:
489,26,199270,2,0,P|462:39|445:67,3,37.5,0|0|0|0,1:0|3:0|3:0|3:0,2:0:0:0:
510,120,199570,1,0,1:0:0:0:
510,134,199645,1,0,3:0:0:0:
510,148,199720,1,0,3:0:0:0:
510,163,199795,1,0,3:0:0:0:
512,183,199870,54,0,B|441:200|441:200|382:171|382:171|286:200,1,210,6|0,1:2|1:0,2:0:0:0:
198,142,200320,1,8,1:2:0:0:
222,269,200470,2,0,L|204:151,1,105,2|8,1:2|2:0,2:0:0:0:
196,17,200770,1,0,1:0:0:0:
216,22,200845,1,0,1:0:0:0:
236,26,200920,1,8,1:2:0:0:
110,50,201070,6,0,P|60:25|-2:141,1,210,2|0,1:2|1:0,2:0:0:0:
3,147,201445,1,0,1:0:0:0:
15,163,201520,1,8,1:2:0:0:
0,260,201670,1,0,1:0:0:0:
94,228,201820,1,8,2:0:0:0:
172,291,201970,1,2,1:2:0:0:
169,301,202045,1,0,1:0:0:0:
167,311,202120,1,8,1:2:0:0:
75,364,202270,54,0,B|98:341|98:341|237:354|237:354|261:326,1,210,2|0,1:2|1:0,2:0:0:0:
268,317,202645,1,0,1:0:0:0:
275,309,202720,2,0,L|408:289,1,105,10|0,1:2|1:0,2:0:0:0:
420,214,203020,1,8,2:0:0:0:
489,261,203170,2,0,L|485:374,1,105,2|8,1:2|1:2,2:0:0:0:
460,135,203470,6,0,P|491:119|533:118,4,52.5,2|0|8|0|0,1:2|1:0|1:2|1:0|1:0,2:0:0:0:
385,1,203920,1,10,1:2:0:0:
385,1,203995,1,0,1:0:0:0:
385,1,204070,2,0,L|380:110,1,105,2|8,1:2|1:2,2:0:0:0:
305,189,204370,1,0,1:0:0:0:
294,178,204445,1,0,1:0:0:0:
285,165,204520,1,8,1:2:0:0:
201,228,204670,54,0,P|209:251|200:303,3,52.5,6|0|0|0,1:2|1:0|1:0|1:0,2:0:0:0:
113,261,204970,2,0,P|90:269|38:260,3,52.5,12|0|2|0,1:2|1:0|1:2|1:0,2:0:0:0:
11,184,205270,6,0,P|3:161|12:109,3,52.5,12|0|0|0,1:2|1:0|1:0|1:0,2:0:0:0:
130,124,205570,1,14,1:2:0:0:
149,130,205645,1,0,1:0:0:0:
152,150,205720,1,0,1:0:0:0:
139,166,205795,1,0,1:0:0:0:
124,167,205870,53,14,1:2:0:0:
115,39,207070,22,0,B|64:31|64:31|12:59,2,97.5,6|10|2,1:2|2:0|1:2,2:0:0:0:
166,129,207520,2,0,B|217:121|217:121|269:149,2,97.5,10|2|10,1:2|1:2|2:0,2:0:0:0:
78,196,207970,2,0,L|27:181,2,48.75,2|2|10,1:2|1:2|1:2,2:0:0:0:
196,220,208270,6,0,B|182:267|182:267|209:340,2,97.5,2|10|2,1:2|2:0|1:2,2:0:0:0:
303,222,208720,2,0,B|317:269|317:269|290:342,2,97.5,10|2|10,1:2|1:2|2:0,2:0:0:0:
257,142,209170,2,0,B|296:122|296:122|387:159,1,97.5,2|10,1:2|1:2,2:0:0:0:
428,101,209470,69,2,1:2:0:0:
428,101,209545,1,0,3:0:0:0:
428,101,209620,2,0,B|394:59|394:59|399:-2,1,97.5,10|2,2:0|1:2,2:0:0:0:
487,11,209920,1,10,1:2:0:0:
486,165,210070,2,0,B|507:196|507:196|495:277,1,97.5,2|10,1:2|2:0,2:0:0:0:
450,332,210370,1,2,1:2:0:0:
450,341,210445,1,2,1:2:0:0:
450,350,210520,1,10,1:2:0:0:
370,301,210670,54,0,L|303:312,3,48.75,2|0|10|0,1:2|1:0|1:2|1:0,2:0:0:0:
296,291,210970,2,0,L|245:301,3,48.75,2|0|10|0,1:2|1:0|1:2|1:0,2:0:0:0:
220,325,211270,2,0,B|169:326|169:326|121:356,1,97.5,2|10,1:2|1:2,2:0:0:0:
25,372,211570,1,2,1:2:0:0:
16,366,211645,1,2,1:2:0:0:
8,360,211720,1,10,1:2:0:0:
80,242,211870,5,6,1:2:0:0:
80,242,211945,1,0,3:0:0:0:
80,242,212020,2,0,B|97:188|97:188|77:121,1,97.5,10|2,2:0|1:2,2:0:0:0:
41,63,212320,1,10,1:2:0:0:
41,63,212470,2,0,B|83:45|83:45|165:81,1,97.5,2|10,1:2|2:0,2:0:0:0:
219,137,212770,2,0,L|214:192,2,48.75,2|2|10,1:2|1:2|1:2,2:0:0:0:
283,49,213070,69,2,1:2:0:0:
283,49,213220,2,0,B|330:36|330:36|383:59,1,97.5,10|2,2:0|1:2,2:0:0:0:
488,140,213520,1,10,1:2:0:0:
488,140,213670,2,0,B|441:127|441:127|388:150,1,97.5,2|10,1:2|2:0,2:0:0:0:
307,179,213970,1,2,1:2:0:0:
305,188,214045,1,2,1:2:0:0:
302,197,214120,1,10,1:2:0:0:
377,260,214270,53,2,1:2:0:0:
377,260,214420,2,0,B|421:245|421:245|487:271,1,97.5,10|2,2:0|1:2,2:0:0:0:
264,279,214720,1,10,1:2:0:0:
264,279,214870,2,0,B|279:323|279:323|253:389,1,97.5,2|10,1:2|2:0,2:0:0:0:
142,360,215170,1,2,1:2:0:0:
132,358,215245,1,2,1:2:0:0:
122,357,215320,1,10,1:2:0:0:
49,265,215470,6,0,P|46:235|51:207,3,48.75,2|0|10|0,1:2|3:0|2:0|3:0,2:0:0:0:
116,179,215770,2,0,P|122:162|117:125,3,48.75,2|0|10|0,1:2|1:0|1:2|3:0,2:0:0:0:
95,56,216070,70,0,P|118:51|143:54,3,48.75,2|0|10|0,1:2|2:0|2:0|2:0,2:0:0:0:
206,100,216370,2,0,P|223:106|260:101,3,48.75,2|2|10|2,1:2|1:2|1:2|2:0,2:0:0:0:
286,32,216670,53,6,1:2:0:0:
369,76,216820,2,0,B|407:95|407:95|480:80,1,97.5,10|2,2:0|1:2,2:0:0:0:
505,2,217120,5,10,1:2:0:0:
478,161,217270,2,0,B|420:172|420:172|386:226,1,97.5,2|10,1:2|2:0,2:0:0:0:
342,286,217570,1,2,1:2:0:0:
340,295,217645,1,2,1:2:0:0:
339,304,217720,1,10,1:2:0:0:
278,198,217870,69,2,1:2:0:0:
259,91,218020,2,0,B|233:57|233:57|242:-11,1,97.5,10|2,2:0|1:2,2:0:0:0:
190,156,218320,53,10,1:2:0:0:
86,155,218470,2,0,B|43:160|43:160|-10:118,1,97.5,2|10,1:2|2:0,2:0:0:0:
73,62,218770,1,2,1:2:0:0:
74,52,218845,1,2,1:2:0:0:
75,42,218920,1,10,1:2:0:0:
21,247,219070,5,2,1:2:0:0:
131,306,219220,2,0,B|174:283|174:283|250:311,1,97.5,10|2,2:0|1:2,2:0:0:0:
182,376,219520,69,10,1:2:0:0:
292,249,219670,2,0,B|278:208|278:208|309:137,1,97.5,2|10,1:2|2:0,2:0:0:0:
311,74,219970,1,2,1:2:0:0:
311,64,220045,1,2,1:2:0:0:
311,54,220120,1,10,1:2:0:0:
314,44,220195,1,2,2:0:0:0:
322,39,220270,54,0,P|345:9|339:-17,3,48.75,2|0|10|0,1:2|1:0|1:2|1:0,2:0:0:0:
403,72,220570,2,0,P|417:106|442:114,3,48.75,2|0|10|0,1:2|1:0|1:2|1:0,2:0:0:0:
506,140,220870,2,0,B|489:183|489:183|523:273,1,97.5,2|10,1:2|1:2,2:0:0:0:
485,332,221170,1,2,1:2:0:0:
471,338,221245,1,2,1:2:0:0:
457,343,221320,1,10,1:2:0:0:
442,345,221395,1,2,1:2:0:0:
425,342,221470,37,6,1:2:0:0:
341,292,221620,1,10,2:0:0:0:
272,351,221770,1,2,1:2:0:0:
325,279,221920,5,10,1:2:0:0:
242,210,222070,2,0,B|210:161|210:161|226:88,1,112.5,2|10,1:2|2:0,2:0:0:0:
285,34,222370,1,2,1:2:0:0:
296,34,222445,1,2,1:2:0:0:
307,35,222520,1,10,1:2:0:0:
158,28,222670,53,2,1:2:0:0:
80,87,222820,1,10,2:0:0:0:
4,24,222970,1,2,1:2:0:0:
88,98,223120,5,10,1:2:0:0:
17,174,223270,2,0,B|-2:228|-2:228|38:286,1,112.5,2|10,1:2|2:0,2:0:0:0:
96,348,223570,1,2,1:2:0:0:
102,357,223645,1,2,1:2:0:0:
110,364,223720,1,10,1:2:0:0:
119,369,223795,1,2,2:0:0:0:
130,369,223870,53,2,1:2:0:0:
188,294,224020,1,10,2:0:0:0:
234,376,224170,1,2,1:2:0:0:
290,296,224320,5,10,1:2:0:0:
373,316,224470,2,0,B|424:323|424:323|486:289,1,112.5,2|10,1:2|2:0,2:0:0:0:
492,205,224770,1,2,1:2:0:0:
491,193,224845,1,2,1:2:0:0:
490,181,224920,1,10,1:2:0:0:
490,169,224995,1,2,2:0:0:0:
489,157,225070,53,2,1:2:0:0:
455,16,225220,2,0,B|450:68|450:68|405:113,1,112.5,10|2,2:0|1:2,2:0:0:0:
211,143,225520,5,10,1:2:0:0:
99,221,225670,2,0,B|80:167|80:167|119:98,1,112.5,2|10,1:2|2:0,2:0:0:0:
77,24,225970,1,2,1:2:0:0:
95,26,226045,1,2,1:2:0:0:
114,29,226120,1,10,1:2:0:0:
132,31,226195,1,2,2:0:0:0:
148,33,226270,5,6,1:2:0:0:
279,47,226570,1,8,2:0:0:0:
297,70,226645,1,8,2:0:0:0:
308,97,226720,1,8,2:0:0:0:
310,126,226795,1,8,2:0:0:0:
305,155,226870,6,0,B|310:208|310:208|336:238|336:238|342:311,1,146.25,0|0,1:0|3:0,2:0:0:0:
402,361,227170,2,0,P|425:348|435:325,3,41.25,0|0|0|0,1:0|3:0|3:0|3:0,2:0:0:0:
309,369,227470,2,0,P|284:357|277:343,3,37.5,0|0|0|0,1:0|3:0|3:0|3:0,2:0:0:0:
230,279,227770,2,0,P|248:270|264:275,3,30,0|0|0|0,1:0|3:0|3:0|3:0,2:0:0:0:
369,213,228070,53,8,2:0:0:0:
35,18,228670,5,10,3:2:0:0:
109,52,228820,1,2,3:2:0:0:
75,126,228970,1,2,3:2:0:0:
0,92,229120,1,2,2:0:0:0:
40,13,229270,53,10,2:0:0:0:
242,168,229495,5,2,3:2:0:0:
7,266,229720,53,2,3:2:0:0:
75,126,229870,2,0,P|133:160|238:159,1,150,6|0,1:2|2:0,2:0:0:0:
15,371,230320,5,0,1:0:0:0:
15,371,230395,1,0,1:0:0:0:
15,371,230470,22,0,B|78:360|93:320|93:320|154:365|154:365|192:323|232:334|232:334|336:273|488:360,1,510,12|0,1:2|3:0,2:0:0:0:
