osu file format v14

[General]
AudioFilename: audio.mp3
AudioLeadIn: 0
PreviewTime: 53395
Countdown: 0
SampleSet: Soft
StackLeniency: 0.3
Mode: 0
LetterboxInBreaks: 0
WidescreenStoryboard: 1

[Editor]
DistanceSpacing: 0.8
BeatDivisor: 4
GridSize: 4
TimelineZoom: 2.9

[Metadata]
Title:Judgment Day Has Come
TitleUnicode:Judgment Day Has Come
Artist:IOSYS feat. Nanahira
ArtistUnicode:IOSYS feat. ななひら
Creator:-Tynamo
Version:Star Stream's Extra
Source:東方緋想天 ~ Scarlet Weather Rhapsody.
Tags:Minami 有頂天変 ~ Wonderful Heaven BarkingMadDog bmd Bibbity Bill judgement tenshi hinanawi theme japanese power metal zun 上海アリス幻樂団 Yoshimi Youno 東方極楽湯界─イオシス東方コンピレーション vol.24 夕野ヨシミ Confetto team shanghai alice star stream star_stream touhou project 10.5 th10.5 Catastrophe in Bhavaagra Hisouten rock video game Hakurei Shrine Autumn Reitaisai 3 xidorn 比那名居 天子 東方project イオシス
BeatmapID:2454706
BeatmapSetID:1152650

[Difficulty]
HPDrainRate:6
CircleSize:3.8
OverallDifficulty:9
ApproachRate:9.3
SliderMultiplier:2.4
SliderTickRate:1

[Events]
//Background and Video events
0,0,"judgementday.jpg",0,0
//Break Periods
//Storyboard Layer 0 (Background)
//Storyboard Layer 1 (Fail)
//Storyboard Layer 2 (Pass)
//Storyboard Layer 3 (Foreground)
//Storyboard Layer 4 (Overlay)
//Storyboard Sound Samples

[TimingPoints]
670,300,4,2,1,40,1,0
4270,-1000,4,2,1,40,0,0
5395,-1000,4,2,1,5,0,0
5470,-1000,4,2,1,40,0,0
6370,-500,4,2,1,40,0,0
6595,-500,4,2,1,5,0,0
6670,-500,4,2,1,40,0,0
8995,-500,4,2,1,5,0,0
9070,-66.6666666666667,4,2,1,40,0,0
10270,-66.6666666666667,4,2,1,50,0,0
13570,-100,4,2,1,50,0,0
20470,-100,4,2,2,50,0,0
20695,-100,4,2,1,50,0,0
20770,-100,4,2,3,50,0,0
20845,-100,4,2,2,50,0,0
20920,-133.333333333333,4,2,2,50,0,0
21070,-133.333333333333,4,2,4,50,0,0
21145,-133.333333333333,4,2,3,50,0,0
21370,-133.333333333333,4,2,5,50,0,0
21445,-133.333333333333,4,2,4,50,0,0
21670,-133.333333333333,4,2,1,50,0,0
22270,-100,4,2,1,60,0,0
22420,-100,4,2,2,60,0,0
22570,-100,4,2,1,60,0,0
22720,-100,4,2,6,60,0,0
22870,-100,4,2,1,60,0,0
23020,-100,4,2,2,60,0,0
23170,-100,4,2,6,60,0,0
23470,-100,4,2,1,60,0,0
23620,-100,4,2,3,60,0,0
23770,-100,4,2,7,60,0,0
24220,-100,4,2,3,60,0,0
24370,-100,4,2,6,60,0,0
24670,-100,4,2,1,60,0,0
24820,-100,4,2,3,60,0,0
24970,-100,4,2,1,60,0,0
25120,-100,4,2,7,60,0,0
25270,-100,4,2,1,60,0,0
25420,-100,4,2,3,60,0,0
25570,-100,4,2,7,60,0,0
25720,-400,4,2,7,60,0,0
26020,-400,4,2,3,60,0,0
26170,-400,4,2,6,60,0,0
26920,-100,4,2,6,60,0,0
27220,-100,4,2,2,60,0,0
27370,-100,4,2,1,60,0,0
27520,-100,4,2,6,60,0,0
27670,-100,4,2,1,60,0,0
27820,-100,4,2,2,60,0,0
27970,-100,4,2,6,60,0,0
28270,-100,4,2,1,60,0,0
28420,-100,4,2,3,60,0,0
28570,-100,4,2,7,60,0,0
29020,-100,4,2,3,60,0,0
29170,-100,4,2,6,60,0,0
29470,-100,4,2,1,60,0,0
29620,-100,4,2,3,60,0,0
29770,-100,4,2,1,60,0,0
29920,-100,4,2,7,60,0,0
30070,-100,4,2,1,60,0,0
30220,-100,4,2,3,60,0,0
30370,-100,4,2,7,60,0,0
30520,-400,4,2,7,60,0,0
30820,-400,4,2,3,60,0,0
30970,-400,4,2,6,60,0,0
31270,-100,4,2,2,60,0,0
31645,-100,4,2,1,60,0,0
32020,-100,4,2,2,60,0,0
32170,-100,4,2,1,60,0,0
32320,-100,4,2,6,60,0,0
32470,-100,4,2,1,60,0,0
32620,-100,4,2,2,60,0,0
32920,-100,4,2,6,60,0,0
33070,-100,4,2,1,60,0,0
33220,-100,4,2,3,60,0,0
33370,-100,4,2,7,60,0,0
33820,-100,4,2,3,60,0,0
33970,-100,4,2,6,60,0,0
34270,-100,4,2,1,60,0,0
34420,-100,4,2,3,60,0,0
34570,-100,4,2,1,60,0,0
34720,-100,4,2,7,60,0,0
34870,-100,4,2,1,60,0,0
35020,-100,4,2,3,60,0,0
35170,-100,4,2,1,60,0,0
35320,-400,4,2,7,60,0,0
35620,-400,4,2,3,60,0,0
35770,-400,4,2,6,60,0,0
35920,-200,4,2,6,60,0,0
36070,-100,4,2,6,60,0,0
36820,-100,4,2,2,60,0,0
36970,-100,4,2,6,60,0,0
37270,-100,4,2,1,60,0,0
37420,-100,4,2,3,60,0,0
37720,-100,4,2,6,60,0,0
37870,-100,4,2,1,60,0,0
38020,-100,4,2,3,60,0,0
38170,-100,4,2,7,60,0,0
38620,-100,4,2,3,60,0,0
38770,-100,4,2,6,60,0,0
39070,-100,4,2,1,60,0,0
39220,-100,4,2,3,60,0,0
39370,-100,4,2,1,60,0,0
39520,-100,4,2,6,60,0,0
39670,-100,4,2,1,60,0,0
39820,-100,4,2,3,60,0,0
39970,-100,4,2,7,60,0,0
40120,-400,4,2,7,60,0,0
40345,-400,4,2,7,5,0,0
40420,-100,4,2,7,60,0,0
40645,-100,4,2,2,60,0,0
40945,-100,4,2,1,60,0,0
41170,-100,4,2,3,60,0,0
41245,-100,4,2,2,60,0,0
41470,-100,4,2,1,60,0,0
50170,-100,4,2,2,60,0,0
50245,-100,4,2,1,60,0,0
50470,-100,4,2,8,60,0,0
50545,-100,4,2,2,60,0,0
50770,-100,4,2,4,60,0,0
50845,-100,4,2,3,60,0,0
51070,-100,4,2,1,60,0,0
51220,-100,4,2,3,60,0,0
51370,-100,4,2,6,60,0,0
51820,-100,4,2,3,60,0,0
51970,-100,4,2,1,60,0,0
52120,-100,4,2,6,60,0,0
52270,-100,4,2,1,60,0,0
52420,-100,4,2,3,60,0,0
52570,-100,4,2,6,60,0,0
52870,-100,4,2,1,60,0,0
53020,-100,4,2,3,60,0,0
53170,-100,4,2,6,60,0,0
53470,-100,4,2,1,60,0,0
53770,-100,4,2,2,60,0,0
53845,-100,4,2,1,60,0,0
54070,-100,4,2,3,60,0,0
54145,-100,4,2,2,60,0,0
54670,-100,4,2,4,60,0,0
54745,-100,4,2,3,60,0,0
54970,-100,4,2,5,60,0,0
55045,-100,4,2,4,60,0,0
55270,-200,4,2,1,60,0,0
55795,-200,4,2,1,5,0,0
55870,-100,4,2,1,80,0,0
64870,-100,4,2,2,80,0,0
64945,-100,4,2,1,80,0,0
65170,-100,4,2,3,80,0,0
65245,-100,4,2,2,80,0,0
65470,-100,4,2,1,80,0,0
71470,-100,4,2,1,60,0,0
72670,-100,4,2,1,50,0,0
82870,-100,4,2,2,50,0,0
83095,-100,4,2,1,50,0,0
83170,-100,4,2,3,50,0,0
83245,-100,4,2,2,50,0,0
83470,-100,4,2,4,50,0,0
83545,-100,4,2,3,50,0,0
83770,-100,4,2,5,50,0,0
83845,-100,4,2,4,50,0,0
84070,-100,4,2,1,50,0,0
84595,-100,4,2,1,5,0,0
84670,-125,4,2,6,60,0,0
84820,-125,4,2,1,60,0,0
84970,-125,4,2,7,60,0,0
85420,-125,4,2,1,60,0,0
85570,-125,4,2,6,60,0,0
85870,-125,4,2,7,60,0,0
86170,-125,4,2,6,60,0,0
86320,-125,4,2,1,60,0,0
86470,-125,4,2,6,60,0,0
87070,-125,4,2,7,60,0,0
87520,-125,4,2,1,60,0,0
87670,-125,4,2,7,60,0,0
87970,-125,4,2,6,60,0,0
88120,-500,4,2,1,60,0,0
88570,-500,4,2,6,60,0,0
89470,-125,4,2,6,60,0,0
89620,-125,4,2,1,60,0,0
89770,-125,4,2,7,60,0,0
90220,-125,4,2,1,60,0,0
90370,-125,4,2,6,60,0,0
90670,-125,4,2,7,60,0,0
90970,-125,4,2,6,60,0,0
91120,-125,4,2,1,60,0,0
91270,-125,4,2,6,60,0,0
91870,-66.6666666666667,4,2,7,60,0,0
92470,-66.6666666666667,4,2,1,60,0,0
92920,-500,4,2,1,60,0,0
93145,-500,4,2,1,5,0,0
93220,-100,4,2,1,60,0,0
93670,-100,4,2,2,60,0,0
93745,-100,4,2,1,60,0,0
93970,-100,4,2,3,60,0,0
94045,-100,4,2,2,60,0,0
94270,-100,4,2,1,60,0,0
94420,-100,4,2,2,60,0,0
94570,-100,4,2,1,60,0,0
94720,-100,4,2,6,60,0,0
94870,-100,4,2,1,60,0,0
95020,-100,4,2,2,60,0,0
95320,-100,4,2,6,60,0,0
95470,-100,4,2,1,60,0,0
95620,-100,4,2,3,60,0,0
95770,-100,4,2,7,60,0,0
96220,-100,4,2,3,60,0,0
96370,-100,4,2,6,60,0,0
96670,-100,4,2,1,60,0,0
96820,-100,4,2,3,60,0,0
96970,-100,4,2,1,60,0,0
97120,-100,4,2,7,60,0,0
97270,-100,4,2,1,60,0,0
97420,-100,4,2,3,60,0,0
97570,-100,4,2,7,60,0,0
97720,-400,4,2,7,60,0,0
98020,-400,4,2,3,60,0,0
98170,-400,4,2,6,60,0,0
98320,-100,4,2,6,60,0,0
99220,-100,4,2,2,60,0,0
99370,-100,4,2,1,60,0,0
99520,-100,4,2,6,60,0,0
99670,-100,4,2,1,60,0,0
99820,-100,4,2,2,60,0,0
99970,-100,4,2,6,60,0,0
100270,-100,4,2,1,60,0,0
100420,-100,4,2,3,60,0,0
100570,-100,4,2,7,60,0,0
101020,-100,4,2,3,60,0,0
101170,-100,4,2,6,60,0,0
101470,-100,4,2,1,60,0,0
101620,-100,4,2,3,60,0,0
101770,-100,4,2,1,60,0,0
101920,-100,4,2,7,60,0,0
102070,-100,4,2,1,60,0,0
102220,-100,4,2,3,60,0,0
102370,-100,4,2,7,60,0,0
102520,-400,4,2,7,60,0,0
102745,-400,4,2,7,5,0,0
102820,-100,4,2,7,60,0,0
102970,-100,4,2,2,60,0,0
103345,-100,4,2,1,60,0,0
103570,-100,4,2,3,60,0,0
103645,-100,4,2,2,60,0,0
103870,-100,4,2,1,60,0,0
112570,-100,4,2,2,60,0,0
112645,-100,4,2,1,60,0,0
112870,-100,4,2,8,60,0,0
112945,-100,4,2,2,60,0,0
113170,-100,4,2,4,60,0,0
113245,-100,4,2,3,60,0,0
113470,-100,4,2,1,60,0,0
113620,-100,4,2,3,60,0,0
113770,-100,4,2,6,60,0,0
114220,-100,4,2,3,60,0,0
114370,-100,4,2,1,60,0,0
114520,-100,4,2,6,60,0,0
114670,-100,4,2,1,60,0,0
114820,-100,4,2,3,60,0,0
114970,-100,4,2,6,60,0,0
115270,-100,4,2,1,60,0,0
115420,-100,4,2,3,60,0,0
115570,-100,4,2,6,60,0,0
115870,-100,4,2,1,60,0,0
116170,-100,4,2,2,60,0,0
116245,-100,4,2,1,60,0,0
116470,-100,4,2,3,60,0,0
116545,-100,4,2,2,60,0,0
117070,-100,4,2,4,60,0,0
117145,-100,4,2,3,60,0,0
117370,-100,4,2,5,60,0,0
117445,-100,4,2,4,60,0,0
117670,-200,4,2,1,60,0,0
118195,-200,4,2,1,5,0,0
118270,-100,4,2,1,80,0,0
127270,-100,4,2,2,80,0,0
127345,-100,4,2,1,80,0,0
127570,-100,4,2,3,80,0,0
127645,-100,4,2,2,80,0,0
127870,-100,4,2,1,80,0,0
133870,-100,4,2,1,60,0,0
135070,-666.666666666667,4,2,1,50,0,0
136195,-666.666666666667,4,2,1,5,0,0
136270,-666.666666666667,4,2,1,50,0,0
136570,-50,4,2,12,50,0,0
136645,-50,4,2,1,50,0,0
137170,-50,4,2,13,50,0,0
137245,-50,4,2,2,50,0,0
137470,-50,4,2,1,80,0,0
137620,-50,4,2,2,80,0,0
137695,-50,4,2,1,80,0,0
137920,-50,4,2,7,80,0,0
137995,-50,4,2,1,80,0,0
138220,-50,4,2,2,80,0,0
138295,-50,4,2,1,80,0,0
138520,-50,4,2,7,80,0,0
138595,-50,4,2,1,80,0,0
138820,-400,4,2,2,80,0,0
139045,-400,4,2,1,5,0,0
139120,-100,4,2,7,80,0,0
139195,-100,4,2,1,80,0,0
139420,-100,4,2,2,80,0,0
139495,-100,4,2,1,80,0,0
139570,-400,4,2,1,80,0,0
139795,-400,4,2,1,5,0,0
139870,-400,4,2,1,80,0,0
140020,-400,4,2,2,80,0,0
140095,-400,4,2,1,80,0,0
140320,-400,4,2,7,80,0,0
140395,-400,4,2,1,80,0,0
140620,-400,4,2,2,80,0,0
140695,-400,4,2,1,80,0,0
140770,-100,4,2,1,80,0,0
140920,-100,4,2,7,80,0,0
140995,-100,4,2,1,80,0,0
141220,-100,4,2,3,80,0,0
141295,-100,4,2,1,80,0,0
141445,-100,4,2,1,5,0,0
141520,-100,4,2,7,80,0,0
141595,-100,4,2,7,5,0,0
141670,-100,4,2,1,80,0,0
141820,-100,4,2,3,80,0,0
141895,-100,4,2,1,80,0,0
142045,-100,4,2,1,5,0,0
142120,-100,4,2,7,80,0,0
142195,-100,4,2,7,5,0,0
142270,-100,4,2,1,80,0,0
142720,-100,4,2,7,80,0,0
143020,-100,4,2,3,80,0,0
143170,-66.6666666666667,4,2,1,80,0,0
143320,-66.6666666666667,4,2,6,80,0,0
143470,-100,4,2,10,80,0,0
143695,-100,4,2,3,5,0,0
143770,-100,4,2,1,80,0,0
143920,-100,4,2,7,80,0,0
144070,-100,4,2,1,80,0,0
144220,-100,4,2,2,80,0,0
144520,-100,4,2,7,80,0,0
144670,-100,4,2,1,80,0,0
144820,-100,4,2,2,80,0,0
144895,-100,4,2,1,80,0,0
145120,-100,4,2,7,80,0,0
145195,-100,4,2,1,80,0,0
145420,-100,4,2,2,80,0,0
145495,-100,4,2,1,80,0,0
145720,-100,4,2,7,80,0,0
145795,-100,4,2,1,80,0,0
146020,-100,4,2,2,80,0,0
146095,-100,4,2,1,80,0,0
146320,-100,4,2,7,80,0,0
146395,-100,4,2,1,80,0,0
146620,-100,4,2,2,80,0,0
146695,-100,4,2,1,80,0,0
146770,-200,4,2,1,80,0,0
146995,-200,4,2,1,5,0,0
147070,-200,4,2,1,80,0,0
147220,-200,4,2,2,80,0,0
147295,-200,4,2,1,80,0,0
147520,-200,4,2,7,80,0,0
147595,-200,4,2,1,80,0,0
147820,-200,4,2,2,80,0,0
147895,-200,4,2,1,80,0,0
147970,-400,4,2,1,80,0,0
148195,-400,4,2,1,5,0,0
148270,-100,4,2,1,80,0,0
148420,-100,4,2,2,80,0,0
148495,-100,4,2,1,80,0,0
148720,-100,4,2,7,80,0,0
148795,-100,4,2,1,80,0,0
149020,-100,4,2,2,80,0,0
149095,-100,4,2,1,80,0,0
149320,-100,4,2,7,80,0,0
149470,-100,4,2,1,80,0,0
149620,-100,4,2,2,80,0,0
149695,-100,4,2,1,80,0,0
149920,-100,4,2,7,80,0,0
149995,-100,4,2,1,80,0,0
150220,-100,4,2,2,80,0,0
150295,-100,4,2,1,80,0,0
150520,-100,4,2,7,80,0,0
150595,-100,4,2,1,80,0,0
150820,-100,4,2,2,80,0,0
150895,-100,4,2,1,80,0,0
151120,-100,4,2,7,80,0,0
151195,-100,4,2,1,80,0,0
151270,-125,4,2,1,80,0,0
151795,-125,4,2,1,5,0,0
151870,-100,4,2,1,80,0,0
152020,-100,4,2,2,80,0,0
152095,-100,4,2,1,80,0,0
152320,-100,4,2,7,80,0,0
152395,-100,4,2,1,80,0,0
152620,-100,4,2,2,80,0,0
152695,-100,4,2,1,80,0,0
152920,-100,4,2,7,80,0,0
152995,-100,4,2,1,80,0,0
153220,-100,4,2,2,80,0,0
153295,-100,4,2,1,80,0,0
153520,-100,4,2,7,80,0,0
153595,-100,4,2,1,80,0,0
153820,-100,4,2,2,80,0,0
153895,-100,4,2,1,80,0,0
154120,-100,4,2,7,80,0,0
154195,-100,4,2,1,80,0,0
154270,-77.8873194444173,4,2,1,80,0,0
154795,-77.8873194444173,4,2,1,5,0,0
154870,-77.8873194444173,4,2,1,80,0,0
155020,-100,4,2,2,80,0,0
155095,-100,4,2,1,80,0,0
155320,-100,4,2,7,80,0,0
155395,-100,4,2,1,80,0,0
155770,-100,4,2,9,80,0,0
155845,-100,4,2,1,80,0,0
156070,-100,4,2,8,80,0,0
156145,-100,4,2,5,80,0,0
156370,-100,4,2,4,80,0,0
156445,-100,4,2,8,80,0,0
156670,-125,4,2,1,80,0,0
157345,-125,4,2,1,5,0,0
157420,-125,4,2,2,80,0,0
157645,-125,4,2,7,5,0,0
157720,-125,4,2,7,80,0,0
157795,-125,4,2,7,5,0,0
157870,-125,4,2,1,80,0,0
158020,-125,4,2,3,5,0,0
158095,-125,4,2,1,80,0,0
158245,-125,4,2,1,5,0,0
158320,-125,4,2,7,80,0,0
158395,-125,4,2,7,5,0,0
158470,-125,4,2,1,80,0,0
158995,-125,4,2,1,5,0,0
159070,-125,4,2,1,80,0,0
159520,-125,4,2,7,80,0,0
159670,-125,4,2,1,80,0,0
160120,-125,4,2,7,80,0,0
160270,-125,4,2,1,80,0,0
160645,-125,4,2,1,5,0,0
160720,-125,4,2,7,80,0,0
161395,-125,4,2,7,5,0,0
161470,-125,4,2,1,80,0,0
161770,-100,4,2,1,80,0,0
162670,-106.424076827985,4,2,1,80,0,0
165220,-200,4,2,1,80,0,0
165445,-200,4,2,1,5,0,0
165520,-200,4,2,1,80,0,0
165670,-200,4,2,13,80,0,0
165745,-200,4,2,2,80,0,0
165970,-200,4,2,12,80,0,0
166195,-200,4,2,12,5,0,0
166270,-200,4,2,1,80,0,0
167020,-100,4,2,2,80,0,0
167245,-100,4,2,7,5,0,0
167320,-100,4,2,7,80,0,0
167395,-100,4,2,7,5,0,0
167470,-100,4,2,1,80,0,0
167620,-100,4,2,3,5,0,0
167695,-100,4,2,1,80,0,0
167845,-100,4,2,1,5,0,0
167920,-100,4,2,7,80,0,0
167995,-100,4,2,7,5,0,0
168070,-100,4,2,1,80,0,0
168520,-100,4,2,7,80,0,0
168670,-200,4,2,1,80,0,0
169120,-200,4,2,7,80,0,0
169270,-200,4,2,11,80,0,0
169870,-200,4,2,1,80,0,0
170320,-200,4,2,11,80,0,0
170920,-200,4,2,6,80,0,0
171070,-200,4,2,1,80,0,0
172195,-200,4,2,1,5,0,0
172270,-200,4,2,1,80,0,0
173470,-100,4,2,1,80,0,0
174820,-100,4,2,12,80,0,0
174970,-100,4,2,2,80,0,0
175120,-100,4,2,1,80,0,0
175270,-100,4,2,13,80,0,0
175420,-100,4,2,2,80,0,0
175570,-100,4,2,4,80,0,0
175720,-100,4,2,3,80,0,0
175870,-100,4,2,1,50,0,0
184195,-100,4,2,1,5,0,0
184270,-100,4,2,1,60,0,0
184570,-100,4,2,2,60,0,0
184645,-100,4,2,1,60,0,0
184870,-100,4,2,8,60,0,0
184945,-100,4,2,2,60,0,0
185170,-100,4,2,4,60,0,0
185245,-100,4,2,3,60,0,0
185470,-100,4,2,1,60,0,0
185620,-100,4,2,3,60,0,0
185770,-100,4,2,6,60,0,0
186220,-100,4,2,3,60,0,0
186370,-100,4,2,1,60,0,0
186520,-100,4,2,6,60,0,0
186670,-100,4,2,1,60,0,0
186820,-100,4,2,3,60,0,0
186970,-100,4,2,6,60,0,0
187270,-100,4,2,1,60,0,0
187420,-100,4,2,3,60,0,0
187570,-100,4,2,6,60,0,0
187870,-100,4,2,1,60,0,0
188170,-100,4,2,2,60,0,0
188245,-100,4,2,1,60,0,0
188470,-100,4,2,3,60,0,0
188545,-100,4,2,2,60,0,0
189070,-100,4,2,4,60,0,0
189145,-100,4,2,3,60,0,0
189370,-100,4,2,5,60,0,0
189445,-100,4,2,4,60,0,0
189670,-100,4,2,1,60,0,0
190270,-100,4,2,1,80,0,0
199270,-100,4,2,2,80,0,0
199345,-100,4,2,1,80,0,0
199570,-100,4,2,3,80,0,0
199645,-100,4,2,2,80,0,0
199870,-100,4,2,1,80,0,0
205870,-100,4,2,1,60,0,0
207070,-100,4,2,1,50,0,0
221470,-100,4,2,1,70,0,0
226270,-100,4,2,1,50,0,0
226870,-100,4,2,2,50,0,0
227020,-100,4,2,1,50,0,0
227170,-100,4,2,3,50,0,0
227245,-100,4,2,2,50,0,0
227470,-100,4,2,4,50,0,0
227545,-100,4,2,3,50,0,0
227770,-100,4,2,5,50,0,0
227845,-100,4,2,4,50,0,0
228070,-100,4,2,1,50,0,0
228670,-100,4,2,1,50,0,0
229495,-100,4,2,5,50,0,0
229870,-333.333333333333,4,2,1,60,0,0
230470,-166.666666666667,4,2,1,60,0,0

[Colours]
Combo1 : 255,79,79
Combo2 : 0,213,213
Combo3 : 47,187,240
Combo4 : 74,74,255
Combo5 : 255,106,34

[HitObjects]
177,205,670,5,12,2:0:0:0:
246,187,820,1,0,2:0:0:0:
251,115,970,1,0,1:0:0:0:
185,88,1120,1,2,1:2:0:0:
138,143,1270,1,2,2:0:0:0:
330,130,1420,5,2,1:2:0:0:
138,143,1570,1,2,1:2:0:0:
138,143,1870,5,12,2:0:0:0:
177,205,2020,1,0,2:0:0:0:
246,187,2170,1,0,1:0:0:0:
251,115,2320,1,2,1:2:0:0:
185,88,2470,1,2,2:0:0:0:
168,279,2620,37,2,1:2:0:0:
185,88,2770,1,2,1:2:0:0:
185,88,3070,5,12,2:0:0:0:
138,143,3220,1,0,2:0:0:0:
177,205,3370,1,0,1:0:0:0:
246,187,3520,1,2,1:2:0:0:
251,115,3670,1,2,2:0:0:0:
59,126,3820,5,2,1:2:0:0:
251,115,3970,1,2,1:2:0:0:
251,115,4270,38,0,L|345:113,1,90,14|0,2:0|2:0,2:0:0:0:
353,112,5470,5,12,2:0:0:0:
306,167,5620,1,0,2:0:0:0:
345,229,5770,1,0,1:0:0:0:
414,211,5920,1,2,1:2:0:0:
419,139,6070,1,2,2:0:0:0:
204,160,6220,5,2,1:2:0:0:
419,139,6370,2,0,L|458:135,1,36,14|0,1:2|2:0,2:0:0:0:
345,229,6670,37,12,2:0:0:0:
306,167,6820,1,0,2:0:0:0:
353,112,6970,1,0,1:0:0:0:
419,139,7120,1,2,1:2:0:0:
414,211,7270,1,2,2:0:0:0:
419,19,7420,5,2,1:2:0:0:
414,211,7570,1,2,1:2:0:0:
414,211,7870,5,12,2:0:0:0:
419,139,8020,1,0,2:0:0:0:
353,112,8170,1,0,1:0:0:0:
306,167,8320,1,2,1:2:0:0:
345,229,8470,1,2,2:0:0:0:
484,179,8620,37,2,1:2:0:0:
266,167,8770,2,0,L|221:166,1,36,14|0,1:2|2:0,2:0:0:0:
287,267,9070,6,0,B|310:358,1,90,12|0,2:0|2:0,2:0:0:0:
201,100,9370,2,0,B|178:12,1,90,12|0,2:0|2:0,2:0:0:0:
197,293,9670,2,0,B|220:384,1,90,12|0,2:0|2:0,2:0:0:0:
61,196,10270,5,6,1:2:0:0:
156,193,10420,1,10,2:0:0:0:
251,190,10570,1,2,1:2:0:0:
110,257,10720,37,10,1:2:0:0:
201,130,10870,1,2,1:2:0:0:
201,130,11020,1,10,2:0:0:0:
77,34,11170,1,2,1:2:0:0:
77,34,11245,1,2,1:2:0:0:
77,34,11320,1,10,1:2:0:0:
77,34,11395,1,2,2:0:0:0:
77,34,11470,5,2,1:2:0:0:
85,129,11620,1,10,2:0:0:0:
93,224,11770,1,2,1:2:0:0:
23,84,11920,5,10,1:2:0:0:
152,170,12070,1,2,1:2:0:0:
152,170,12220,1,10,2:0:0:0:
268,66,12370,1,2,1:2:0:0:
268,66,12445,1,2,1:2:0:0:
268,66,12520,1,10,1:2:0:0:
268,66,12595,1,2,2:0:0:0:
268,66,12670,37,2,1:2:0:0:
437,51,12820,1,10,2:0:0:0:
437,51,12970,1,2,1:2:0:0:
253,139,13120,5,10,1:2:0:0:
347,15,13270,1,2,1:2:0:0:
347,15,13420,1,10,2:0:0:0:
191,9,13570,2,0,L|131:8,2,60,2|2|10,1:2|1:2|1:2,2:0:0:0:
347,15,13870,5,2,1:2:0:0:
363,24,13945,1,0,1:0:0:0:
377,36,14020,1,10,1:2:0:0:
390,50,14095,1,0,1:0:0:0:
399,66,14170,1,2,1:2:0:0:
406,83,14245,1,0,1:0:0:0:
410,101,14320,1,10,1:2:0:0:
411,120,14395,1,0,1:0:0:0:
409,139,14470,1,2,1:2:0:0:
403,157,14545,1,0,1:0:0:0:
395,173,14620,1,10,1:2:0:0:
384,188,14695,1,0,1:0:0:0:
370,201,14770,1,2,1:2:0:0:
355,212,14845,1,2,1:2:0:0:
338,220,14920,1,10,1:2:0:0:
320,225,14995,1,2,1:2:0:0:
301,227,15070,2,0,L|177:227,1,120,6|10,1:2|2:0,2:0:0:0:
302,128,15370,37,2,1:2:0:0:
104,227,15520,1,10,1:2:0:0:
302,128,15670,5,2,1:2:0:0:
302,128,15820,1,10,2:0:0:0:
152,83,15970,1,2,1:2:0:0:
152,83,16045,1,2,1:2:0:0:
152,83,16120,1,10,1:2:0:0:
152,83,16195,1,2,2:0:0:0:
152,83,16270,5,2,1:2:0:0:
153,178,16420,1,10,2:0:0:0:
154,273,16570,1,2,1:2:0:0:
237,225,16720,37,10,1:2:0:0:
69,230,16870,1,2,1:2:0:0:
69,230,17020,1,10,2:0:0:0:
155,375,17170,2,0,L|155:314,2,60,2|2|10,1:2|1:2|1:2,2:0:0:0:
272,292,17470,5,2,1:2:0:0:
85,349,17620,1,10,2:0:0:0:
85,349,17770,1,2,1:2:0:0:
272,292,17920,5,10,1:2:0:0:
27,295,18070,1,2,1:2:0:0:
27,295,18220,1,10,2:0:0:0:
155,170,18370,37,2,1:2:0:0:
155,170,18445,1,2,1:2:0:0:
155,170,18520,1,10,1:2:0:0:
293,98,18670,1,2,1:2:0:0:
310,97,18745,1,0,2:0:0:0:
327,96,18820,1,10,2:0:0:0:
212,64,18970,5,2,1:2:0:0:
351,198,19120,1,10,1:2:0:0:
317,10,19270,1,2,1:2:0:0:
233,180,19420,1,10,2:0:0:0:
400,91,19570,2,0,L|460:88,2,60,2|2|10,1:2|1:2|1:2,2:0:0:0:
233,180,19870,5,6,1:2:0:0:
424,165,20020,1,0,2:0:0:0:
433,164,20170,1,8,2:0:0:0:
224,181,20320,37,8,2:0:0:0:
442,163,20470,2,0,B|507:157|507:157|454:179|421:229,1,180,0|0,1:0|3:0,2:0:0:0:
321,210,20770,5,0,1:0:0:0:
321,215,20845,1,0,3:0:0:0:
321,220,20920,2,0,L|322:279,1,45.0000000000001,0|0,3:0|3:0,2:0:0:0:
394,297,21070,5,0,1:0:0:0:
392,301,21145,1,0,3:0:0:0:
391,306,21220,2,0,L|376:363,1,45.0000000000001,0|0,3:0|3:0,2:0:0:0:
239,255,21370,37,0,1:0:0:0:
240,259,21445,1,0,3:0:0:0:
241,264,21520,2,0,L|257:320,1,45.0000000000001,0|0,3:0|3:0,2:0:0:0:
307,378,21670,5,8,2:0:0:0:
307,378,22270,6,0,L|186:375,1,120,4|10,1:2|2:0,2:0:0:0:
45,323,22570,1,2,1:2:0:0:
45,323,22645,1,0,1:0:0:0:
45,323,22720,1,10,1:2:0:0:
206,248,22870,1,2,1:2:0:0:
58,240,23020,2,0,P|107:271|123:328,2,120,10|0|10,2:0|1:0|1:2,2:0:0:0:
216,292,23470,38,0,L|335:287,1,120,2|10,1:2|2:0,2:0:0:0:
443,232,23770,1,0,1:0:0:0:
260,168,23920,2,0,B|193:224|193:224|351:216,1,240,10|10,1:2|2:0,2:0:0:0:
166,148,24370,1,0,1:0:0:0:
166,148,24445,1,0,1:0:0:0:
166,148,24520,1,10,1:2:0:0:
345,216,24670,5,2,1:2:0:0:
322,114,24820,1,10,2:0:0:0:
251,188,24970,1,2,1:2:0:0:
416,143,25120,1,10,1:2:0:0:
274,274,25270,1,2,1:2:0:0:
322,114,25420,1,10,2:0:0:0:
372,318,25570,1,0,1:0:0:0:
251,188,25720,6,0,L|246:127,1,60,14|10,1:2|2:0,2:0:0:0:
57,60,26170,1,0,1:0:0:0:
57,60,26245,1,0,1:0:0:0:
57,60,26320,1,10,1:2:0:0:
221,49,26470,37,0,1:0:0:0:
258,48,26545,1,0,1:0:0:0:
295,48,26620,1,10,1:2:0:0:
333,47,26695,1,0,1:0:0:0:
370,47,26770,1,0,1:0:0:0:
368,61,26845,1,0,1:0:0:0:
366,75,26920,2,0,L|359:135,1,60,10|0,1:2|1:0,2:0:0:0:
300,206,27070,1,4,1:2:0:0:
456,174,27220,6,0,P|401:196|370:245,2,120,10|2|10,2:0|1:2|1:2,2:0:0:0:
194,244,27670,2,0,P|240:207|298:205,2,120,2|10|0,1:2|2:0|1:0,2:0:0:0:
87,301,28120,1,10,1:2:0:0:
226,357,28270,1,2,1:2:0:0:
74,169,28420,6,0,L|86:291,1,120,10|0,2:0|1:0,2:0:0:0:
234,363,28720,2,0,P|333:312|424:383,1,240,10|10,1:2|2:0,2:0:0:0:
154,354,29170,1,0,1:0:0:0:
154,354,29245,1,0,1:0:0:0:
154,354,29320,1,10,1:2:0:0:
326,382,29470,37,2,1:2:0:0:
416,197,29620,2,0,B|396:232|396:232|371:156,2,120,10|2|10,2:0|1:2|1:2,2:0:0:0:
256,262,30070,1,2,1:2:0:0:
452,283,30220,1,10,2:0:0:0:
320,306,30370,1,0,1:0:0:0:
253,101,30520,6,0,L|255:161,1,60,14|10,1:2|2:0,2:0:0:0:
166,261,30970,1,0,1:0:0:0:
166,261,31045,1,0,1:0:0:0:
166,261,31120,1,10,1:2:0:0:
73,80,31270,6,0,L|72:20,1,60,8|8,2:0|2:0,2:0:0:0:
19,146,31420,1,8,2:0:0:0:
20,163,31495,1,8,2:0:0:0:
21,180,31570,1,0,1:0:0:0:
22,197,31645,1,0,3:0:0:0:
23,214,31720,1,0,3:0:0:0:
24,231,31795,1,0,3:0:0:0:
25,248,31870,1,4,1:2:0:0:
99,373,32020,37,10,2:0:0:0:
99,373,32170,2,0,P|153:350|210:363,1,120,2|10,1:2|1:2,2:0:0:0:
38,326,32470,5,2,1:2:0:0:
38,326,32620,2,0,P|146:280|261:306,1,240,10|10,2:0|1:2,2:0:0:0:
392,202,33070,6,0,P|447:179|506:180,1,120,2|10,1:2|2:0,2:0:0:0:
306,148,33370,1,0,1:0:0:0:
306,148,33445,1,0,1:0:0:0:
306,148,33520,1,10,1:2:0:0:
463,262,33670,1,0,1:0:0:0:
504,73,33820,1,10,2:0:0:0:
463,262,33970,38,0,L|491:143,1,120,0|10,1:0|1:2,2:0:0:0:
301,243,34270,5,2,1:2:0:0:
396,165,34420,1,10,2:0:0:0:
370,306,34570,1,2,1:2:0:0:
306,148,34720,1,10,1:2:0:0:
273,342,34870,1,2,1:2:0:0:
440,246,35020,1,10,2:0:0:0:
193,204,35170,1,0,1:0:0:0:
301,243,35320,6,0,P|329:232|358:230,1,60,14|10,1:2|2:0,2:0:0:0:
183,291,35770,1,0,1:0:0:0:
153,288,35845,1,0,1:0:0:0:
123,285,35920,2,0,L|72:280,1,30,10|0,1:2|1:0,2:0:0:0:
34,132,36070,38,0,P|26:104|11:78,1,60,0|0,1:0|1:0,2:0:0:0:
17,282,36220,2,0,P|5:308|0:338,1,60,10|0,1:2|1:0,2:0:0:0:
148,197,36370,2,0,B|176:187|196:169|196:169|203:194|203:194|246:169|246:169|302:193|350:165,1,240,0|4,1:0|1:2,2:0:0:0:
460,71,36820,5,10,2:0:0:0:
416,269,36970,1,0,1:0:0:0:
350,164,37120,1,10,1:2:0:0:
421,279,37270,5,2,1:2:0:0:
465,81,37420,2,0,B|477:50|496:22|496:22|472:110|488:197,1,240,10|10,2:0|1:2,2:0:0:0:
343,331,37870,38,0,P|336:271|346:212,1,120,2|10,1:2|2:0,2:0:0:0:
283,103,38170,1,0,1:0:0:0:
283,103,38245,1,0,1:0:0:0:
283,103,38320,1,10,1:2:0:0:
168,194,38470,1,0,1:0:0:0:
249,278,38620,1,10,2:0:0:0:
34,298,38770,6,0,B|63:289|87:272|87:272|111:289|141:297,1,120,0|10,1:0|1:2,2:0:0:0:
247,201,39070,5,2,1:2:0:0:
25,220,39220,1,10,2:0:0:0:
193,349,39370,1,2,1:2:0:0:
131,147,39520,1,10,1:2:0:0:
87,299,39670,1,2,1:2:0:0:
247,201,39820,1,10,2:0:0:0:
282,356,39970,1,0,1:0:0:0:
188,250,40120,38,0,P|178:231|173:209,1,45,14|0,1:2|2:0,2:0:0:0:
168,124,40420,6,0,P|168:95|177:65,1,60,0|0,1:0|1:0,2:0:0:0:
269,151,40570,5,8,1:2:0:0:
298,171,40645,1,8,2:0:0:0:
327,192,40720,2,0,L|394:188,1,60,8|8,2:0|2:0,2:0:0:0:
226,298,40870,2,0,P|199:313|180:334,1,60,0|0,1:0|3:0,2:0:0:0:
335,263,41020,2,0,L|402:259,1,60,0|0,3:0|3:0,2:0:0:0:
216,214,41170,1,0,1:0:0:0:
181,202,41245,1,0,3:0:0:0:
145,203,41320,1,0,3:0:0:0:
112,217,41395,1,0,3:0:0:0:
91,246,41470,38,0,L|99:310,3,60,4|0|0|0,1:2|1:0|1:0|1:0,2:0:0:0:
51,167,41770,2,0,L|11:217,3,60,10|0|0|0,1:2|1:0|1:0|1:0,2:0:0:0:
78,82,42070,2,0,L|14:90,3,60,10|0|0|0,1:2|1:0|1:0|1:0,2:0:0:0:
157,42,42370,2,0,L|106:2,3,60,10|0|0|0,1:2|1:0|1:0|1:0,2:0:0:0:
241,69,42670,2,0,L|233:5,3,60,10|0|0|0,1:2|1:0|1:0|1:0,2:0:0:0:
281,148,42970,2,0,L|320:97,3,60,8|0|0|0,1:2|1:0|1:0|1:0,2:0:0:0:
253,232,43270,6,0,L|316:223,1,60,8|0,1:2|1:0,2:0:0:0:
229,307,43420,6,0,L|292:298,3,60,2|0|8|0,1:2|1:0|1:2|1:0,2:0:0:0:
168,240,43720,38,0,L|129:188,1,60,2|0,1:2|1:0,2:0:0:0:
140,326,43870,6,0,L|114:385,3,60,8|0|0|0,1:2|1:0|1:0|1:0,2:0:0:0:
74,258,44170,2,0,L|13:281,3,60,10|0|0|0,1:2|1:0|1:0|1:0,2:0:0:0:
75,163,44470,2,0,L|16:137,3,60,10|0|0|0,1:2|1:0|1:0|1:0,2:0:0:0:
143,97,44770,2,0,L|119:36,3,60,10|0|0|0,1:2|1:0|1:0|1:0,2:0:0:0:
238,98,45070,2,0,L|263:39,3,60,10|0|0|0,1:2|1:0|1:0|1:0,2:0:0:0:
304,166,45370,2,0,L|364:142,3,60,8|0|0|0,1:2|1:0|1:0|1:0,2:0:0:0:
302,260,45670,6,0,L|361:285,1,60,8|0,1:2|1:0,2:0:0:0:
179,194,45820,38,0,L|120:219,3,60,2|0|8|0,1:2|1:0|1:2|1:0,2:0:0:0:
177,279,46120,6,0,L|118:304,1,60,2|0,1:2|1:0,2:0:0:0:
347,324,46270,6,0,L|406:344,3,60,12|0|0|0,1:2|1:0|1:0|1:0,2:0:0:0:
278,229,46570,2,0,L|218:247,3,60,10|0|0|0,1:2|1:0|1:0|1:0,2:0:0:0:
389,265,46870,2,0,L|426:215,3,60,10|0|0|0,1:2|1:0|1:0|1:0,2:0:0:0:
278,301,47170,2,0,L|277:363,3,60,10|0|0|0,1:2|1:0|1:0|1:0,2:0:0:0:
347,207,47470,38,0,L|311:156,3,60,10|0|0|0,1:2|1:0|1:0|1:0,2:0:0:0:
243,59,47770,2,0,L|216:115,3,60,8|0|0|0,1:2|1:0|1:0|1:0,2:0:0:0:
168,223,48070,2,0,L|230:217,3,60,10|0|0|0,1:2|1:0|1:0|1:0,2:0:0:0:
86,125,48370,2,0,L|148:119,3,60,10|0|0|0,1:2|1:0|1:0|1:0,2:0:0:0:
12,218,48670,6,0,P|10:247|13:278,3,60,10|0|0|0,1:2|1:0|1:0|1:0,2:0:0:0:
101,338,48970,2,0,P|103:309|100:278,3,60,8|0|0|0,1:2|1:0|1:0|1:0,2:0:0:0:
175,211,49270,2,0,P|200:198|230:191,3,60,8|0|0|0,1:2|1:0|1:0|1:0,2:0:0:0:
244,344,49570,2,0,P|269:357|299:364,3,60,14|0|0|0,1:2|1:0|1:0|1:0,2:0:0:0:
381,247,49870,5,10,2:0:0:0:
382,224,49945,1,8,2:0:0:0:
383,202,50020,1,8,2:0:0:0:
385,179,50095,1,8,2:0:0:0:
386,157,50170,1,0,1:0:0:0:
388,134,50245,1,0,3:0:0:0:
389,112,50320,1,0,3:0:0:0:
391,89,50395,1,0,3:0:0:0:
392,67,50470,37,2,1:2:0:0:
420,54,50545,1,0,3:0:0:0:
447,41,50620,1,0,3:0:0:0:
474,28,50695,1,0,3:0:0:0:
501,16,50770,5,2,1:2:0:0:
500,38,50845,1,0,3:0:0:0:
498,61,50920,1,0,3:0:0:0:
497,83,50995,1,0,3:0:0:0:
496,106,51070,1,6,1:2:0:0:
305,126,51220,5,10,2:0:0:0:
482,179,51370,1,0,1:0:0:0:
291,199,51520,1,10,1:2:0:0:
468,252,51670,1,0,1:0:0:0:
277,272,51820,1,10,2:0:0:0:
376,338,51970,1,2,1:2:0:0:
376,338,52045,1,0,1:0:0:0:
376,338,52120,1,10,1:2:0:0:
264,152,52270,37,2,1:2:0:0:
284,343,52420,1,10,2:0:0:0:
191,138,52570,1,0,1:0:0:0:
211,329,52720,1,10,1:2:0:0:
118,124,52870,1,2,1:2:0:0:
138,315,53020,1,10,2:0:0:0:
52,223,53170,1,0,1:0:0:0:
52,223,53245,1,0,1:0:0:0:
52,223,53320,1,10,1:2:0:0:
167,68,53470,37,10,2:0:0:0:
192,52,53545,1,8,2:0:0:0:
221,45,53620,1,8,2:0:0:0:
250,47,53695,1,8,2:0:0:0:
278,55,53770,1,0,1:0:0:0:
302,72,53845,1,0,3:0:0:0:
315,98,53920,2,0,L|310:158,1,60,0|0,3:0|3:0,2:0:0:0:
300,249,54070,5,0,1:0:0:0:
298,260,54145,1,0,3:0:0:0:
297,271,54220,2,0,L|292:331,1,60,0|0,3:0|3:0,2:0:0:0:
166,319,54370,53,8,2:0:0:0:
136,322,54445,1,8,2:0:0:0:
107,331,54520,2,0,P|78:340|53:355,1,60,8|8,2:0|2:0,2:0:0:0:
12,251,54670,5,0,1:0:0:0:
0,216,54745,1,0,3:0:0:0:
5,180,54820,1,0,3:0:0:0:
30,153,54895,1,0,3:0:0:0:
66,144,54970,1,0,1:0:0:0:
101,155,55045,1,0,3:0:0:0:
124,184,55120,1,0,3:0:0:0:
129,220,55195,1,0,3:0:0:0:
113,254,55270,54,0,B|208:197|216:293|312:236,1,210,8|0,2:0|2:0,2:0:0:0:
396,200,55870,6,0,P|452:180|513:185,1,120,6|8,1:2|2:0,2:0:0:0:
336,120,56170,1,0,1:0:0:0:
336,120,56245,1,0,1:0:0:0:
336,120,56320,1,8,1:2:0:0:
377,284,56470,53,2,1:2:0:0:
222,219,56620,1,8,2:0:0:0:
336,120,56770,2,0,L|322:187,2,60,2|0|8,1:2|1:0|1:2,2:0:0:0:
131,206,57070,5,2,1:2:0:0:
261,137,57220,1,8,2:0:0:0:
116,117,57370,1,0,1:0:0:0:
222,219,57520,1,8,1:2:0:0:
196,75,57670,1,0,1:0:0:0:
131,206,57820,1,8,2:0:0:0:
272,65,57970,2,0,L|312:21,2,60,2|0|8,1:2|1:0|1:2,2:0:0:0:
127,41,58270,53,2,1:2:0:0:
185,150,58420,1,8,2:0:0:0:
231,7,58570,1,0,1:0:0:0:
231,7,58645,1,0,1:0:0:0:
231,7,58720,1,8,1:2:0:0:
118,174,58870,5,2,1:2:0:0:
198,75,59020,1,8,2:0:0:0:
246,228,59170,1,0,1:0:0:0:
246,228,59245,1,0,1:0:0:0:
246,228,59320,1,8,1:2:0:0:
118,174,59470,53,2,1:2:0:0:
293,143,59620,1,8,2:0:0:0:
123,96,59770,1,0,1:0:0:0:
162,272,59920,1,8,1:2:0:0:
328,215,60070,1,0,1:0:0:0:
166,171,60220,1,8,2:0:0:0:
270,76,60370,1,2,1:2:0:0:
270,76,60445,1,0,1:0:0:0:
270,76,60520,1,8,1:2:0:0:
81,150,60670,5,6,1:2:0:0:
61,163,60745,1,0,1:0:0:0:
47,183,60820,1,8,1:2:0:0:
40,206,60895,1,0,1:0:0:0:
41,230,60970,1,0,1:0:0:0:
49,252,61045,1,0,1:0:0:0:
64,271,61120,1,8,1:2:0:0:
84,283,61195,1,0,1:0:0:0:
107,289,61270,1,0,1:0:0:0:
131,287,61345,1,0,1:0:0:0:
153,278,61420,1,8,1:2:0:0:
176,271,61495,1,0,1:0:0:0:
199,269,61570,2,0,P|230:268|258:272,3,60,2|0|8|0,1:2|1:0|1:2|1:0,2:0:0:0:
334,281,61870,53,2,1:2:0:0:
356,288,61945,1,0,1:0:0:0:
380,288,62020,1,8,1:2:0:0:
403,282,62095,1,0,1:0:0:0:
424,269,62170,1,2,1:2:0:0:
440,252,62245,1,0,1:0:0:0:
450,230,62320,1,8,1:2:0:0:
454,206,62395,1,0,1:0:0:0:
451,183,62470,1,2,1:2:0:0:
442,161,62545,1,0,1:0:0:0:
426,142,62620,1,8,1:2:0:0:
419,119,62695,1,0,1:0:0:0:
420,95,62770,2,0,P|421:64|431:36,3,60,2|0|8|0,1:2|1:0|1:2|1:0,2:0:0:0:
305,49,63070,5,2,1:2:0:0:
281,44,63145,1,0,1:0:0:0:
257,42,63220,1,8,1:2:0:0:
233,44,63295,1,0,1:0:0:0:
209,50,63370,2,0,P|181:59|155:75,3,60,0|0|8|0,1:0|1:0|1:2|1:0,2:0:0:0:
88,160,63670,53,2,1:2:0:0:
77,182,63745,1,0,1:0:0:0:
70,205,63820,1,8,1:2:0:0:
69,229,63895,1,0,1:0:0:0:
72,254,63970,2,0,P|75:283|87:312,3,60,0|0|8|0,1:0|1:0|1:2|1:0,2:0:0:0:
186,360,64270,5,14,2:0:0:0:
221,358,64345,1,8,2:0:0:0:
256,356,64420,1,8,2:0:0:0:
291,355,64495,1,8,2:0:0:0:
326,354,64570,2,0,L|386:353,1,60,8|8,2:0|2:0,2:0:0:0:
231,286,64720,2,0,P|204:285|173:277,1,60,8|8,2:0|2:0,2:0:0:0:
354,158,64870,54,0,L|353:99,1,60,0|0,1:0|3:0,2:0:0:0:
355,291,65020,2,0,L|354:232,1,60,0|0,3:0|3:0,2:0:0:0:
260,200,65170,1,0,1:0:0:0:
252,164,65245,1,0,3:0:0:0:
244,128,65320,1,0,3:0:0:0:
236,92,65395,1,0,3:0:0:0:
229,56,65470,2,0,B|171:44|171:44|111:56,1,120,6|8,1:2|2:0,2:0:0:0:
16,130,65770,5,0,1:0:0:0:
172,117,65920,1,8,1:2:0:0:
36,56,66070,1,2,1:2:0:0:
73,242,66220,1,8,2:0:0:0:
96,134,66370,1,0,1:0:0:0:
96,134,66445,1,0,1:0:0:0:
96,134,66520,1,8,1:2:0:0:
12,288,66670,53,2,1:2:0:0:
158,196,66820,1,8,2:0:0:0:
165,326,66970,1,0,1:0:0:0:
165,326,67045,1,0,1:0:0:0:
165,326,67120,1,8,1:2:0:0:
27,189,67270,1,0,1:0:0:0:
82,358,67420,1,8,2:0:0:0:
233,276,67570,1,2,1:2:0:0:
233,276,67645,1,0,1:0:0:0:
233,276,67720,1,8,1:2:0:0:
91,236,67870,5,2,1:2:0:0:
283,202,68020,1,8,2:0:0:0:
78,169,68170,1,0,1:0:0:0:
270,135,68320,1,10,1:2:0:0:
65,102,68470,1,0,1:0:0:0:
257,68,68620,1,8,2:0:0:0:
52,35,68770,1,2,1:2:0:0:
52,35,68845,1,0,1:0:0:0:
52,35,68920,1,8,1:2:0:0:
244,1,69070,53,2,1:2:0:0:
267,1,69145,1,0,1:0:0:0:
290,1,69220,1,8,1:2:0:0:
313,1,69295,1,0,1:0:0:0:
336,1,69370,1,0,1:0:0:0:
359,1,69445,1,0,1:0:0:0:
382,1,69520,1,10,1:2:0:0:
405,1,69595,1,0,1:0:0:0:
428,1,69670,5,2,1:2:0:0:
425,12,69745,1,0,1:0:0:0:
422,23,69820,1,8,1:2:0:0:
419,34,69895,1,0,1:0:0:0:
416,45,69970,1,0,1:0:0:0:
413,56,70045,1,0,1:0:0:0:
410,67,70120,1,8,1:2:0:0:
407,78,70195,1,0,1:0:0:0:
404,89,70270,2,0,L|384:176,3,60,6|0|0|0,1:2|1:0|1:0|1:0,2:0:0:0:
263,118,70570,53,12,1:2:0:0:
250,113,70645,1,0,1:0:0:0:
238,108,70720,2,0,L|243:177,1,60,2|0,1:2|1:0,2:0:0:0:
328,264,70870,5,12,1:2:0:0:
338,272,70945,1,0,1:0:0:0:
348,280,71020,2,0,L|343:220,1,60,0|0,1:0|1:0,2:0:0:0:
332,88,71170,53,14,1:2:0:0:
330,76,71245,1,0,1:0:0:0:
329,64,71320,2,0,L|322:-27,1,60,0|0,1:0|1:0,2:0:0:0:
470,185,71470,5,14,1:2:0:0:
470,185,72670,22,0,B|411:172|411:172|352:183,1,120,6|10,1:2|2:0,2:0:0:0:
240,227,72970,1,2,1:2:0:0:
363,303,73120,1,10,1:2:0:0:
278,148,73270,1,2,1:2:0:0:
211,330,73420,1,10,2:0:0:0:
113,242,73570,1,2,1:2:0:0:
113,242,73645,1,2,1:2:0:0:
113,242,73720,1,10,1:2:0:0:
200,161,73870,5,2,1:2:0:0:
15,326,74020,2,0,P|74:318|133:327,2,120,10|2|10,2:0|1:2|1:2,2:0:0:0:
192,239,74470,1,2,1:2:0:0:
64,170,74620,1,10,2:0:0:0:
150,54,74770,1,2,1:2:0:0:
150,54,74845,1,2,1:2:0:0:
150,54,74920,1,10,1:2:0:0:
20,68,75070,53,2,1:2:0:0:
159,150,75220,1,10,2:0:0:0:
251,20,75370,1,2,1:2:0:0:
10,89,75520,5,10,1:2:0:0:
155,158,75670,1,2,1:2:0:0:
236,21,75820,1,10,2:0:0:0:
2,110,75970,54,0,L|0:173,2,60,2|2|10,1:2|1:2|1:2,2:0:0:0:
158,55,76270,1,2,1:2:0:0:
169,54,76345,1,0,1:0:0:0:
180,53,76420,1,10,1:2:0:0:
191,52,76495,1,0,1:0:0:0:
202,51,76570,1,2,1:2:0:0:
213,50,76645,1,0,1:0:0:0:
224,49,76720,1,10,1:2:0:0:
235,48,76795,1,0,1:0:0:0:
246,47,76870,1,2,1:2:0:0:
257,46,76945,1,0,1:0:0:0:
268,45,77020,1,10,1:2:0:0:
279,44,77095,1,0,1:0:0:0:
290,43,77170,1,2,1:2:0:0:
301,42,77245,1,2,1:2:0:0:
312,41,77320,1,10,1:2:0:0:
323,40,77395,1,2,1:2:0:0:
334,39,77470,6,0,L|422:33,2,60,6|0|10,1:2|2:0|2:0,2:0:0:0:
171,150,77770,1,2,1:2:0:0:
347,134,77920,2,0,L|435:128,2,60,10|0|2,1:2|2:0|1:2,2:0:0:0:
184,245,78220,1,10,2:0:0:0:
360,229,78370,1,2,1:2:0:0:
371,228,78445,1,2,1:2:0:0:
382,227,78520,1,10,1:2:0:0:
393,226,78595,1,2,2:0:0:0:
404,225,78670,54,0,L|492:219,2,60,2|0|10,1:2|2:0|2:0,2:0:0:0:
259,106,78970,1,2,1:2:0:0:
275,282,79120,2,0,L|281:370,2,60,10|0|2,1:2|2:0|1:2,2:0:0:0:
340,145,79420,1,10,2:0:0:0:
194,245,79570,2,0,L|120:294,2,60,2|2|10,1:2|1:2|1:2,2:0:0:0:
360,274,79870,5,2,1:2:0:0:
360,274,79945,1,0,2:0:0:0:
360,274,80020,1,10,2:0:0:0:
326,62,80170,1,2,1:2:0:0:
262,215,80320,1,10,1:2:0:0:
262,215,80395,1,0,2:0:0:0:
262,215,80470,1,2,1:2:0:0:
228,3,80620,1,10,2:0:0:0:
164,156,80770,1,2,1:2:0:0:
164,156,80845,1,2,1:2:0:0:
164,156,80920,1,10,1:2:0:0:
338,193,81070,53,2,1:2:0:0:
349,192,81145,1,0,2:0:0:0:
360,191,81220,1,10,2:0:0:0:
161,269,81370,1,2,1:2:0:0:
350,308,81520,1,10,1:2:0:0:
361,307,81595,1,0,2:0:0:0:
372,306,81670,1,2,1:2:0:0:
173,384,81820,1,10,2:0:0:0:
296,251,81970,2,0,L|225:260,2,60,2|2|10,1:2|1:2|1:2,2:0:0:0:
161,269,82270,5,6,1:2:0:0:
316,137,82420,1,0,2:0:0:0:
327,134,82570,1,8,2:0:0:0:
150,266,82720,53,8,2:0:0:0:
338,131,82870,2,0,P|373:85|286:81,1,180,0|0,1:0|3:0,2:0:0:0:
203,119,83170,5,0,1:0:0:0:
191,123,83245,1,0,3:0:0:0:
180,127,83320,2,0,L|191:195,1,60,0|0,3:0|3:0,2:0:0:0:
298,194,83470,53,0,1:0:0:0:
310,198,83545,1,0,3:0:0:0:
321,202,83620,2,0,L|310:270,1,60,0|0,3:0|3:0,2:0:0:0:
163,265,83770,5,0,1:0:0:0:
151,269,83845,1,0,3:0:0:0:
140,273,83920,2,0,L|151:341,1,60,0|0,3:0|3:0,2:0:0:0:
267,367,84070,53,0,1:0:0:0:
267,367,84370,6,0,B|286:350|286:350|311:364|311:364|446:353,1,180,12|0,2:0|2:0,2:0:0:0:
486,299,84670,54,0,P|498:253|489:207,1,96,6|2,1:2|1:2,2:0:0:0:
426,131,84970,1,10,1:2:0:0:
426,131,85120,1,0,1:0:0:0:
349,240,85270,1,2,1:2:0:0:
349,240,85420,1,2,1:2:0:0:
237,165,85570,1,10,1:2:0:0:
237,165,85720,1,0,1:0:0:0:
128,351,85870,5,2,1:2:0:0:
128,351,86020,1,0,1:0:0:0:
264,239,86170,1,10,1:2:0:0:
79,204,86320,1,2,1:2:0:0:
234,339,86470,1,2,1:2:0:0:
159,172,86620,2,0,P|149:126|147:78,1,96,0|10,1:0|1:2,2:0:0:0:
68,287,86920,1,0,1:0:0:0:
236,170,87070,54,0,P|281:154|330:154,1,96,2|0,1:2|1:0,2:0:0:0:
219,74,87370,1,10,1:2:0:0:
294,228,87520,1,2,1:2:0:0:
412,101,87670,1,2,1:2:0:0:
212,83,87820,5,0,1:0:0:0:
405,110,87970,1,10,1:2:0:0:
228,257,88120,54,0,L|172:259,1,48,6|0,1:2|1:0,2:0:0:0:
99,206,88570,5,10,1:2:0:0:
212,353,88720,1,0,1:0:0:0:
333,211,88870,1,2,1:2:0:0:
111,314,89020,1,0,1:0:0:0:
111,314,89170,1,10,1:2:0:0:
303,283,89320,1,0,1:0:0:0:
177,181,89470,54,0,P|163:136|167:88,1,96,6|2,1:2|1:2,2:0:0:0:
235,20,89770,1,10,1:2:0:0:
235,20,89920,1,0,1:0:0:0:
349,90,90070,1,2,1:2:0:0:
349,90,90220,1,2,1:2:0:0:
159,19,90370,1,10,1:2:0:0:
159,19,90520,1,0,1:0:0:0:
251,176,90670,5,2,1:2:0:0:
251,176,90820,1,0,1:0:0:0:
318,14,90970,1,10,1:2:0:0:
146,131,91120,1,2,1:2:0:0:
325,236,91270,1,2,1:2:0:0:
254,62,91420,1,0,1:0:0:0:
206,267,91570,1,10,1:2:0:0:
146,168,91720,1,0,1:0:0:0:
351,145,91870,54,0,L|448:143,1,90,6|0,1:2|1:0,2:0:0:0:
126,69,92470,2,0,L|36:70,1,90,6|0,2:0|2:0,2:0:0:0:
333,228,92920,6,0,P|354:221|377:219,1,36,6|0,2:0|2:0,2:0:0:0:
487,210,93220,54,0,P|459:221|436:240,1,60,0|0,2:0|2:0,2:0:0:0:
260,236,93370,6,0,L|269:299,1,60,8|8,2:0|2:0,2:0:0:0:
382,295,93520,2,0,L|373:358,1,60,8|8,2:0|2:0,2:0:0:0:
332,158,93670,1,0,1:0:0:0:
332,158,93745,1,0,3:0:0:0:
332,158,93820,2,0,L|320:97,1,60,0|0,3:0|3:0,2:0:0:0:
192,98,93970,53,0,1:0:0:0:
179,85,94045,1,0,3:0:0:0:
192,72,94120,1,0,3:0:0:0:
204,85,94195,1,0,3:0:0:0:
192,84,94270,1,4,1:2:0:0:
53,214,94420,5,10,2:0:0:0:
53,214,94570,2,0,P|113:204|168:223,1,120,2|10,1:2|1:2,2:0:0:0:
310,239,94870,1,2,1:2:0:0:
310,239,95020,2,0,P|188:228|126:314,1,240,10|10,2:0|1:2,2:0:0:0:
337,258,95470,54,0,P|390:234|452:233,1,120,2|10,1:2|2:0,2:0:0:0:
233,302,95770,1,0,1:0:0:0:
233,302,95845,1,0,1:0:0:0:
233,302,95920,1,10,1:2:0:0:
420,355,96070,1,0,1:0:0:0:
451,161,96220,1,10,2:0:0:0:
311,359,96370,2,0,L|297:240,1,120,0|10,1:0|1:2,2:0:0:0:
104,301,96670,5,2,1:2:0:0:
223,340,96820,1,10,2:0:0:0:
223,138,96970,1,2,1:2:0:0:
104,176,97120,1,10,1:2:0:0:
296,239,97270,1,2,1:2:0:0:
149,110,97420,1,10,2:0:0:0:
177,279,97570,1,0,1:0:0:0:
302,158,97720,54,0,P|331:153|363:153,1,60,14|10,1:2|2:0,2:0:0:0:
159,210,98170,5,0,1:0:0:0:
159,210,98245,1,0,1:0:0:0:
159,210,98320,2,0,L|153:147,1,60,10|0,1:2|1:0,2:0:0:0:
300,268,98470,54,0,P|329:270|360:278,1,60,0|0,1:0|1:0,2:0:0:0:
84,228,98620,2,0,L|61:168,1,60,10|0,1:2|1:0,2:0:0:0:
231,141,98770,2,0,B|259:131|279:113|279:113|286:138|286:138|327:106|382:103|382:103|404:118|436:116,1,240,0|4,1:0|1:2,2:0:0:0:
234,217,99220,6,0,P|291:198|350:200,2,120,10|2|10,2:0|1:2|1:2,2:0:0:0:
126,276,99670,2,0,P|184:288|234:319,2,120,2|10|0,1:2|2:0|1:0,2:0:0:0:
2,273,100120,1,10,1:2:0:0:
293,271,100270,53,2,1:2:0:0:
141,198,100420,1,10,2:0:0:0:
168,364,100570,1,0,1:0:0:0:
168,364,100645,1,0,1:0:0:0:
168,364,100720,1,10,1:2:0:0:
231,209,100870,1,0,1:0:0:0:
70,235,101020,1,10,2:0:0:0:
231,209,101170,6,0,B|319:193|319:193|299:220,1,120,0|10,1:0|1:2,2:0:0:0:
157,284,101470,1,2,1:2:0:0:
331,317,101620,1,10,2:0:0:0:
256,127,101770,1,2,1:2:0:0:
217,343,101920,1,10,1:2:0:0:
380,249,102070,1,2,1:2:0:0:
151,205,102220,1,10,2:0:0:0:
380,249,102370,1,0,1:0:0:0:
151,205,102520,54,0,P|127:203|106:205,1,45,14|0,1:2|1:0,2:0:0:0:
32,217,102820,6,0,L|35:278,1,60,0|0,1:0|1:0,2:0:0:0:
135,340,102970,1,8,2:0:0:0:
135,340,103045,1,8,2:0:0:0:
135,340,103120,2,0,P|164:330|194:326,1,60,8|8,2:0|2:0,2:0:0:0:
256,140,103270,54,0,L|258:80,1,60,0|0,1:0|3:0,2:0:0:0:
249,272,103420,2,0,L|251:212,1,60,0|0,3:0|3:0,2:0:0:0:
168,207,103570,2,0,L|170:147,3,60,0|0|0|0,1:0|3:0|3:0|3:0,2:0:0:0:
320,184,103870,6,0,P|347:180|380:180,3,60,4|0|0|0,1:2|1:0|1:0|1:0,2:0:0:0:
353,253,104170,2,0,P|369:274|386:302,3,60,10|0|0|0,1:2|1:0|1:0|1:0,2:0:0:0:
309,316,104470,2,0,P|298:341|282:369,3,60,10|0|0|0,1:2|1:0|1:0|1:0,2:0:0:0:
232,310,104770,2,0,P|204:314|172:314,3,60,10|0|0|0,1:2|1:0|1:0|1:0,2:0:0:0:
199,240,105070,2,0,P|182:218|165:190,3,60,10|0|0|0,1:2|1:0|1:0|1:0,2:0:0:0:
242,176,105370,2,0,P|252:150|268:122,3,60,8|0|0|0,1:2|1:0|1:0|1:0,2:0:0:0:
318,181,105670,54,0,P|345:177|378:176,1,60,8|0,1:2|1:0,2:0:0:0:
353,250,105820,6,0,P|374:266|398:289,3,60,2|0|8|0,1:2|1:0|1:2|1:0,2:0:0:0:
279,246,106120,54,0,P|250:253|222:265,1,60,2|0,1:2|1:0,2:0:0:0:
154,298,106270,6,0,P|127:312|103:331,3,60,8|0|0|0,1:2|1:0|1:0|1:0,2:0:0:0:
61,211,106570,2,0,P|46:184|27:160,3,60,10|0|0|0,1:2|1:0|1:0|1:0,2:0:0:0:
194,224,106870,2,0,P|164:223|134:227,3,60,10|0|0|0,1:2|1:0|1:0|1:0,2:0:0:0:
156,102,107170,2,0,P|156:72|152:42,3,60,10|0|0|0,1:2|1:0|1:0|1:0,2:0:0:0:
264,179,107470,2,0,P|238:163|210:152,3,60,10|0|0|0,1:2|1:0|1:0|1:0,2:0:0:0:
292,55,107770,2,0,P|307:29|318:1,3,60,8|0|0|0,1:2|1:0|1:0|1:0,2:0:0:0:
347,176,108070,54,0,P|332:149|313:125,1,60,8|0,1:2|1:0,2:0:0:0:
402,86,108220,6,0,P|416:59|435:35,3,60,2|0|8|0,1:2|1:0|1:2|1:0,2:0:0:0:
482,157,108520,54,0,P|452:156|422:160,1,60,2|0,1:2|1:0,2:0:0:0:
347,176,108670,6,0,P|317:182|289:194,3,60,12|0|0|0,1:2|1:0|1:0|1:0,2:0:0:0:
199,134,108970,2,0,P|170:124|139:120,3,60,10|0|0|0,1:2|1:0|1:0|1:0,2:0:0:0:
254,263,109270,2,0,P|263:291|267:322,3,60,10|0|0|0,1:2|1:0|1:0|1:0,2:0:0:0:
146,196,109570,2,0,P|115:194|85:198,3,60,10|0|0|0,1:2|1:0|1:0|1:0,2:0:0:0:
171,279,109870,54,0,P|172:309|168:339,3,60,10|0|0|0,1:2|1:0|1:0|1:0,2:0:0:0:
199,134,110170,2,0,P|200:103|196:73,3,60,8|0|0|0,1:2|1:0|1:0|1:0,2:0:0:0:
254,263,110470,2,0,P|263:291|267:322,3,60,10|0|0|0,1:2|1:0|1:0|1:0,2:0:0:0:
275,167,110770,2,0,P|284:138|288:107,3,60,10|0|0|0,1:2|1:0|1:0|1:0,2:0:0:0:
437,194,111070,6,0,P|406:192|376:196,3,60,10|0|0|0,1:2|1:0|1:0|1:0,2:0:0:0:
254,263,111370,2,0,P|283:266|312:276,3,60,8|0|0|0,1:2|1:0|1:0|1:0,2:0:0:0:
410,308,111670,1,8,1:2:0:0:
410,308,111820,1,0,1:0:0:0:
396,140,111970,2,0,P|389:80|371:23,1,120,14|0,1:2|1:0,2:0:0:0:
152,93,112270,53,10,2:0:0:0:
185,80,112345,1,8,2:0:0:0:
220,82,112420,1,8,2:0:0:0:
251,99,112495,1,8,2:0:0:0:
268,130,112570,2,0,L|266:199,1,60,0|0,1:0|3:0,2:0:0:0:
262,264,112720,2,0,L|260:333,1,60,0|0,3:0|3:0,2:0:0:0:
193,160,112870,6,0,L|191:229,1,60,2|0,1:2|3:0,2:0:0:0:
187,294,113020,2,0,L|185:363,1,60,0|0,3:0|3:0,2:0:0:0:
341,376,113170,1,2,1:2:0:0:
376,371,113245,1,0,3:0:0:0:
411,367,113320,2,0,L|482:360,1,60,0|0,3:0|3:0,2:0:0:0:
249,249,113470,53,6,1:2:0:0:
422,273,113620,1,10,2:0:0:0:
267,355,113770,1,0,1:0:0:0:
344,198,113920,1,10,1:2:0:0:
376,371,114070,1,0,1:0:0:0:
203,312,114220,1,10,2:0:0:0:
352,275,114370,1,2,1:2:0:0:
352,275,114445,1,0,1:0:0:0:
352,275,114520,1,10,1:2:0:0:
199,98,114670,5,2,1:2:0:0:
255,263,114820,1,10,2:0:0:0:
307,96,114970,1,0,1:0:0:0:
169,202,115120,1,10,1:2:0:0:
344,198,115270,1,2,1:2:0:0:
250,36,115420,1,10,2:0:0:0:
244,194,115570,1,0,1:0:0:0:
244,194,115645,1,0,1:0:0:0:
244,194,115720,1,10,1:2:0:0:
88,142,115870,5,10,2:0:0:0:
88,142,115945,1,8,2:0:0:0:
88,142,116020,2,0,L|79:81,1,60,8|8,2:0|2:0,2:0:0:0:
174,29,116170,1,0,1:0:0:0:
174,29,116245,1,0,3:0:0:0:
174,29,116320,2,0,L|183:90,1,60,0|0,3:0|3:0,2:0:0:0:
244,154,116470,1,0,1:0:0:0:
244,154,116545,1,0,3:0:0:0:
244,154,116620,2,0,L|235:215,1,60,0|0,3:0|3:0,2:0:0:0:
99,223,116770,5,8,2:0:0:0:
99,223,116845,1,8,2:0:0:0:
99,223,116920,2,0,L|90:162,1,60,8|8,2:0|2:0,2:0:0:0:
174,29,117070,1,0,1:0:0:0:
174,29,117145,1,0,3:0:0:0:
174,29,117220,2,0,L|183:90,1,60,0|0,3:0|3:0,2:0:0:0:
244,154,117370,1,0,1:0:0:0:
244,154,117445,1,0,3:0:0:0:
244,154,117520,2,0,L|235:215,1,60,0|0,3:0|3:0,2:0:0:0:
87,311,117670,54,0,B|182:254|190:350|286:293,1,210,8|0,2:0|2:0,2:0:0:0:
338,218,118270,6,0,L|347:97,1,120,6|8,1:2|2:0,2:0:0:0:
383,308,118570,1,0,1:0:0:0:
383,308,118645,1,0,1:0:0:0:
383,308,118720,1,8,1:2:0:0:
237,228,118870,1,2,1:2:0:0:
164,363,119020,1,8,2:0:0:0:
99,174,119170,1,2,1:2:0:0:
99,174,119245,1,0,1:0:0:0:
99,174,119320,1,8,1:2:0:0:
217,101,119470,53,2,1:2:0:0:
155,245,119620,1,8,2:0:0:0:
291,161,119770,1,0,1:0:0:0:
134,98,119920,1,8,1:2:0:0:
239,232,120070,1,0,1:0:0:0:
316,57,120220,1,8,2:0:0:0:
388,182,120370,1,2,1:2:0:0:
388,182,120445,1,0,1:0:0:0:
388,182,120520,1,8,1:2:0:0:
254,133,120670,5,2,1:2:0:0:
423,110,120820,1,8,2:0:0:0:
254,133,120970,2,0,L|195:124,2,60,0|0|8,1:0|1:0|1:2,2:0:0:0:
338,251,121270,1,2,1:2:0:0:
316,82,121420,1,8,2:0:0:0:
338,251,121570,2,0,L|361:308,2,60,0|0|8,1:0|1:0|1:2,2:0:0:0:
133,231,121870,53,2,1:2:0:0:
266,280,122020,1,8,2:0:0:0:
142,350,122170,1,0,1:0:0:0:
128,154,122320,1,8,1:2:0:0:
72,296,122470,1,0,1:0:0:0:
240,200,122620,1,8,2:0:0:0:
85,99,122770,1,2,1:2:0:0:
85,99,122845,1,0,1:0:0:0:
85,99,122920,1,8,1:2:0:0:
207,36,123070,5,2,1:2:0:0:
228,27,123145,1,0,1:0:0:0:
252,24,123220,1,8,1:2:0:0:
276,26,123295,1,0,1:0:0:0:
299,35,123370,1,0,1:0:0:0:
318,48,123445,1,0,1:0:0:0:
334,66,123520,1,8,1:2:0:0:
347,87,123595,1,0,1:0:0:0:
341,110,123670,1,0,1:0:0:0:
340,134,123745,1,0,1:0:0:0:
343,157,123820,1,8,1:2:0:0:
351,179,123895,1,0,1:0:0:0:
364,200,123970,2,0,P|378:228|386:257,3,60,2|0|8|0,1:2|1:0|1:2|1:0,2:0:0:0:
312,333,124270,53,2,1:2:0:0:
290,324,124345,1,0,1:0:0:0:
267,319,124420,1,8,1:2:0:0:
243,318,124495,1,0,1:0:0:0:
219,321,124570,1,2,1:2:0:0:
196,327,124645,1,0,1:0:0:0:
174,337,124720,1,8,1:2:0:0:
152,346,124795,1,0,1:0:0:0:
128,347,124870,1,2,1:2:0:0:
106,339,124945,1,0,1:0:0:0:
87,325,125020,1,8,1:2:0:0:
74,305,125095,1,0,1:0:0:0:
69,281,125170,2,0,P|63:251|51:224,3,60,2|0|8|0,1:2|1:0|1:2|1:0,2:0:0:0:
121,167,125470,5,2,1:2:0:0:
132,146,125545,1,0,1:0:0:0:
150,130,125620,1,8,1:2:0:0:
172,121,125695,1,0,1:0:0:0:
195,118,125770,2,0,L|237:163,3,60,0|0|8|0,1:0|1:0|1:2|1:0,2:0:0:0:
304,210,126070,53,2,1:2:0:0:
326,217,126145,1,0,1:0:0:0:
349,217,126220,1,8,1:2:0:0:
372,211,126295,1,0,1:0:0:0:
392,198,126370,2,0,L|404:140,3,60,0|0|8|0,1:0|1:0|1:2|1:0,2:0:0:0:
418,67,126670,5,14,2:0:0:0:
419,61,126745,1,8,2:0:0:0:
420,55,126820,1,8,2:0:0:0:
421,49,126895,1,8,2:0:0:0:
422,43,126970,2,0,L|357:52,1,60,8|8,2:0|2:0,2:0:0:0:
237,66,127120,2,0,P|264:73|292:88,1,60,8|8,2:0|2:0,2:0:0:0:
404,139,127270,2,0,P|377:146|349:161,1,60,0|0,1:0|3:0,2:0:0:0:
239,141,127420,2,0,L|242:205,1,60,0|0,3:0|3:0,2:0:0:0:
298,280,127570,1,0,1:0:0:0:
298,280,127645,1,0,3:0:0:0:
298,280,127720,1,0,3:0:0:0:
298,280,127795,1,0,3:0:0:0:
298,280,127870,1,6,1:2:0:0:
96,321,128020,53,8,2:0:0:0:
250,350,128170,1,0,1:0:0:0:
112,212,128320,1,8,1:2:0:0:
95,358,128470,1,2,1:2:0:0:
251,249,128620,1,8,2:0:0:0:
135,108,128770,1,0,1:0:0:0:
135,108,128845,1,0,1:0:0:0:
135,108,128920,1,8,1:2:0:0:
36,162,129070,5,2,1:2:0:0:
203,152,129220,1,8,2:0:0:0:
36,162,129370,1,0,1:0:0:0:
30,163,129445,1,0,1:0:0:0:
24,164,129520,1,8,1:2:0:0:
43,55,129670,1,0,1:0:0:0:
109,208,129820,1,8,2:0:0:0:
43,55,129970,1,2,1:2:0:0:
40,49,130045,1,0,1:0:0:0:
37,43,130120,1,8,1:2:0:0:
103,196,130270,53,2,1:2:0:0:
292,173,130420,1,8,2:0:0:0:
105,268,130570,1,0,1:0:0:0:
294,245,130720,1,10,1:2:0:0:
107,340,130870,1,0,1:0:0:0:
296,317,131020,1,8,2:0:0:0:
39,306,131170,1,2,1:2:0:0:
33,306,131245,1,0,1:0:0:0:
27,306,131320,1,8,1:2:0:0:
195,222,131470,5,2,1:2:0:0:
215,209,131545,1,0,1:0:0:0:
235,196,131620,1,8,1:2:0:0:
255,183,131695,1,0,1:0:0:0:
275,170,131770,1,0,1:0:0:0:
295,157,131845,1,0,1:0:0:0:
315,144,131920,1,10,1:2:0:0:
335,131,131995,1,0,1:0:0:0:
355,118,132070,53,2,1:2:0:0:
343,117,132145,1,0,1:0:0:0:
331,116,132220,1,8,1:2:0:0:
319,115,132295,1,0,1:0:0:0:
307,114,132370,1,0,1:0:0:0:
295,113,132445,1,0,1:0:0:0:
283,112,132520,1,8,1:2:0:0:
271,111,132595,1,0,1:0:0:0:
259,110,132670,6,0,L|259:47,3,60,6|0|0|0,1:2|1:0|1:0|1:0,2:0:0:0:
155,251,132970,2,0,L|117:301,3,60,12|0|2|0,1:2|1:0|1:2|1:0,2:0:0:0:
322,198,133270,2,0,L|381:178,3,60,12|0|0|0,1:2|1:0|1:0|1:0,2:0:0:0:
155,142,133570,2,0,L|95:122,3,60,14|0|0|0,1:2|1:0|1:0|1:0,2:0:0:0:
259,286,133870,53,6,1:2:0:0:
259,286,135070,54,0,L|393:279,1,135,6|0,2:0|2:0,2:0:0:0:
456,236,136270,37,10,2:2:0:0:
454,230,136345,1,8,2:0:0:0:
452,224,136420,1,8,2:0:0:0:
450,218,136495,1,8,2:0:0:0:
448,212,136570,2,0,B|423:186|431:157|431:157|453:176|448:212,1,120,2|0,1:2|3:0,2:0:0:0:
247,140,136870,2,0,B|236:174|207:182|207:182|213:153|247:140,1,120,10|8,2:2|2:0,2:0:0:0:
389,66,137170,2,0,B|381:31|402:9|402:9|411:37|389:66,1,120,2|0,1:2|3:0,2:0:0:0:
213,37,137470,37,6,1:2:0:0:
177,36,137545,1,2,2:0:0:0:
141,35,137620,1,10,2:0:0:0:
105,34,137695,1,2,2:0:0:0:
69,34,137770,5,2,1:2:0:0:
77,49,137845,1,2,1:2:0:0:
85,64,137920,1,10,1:2:0:0:
93,79,137995,1,2,2:0:0:0:
101,94,138070,53,2,1:2:0:0:
70,113,138145,1,2,2:0:0:0:
57,146,138220,1,10,2:0:0:0:
58,181,138295,1,2,2:0:0:0:
76,211,138370,1,2,1:2:0:0:
109,225,138445,1,2,1:2:0:0:
144,219,138520,1,10,1:2:0:0:
180,219,138595,1,2,2:0:0:0:
213,231,138670,1,2,1:2:0:0:
239,255,138745,1,2,2:0:0:0:
248,289,138820,6,0,L|245:343,1,45,10|2,2:0|1:2,2:0:0:0:
170,348,139120,54,0,L|173:288,1,60,10|2,1:2|2:0,2:0:0:0:
311,255,139270,5,2,1:2:0:0:
346,250,139345,1,2,2:0:0:0:
381,246,139420,1,10,2:0:0:0:
416,242,139495,1,2,2:0:0:0:
451,238,139570,54,0,L|495:232,1,45,2|0,1:2|1:0,2:0:0:0:
486,157,139870,5,2,1:2:0:0:
480,121,139945,1,2,2:0:0:0:
474,85,140020,1,10,2:0:0:0:
469,49,140095,1,2,2:0:0:0:
465,13,140170,53,2,1:2:0:0:
457,29,140245,1,2,1:2:0:0:
449,45,140320,1,10,1:2:0:0:
442,61,140395,1,2,2:0:0:0:
435,77,140470,5,2,1:2:0:0:
401,64,140545,1,2,2:0:0:0:
365,63,140620,1,10,2:0:0:0:
332,76,140695,1,2,2:0:0:0:
305,99,140770,2,0,L|307:160,1,60,2|2,1:2|1:2,2:0:0:0:
310,231,140920,2,0,L|312:292,1,60,10|2,1:2|2:0,2:0:0:0:
238,344,141070,54,0,P|179:344|124:368,1,120,2|10,1:2|2:0,2:0:0:0:
123,361,141295,6,0,P|177:337|237:337,1,120,2|0,2:0|1:0,2:0:0:0:
236,330,141520,54,0,P|176:330|124:354,1,60,10|0,1:2|1:0,2:0:0:0:
116,291,141670,6,0,P|64:261|5:254,1,120,2|10,1:2|2:0,2:0:0:0:
7,249,141895,54,0,P|66:255|118:284,1,120,2|0,2:0|1:0,2:0:0:0:
121,277,142120,6,0,P|68:247|12:243,1,60,10|0,1:2|1:0,2:0:0:0:
38,182,142270,54,0,P|70:77|176:101,1,240,2|0,1:2|1:0,2:0:0:0:
63,215,142720,6,0,P|67:106|176:101,1,240,10|10,1:2|2:0,2:0:0:0:
251,212,143170,54,0,B|272:330|272:330|297:273,1,180,2|10,1:2|1:2,2:0:0:0:
337,154,143470,6,0,P|358:93|461:72,1,180,2|0,1:2|2:0,2:0:0:0:
461,65,143770,54,0,P|422:56|348:95,1,120,2|10,1:2|1:2,2:0:0:0:
216,137,144070,6,0,L|161:160,1,60,2|0,1:2|2:0,2:0:0:0:
239,244,144220,2,0,B|270:310|270:310|294:145,1,240,10|10,2:0|1:2,2:0:0:0:
199,41,144670,53,2,1:2:0:0:
161,45,144745,1,2,2:0:0:0:
126,58,144820,1,10,2:0:0:0:
94,77,144895,1,2,2:0:0:0:
67,104,144970,5,2,1:2:0:0:
89,67,145045,1,2,1:2:0:0:
121,48,145120,1,10,1:2:0:0:
156,35,145195,1,2,2:0:0:0:
194,30,145270,53,2,1:2:0:0:
151,24,145345,1,2,2:0:0:0:
116,37,145420,1,10,2:0:0:0:
84,56,145495,1,2,2:0:0:0:
63,85,145570,1,2,1:2:0:0:
53,119,145645,1,2,1:2:0:0:
54,154,145720,1,10,1:2:0:0:
63,188,145795,1,2,2:0:0:0:
82,218,145870,5,2,1:2:0:0:
99,217,145945,1,2,2:0:0:0:
116,217,146020,2,0,L|176:216,1,60,10|2,2:0|2:0,2:0:0:0:
232,152,146170,53,2,1:2:0:0:
248,155,146245,1,2,1:2:0:0:
265,159,146320,2,0,L|323:173,1,60,10|2,1:2|2:0,2:0:0:0:
436,140,146470,5,2,1:2:0:0:
457,111,146545,1,2,2:0:0:0:
436,82,146620,1,10,2:0:0:0:
401,93,146695,1,2,2:0:0:0:
401,129,146770,54,0,P|440:148|465:188,1,90,2|0,1:2|1:0,2:0:0:0:
483,258,147070,5,6,1:2:0:0:
481,293,147145,1,2,2:0:0:0:
458,320,147220,1,10,2:0:0:0:
426,338,147295,1,2,2:0:0:0:
390,344,147370,1,2,1:2:0:0:
354,335,147445,1,2,1:2:0:0:
328,309,147520,1,10,1:2:0:0:
317,274,147595,1,2,2:0:0:0:
321,238,147670,1,2,1:2:0:0:
336,205,147745,1,2,2:0:0:0:
347,170,147820,1,10,2:0:0:0:
345,134,147895,1,2,2:0:0:0:
329,101,147970,54,0,L|282:74,1,45,2|0,1:2|1:0,2:0:0:0:
227,121,148270,6,0,P|168:131|130:177,1,120,2|10,1:2|2:0,2:0:0:0:
126,193,148495,1,2,2:0:0:0:
123,210,148570,54,0,P|133:268|179:306,1,120,2|10,1:2|1:2,2:0:0:0:
195,311,148795,1,2,2:0:0:0:
212,314,148870,6,0,P|270:303|308:257,1,120,2|10,1:2|2:0,2:0:0:0:
313,242,149095,1,2,2:0:0:0:
316,225,149170,54,0,P|305:166|259:128,1,120,2|10,1:2|1:2,2:0:0:0:
152,40,149470,5,2,1:2:0:0:
116,46,149545,1,2,2:0:0:0:
80,53,149620,1,10,2:0:0:0:
44,60,149695,1,2,2:0:0:0:
8,68,149770,1,2,1:2:0:0:
6,62,149845,1,2,1:2:0:0:
4,56,149920,1,10,1:2:0:0:
3,50,149995,1,2,2:0:0:0:
2,44,150070,53,2,1:2:0:0:
9,79,150145,1,2,2:0:0:0:
13,114,150220,1,10,2:0:0:0:
16,149,150295,1,2,2:0:0:0:
17,184,150370,1,2,1:2:0:0:
13,188,150445,1,2,1:2:0:0:
9,192,150520,1,10,1:2:0:0:
5,196,150595,1,2,2:0:0:0:
1,201,150670,5,2,1:2:0:0:
32,183,150745,1,2,2:0:0:0:
67,177,150820,1,10,2:0:0:0:
102,183,150895,1,2,2:0:0:0:
130,205,150970,1,2,1:2:0:0:
164,196,151045,1,2,1:2:0:0:
200,199,151120,1,10,1:2:0:0:
232,214,151195,1,2,2:0:0:0:
262,237,151270,2,0,B|291:206|305:164|305:164|311:102|291:87|262:99|251:127|265:147|328:142|328:142|370:127|402:95,1,336,2|0,1:2|1:0,2:0:0:0:
444,29,151870,54,0,L|503:27,1,60,2|2,1:2|2:0,2:0:0:0:
355,33,152020,1,10,2:0:0:0:
349,33,152095,1,2,2:0:0:0:
343,33,152170,2,0,L|284:35,1,60,2|2,1:2|1:2,2:0:0:0:
439,107,152320,6,0,L|498:105,1,60,10|2,1:2|2:0,2:0:0:0:
345,110,152470,1,2,1:2:0:0:
339,110,152545,1,2,2:0:0:0:
333,110,152620,2,0,L|274:112,1,60,10|2,2:0|2:0,2:0:0:0:
434,183,152770,54,0,L|493:181,1,60,2|2,1:2|1:2,2:0:0:0:
325,186,152920,2,0,L|266:188,1,60,10|2,1:2|2:0,2:0:0:0:
190,62,153070,6,0,P|161:75|139:98,1,60,2|2,1:2|2:0,2:0:0:0:
73,205,153220,1,10,2:0:0:0:
73,210,153295,1,2,2:0:0:0:
73,215,153370,2,0,L|82:332,1,60,2|2,1:2|1:2,2:0:0:0:
126,363,153520,2,0,P|133:332|146:308,1,60,10|2,1:2|2:0,2:0:0:0:
196,182,153670,54,0,L|205:299,1,60,2|2,1:2|2:0,2:0:0:0:
222,314,153820,1,10,2:0:0:0:
223,319,153895,1,2,2:0:0:0:
224,324,153970,1,2,1:2:0:0:
225,329,154045,1,2,1:2:0:0:
226,334,154120,2,0,L|289:326,1,60,10|2,1:2|2:0,2:0:0:0:
392,270,154270,6,0,B|435:233|452:178|441:127|441:127|417:55|299:35|230:170|333:269|432:227|443:157,1,539.240537478921,2|0,1:2|1:0,2:0:0:0:
468,86,154870,53,2,1:2:0:0:
469,80,154945,1,2,2:0:0:0:
470,74,155020,2,0,L|482:13,1,60,10|2,2:0|2:0,2:0:0:0:
372,72,155170,1,2,1:2:0:0:
370,65,155245,1,2,1:2:0:0:
369,59,155320,2,0,L|359:-2,1,60,10|2,1:2|2:0,2:0:0:0:
277,90,155470,5,10,2:0:0:0:
241,83,155545,1,10,2:0:0:0:
205,84,155620,1,10,2:0:0:0:
171,97,155695,1,10,2:0:0:0:
146,123,155770,2,0,L|153:186,1,60,2|2,1:2|3:2,2:0:0:0:
269,107,155920,53,2,3:2:0:0:
241,83,155995,1,2,3:2:0:0:
209,65,156070,1,2,1:2:0:0:
173,60,156145,1,2,3:2:0:0:
139,70,156220,2,0,L|113:128,1,60,2|2,3:2|3:2,2:0:0:0:
32,188,156370,5,2,1:2:0:0:
33,205,156445,1,2,3:2:0:0:
34,222,156520,1,2,3:2:0:0:
35,240,156595,1,2,3:2:0:0:
36,257,156670,6,0,B|72:217|131:210|177:239|197:281|197:281|233:340|310:359|373:321|395:265,1,432,6|0,1:2|1:0,2:0:0:0:
392,270,157420,6,0,P|406:222|379:136,1,144,10|0,2:0|1:0,2:0:0:0:
378,135,157720,6,0,P|360:115|338:103,1,48,10|0,1:2|1:0,2:0:0:0:
336,105,157870,38,0,L|235:108,1,96,2|10,1:2|2:0,2:0:0:0:
240,107,158095,6,0,P|192:118|153:142,1,96,2|0,2:0|1:0,2:0:0:0:
152,142,158320,6,0,P|198:132|222:134,1,48,10|0,1:2|1:2,2:0:0:0:
198,132,158470,38,0,P|278:234|149:213,1,336,2|0,2:0|1:0,2:0:0:0:
149,213,159070,6,0,P|143:143|86:104,2,144,2|2|10,1:2|2:0|1:2,2:0:0:0:
51,289,159670,2,0,P|80:226|51:164,2,144,2|2|10,1:2|2:0|1:2,2:0:0:0:
163,342,160270,6,0,B|275:272|275:411|384:342,1,240,2|0,1:2|1:0,2:0:0:0:
431,287,160720,2,0,B|420:263|420:263|447:270|447:270|423:251|423:251|450:259|450:259|426:240|426:240|453:247|453:247|430:228|430:228|457:236|457:236|433:217|433:217|460:224|460:224|436:205|436:205|453:201|453:201|488:163|476:113,1,432,10|0,1:2|1:0,2:0:0:0:
474,105,161470,5,6,1:2:0:0:
378,42,161620,1,10,1:2:0:0:
342,41,161695,1,2,1:2:0:0:
306,40,161770,2,0,L|240:39,1,60,2|2,1:2|1:2,2:0:0:0:
182,83,161920,2,0,L|117:93,1,60,10|2,1:2|1:2,2:0:0:0:
66,147,162070,2,0,B|53:173|56:206|56:206|44:224|44:224|60:227|60:227|49:245|49:245|51:278|38:305,2,180,2|2|10,1:2|1:2|1:2,2:0:0:0:
191,90,162670,6,0,B|240:74|277:98|277:98|321:142|316:164|286:173|259:160|257:136|309:100|309:100|351:85|392:105,2,338.2693190582,2|10|2,1:2|1:2|1:2,2:0:0:0:
92,183,163870,54,0,B|81:234|3:248|-32:174|6:127|49:128|49:128|97:124|137:81|142:34|95:-1|95:-1|28:35|49:117|99:157|99:157|144:198|153:262|157:319|145:357|107:377|55:373|17:344|39:285,1,902.051517488532,2|8,1:2|2:0,2:0:0:0:
146,187,165220,6,0,P|180:186|233:209,1,90,8|0,2:0|3:0,2:0:0:0:
305,241,165520,2,0,L|297:271,1,30,2|2,3:2|3:2,2:0:0:0:
430,259,165670,1,2,1:2:0:0:
430,240,165745,1,0,3:0:0:0:
431,222,165820,1,0,3:0:0:0:
432,204,165895,1,0,3:0:0:0:
433,185,165970,2,0,L|440:87,1,90,10|8,2:0|2:0,2:0:0:0:
365,110,166270,6,0,B|339:89|339:89|326:115|326:115|299:94|299:94|282:118|282:118|242:89|174:91,1,240,6|0,1:2|1:0,2:0:0:0:
42,142,167020,6,0,P|84:222|38:292,1,180,10|0,2:0|1:0,2:0:0:0:
40,290,167320,6,0,L|100:280,1,60,10|0,1:2|1:0,2:0:0:0:
171,266,167470,38,0,P|230:259|282:285,1,120,2|10,1:2|2:0,2:0:0:0:
314,304,167695,6,0,P|359:265|417:249,1,120,2|0,2:0|1:0,2:0:0:0:
448,232,167920,6,0,L|455:170,1,60,10|0,1:2|1:0,2:0:0:0:
464,94,168070,38,0,B|379:128|379:128|327:57,2,180,2|2|10,1:2|2:0|1:2,2:0:0:0:
263,88,168670,6,0,L|144:78,1,120,2|0,1:2|1:0,2:0:0:0:
27,167,169120,1,10,1:2:0:0:
27,167,169270,2,0,L|146:157,1,120,2|0,1:2|1:0,2:0:0:0:
269,248,169720,1,10,1:2:0:0:
269,248,169870,2,0,L|150:238,1,120,2|0,1:2|1:0,2:0:0:0:
31,326,170320,1,10,1:2:0:0:
31,326,170470,2,0,B|119:290|119:362|207:326,1,180,2|10,1:2|1:2,2:0:0:0:
301,275,171070,21,6,1:2:0:0:
330,254,171145,1,2,1:2:0:0:
365,256,171220,1,10,1:2:0:0:
391,280,171295,1,2,1:2:0:0:
410,310,171370,1,2,1:2:0:0:
443,322,171445,1,2,1:2:0:0:
478,317,171520,1,10,1:2:0:0:
503,291,171595,1,2,1:2:0:0:
508,255,171670,1,2,1:2:0:0:
498,220,171745,1,2,1:2:0:0:
477,190,171820,1,10,1:2:0:0:
453,163,171895,1,2,1:2:0:0:
444,127,171970,2,0,P|444:81|462:38,1,90,2|0,1:2|1:0,2:0:0:0:
460,41,172270,6,0,L|425:23,2,30,2|2|10,1:2|1:2|1:2,2:0:0:0:
368,95,172495,2,0,L|346:62,2,30,2|2|2,1:2|1:2|1:2,2:0:0:0:
260,95,172720,2,0,L|258:56,1,30,10|2,1:2|1:2,2:0:0:0:
166,41,172870,1,2,1:2:0:0:
130,33,172945,1,2,1:2:0:0:
94,38,173020,1,10,1:2:0:0:
67,62,173095,1,2,1:2:0:0:
58,97,173170,1,2,1:2:0:0:
69,131,173245,1,2,1:2:0:0:
90,159,173320,1,10,1:2:0:0:
112,186,173395,1,2,1:2:0:0:
121,220,173470,2,0,B|171:285|97:395|-37:334|-19:225|33:184|33:184|89:151|155:139|210:163|210:163|287:169|339:59|235:-20|153:34|153:98|153:98|221:279,1,960,2|8,1:2|2:0,2:0:0:0:
369,179,174820,53,10,2:2:0:0:
369,179,174970,1,0,1:0:0:0:
197,307,175120,1,2,3:2:0:0:
396,272,175270,5,2,1:2:0:0:
325,258,175420,1,0,3:0:0:0:
254,244,175570,1,2,1:2:0:0:
183,231,175720,1,0,3:0:0:0:
112,218,175870,1,6,1:2:0:0:
256,192,175945,12,6,178270,1:2:0:0:
256,192,178345,12,6,180670,1:2:0:0:
256,192,180745,12,6,181870,1:2:0:0:
256,192,181945,12,6,183070,1:2:0:0:
256,192,183145,12,0,184195,2:0:0:0:
181,72,184270,37,10,2:0:0:0:
181,72,184345,1,8,2:0:0:0:
181,72,184420,2,0,L|186:132,1,60,8|8,2:0|2:0,2:0:0:0:
312,175,184570,53,0,1:0:0:0:
312,175,184645,1,0,3:0:0:0:
312,175,184720,2,0,L|252:180,1,60,0|0,3:0|3:0,2:0:0:0:
130,263,184870,53,2,1:2:0:0:
147,261,184945,1,0,3:0:0:0:
164,259,185020,1,0,3:0:0:0:
181,258,185095,1,0,3:0:0:0:
198,257,185170,1,2,1:2:0:0:
215,256,185245,1,0,3:0:0:0:
232,255,185320,1,0,3:0:0:0:
249,254,185395,1,0,3:0:0:0:
266,253,185470,1,6,1:2:0:0:
177,358,185620,21,10,2:0:0:0:
130,186,185770,1,0,1:0:0:0:
177,358,185920,1,10,1:2:0:0:
211,182,186070,53,0,1:0:0:0:
109,330,186220,1,10,2:0:0:0:
249,342,186370,1,2,1:2:0:0:
130,186,186520,1,10,1:2:0:0:
300,249,186670,53,2,1:2:0:0:
166,117,186820,1,10,2:0:0:0:
176,258,186970,1,0,1:0:0:0:
311,100,187120,1,10,1:2:0:0:
130,186,187270,21,2,1:2:0:0:
321,173,187420,1,10,2:0:0:0:
134,263,187570,1,0,1:0:0:0:
325,250,187720,1,10,1:2:0:0:
183,129,187870,53,10,2:0:0:0:
183,129,187945,1,8,2:0:0:0:
183,129,188020,2,0,L|178:69,1,60,8|8,2:0|2:0,2:0:0:0:
298,206,188170,1,0,1:0:0:0:
309,205,188245,1,0,3:0:0:0:
320,204,188320,1,0,3:0:0:0:
331,203,188395,1,0,3:0:0:0:
342,202,188470,2,0,L|401:197,3,60,0|0|0|0,1:0|3:0|3:0|3:0,2:0:0:0:
266,129,188770,53,8,2:0:0:0:
266,129,188845,1,8,2:0:0:0:
266,129,188920,2,0,L|261:69,1,60,8|8,2:0|2:0,2:0:0:0:
158,219,189070,1,0,1:0:0:0:
147,220,189145,1,0,3:0:0:0:
136,221,189220,1,0,3:0:0:0:
125,222,189295,1,0,3:0:0:0:
114,223,189370,2,0,L|55:228,3,60,0|0|0|0,1:0|3:0|3:0|3:0,2:0:0:0:
242,304,189670,21,8,2:0:0:0:
242,304,190270,6,0,B|300:289|300:289|356:308,1,120,6|8,1:2|2:0,2:0:0:0:
242,208,190570,1,0,1:0:0:0:
297,366,190720,1,8,1:2:0:0:
381,220,190870,1,2,1:2:0:0:
171,306,191020,1,8,2:0:0:0:
317,177,191170,1,2,1:2:0:0:
317,177,191245,1,0,1:0:0:0:
317,177,191320,1,8,1:2:0:0:
200,55,191470,5,2,1:2:0:0:
202,152,191620,1,8,2:0:0:0:
374,43,191770,1,0,1:0:0:0:
268,99,191920,1,8,1:2:0:0:
455,149,192070,1,0,1:0:0:0:
268,99,192220,1,8,2:0:0:0:
367,240,192370,1,2,1:2:0:0:
367,240,192445,1,0,1:0:0:0:
367,240,192520,1,8,1:2:0:0:
219,174,192670,53,2,1:2:0:0:
388,117,192820,1,8,2:0:0:0:
223,42,192970,1,0,1:0:0:0:
223,42,193045,1,0,1:0:0:0:
223,42,193120,1,8,1:2:0:0:
294,211,193270,5,2,1:2:0:0:
322,31,193420,1,8,2:0:0:0:
170,122,193570,1,0,1:0:0:0:
170,122,193645,1,0,1:0:0:0:
170,122,193720,1,8,1:2:0:0:
379,195,193870,53,2,1:2:0:0:
270,52,194020,1,8,2:0:0:0:
220,250,194170,1,0,1:0:0:0:
352,111,194320,1,8,1:2:0:0:
170,122,194470,1,0,1:0:0:0:
299,256,194620,1,8,2:0:0:0:
141,349,194770,1,2,1:2:0:0:
141,349,194845,1,0,1:0:0:0:
141,349,194920,1,8,1:2:0:0:
44,232,195070,5,6,1:2:0:0:
36,209,195145,1,0,1:0:0:0:
29,185,195220,1,8,1:2:0:0:
30,161,195295,1,0,1:0:0:0:
40,139,195370,1,0,1:0:0:0:
56,121,195445,1,0,1:0:0:0:
77,110,195520,1,8,1:2:0:0:
100,106,195595,1,0,1:0:0:0:
123,112,195670,1,0,1:0:0:0:
140,128,195745,1,0,1:0:0:0:
161,139,195820,1,8,1:2:0:0:
184,142,195895,1,0,1:0:0:0:
207,137,195970,2,0,P|232:129|265:123,3,60,2|0|8|0,1:2|1:0|1:2|1:0,2:0:0:0:
375,114,196270,53,2,1:2:0:0:
398,113,196345,1,0,1:0:0:0:
421,115,196420,1,8,1:2:0:0:
441,127,196495,1,0,1:0:0:0:
456,145,196570,1,2,1:2:0:0:
461,168,196645,1,0,1:0:0:0:
460,191,196720,1,8,1:2:0:0:
451,213,196795,1,0,1:0:0:0:
436,232,196870,1,2,1:2:0:0:
414,241,196945,1,0,1:0:0:0:
390,244,197020,1,8,1:2:0:0:
367,251,197095,1,0,1:0:0:0:
347,264,197170,2,0,P|321:288|305:308,3,60,2|0|8|0,1:2|1:0|1:2|1:0,2:0:0:0:
205,288,197470,5,2,1:2:0:0:
181,288,197545,1,0,1:0:0:0:
157,294,197620,1,8,1:2:0:0:
135,304,197695,1,0,1:0:0:0:
119,322,197770,2,0,L|123:382,3,60,0|0|8|0,1:0|1:0|1:2|1:0,2:0:0:0:
28,249,198070,1,2,1:2:0:0:
26,225,198145,1,0,1:0:0:0:
24,201,198220,1,8,1:2:0:0:
23,177,198295,1,0,1:0:0:0:
21,153,198370,2,0,L|17:93,3,60,0|0|8|0,1:2|1:0|1:2|1:0,2:0:0:0:
113,105,198670,53,12,2:0:0:0:
117,111,198745,1,8,2:0:0:0:
121,117,198820,1,8,2:0:0:0:
125,123,198895,1,8,2:0:0:0:
129,129,198970,2,0,L|125:69,1,60,10|8,2:0|2:0,2:0:0:0:
267,174,199120,2,0,P|237:180|211:192,1,60,8|8,2:0|2:0,2:0:0:0:
100,240,199270,5,0,1:0:0:0:
100,240,199345,1,0,3:0:0:0:
100,240,199420,2,0,L|106:299,1,60,0|0,3:0|3:0,2:0:0:0:
197,298,199570,1,0,1:0:0:0:
197,298,199645,1,0,3:0:0:0:
197,298,199720,2,0,L|231:346,1,60,0|0,3:0|3:0,2:0:0:0:
310,299,199870,2,0,L|436:288,1,120,6|8,1:2|2:0,2:0:0:0:
241,202,200170,53,0,1:0:0:0:
420,186,200320,1,8,1:2:0:0:
310,299,200470,1,2,1:2:0:0:
294,120,200620,1,8,2:0:0:0:
206,308,200770,1,0,1:0:0:0:
186,132,200920,1,8,1:2:0:0:
36,256,201070,5,2,1:2:0:0:
230,243,201220,1,8,2:0:0:0:
65,139,201370,1,0,1:0:0:0:
140,322,201520,1,8,1:2:0:0:
186,132,201670,1,0,1:0:0:0:
66,327,201820,1,8,2:0:0:0:
297,372,201970,1,2,1:2:0:0:
297,372,202045,1,0,1:0:0:0:
297,372,202120,1,8,1:2:0:0:
223,191,202270,53,2,1:2:0:0:
388,293,202420,1,8,2:0:0:0:
194,306,202570,1,0,1:0:0:0:
345,184,202720,1,10,1:2:0:0:
297,372,202870,1,0,1:0:0:0:
282,137,203020,1,8,2:0:0:0:
212,378,203170,1,2,1:2:0:0:
197,143,203320,1,8,1:2:0:0:
127,384,203470,5,2,1:2:0:0:
127,384,203545,1,0,1:0:0:0:
127,384,203620,1,8,1:2:0:0:
127,384,203695,1,0,1:0:0:0:
127,384,203770,1,0,1:0:0:0:
127,384,203845,1,0,1:0:0:0:
127,384,203920,1,10,1:2:0:0:
127,384,203995,1,0,1:0:0:0:
127,384,204070,1,2,1:2:0:0:
128,372,204145,1,0,1:0:0:0:
129,360,204220,1,8,1:2:0:0:
130,348,204295,1,0,1:0:0:0:
131,336,204370,1,0,1:0:0:0:
132,324,204445,1,0,1:0:0:0:
133,312,204520,1,8,1:2:0:0:
134,300,204595,1,0,1:0:0:0:
135,288,204670,54,0,L|141:227,3,60,6|0|0|0,1:2|1:0|1:0|1:0,2:0:0:0:
234,135,204970,2,0,L|193:180,3,60,12|0|2|0,1:2|1:0|1:2|1:0,2:0:0:0:
58,125,205270,2,0,L|89:177,3,60,12|0|0|0,1:2|1:0|1:0|1:0,2:0:0:0:
260,284,205570,2,0,L|254:223,3,60,14|0|0|0,1:2|1:0|1:0|1:0,2:0:0:0:
158,77,205870,5,14,1:2:0:0:
158,77,207070,5,6,1:2:0:0:
253,72,207220,1,10,2:0:0:0:
348,68,207370,1,2,1:2:0:0:
207,136,207520,5,10,1:2:0:0:
297,12,207670,1,2,1:2:0:0:
297,12,207820,1,10,2:0:0:0:
411,156,207970,1,2,1:2:0:0:
411,156,208045,1,2,1:2:0:0:
411,156,208120,1,10,1:2:0:0:
411,156,208195,1,2,2:0:0:0:
411,156,208270,69,2,1:2:0:0:
332,211,208420,1,10,2:0:0:0:
254,267,208570,1,2,1:2:0:0:
405,227,208720,53,10,1:2:0:0:
283,134,208870,1,2,1:2:0:0:
283,134,209020,1,10,2:0:0:0:
329,324,209170,1,2,1:2:0:0:
329,324,209245,1,2,1:2:0:0:
329,324,209320,1,10,1:2:0:0:
180,193,209470,5,2,1:2:0:0:
180,193,209620,1,10,2:0:0:0:
374,157,209770,1,2,1:2:0:0:
227,273,209920,69,10,1:2:0:0:
227,273,210070,1,2,1:2:0:0:
245,82,210220,1,10,2:0:0:0:
370,237,210370,1,2,1:2:0:0:
370,237,210445,1,2,1:2:0:0:
370,237,210520,1,10,1:2:0:0:
235,175,210670,53,2,1:2:0:0:
217,169,210745,1,0,1:0:0:0:
199,163,210820,1,10,1:2:0:0:
181,157,210895,1,0,1:0:0:0:
163,151,210970,1,2,1:2:0:0:
145,145,211045,1,0,1:0:0:0:
127,139,211120,1,10,1:2:0:0:
109,133,211195,1,0,1:0:0:0:
91,127,211270,1,2,1:2:0:0:
93,144,211345,1,0,1:0:0:0:
95,161,211420,1,10,1:2:0:0:
97,178,211495,1,0,1:0:0:0:
99,195,211570,1,2,1:2:0:0:
101,212,211645,1,2,1:2:0:0:
103,229,211720,1,10,1:2:0:0:
105,246,211795,1,2,1:2:0:0:
107,263,211870,6,0,L|116:324,2,60,6|0|10,1:2|2:0|2:0,2:0:0:0:
197,126,212170,1,2,1:2:0:0:
197,126,212320,2,0,L|206:65,2,60,10|0|2,1:2|2:0|1:2,2:0:0:0:
268,279,212620,1,10,2:0:0:0:
268,279,212770,2,0,L|277:340,2,60,2|2|10,1:2|1:2|1:2,2:0:0:0:
407,178,213070,70,0,L|463:158,2,60,2|0|10,1:2|2:0|2:0,2:0:0:0:
257,206,213370,1,2,1:2:0:0:
257,206,213520,2,0,L|198:195,2,60,10|0|2,1:2|2:0|1:2,2:0:0:0:
312,65,213820,1,10,2:0:0:0:
312,65,213970,2,0,L|302:6,2,60,2|2|10,1:2|1:2|1:2,2:0:0:0:
342,241,214270,53,2,1:2:0:0:
345,258,214345,1,0,2:0:0:0:
349,275,214420,1,10,2:0:0:0:
216,115,214570,1,2,1:2:0:0:
216,115,214720,5,10,1:2:0:0:
229,103,214795,1,0,2:0:0:0:
241,91,214870,1,2,1:2:0:0:
170,289,215020,1,10,2:0:0:0:
170,289,215170,69,2,1:2:0:0:
153,283,215245,1,2,1:2:0:0:
136,279,215320,1,10,1:2:0:0:
268,355,215470,53,2,1:2:0:0:
268,355,215545,1,0,2:0:0:0:
268,355,215620,1,10,2:0:0:0:
340,159,215770,1,2,1:2:0:0:
340,159,215920,5,10,1:2:0:0:
340,159,215995,1,0,2:0:0:0:
340,159,216070,1,2,1:2:0:0:
166,206,216220,1,10,2:0:0:0:
166,206,216370,69,2,1:2:0:0:
166,206,216445,1,2,1:2:0:0:
166,206,216520,1,10,1:2:0:0:
311,303,216670,53,6,1:2:0:0:
406,291,216820,1,10,2:0:0:0:
501,280,216970,1,2,1:2:0:0:
365,357,217120,5,10,1:2:0:0:
447,225,217270,1,2,1:2:0:0:
447,225,217420,1,10,2:0:0:0:
333,102,217570,1,2,1:2:0:0:
333,102,217645,1,2,1:2:0:0:
333,102,217720,1,10,1:2:0:0:
333,102,217795,1,2,2:0:0:0:
333,102,217870,69,2,1:2:0:0:
336,197,218020,1,10,2:0:0:0:
339,292,218170,1,2,1:2:0:0:
396,147,218320,53,10,1:2:0:0:
278,247,218470,1,2,1:2:0:0:
278,247,218620,1,10,2:0:0:0:
132,168,218770,1,2,1:2:0:0:
132,168,218845,1,2,1:2:0:0:
132,168,218920,1,10,1:2:0:0:
132,168,218995,1,2,2:0:0:0:
132,168,219070,5,2,1:2:0:0:
162,6,219220,1,10,2:0:0:0:
162,6,219370,1,2,1:2:0:0:
49,131,219520,1,10,1:2:0:0:
204,75,219670,1,2,1:2:0:0:
204,75,219820,1,10,2:0:0:0:
40,48,219970,1,2,1:2:0:0:
40,48,220045,1,2,1:2:0:0:
40,48,220120,1,10,1:2:0:0:
215,150,220270,69,2,1:2:0:0:
238,149,220345,1,0,1:0:0:0:
261,148,220420,1,10,1:2:0:0:
284,147,220495,1,0,1:0:0:0:
307,146,220570,1,2,1:2:0:0:
330,145,220645,1,0,1:0:0:0:
353,144,220720,1,10,1:2:0:0:
376,143,220795,1,0,1:0:0:0:
399,142,220870,1,2,1:2:0:0:
393,165,220945,1,0,1:0:0:0:
388,188,221020,1,10,1:2:0:0:
383,211,221095,1,0,1:0:0:0:
378,234,221170,1,2,1:2:0:0:
373,257,221245,1,2,1:2:0:0:
368,280,221320,1,10,1:2:0:0:
363,303,221395,1,2,1:2:0:0:
359,326,221470,22,0,L|237:332,1,120,6|10,1:2|2:0,2:0:0:0:
70,335,221770,1,2,1:2:0:0:
221,217,221920,1,10,1:2:0:0:
81,219,222070,1,2,1:2:0:0:
155,323,222220,1,10,2:0:0:0:
151,125,222370,1,2,1:2:0:0:
151,125,222445,1,2,1:2:0:0:
151,125,222520,1,10,1:2:0:0:
221,217,222670,5,2,1:2:0:0:
242,49,222820,1,10,2:0:0:0:
77,91,222970,1,2,1:2:0:0:
186,223,223120,53,10,1:2:0:0:
162,55,223270,1,2,1:2:0:0:
14,138,223420,1,10,2:0:0:0:
153,237,223570,1,2,1:2:0:0:
153,237,223645,1,2,1:2:0:0:
153,237,223720,1,10,1:2:0:0:
38,343,223870,5,2,1:2:0:0:
65,203,224020,1,10,2:0:0:0:
159,96,224170,1,2,1:2:0:0:
14,318,224320,53,10,1:2:0:0:
76,189,224470,1,2,1:2:0:0:
194,110,224620,1,10,2:0:0:0:
2,285,224770,6,0,L|0:226,2,60,2|2|10,1:2|1:2|1:2,2:0:0:0:
148,338,225070,53,2,1:2:0:0:
243,330,225220,1,10,2:0:0:0:
338,322,225370,1,2,1:2:0:0:
127,341,225520,5,10,1:2:0:0:
355,321,225670,1,2,1:2:0:0:
355,321,225820,1,10,2:0:0:0:
224,154,225970,1,2,1:2:0:0:
224,154,226045,1,2,1:2:0:0:
224,154,226120,1,10,1:2:0:0:
231,284,226270,5,6,1:2:0:0:
158,101,226420,1,0,2:0:0:0:
158,101,226570,1,8,2:0:0:0:
231,284,226720,5,8,2:0:0:0:
158,101,226870,1,0,1:0:0:0:
158,101,227020,1,0,3:0:0:0:
56,162,227170,53,0,1:0:0:0:
56,162,227245,1,0,3:0:0:0:
56,162,227320,2,0,L|67:221,1,60,0|0,3:0|3:0,2:0:0:0:
168,202,227470,5,0,1:0:0:0:
168,202,227545,1,0,3:0:0:0:
168,202,227620,2,0,L|157:261,1,60,0|0,3:0|3:0,2:0:0:0:
23,282,227770,53,0,1:0:0:0:
23,282,227845,1,0,3:0:0:0:
23,282,227920,2,0,L|34:341,1,60,0|0,3:0|3:0,2:0:0:0:
107,379,228070,5,8,2:0:0:0:
371,138,228670,53,10,3:2:0:0:
194,303,228820,1,2,3:2:0:0:
240,65,228970,1,2,3:2:0:0:
343,285,229120,1,2,2:0:0:0:
130,167,229270,5,10,2:0:0:0:
337,45,229495,1,2,3:2:0:0:
274,358,229720,1,2,3:2:0:0:
199,167,229870,54,0,L|192:56,1,108,6|0,1:2|1:0,2:0:0:0:
77,23,230395,5,0,1:0:0:0:
61,17,230470,22,0,B|39:46|39:46|63:44|63:44|41:70|41:70|65:68|65:68|43:94|43:94|67:92|67:92|47:142|77:200,1,287.999999999999,14|0,1:2|2:0,2:0:0:0:
