osu file format v14

[General]
AudioFilename: audio.mp3
AudioLeadIn: 0
PreviewTime: 53395
Countdown: 0
SampleSet: Soft
StackLeniency: 0.3
Mode: 0
LetterboxInBreaks: 0
WidescreenStoryboard: 1

[Editor]
DistanceSpacing: 0.6
BeatDivisor: 4
GridSize: 16
TimelineZoom: 2.5

[Metadata]
Title:Judgment Day Has Come
TitleUnicode:Judgment Day Has Come
Artist:IOSYS feat. Nanahira
ArtistUnicode:IOSYS feat. ななひら
Creator:-Tynamo
Version:Lunatic
Source:東方緋想天 ~ Scarlet Weather Rhapsody.
Tags:Minami 有頂天変 ~ Wonderful Heaven BarkingMadDog bmd Bibbity Bill judgement tenshi hinanawi theme japanese power metal zun 上海アリス幻樂団 Yoshimi Youno 東方極楽湯界─イオシス東方コンピレーション vol.24 夕野ヨシミ Confetto team shanghai alice star stream star_stream touhou project 10.5 th10.5 Catastrophe in Bhavaagra Hisouten rock video game Hakurei Shrine Autumn Reitaisai 3 xidorn 比那名居 天子 東方project イオシス
BeatmapID:2481649
BeatmapSetID:1152650

[Difficulty]
HPDrainRate:5
CircleSize:4
OverallDifficulty:8.5
ApproachRate:9.2
SliderMultiplier:1.6
SliderTickRate:1

[Events]
//Background and Video events
0,0,"judgementday.jpg",0,0
//Break Periods
//Storyboard Layer 0 (Background)
//Storyboard Layer 1 (Fail)
//Storyboard Layer 2 (Pass)
//Storyboard Layer 3 (Foreground)
//Storyboard Layer 4 (Overlay)
//Storyboard Sound Samples

[TimingPoints]
670,300,4,2,1,40,1,0
820,-100,4,2,0,60,0,0
970,-100,4,2,1,40,0,0
2020,-100,4,2,0,60,0,0
2170,-100,4,2,1,40,0,0
3220,-100,4,2,0,60,0,0
3370,-100,4,2,1,40,0,0
4270,-133.333333333333,4,2,1,40,0,0
5620,-133.333333333333,4,2,0,60,0,0
5770,-133.333333333333,4,2,1,40,0,0
6820,-133.333333333333,4,2,0,60,0,0
6970,-133.333333333333,4,2,1,40,0,0
8020,-133.333333333333,4,2,0,60,0,0
8170,-133.333333333333,4,2,1,40,0,0
8995,-133.333333333333,4,2,0,5,0,0
9070,-133.333333333333,4,2,1,40,0,0
10270,-133.333333333333,4,2,1,50,0,0
10420,-100,4,2,1,50,0,0
19870,-83.3333333333333,4,2,1,50,0,0
20095,-83.3333333333333,4,2,0,5,0,0
20170,-83.3333333333333,4,2,1,50,0,0
20470,-100,4,2,2,50,0,0
20545,-100,4,2,1,50,0,0
20770,-100,4,2,3,50,0,0
20845,-100,4,2,2,50,0,0
21070,-100,4,2,4,50,0,0
21145,-100,4,2,3,50,0,0
21370,-100,4,2,5,50,0,0
21445,-100,4,2,4,50,0,0
21670,-100,4,2,1,50,0,0
22270,-100,4,2,1,60,0,0
22420,-100,4,2,2,60,0,0
22570,-100,4,2,1,60,0,0
22720,-100,4,2,6,60,0,0
22870,-100,4,2,1,60,0,0
23020,-100,4,2,2,60,0,0
23320,-100,4,2,6,60,0,0
23470,-100,4,2,1,60,0,0
23620,-100,4,2,3,60,0,0
23770,-100,4,2,7,60,0,0
24220,-100,4,2,3,60,0,0
24370,-100,4,2,6,60,0,0
24670,-100,4,2,1,60,0,0
24820,-100,4,2,3,60,0,0
24970,-100,4,2,1,60,0,0
25120,-100,4,2,7,60,0,0
25270,-100,4,2,1,60,0,0
25720,-100,4,2,7,60,0,0
26020,-100,4,2,3,60,0,0
26170,-100,4,2,6,60,0,0
27220,-100,4,2,2,60,0,0
27370,-100,4,2,1,60,0,0
27520,-100,4,2,6,60,0,0
27670,-100,4,2,1,60,0,0
27820,-100,4,2,2,60,0,0
28120,-100,4,2,6,60,0,0
28270,-100,4,2,1,60,0,0
28420,-100,4,2,3,60,0,0
28570,-100,4,2,7,60,0,0
29020,-100,4,2,3,60,0,0
29170,-100,4,2,6,60,0,0
29470,-100,4,2,1,60,0,0
29620,-100,4,2,3,60,0,0
29770,-100,4,2,1,60,0,0
29920,-100,4,2,7,60,0,0
30070,-100,4,2,1,60,0,0
30520,-100,4,2,7,60,0,0
30820,-100,4,2,3,60,0,0
30970,-100,4,2,6,60,0,0
31270,-100,4,2,2,60,0,0
31645,-100,4,2,1,60,0,0
32020,-100,4,2,2,60,0,0
32170,-100,4,2,1,60,0,0
32320,-100,4,2,6,60,0,0
32470,-100,4,2,1,60,0,0
32620,-100,4,2,2,60,0,0
32770,-100,4,2,6,60,0,0
33070,-100,4,2,1,60,0,0
33295,-100,4,2,0,5,0,0
33370,-100,4,2,7,60,0,0
33820,-100,4,2,3,60,0,0
33970,-100,4,2,6,60,0,0
34270,-100,4,2,1,60,0,0
34420,-100,4,2,3,60,0,0
34570,-100,4,2,1,60,0,0
34720,-100,4,2,7,60,0,0
34870,-100,4,2,1,60,0,0
35020,-100,4,2,3,60,0,0
35170,-100,4,2,1,60,0,0
35320,-100,4,2,7,60,0,0
35920,-100,4,2,6,60,0,0
36595,-100,4,2,6,5,0,0
36670,-100,4,2,6,60,0,0
36820,-100,4,2,2,60,0,0
36970,-100,4,2,6,60,0,0
37270,-100,4,2,1,60,0,0
37420,-100,4,2,3,60,0,0
37570,-100,4,2,6,60,0,0
37870,-100,4,2,1,60,0,0
38095,-100,4,2,0,5,0,0
38170,-100,4,2,7,60,0,0
38620,-100,4,2,3,60,0,0
38770,-100,4,2,6,60,0,0
39070,-100,4,2,1,60,0,0
39220,-100,4,2,3,60,0,0
39370,-100,4,2,1,60,0,0
39520,-100,4,2,6,60,0,0
39670,-100,4,2,1,60,0,0
39820,-100,4,2,3,60,0,0
39970,-100,4,2,7,60,0,0
40420,-100,4,2,7,5,0,0
40570,-100,4,2,7,60,0,0
40645,-100,4,2,2,60,0,0
40945,-100,4,2,1,60,0,0
41170,-100,4,2,3,60,0,0
41245,-100,4,2,2,60,0,0
41470,-100,4,2,1,60,0,0
50170,-100,4,2,2,60,0,0
50320,-100,4,2,1,60,0,0
50470,-100,4,2,8,60,0,0
50620,-100,4,2,2,60,0,0
50770,-100,4,2,4,60,0,0
50920,-100,4,2,3,60,0,0
51070,-100,4,2,1,60,0,0
51220,-100,4,2,3,60,0,0
51370,-100,4,2,6,60,0,0
51820,-100,4,2,3,60,0,0
51970,-100,4,2,1,60,0,0
52120,-100,4,2,6,60,0,0
52270,-100,4,2,1,60,0,0
52420,-100,4,2,3,60,0,0
52570,-100,4,2,6,60,0,0
52870,-100,4,2,1,60,0,0
53020,-100,4,2,3,60,0,0
53170,-100,4,2,6,60,0,0
53470,-100,4,2,1,60,0,0
53770,-100,4,2,2,60,0,0
53845,-100,4,2,1,60,0,0
54070,-100,4,2,3,60,0,0
54145,-100,4,2,2,60,0,0
54670,-100,4,2,4,60,0,0
54745,-100,4,2,3,60,0,0
54970,-100,4,2,5,60,0,0
55045,-100,4,2,4,60,0,0
55270,-100,4,2,1,60,0,0
55870,-100,4,2,1,80,0,1
64270,-100,4,2,1,80,0,0
64870,-100,4,2,2,80,0,0
64945,-100,4,2,1,80,0,0
65170,-100,4,2,3,80,0,0
65245,-100,4,2,2,80,0,0
65470,-100,4,2,1,80,0,1
67795,-100,4,2,0,60,0,1
67870,-100,4,2,1,80,0,1
68095,-100,4,2,1,5,0,1
68170,-100,4,2,1,80,0,1
68545,-100,4,2,1,5,0,1
68620,-100,4,2,1,80,0,1
71470,-100,4,2,1,60,0,0
72670,-100,4,2,1,50,0,0
72895,-100,4,2,0,60,0,0
72970,-100,4,2,1,50,0,0
82270,-83.3333333333333,4,2,1,50,0,0
82495,-83.3333333333333,4,2,0,5,0,0
82570,-83.3333333333333,4,2,1,50,0,0
82870,-100,4,2,2,50,0,0
82945,-100,4,2,1,50,0,0
83170,-100,4,2,3,50,0,0
83245,-100,4,2,2,50,0,0
83470,-100,4,2,4,50,0,0
83545,-100,4,2,3,50,0,0
83770,-100,4,2,5,50,0,0
83845,-100,4,2,4,50,0,0
84070,-100,4,2,1,50,0,0
84670,-100,4,2,6,60,0,0
84820,-100,4,2,1,60,0,0
84970,-100,4,2,7,60,0,0
85420,-100,4,2,1,60,0,0
85570,-100,4,2,6,60,0,0
85870,-100,4,2,7,60,0,0
86170,-100,4,2,6,60,0,0
86320,-100,4,2,1,60,0,0
86470,-100,4,2,6,60,0,0
87070,-100,4,2,7,60,0,0
87520,-100,4,2,1,60,0,0
87670,-100,4,2,7,60,0,0
87970,-100,4,2,6,60,0,0
88120,-100,4,2,1,60,0,0
88570,-100,4,2,6,60,0,0
89620,-100,4,2,1,60,0,0
89770,-100,4,2,7,60,0,0
90220,-100,4,2,1,60,0,0
90370,-100,4,2,6,60,0,0
90670,-100,4,2,7,60,0,0
90970,-100,4,2,6,60,0,0
91120,-100,4,2,1,60,0,0
91270,-100,4,2,6,60,0,0
91870,-100,4,2,7,60,0,0
92470,-100,4,2,1,60,0,0
93295,-100,4,2,0,5,0,0
93370,-100,4,2,1,60,0,0
93670,-100,4,2,2,60,0,0
93745,-100,4,2,1,60,0,0
93970,-100,4,2,3,60,0,0
94045,-100,4,2,2,60,0,0
94270,-100,4,2,1,60,0,0
94495,-100,4,2,0,60,0,0
94570,-100,4,2,1,60,0,0
94720,-100,4,2,6,60,0,0
94870,-100,4,2,1,60,0,0
95020,-100,4,2,2,60,0,0
95170,-100,4,2,6,60,0,0
95470,-100,4,2,1,60,0,0
95695,-100,4,2,0,5,0,0
95770,-100,4,2,7,60,0,0
96220,-100,4,2,3,60,0,0
96370,-100,4,2,6,60,0,0
96670,-100,4,2,1,60,0,0
96820,-100,4,2,3,60,0,0
96970,-100,4,2,1,60,0,0
97120,-100,4,2,7,60,0,0
97270,-100,4,2,1,60,0,0
97720,-100,4,2,7,60,0,0
98020,-100,4,2,3,60,0,0
98095,-100,4,2,7,5,0,0
98170,-100,4,2,7,60,0,0
98320,-100,4,2,6,60,0,0
98995,-100,4,2,6,5,0,0
99070,-100,4,2,6,60,0,0
99220,-100,4,2,3,60,0,0
99370,-100,4,2,1,60,0,0
99520,-100,4,2,6,60,0,0
99670,-100,4,2,1,60,0,0
99820,-100,4,2,2,60,0,0
99970,-100,4,2,6,60,0,0
100270,-100,4,2,1,60,0,0
100495,-100,4,2,0,5,0,0
100570,-100,4,2,7,60,0,0
101020,-100,4,2,3,60,0,0
101170,-100,4,2,6,60,0,0
101470,-100,4,2,1,60,0,0
101620,-100,4,2,3,60,0,0
101770,-100,4,2,1,60,0,0
101920,-100,4,2,7,60,0,0
102070,-100,4,2,1,60,0,0
102220,-100,4,2,3,60,0,0
102370,-100,4,2,7,60,0,0
102820,-100,4,2,7,5,0,0
102970,-100,4,2,2,60,0,0
103345,-100,4,2,1,60,0,0
103570,-100,4,2,3,60,0,0
103645,-100,4,2,2,60,0,0
103870,-100,4,2,1,60,0,0
112570,-100,4,2,2,60,0,0
112720,-100,4,2,1,60,0,0
112870,-100,4,2,8,60,0,0
113020,-100,4,2,2,60,0,0
113170,-100,4,2,4,60,0,0
113320,-100,4,2,3,60,0,0
113470,-100,4,2,1,60,0,0
113620,-100,4,2,3,60,0,0
113770,-100,4,2,6,60,0,0
114220,-100,4,2,3,60,0,0
114370,-100,4,2,1,60,0,0
114520,-100,4,2,6,60,0,0
114670,-100,4,2,1,60,0,0
114820,-100,4,2,3,60,0,0
114970,-100,4,2,6,60,0,0
115270,-100,4,2,1,60,0,0
115420,-100,4,2,3,60,0,0
115570,-100,4,2,6,60,0,0
115870,-100,4,2,1,60,0,0
116170,-100,4,2,2,60,0,0
116245,-100,4,2,1,60,0,0
116470,-100,4,2,3,60,0,0
116545,-100,4,2,2,60,0,0
117070,-100,4,2,4,60,0,0
117145,-100,4,2,3,60,0,0
117370,-100,4,2,5,60,0,0
117445,-100,4,2,4,60,0,0
117670,-100,4,2,1,60,0,0
118270,-100,4,2,1,80,0,1
126670,-100,4,2,1,80,0,0
127270,-100,4,2,2,80,0,0
127345,-100,4,2,1,80,0,0
127570,-100,4,2,3,80,0,0
127645,-100,4,2,2,80,0,0
127870,-100,4,2,1,80,0,1
130195,-100,4,2,0,60,0,1
130270,-100,4,2,1,80,0,1
130495,-100,4,2,1,5,0,1
130570,-100,4,2,1,80,0,1
130945,-100,4,2,1,5,0,1
131020,-100,4,2,1,80,0,1
133870,-100,4,2,1,60,0,0
135070,-133.333333333333,4,2,1,50,0,0
136570,-100,4,2,12,50,0,0
136645,-100,4,2,1,50,0,0
137170,-100,4,2,13,50,0,0
137245,-100,4,2,2,50,0,0
137470,-100,4,2,1,80,0,1
137620,-100,4,2,2,80,0,1
137695,-100,4,2,1,80,0,1
137920,-100,4,2,7,80,0,1
137995,-100,4,2,1,80,0,1
138220,-100,4,2,2,80,0,1
138295,-100,4,2,1,80,0,1
138520,-100,4,2,7,80,0,1
138595,-100,4,2,1,80,0,1
138820,-100,4,2,2,80,0,1
138895,-100,4,2,1,80,0,1
139120,-100,4,2,7,80,0,1
139195,-100,4,2,1,80,0,1
139420,-100,4,2,2,80,0,1
139495,-100,4,2,1,80,0,1
139795,-100,4,2,0,60,0,1
139870,-100,4,2,1,80,0,1
140020,-100,4,2,2,80,0,1
140095,-100,4,2,1,80,0,1
140320,-100,4,2,7,80,0,1
140395,-100,4,2,1,80,0,1
140620,-100,4,2,2,80,0,1
140770,-100,4,2,1,80,0,1
140920,-100,4,2,7,80,0,1
141070,-100,4,2,1,80,0,1
141520,-100,4,2,7,80,0,1
141670,-100,4,2,1,80,0,1
142120,-100,4,2,7,80,0,1
142270,-100,4,2,1,80,0,1
142720,-100,4,2,7,80,0,1
142945,-100,4,2,1,80,0,1
143020,-100,4,2,3,80,0,1
143170,-100,4,2,1,80,0,1
143695,-100,4,2,0,60,0,1
143770,-100,4,2,1,80,0,1
143920,-100,4,2,7,80,0,1
144070,-100,4,2,1,80,0,1
144295,-100,4,2,1,60,0,1
144520,-100,4,2,7,80,0,1
144670,-100,4,2,1,80,0,1
144820,-100,4,2,2,80,0,1
144895,-100,4,2,1,80,0,1
145120,-100,4,2,7,80,0,1
145195,-100,4,2,1,80,0,1
145420,-100,4,2,2,80,0,1
145495,-100,4,2,1,80,0,1
145720,-100,4,2,7,80,0,1
145795,-100,4,2,1,80,0,1
146020,-100,4,2,2,80,0,1
146095,-100,4,2,1,80,0,1
146320,-100,4,2,7,80,0,1
146395,-100,4,2,1,80,0,1
146620,-100,4,2,2,80,0,1
146695,-100,4,2,1,80,0,1
147220,-100,4,2,2,80,0,1
147295,-100,4,2,1,80,0,1
147520,-100,4,2,7,80,0,1
147595,-100,4,2,1,80,0,1
147820,-100,4,2,2,80,0,1
147895,-100,4,2,1,80,0,1
148195,-100,4,2,0,5,0,1
148270,-100,4,2,1,80,0,1
148420,-100,4,2,2,80,0,1
148495,-100,4,2,1,80,0,1
148720,-100,4,2,7,80,0,1
148795,-100,4,2,1,80,0,1
149020,-100,4,2,2,80,0,1
149170,-100,4,2,1,80,0,1
149320,-100,4,2,7,80,0,1
149470,-100,4,2,1,80,0,1
149620,-100,4,2,2,80,0,1
149695,-100,4,2,1,80,0,1
149920,-100,4,2,7,80,0,1
149995,-100,4,2,1,80,0,1
150220,-100,4,2,2,80,0,1
150295,-100,4,2,1,80,0,1
150520,-100,4,2,7,80,0,1
150595,-100,4,2,1,80,0,1
150820,-100,4,2,2,80,0,1
150895,-100,4,2,1,80,0,1
151120,-100,4,2,7,80,0,1
151195,-100,4,2,1,80,0,1
151795,-100,4,2,6,5,0,1
151870,-100,4,2,1,80,0,1
152020,-100,4,2,2,80,0,1
152095,-100,4,2,1,80,0,1
152320,-100,4,2,7,80,0,1
152395,-100,4,2,1,80,0,1
152620,-100,4,2,2,80,0,1
152695,-100,4,2,1,80,0,1
152920,-100,4,2,7,80,0,1
152995,-100,4,2,1,80,0,1
153220,-100,4,2,2,80,0,1
153295,-100,4,2,1,80,0,1
153520,-100,4,2,7,80,0,1
153595,-100,4,2,1,80,0,1
153820,-100,4,2,2,80,0,1
153895,-100,4,2,1,80,0,1
154120,-100,4,2,7,80,0,1
154195,-100,4,2,1,80,0,1
154795,-100,4,2,0,5,0,1
154870,-100,4,2,1,80,0,1
155020,-100,4,2,2,80,0,1
155095,-100,4,2,1,80,0,1
155320,-100,4,2,7,80,0,1
155395,-100,4,2,1,80,0,1
155770,-100,4,2,9,80,0,1
155845,-100,4,2,1,80,0,1
156070,-100,4,2,8,80,0,1
156145,-100,4,2,5,80,0,1
156370,-100,4,2,4,80,0,1
156445,-100,4,2,8,80,0,1
156670,-100,4,2,1,80,0,0
157420,-100,4,2,2,80,0,0
157645,-100,4,2,7,5,0,0
157720,-100,4,2,7,80,0,0
157870,-100,4,2,1,80,0,0
158320,-100,4,2,7,80,0,0
158470,-100,4,2,1,80,0,0
158995,-100,4,2,6,5,0,0
159070,-100,4,2,1,80,0,0
159520,-100,4,2,7,80,0,0
159670,-100,4,2,1,80,0,0
160120,-100,4,2,7,80,0,0
160270,-100,4,2,1,80,0,0
160720,-100,4,2,7,80,0,0
160870,-100,4,2,11,80,0,0
161395,-100,4,2,7,5,0,0
161470,-100,4,2,1,80,0,1
165445,-100,4,2,1,5,0,1
165520,-100,4,2,1,80,0,1
165670,-100,4,2,13,80,0,1
165820,-100,4,2,2,80,0,1
166270,-100,4,2,1,80,0,0
166945,-100,4,2,6,5,0,0
167020,-100,4,2,2,80,0,0
167245,-100,4,2,7,5,0,0
167320,-100,4,2,7,80,0,0
167470,-100,4,2,1,80,0,0
167920,-100,4,2,7,80,0,0
168070,-100,4,2,1,80,0,0
168520,-100,4,2,7,80,0,0
168670,-100,4,2,1,80,0,0
169120,-100,4,2,11,80,0,0
169870,-125,4,2,1,80,0,0
170320,-125,4,2,11,80,0,0
170470,-166.666666666667,4,2,11,80,0,0
170995,-166.666666666667,4,2,7,5,0,0
171070,-166.666666666667,4,2,1,80,0,1
171670,-100,4,2,1,80,0,1
172195,-100,4,2,1,5,0,1
172270,-100,4,2,1,80,0,1
174520,-100,4,2,1,80,0,0
174670,-100,4,2,1,80,0,1
174970,-100,4,2,2,80,0,1
175120,-100,4,2,1,80,0,1
175270,-100,4,2,13,80,0,1
175420,-100,4,2,2,80,0,1
175570,-100,4,2,4,80,0,1
175720,-100,4,2,3,80,0,1
175870,-100,4,2,1,50,0,0
184270,-100,4,2,1,60,0,0
184570,-100,4,2,2,60,0,0
184720,-100,4,2,1,60,0,0
184870,-100,4,2,8,60,0,0
185020,-100,4,2,2,60,0,0
185170,-100,4,2,4,60,0,0
185320,-100,4,2,3,60,0,0
185470,-100,4,2,1,60,0,0
185620,-100,4,2,3,60,0,0
185770,-100,4,2,6,60,0,0
186220,-100,4,2,3,60,0,0
186370,-100,4,2,1,60,0,0
186520,-100,4,2,6,60,0,0
186670,-100,4,2,1,60,0,0
186820,-100,4,2,3,60,0,0
186970,-100,4,2,6,60,0,0
187270,-100,4,2,1,60,0,0
187420,-100,4,2,3,60,0,0
187570,-100,4,2,6,60,0,0
189670,-100,4,2,1,60,0,0
190270,-100,4,2,1,80,0,1
198670,-100,4,2,1,80,0,0
199270,-100,4,2,2,80,0,0
199345,-100,4,2,1,80,0,0
199570,-100,4,2,3,80,0,0
199645,-100,4,2,2,80,0,0
199870,-100,4,2,1,80,0,1
202195,-100,4,2,0,60,0,1
202270,-100,4,2,1,80,0,1
202495,-100,4,2,1,5,0,1
202570,-100,4,2,1,80,0,1
202945,-100,4,2,1,5,0,1
203020,-100,4,2,1,80,0,1
205870,-100,4,2,1,60,0,0
207070,-100,4,2,1,50,0,0
207295,-100,4,2,0,60,0,0
207370,-100,4,2,1,50,0,0
212095,-100,4,2,0,60,0,0
212170,-100,4,2,1,50,0,0
221470,-100,4,2,1,70,0,1
225145,-100,4,2,0,70,0,1
225220,-100,4,2,1,70,0,1
225295,-100,4,2,0,70,0,1
225370,-100,4,2,1,70,0,1
225595,-100,4,2,0,70,0,0
225670,-100,4,2,1,70,0,1
225745,-100,4,2,0,70,0,1
225820,-100,4,2,1,70,0,1
225895,-100,4,2,0,70,0,1
225970,-100,4,2,1,70,0,1
226270,-100,4,2,1,50,0,0
226495,-100,4,2,0,5,0,0
226570,-100,4,2,1,50,0,0
226870,-100,4,2,2,50,0,0
226945,-100,4,2,1,50,0,0
227170,-100,4,2,3,50,0,0
227245,-100,4,2,2,50,0,0
227470,-100,4,2,4,50,0,0
227545,-100,4,2,3,50,0,0
227770,-100,4,2,5,50,0,0
227845,-100,4,2,4,50,0,0
228070,-100,4,2,1,50,0,0
228670,-100,4,2,1,50,0,0
229495,-100,4,2,5,50,0,0
229870,-100,4,2,1,50,0,0
230470,-117.647058823529,4,2,1,60,0,1
231070,-117.647058823529,4,2,0,60,0,0

[Colours]
Combo1 : 255,79,79
Combo2 : 0,213,213
Combo3 : 47,187,240
Combo4 : 74,74,255
Combo5 : 255,106,34

[HitObjects]
92,151,670,5,14,2:0:0:0:
23,128,820,1,0,3:0:0:0:
23,56,970,1,0,1:0:0:0:
92,34,1120,1,2,1:2:0:0:
134,92,1270,1,2,2:0:0:0:
92,151,1420,1,2,1:2:0:0:
23,128,1570,1,2,1:2:0:0:
434,289,1870,5,14,2:0:0:0:
503,266,2020,1,0,3:0:0:0:
503,194,2170,1,0,1:0:0:0:
434,172,2320,1,2,1:2:0:0:
392,230,2470,1,2,2:0:0:0:
434,289,2620,1,2,1:2:0:0:
503,266,2770,1,2,1:2:0:0:
106,266,3070,5,14,2:0:0:0:
37,289,3220,1,0,3:0:0:0:
37,361,3370,1,0,1:0:0:0:
106,383,3520,1,2,1:2:0:0:
148,325,3670,1,2,2:0:0:0:
106,266,3820,1,2,1:2:0:0:
37,289,3970,1,2,1:2:0:0:
399,159,4270,38,0,P|412:7|340:144,1,420.000000000001,14|0,2:0|2:0,2:0:0:0:
404,232,5470,5,14,2:0:0:0:
333,253,5620,1,0,3:0:0:0:
290,195,5770,1,0,1:0:0:0:
332,137,5920,1,2,1:2:0:0:
401,158,6070,1,2,2:0:0:0:
404,232,6220,1,2,1:2:0:0:
333,253,6370,2,0,P|298:218|288:188,1,60.0000000000002,14|0,1:2|2:0,2:0:0:0:
288,78,6670,5,14,2:0:0:0:
219,101,6820,1,0,3:0:0:0:
219,173,6970,1,0,1:0:0:0:
288,195,7120,1,2,1:2:0:0:
330,137,7270,1,2,2:0:0:0:
288,78,7420,1,2,1:2:0:0:
219,101,7570,1,2,1:2:0:0:
234,365,7870,37,14,2:0:0:0:
165,342,8020,1,0,3:0:0:0:
165,270,8170,1,0,1:0:0:0:
234,248,8320,1,2,1:2:0:0:
276,306,8470,1,2,2:0:0:0:
234,365,8620,1,2,1:2:0:0:
165,342,8770,2,0,L|162:237,1,90.0000000000002,14|0,1:2|3:0,2:0:0:0:
161,226,9070,5,14,2:0:0:0:
274,92,9370,1,12,2:0:0:0:
332,257,9670,1,14,2:0:0:0:
86,69,10270,5,6,1:2:0:0:
174,124,10420,2,0,L|174:168,2,40,10|0|2,2:0|2:0|1:2,2:0:0:0:
274,92,10720,1,10,1:2:0:0:
370,130,10870,2,0,L|378:211,1,80,2|10,1:2|2:0,2:0:0:0:
258,251,11170,1,2,1:2:0:0:
259,231,11245,1,2,1:2:0:0:
261,211,11320,1,10,1:2:0:0:
263,191,11395,1,2,2:0:0:0:
265,171,11470,38,0,L|274:85,1,80,2|10,1:2|2:0,2:0:0:0:
212,22,11770,1,2,1:2:0:0:
165,203,11920,2,0,L|174:117,1,80,10|2,1:2|1:2,2:0:0:0:
112,54,12220,1,10,2:0:0:0:
73,155,12370,1,2,1:2:0:0:
71,175,12445,1,2,1:2:0:0:
69,195,12520,1,10,1:2:0:0:
67,215,12595,1,2,2:0:0:0:
63,237,12670,6,0,L|52:330,2,80,2|10|2,1:2|2:0|1:2,2:0:0:0:
156,294,13120,2,0,L|167:387,2,80,10|2|10,1:2|1:2|2:0,2:0:0:0:
252,251,13570,1,2,1:2:0:0:
252,251,13645,1,2,1:2:0:0:
252,251,13720,1,10,1:2:0:0:
168,158,13870,6,0,P|213:134|269:135,1,80,2|10,1:2|1:2,2:0:0:0:
241,130,14095,1,0,1:0:0:0:
241,130,14170,1,2,1:2:0:0:
312,300,14320,2,0,P|268:273|241:224,1,80,10|2,1:2|1:2,2:0:0:0:
251,250,14545,1,0,1:0:0:0:
251,250,14620,1,10,1:2:0:0:
365,130,14770,2,0,P|363:166|343:200,3,40,2|2|10|2,1:2|1:2|1:2|1:2,2:0:0:0:
394,210,15070,37,6,1:2:0:0:
462,276,15220,2,0,L|456:355,1,80,10|2,2:0|1:2,2:0:0:0:
306,235,15520,1,10,1:2:0:0:
376,300,15670,2,0,L|370:379,1,80,2|10,1:2|2:0,2:0:0:0:
475,201,15970,1,2,1:2:0:0:
476,181,16045,1,2,1:2:0:0:
477,161,16120,1,10,1:2:0:0:
479,141,16195,1,2,2:0:0:0:
480,121,16270,6,0,L|474:41,1,80,2|10,1:2|2:0,2:0:0:0:
384,4,16570,1,2,1:2:0:0:
396,183,16720,2,0,L|390:103,1,80,10|2,1:2|1:2,2:0:0:0:
300,66,17020,1,10,2:0:0:0:
306,165,17170,1,2,1:2:0:0:
307,185,17245,1,2,1:2:0:0:
309,205,17320,1,10,1:2:0:0:
310,225,17395,1,2,2:0:0:0:
311,245,17470,6,0,P|270:272|221:276,2,80,2|10|2,1:2|2:0|1:2,2:0:0:0:
141,216,17920,2,0,P|173:192|211:183,2,80,10|2|10,1:2|1:2|2:0,2:0:0:0:
119,332,18370,1,2,1:2:0:0:
119,332,18445,1,2,1:2:0:0:
119,332,18520,1,10,1:2:0:0:
20,244,18670,38,0,L|29:158,1,80,2|10,1:2|2:0,2:0:0:0:
28,164,18895,1,0,2:0:0:0:
28,164,18970,1,2,1:2:0:0:
141,210,19120,2,0,L|132:124,1,80,10|2,1:2|1:2,2:0:0:0:
133,131,19345,1,0,2:0:0:0:
133,131,19420,1,10,2:0:0:0:
248,165,19570,1,2,1:2:0:0:
250,145,19645,1,2,1:2:0:0:
252,125,19720,1,10,1:2:0:0:
254,105,19795,1,2,2:0:0:0:
256,83,19870,6,0,P|325:60|399:94,1,144,6|0,1:2|3:0,2:0:0:0:
436,147,20170,1,8,2:0:0:0:
435,166,20245,1,8,2:0:0:0:
434,186,20320,1,8,2:0:0:0:
433,206,20395,1,8,2:0:0:0:
433,226,20470,2,0,L|430:275,3,40,0|0|0|0,1:0|3:0|3:0|3:0,2:0:0:0:
350,273,20770,2,0,L|353:322,3,40,0|0|0|0,1:0|3:0|3:0|3:0,2:0:0:0:
272,251,21070,5,0,1:0:0:0:
272,251,21145,1,0,3:0:0:0:
272,251,21220,2,0,L|229:259,1,40,0|0,3:0|3:0,2:0:0:0:
240,133,21370,37,0,1:0:0:0:
240,133,21445,1,0,3:0:0:0:
240,133,21520,2,0,L|283:125,1,40,0|0,3:0|3:0,2:0:0:0:
160,192,21670,5,8,2:0:0:0:
160,192,22270,5,4,1:2:0:0:
98,137,22420,1,10,2:0:0:0:
98,137,22570,2,0,P|89:97|126:37,1,80,2|10,1:2|1:2,2:0:0:0:
178,35,22870,1,2,1:2:0:0:
178,35,23020,2,0,B|219:21|255:37|255:37|288:53|333:41,1,160,10|10,2:0|1:2,2:0:0:0:
420,27,23470,38,0,B|451:59|449:123,1,80,2|10,1:2|2:0,2:0:0:0:
368,139,23770,1,0,1:0:0:0:
370,293,23920,2,0,B|339:261|341:197,1,80,10|0,1:2|1:0,2:0:0:0:
425,193,24220,1,10,2:0:0:0:
287,161,24370,1,0,1:0:0:0:
267,157,24445,1,0,1:0:0:0:
247,153,24520,2,0,L|208:146,1,40,10|0,1:2|3:0,2:0:0:0:
103,128,24670,6,0,L|112:223,1,80,2|10,1:2|2:0,2:0:0:0:
118,287,24970,1,2,1:2:0:0:
45,252,25120,1,10,1:2:0:0:
247,153,25270,2,0,L|228:329,1,160,2|0,1:2|1:0,2:0:0:0:
342,383,25720,6,0,L|334:303,1,80,14|0,1:2|1:0,2:0:0:0:
325,223,26020,1,10,2:0:0:0:
404,228,26170,1,0,1:0:0:0:
483,237,26320,1,10,1:2:0:0:
452,163,26470,1,0,1:0:0:0:
411,148,26545,1,0,1:0:0:0:
369,153,26620,2,0,L|310:143,1,40,10|0,1:2|1:0,2:0:0:0:
235,98,26770,2,0,B|223:139|223:139|234:166|234:166|220:212,1,120,0|0,1:0|1:0,2:0:0:0:
209,240,27070,37,4,1:2:0:0:
120,226,27220,1,10,2:0:0:0:
120,226,27370,2,0,L|108:140,1,80,2|10,1:2|1:2,2:0:0:0:
105,56,27670,1,2,1:2:0:0:
105,56,27820,2,0,P|57:70|48:194,1,160,10|10,2:0|1:2,2:0:0:0:
39,244,28270,6,0,L|46:327,1,80,2|10,1:2|2:0,2:0:0:0:
137,384,28570,1,0,1:0:0:0:
197,246,28720,2,0,L|204:167,1,80,10|0,1:2|1:0,2:0:0:0:
131,305,29020,1,10,2:0:0:0:
247,335,29170,1,0,1:0:0:0:
266,336,29245,1,0,1:0:0:0:
285,337,29320,2,0,L|336:341,1,40,10|0,1:2|3:0,2:0:0:0:
449,336,29470,6,0,L|459:249,1,80,2|10,1:2|2:0,2:0:0:0:
345,148,29770,1,2,1:2:0:0:
354,227,29920,1,10,1:2:0:0:
457,147,30070,2,0,P|443:97|341:42,1,160,2|0,1:2|1:0,2:0:0:0:
236,154,30520,38,0,P|250:204|352:259,1,160,14|10,1:2|2:0,2:0:0:0:
345,148,30970,1,0,1:0:0:0:
290,89,31120,1,10,1:2:0:0:
211,73,31270,1,8,2:0:0:0:
192,80,31345,1,8,2:0:0:0:
176,92,31420,1,8,2:0:0:0:
164,108,31495,1,8,2:0:0:0:
156,128,31570,2,0,L|160:190,3,40,0|0|0|0,1:0|3:0|3:0|3:0,2:0:0:0:
201,187,31870,6,0,B|219:225|219:225|211:277,1,80,4|10,1:2|2:0,2:0:0:0:
141,329,32170,1,2,1:2:0:0:
141,329,32320,1,10,1:2:0:0:
61,286,32470,2,0,L|58:207,1,80,2|10,1:2|2:0,2:0:0:0:
81,97,32770,1,0,1:0:0:0:
156,128,32920,1,10,1:2:0:0:
236,40,33070,6,0,B|283:37|283:37|354:86,1,120,2|0,1:2|3:0,2:0:0:0:
365,94,33370,1,0,1:0:0:0:
379,172,33520,1,10,1:2:0:0:
248,218,33670,2,0,L|256:128,1,80,0|10,1:0|2:0,2:0:0:0:
337,272,33970,1,0,1:0:0:0:
337,272,34045,1,0,1:0:0:0:
337,272,34120,1,10,1:2:0:0:
211,348,34270,38,0,P|151:345|120:326,1,80,2|10,1:2|2:0,2:0:0:0:
96,189,34570,1,2,1:2:0:0:
175,185,34720,1,10,1:2:0:0:
248,218,34870,2,0,P|203:258|168:266,1,80,2|10,1:2|2:0,2:0:0:0:
56,258,35170,1,0,1:0:0:0:
96,189,35320,6,0,B|116:136|116:136|110:17,1,160,14|8,1:2|1:2,2:0:0:0:
188,12,35770,1,0,1:0:0:0:
189,31,35845,1,0,1:0:0:0:
190,50,35920,1,10,1:2:0:0:
192,69,35995,1,0,3:0:0:0:
215,89,36070,2,0,L|219:133,3,40,0|0|10|0,1:0|1:0|1:2|1:0,2:0:0:0:
262,141,36370,6,0,B|291:129|291:129|317:144|317:144|350:132|350:132|394:135,1,120,0|0,1:0|1:0,2:0:0:0:
423,141,36670,38,0,B|457:172|457:172|459:230,1,80,4|10,1:2|2:0,2:0:0:0:
464,324,36970,1,0,1:0:0:0:
464,324,37120,1,10,1:2:0:0:
367,343,37270,2,0,P|348:303|349:258,1,80,2|10,1:2|2:0,2:0:0:0:
373,133,37570,1,0,1:0:0:0:
317,190,37720,1,10,1:2:0:0:
237,187,37870,6,0,B|155:169|155:169|96:195,1,120,2|0,1:2|3:0,2:0:0:0:
93,197,38170,1,0,1:0:0:0:
73,274,38320,1,10,1:2:0:0:
183,337,38470,2,0,L|163:259,1,80,0|10,1:0|2:0,2:0:0:0:
256,109,38770,2,0,L|236:186,1,80,0|10,1:0|1:2,2:0:0:0:
299,305,39070,6,0,P|326:330|380:342,1,80,2|10,1:2|2:0,2:0:0:0:
358,165,39370,2,0,P|359:201|389:248,1,80,2|10,1:2|1:2,2:0:0:0:
497,124,39670,1,2,1:2:0:0:
512,37,39820,1,10,2:0:0:0:
425,21,39970,1,0,1:0:0:0:
410,108,40120,38,0,B|357:167|357:167|256:172,1,160,14|0,1:2|1:0,2:0:0:0:
148,93,40570,1,8,1:2:0:0:
150,112,40645,1,8,2:0:0:0:
151,131,40720,1,8,2:0:0:0:
153,150,40795,1,8,2:0:0:0:
155,169,40870,2,0,L|163:225,3,40,0|0|0|0,1:0|3:0|3:0|3:0,2:0:0:0:
233,240,41170,2,0,L|225:296,3,40,0|0|0|0,1:0|3:0|3:0|3:0,2:0:0:0:
108,292,41470,6,0,P|87:305|48:303,3,40,4|0|0|0,1:2|1:0|1:0|1:0,2:0:0:0:
59,212,41770,2,0,P|34:206|8:177,3,40,10|0|0|0,1:2|1:0|1:0|1:0,2:0:0:0:
80,120,42070,2,0,P|67:99|69:60,3,40,10|0|0|0,1:2|1:0|1:0|1:0,2:0:0:0:
159,69,42370,2,0,P|164:44|193:18,3,40,10|0|0|0,1:2|1:0|1:0|1:0,2:0:0:0:
185,161,42670,5,10,1:2:0:0:
208,165,42745,1,0,1:0:0:0:
231,170,42820,1,0,1:0:0:0:
254,175,42895,1,0,1:0:0:0:
277,180,42970,2,0,L|326:192,3,40,8|0|0|0,1:2|1:0|1:0|1:0,2:0:0:0:
230,251,43270,37,8,1:2:0:0:
207,255,43345,1,0,1:0:0:0:
184,260,43420,1,2,1:2:0:0:
161,265,43495,1,0,1:0:0:0:
138,270,43570,2,0,L|89:282,3,40,8|0|2|0,1:2|1:0|1:2|1:0,2:0:0:0:
228,343,43870,6,0,P|256:329|275:312,3,40,8|0|0|0,1:2|1:0|1:0|1:0,2:0:0:0:
339,361,44170,2,0,P|348:331|350:305,3,40,10|0|0|0,1:2|1:0|1:0|1:0,2:0:0:0:
430,295,44470,2,0,P|416:267|399:247,3,40,10|0|0|0,1:2|1:0|1:0|1:0,2:0:0:0:
447,183,44770,2,0,P|417:173|391:171,3,40,10|0|0|0,1:2|1:0|1:0|1:0,2:0:0:0:
317,231,45070,5,10,1:2:0:0:
301,212,45145,1,0,1:0:0:0:
292,189,45220,1,0,1:0:0:0:
290,165,45295,1,0,1:0:0:0:
295,141,45370,2,0,P|311:113|336:98,3,40,8|0|0|0,1:2|1:0|1:0|1:0,2:0:0:0:
408,171,45670,37,8,1:2:0:0:
424,152,45745,1,0,1:0:0:0:
433,129,45820,1,2,1:2:0:0:
435,105,45895,1,0,1:0:0:0:
430,81,45970,2,0,P|413:53|388:38,3,40,8|0|2|0,1:2|1:0|1:2|1:0,2:0:0:0:
302,28,46270,6,0,L|249:36,3,40,12|0|0|0,1:2|1:0|1:0|1:0,2:0:0:0:
175,102,46570,2,0,L|228:110,3,40,10|0|0|0,1:2|1:0|1:0|1:0,2:0:0:0:
334,135,46870,2,0,L|281:143,3,40,10|0|0|0,1:2|1:0|1:0|1:0,2:0:0:0:
207,209,47170,2,0,L|260:217,3,40,10|0|0|0,1:2|1:0|1:0|1:0,2:0:0:0:
102,179,47470,5,10,1:2:0:0:
79,186,47545,1,0,1:0:0:0:
60,201,47620,1,0,1:0:0:0:
46,221,47695,1,0,1:0:0:0:
40,244,47770,2,0,L|32:309,3,40,8|0|0|0,1:2|1:0|1:0|1:0,2:0:0:0:
138,320,48070,37,10,1:2:0:0:
138,320,48145,1,0,1:0:0:0:
138,320,48220,2,0,L|133:280,1,40,0|0,1:0|1:0,2:0:0:0:
240,317,48370,1,10,1:2:0:0:
240,317,48445,1,0,1:0:0:0:
240,317,48520,2,0,L|235:356,1,40,0|0,1:0|1:0,2:0:0:0:
340,304,48670,6,0,L|384:341,3,40,10|0|0|0,1:2|1:0|1:0|1:0,2:0:0:0:
385,211,48970,2,0,L|442:206,3,40,8|0|0|0,1:2|1:0|1:0|1:0,2:0:0:0:
351,113,49270,2,0,L|388:69,3,40,8|0|0|0,1:2|1:0|1:0|1:0,2:0:0:0:
261,37,49570,2,0,L|251:123,1,80,14|0,1:2|1:0,2:0:0:0:
266,217,49870,5,10,2:0:0:0:
266,217,49945,1,8,2:0:0:0:
266,217,50020,1,8,2:0:0:0:
154,255,50170,2,0,P|149:216|155:177,1,80,0|0,1:0|3:0,2:0:0:0:
176,61,50470,2,0,P|213:75|244:100,1,80,2|0,1:2|3:0,2:0:0:0:
334,177,50770,2,0,P|302:201|265:216,1,80,2|0,1:2|3:0,2:0:0:0:
110,112,51070,37,6,1:2:0:0:
29,148,51220,1,10,2:0:0:0:
31,235,51370,2,0,L|31:295,2,40,0|0|10,1:0|1:0|1:2,2:0:0:0:
154,255,51670,5,0,1:0:0:0:
235,219,51820,1,10,2:0:0:0:
233,132,51970,2,0,L|233:72,2,40,2|0|10,1:2|1:0|1:2,2:0:0:0:
334,177,52270,5,2,1:2:0:0:
334,177,52420,1,10,2:0:0:0:
435,156,52570,1,0,1:0:0:0:
435,156,52645,1,0,1:0:0:0:
435,156,52720,1,10,1:2:0:0:
463,264,52870,37,2,1:2:0:0:
463,264,53020,1,10,2:0:0:0:
362,285,53170,1,0,1:0:0:0:
362,285,53245,1,0,1:0:0:0:
362,285,53320,1,10,1:2:0:0:
261,243,53470,37,10,2:0:0:0:
256,215,53545,1,8,2:0:0:0:
251,187,53620,1,8,2:0:0:0:
246,159,53695,1,8,2:0:0:0:
241,131,53770,2,0,L|232:79,3,40,0|0|0|0,1:0|3:0|3:0|3:0,2:0:0:0:
151,49,54070,2,0,L|144:88,3,40,0|0|0|0,1:0|3:0|3:0|3:0,2:0:0:0:
150,172,54370,5,8,2:0:0:0:
145,200,54445,1,8,2:0:0:0:
140,228,54520,1,8,2:0:0:0:
135,256,54595,1,8,2:0:0:0:
130,284,54670,2,0,L|121:336,3,40,0|0|0|0,1:0|3:0|3:0|3:0,2:0:0:0:
48,259,54970,1,0,1:0:0:0:
43,231,55045,1,0,3:0:0:0:
38,203,55120,1,0,3:0:0:0:
33,175,55195,1,0,3:0:0:0:
29,147,55270,1,8,2:0:0:0:
53,60,55870,54,0,L|60:151,1,80,6|8,1:2|2:0,2:0:0:0:
147,239,56170,1,0,1:0:0:0:
147,239,56245,1,0,1:0:0:0:
147,239,56320,1,8,1:2:0:0:
147,60,56470,2,0,L|140:151,1,80,2|8,1:2|2:0,2:0:0:0:
53,239,56770,1,2,1:2:0:0:
53,239,56845,1,0,1:0:0:0:
53,239,56920,1,8,1:2:0:0:
211,176,57070,5,2,1:2:0:0:
234,277,57220,1,8,2:0:0:0:
310,206,57370,2,0,L|357:196,2,40,0|0|8,1:0|1:0|1:2,2:0:0:0:
147,239,57670,53,0,1:0:0:0:
124,340,57820,1,8,2:0:0:0:
48,269,57970,1,2,1:2:0:0:
48,269,58045,1,0,1:0:0:0:
48,269,58120,1,8,1:2:0:0:
211,176,58270,6,0,P|242:147|255:109,1,80,2|8,1:2|2:0,2:0:0:0:
234,277,58570,2,0,P|275:279|312:260,1,80,0|8,1:0|1:2,2:0:0:0:
147,239,58870,2,0,P|115:210|103:172,1,80,2|8,1:2|2:0,2:0:0:0:
124,340,59170,2,0,P|82:342|45:323,1,80,0|8,1:0|1:2,2:0:0:0:
0,195,59470,53,2,1:2:0:0:
103,175,59620,1,8,2:0:0:0:
34,96,59770,2,0,L|23:52,2,40,0|0|8,1:0|1:0|1:2,2:0:0:0:
245,77,60070,5,0,1:0:0:0:
142,97,60220,1,8,2:0:0:0:
211,176,60370,2,0,L|222:220,2,40,2|0|8,1:2|1:0|1:2,2:0:0:0:
352,114,60670,53,6,1:2:0:0:
366,137,60745,1,0,1:0:0:0:
375,164,60820,1,8,1:2:0:0:
377,191,60895,1,0,1:0:0:0:
373,219,60970,2,0,L|357:267,1,40,0|0,1:0|1:0,2:0:0:0:
232,292,61120,2,0,P|218:246|227:195,1,80,8|0,1:2|1:0,2:0:0:0:
333,100,61420,1,8,1:2:0:0:
219,108,61570,2,0,P|179:109|141:96,1,80,2|8,1:2|1:2,2:0:0:0:
62,20,61870,6,0,L|75:77,3,40,2|0|8|0,1:2|1:0|1:2|1:0,2:0:0:0:
8,102,62170,2,0,L|-5:159,3,40,2|0|8|0,1:2|1:0|1:2|1:0,2:0:0:0:
68,172,62470,2,0,L|81:229,3,40,2|0|8|0,1:2|1:0|1:2|1:0,2:0:0:0:
8,248,62770,2,0,L|-5:305,3,40,2|0|8|0,1:2|1:0|1:2|1:0,2:0:0:0:
65,337,63070,53,2,1:2:0:0:
92,332,63145,1,0,1:0:0:0:
117,320,63220,1,8,1:2:0:0:
139,302,63295,1,0,1:0:0:0:
154,278,63370,2,0,P|162:240|151:188,1,80,0|8,1:0|1:2,2:0:0:0:
149,82,63670,1,2,1:2:0:0:
168,102,63745,1,0,1:0:0:0:
191,117,63820,1,8,1:2:0:0:
218,125,63895,1,0,1:0:0:0:
246,127,63970,1,0,1:0:0:0:
273,121,64045,1,0,1:0:0:0:
297,108,64120,1,8,1:2:0:0:
318,89,64195,1,0,1:0:0:0:
339,70,64270,6,0,B|382:69|382:69|435:113,1,80,14|8,2:0|2:0,2:0:0:0:
365,172,64570,54,0,L|381:226,3,40,8|8|8|8,2:0|2:0|2:0|2:0,2:0:0:0:
477,268,64870,2,0,L|422:254,3,40,0|0|0|0,1:0|3:0|3:0|3:0,2:0:0:0:
337,316,65170,2,0,L|375:275,3,40,0|0|0|0,1:0|3:0|3:0|3:0,2:0:0:0:
288,236,65470,6,0,L|216:196,1,80,6|8,1:2|2:0,2:0:0:0:
117,225,65770,1,0,1:0:0:0:
117,225,65845,1,0,1:0:0:0:
117,225,65920,1,8,1:2:0:0:
204,289,66070,2,0,L|132:329,1,80,2|8,1:2|2:0,2:0:0:0:
33,300,66370,1,0,1:0:0:0:
33,300,66445,1,0,1:0:0:0:
33,300,66520,1,8,1:2:0:0:
17,197,66670,53,2,1:2:0:0:
92,125,66820,1,8,2:0:0:0:
183,177,66970,2,0,L|226:202,2,40,0|0|8,1:0|1:0|1:2,2:0:0:0:
187,76,67270,5,0,1:0:0:0:
278,124,67420,1,8,2:0:0:0:
278,20,67570,1,2,1:2:0:0:
278,20,67645,1,0,1:0:0:0:
278,20,67720,2,0,L|330:48,1,40,8|0,1:2|3:0,2:0:0:0:
414,104,67870,54,0,P|441:144|416:222,1,120,2|0,1:2|2:0,2:0:0:0:
403,232,68170,1,0,1:0:0:0:
227,214,68320,2,0,P|248:170|328:153,1,120,10|0,1:2|2:0,2:0:0:0:
343,159,68620,1,8,2:0:0:0:
416,321,68770,2,0,P|370:319|330:281,1,80,2|8,1:2|1:2,2:0:0:0:
227,214,69070,5,2,1:2:0:0:
201,202,69145,1,0,1:0:0:0:
174,197,69220,1,8,1:2:0:0:
146,200,69295,1,0,1:0:0:0:
120,210,69370,1,0,1:0:0:0:
97,226,69445,1,0,1:0:0:0:
80,248,69520,2,0,L|71:307,1,40,10|0,1:2|1:0,2:0:0:0:
27,182,69670,53,2,1:2:0:0:
25,154,69745,1,0,1:0:0:0:
23,126,69820,1,8,1:2:0:0:
22,98,69895,1,0,1:0:0:0:
21,70,69970,2,0,L|20:26,3,40,0|0|8|0,1:0|1:0|1:2|1:0,2:0:0:0:
116,72,70270,5,6,1:2:0:0:
145,92,70345,1,0,1:0:0:0:
179,101,70420,1,0,1:0:0:0:
215,98,70495,1,0,1:0:0:0:
248,83,70570,2,0,P|267:63|279:41,3,40,12|0|2|0,1:2|1:0|1:2|1:0,2:0:0:0:
299,143,70870,53,12,1:2:0:0:
328,123,70945,1,0,1:0:0:0:
362,114,71020,1,0,1:0:0:0:
398,117,71095,1,0,1:0:0:0:
431,132,71170,2,0,P|450:152|462:174,3,40,14|0|0|0,1:2|1:0|1:0|1:0,2:0:0:0:
373,229,71470,5,14,1:2:0:0:
373,229,72670,21,6,1:2:0:0:
318,149,72820,2,0,L|323:101,2,40,10|0|2,2:0|3:0|1:2,2:0:0:0:
228,184,73120,1,10,1:2:0:0:
173,104,73270,2,0,L|182:14,1,80,2|10,1:2|2:0,2:0:0:0:
44,105,73570,1,2,1:2:0:0:
45,124,73645,1,2,1:2:0:0:
47,144,73720,1,10,1:2:0:0:
49,164,73795,1,2,2:0:0:0:
51,184,73870,6,0,L|59:279,1,80,2|10,1:2|2:0,2:0:0:0:
110,344,74170,1,2,1:2:0:0:
151,182,74320,2,0,L|159:277,1,80,10|2,1:2|1:2,2:0:0:0:
210,342,74620,1,10,2:0:0:0:
281,277,74770,1,2,1:2:0:0:
282,258,74845,1,2,1:2:0:0:
284,238,74920,1,10,1:2:0:0:
286,218,74995,1,2,2:0:0:0:
288,198,75070,54,0,L|296:103,2,80,2|10|2,1:2|2:0|1:2,2:0:0:0:
211,48,75520,2,0,L|217:127,2,80,10|2|10,1:2|1:2|2:0,2:0:0:0:
300,14,75970,1,2,1:2:0:0:
300,14,76045,1,2,1:2:0:0:
300,14,76120,1,10,1:2:0:0:
391,82,76270,6,0,L|480:103,1,80,2|10,1:2|1:2,2:0:0:0:
468,100,76495,1,0,1:0:0:0:
468,100,76570,1,2,1:2:0:0:
317,194,76720,2,0,L|290:106,1,80,10|2,1:2|1:2,2:0:0:0:
293,117,76945,1,0,1:0:0:0:
293,117,77020,1,10,1:2:0:0:
451,203,77170,2,0,L|407:249,3,40,2|2|10|2,1:2|1:2|1:2|1:2,2:0:0:0:
412,282,77470,53,6,1:2:0:0:
343,349,77620,2,0,L|252:362,1,80,10|2,2:0|1:2,2:0:0:0:
183,195,77920,1,10,1:2:0:0:
252,262,78070,2,0,L|343:275,1,80,2|10,1:2|2:0,2:0:0:0:
386,166,78370,1,2,1:2:0:0:
387,146,78445,1,2,1:2:0:0:
388,126,78520,1,10,1:2:0:0:
389,106,78595,1,2,2:0:0:0:
390,86,78670,6,0,P|373:46|329:22,1,80,2|10,1:2|2:0,2:0:0:0:
256,64,78970,1,2,1:2:0:0:
179,114,79120,2,0,P|196:154|240:178,1,80,10|2,1:2|1:2,2:0:0:0:
313,136,79420,1,10,2:0:0:0:
179,33,79570,1,2,1:2:0:0:
159,35,79645,1,2,1:2:0:0:
140,42,79720,1,10,1:2:0:0:
124,54,79795,1,2,2:0:0:0:
112,70,79870,54,0,P|101:115|112:160,2,80,2|10|2,1:2|2:0|1:2,2:0:0:0:
225,173,80320,2,0,P|230:212|220:251,2,80,10|2|10,1:2|1:2|2:0,2:0:0:0:
97,257,80770,1,2,1:2:0:0:
97,276,80845,1,2,1:2:0:0:
97,295,80920,1,10,1:2:0:0:
97,315,80995,1,2,2:0:0:0:
97,335,81070,6,0,L|176:357,1,80,2|10,1:2|2:0,2:0:0:0:
267,333,81370,1,2,1:2:0:0:
220,250,81520,2,0,L|299:228,1,80,10|2,1:2|1:2,2:0:0:0:
390,252,81820,1,10,2:0:0:0:
452,179,81970,1,2,1:2:0:0:
453,159,82045,1,2,1:2:0:0:
454,139,82120,1,10,1:2:0:0:
455,119,82195,1,2,2:0:0:0:
457,99,82270,54,0,B|430:73|403:79|403:79|394:59|394:59|352:62|327:36,1,144,6|0,1:2|3:0,2:0:0:0:
251,41,82570,1,8,2:0:0:0:
250,56,82645,1,8,2:0:0:0:
249,71,82720,1,8,2:0:0:0:
248,86,82795,1,8,2:0:0:0:
247,101,82870,2,0,L|245:160,3,40,0|0|0|0,1:0|3:0|3:0|3:0,2:0:0:0:
328,183,83170,2,0,L|330:242,3,40,0|0|0|0,1:0|3:0|3:0|3:0,2:0:0:0:
217,266,83470,5,0,1:0:0:0:
217,266,83545,1,0,3:0:0:0:
217,266,83620,2,0,L|272:260,1,40,0|0,3:0|3:0,2:0:0:0:
159,173,83770,1,0,1:0:0:0:
159,173,83845,1,0,3:0:0:0:
159,173,83920,2,0,L|104:167,1,40,0|0,3:0|3:0,2:0:0:0:
106,288,84070,53,0,1:0:0:0:
328,183,84370,1,12,2:0:0:0:
23,212,84670,6,0,L|33:121,1,80,6|2,1:2|1:2,2:0:0:0:
145,42,84970,1,10,1:2:0:0:
145,42,85120,1,0,1:0:0:0:
226,60,85270,1,2,1:2:0:0:
226,60,85420,1,2,1:2:0:0:
233,141,85570,1,10,1:2:0:0:
233,141,85720,1,0,1:0:0:0:
159,173,85870,1,2,1:2:0:0:
159,173,86020,1,0,1:0:0:0:
106,111,86170,54,0,L|26:76,1,80,10|2,1:2|1:2,2:0:0:0:
70,191,86470,1,2,1:2:0:0:
159,173,86620,2,0,L|239:138,1,80,0|10,1:0|1:2,2:0:0:0:
195,253,86920,1,0,1:0:0:0:
100,283,87070,5,2,1:2:0:0:
100,283,87220,1,0,1:0:0:0:
122,371,87370,2,0,L|17:348,1,80,10|2,1:2|1:2,2:0:0:0:
195,253,87670,1,2,1:2:0:0:
214,346,87820,2,0,L|303:365,1,80,0|10,1:0|1:2,2:0:0:0:
195,253,88120,54,0,P|257:218|286:293,1,160,6|0,1:2|1:0,2:0:0:0:
293,363,88570,1,10,1:2:0:0:
214,346,88720,1,0,1:0:0:0:
321,293,88870,1,2,1:2:0:0:
242,276,89020,1,0,1:0:0:0:
349,223,89170,1,10,1:2:0:0:
270,206,89320,1,0,1:0:0:0:
384,152,89470,6,0,L|279:131,1,80,6|2,1:2|1:2,2:0:0:0:
231,34,89770,1,10,1:2:0:0:
231,34,89920,1,0,1:0:0:0:
215,115,90070,1,2,1:2:0:0:
215,115,90220,1,2,1:2:0:0:
287,153,90370,1,10,1:2:0:0:
287,153,90520,1,0,1:0:0:0:
346,98,90670,1,2,1:2:0:0:
346,98,90820,1,0,1:0:0:0:
309,25,90970,54,0,L|210:34,1,80,10|2,1:2|1:2,2:0:0:0:
131,51,91270,1,2,1:2:0:0:
215,116,91420,2,0,L|314:125,1,80,0|10,1:0|1:2,2:0:0:0:
393,142,91720,1,0,1:0:0:0:
313,234,91870,5,6,1:2:0:0:
100,151,92470,1,6,2:0:0:0:
135,376,92920,54,0,B|172:361|211:382|211:382|230:361|230:361|280:385|321:364,1,200,6|0,2:0|3:0,2:0:0:0:
404,338,93370,1,8,2:0:0:0:
391,313,93445,1,8,2:0:0:0:
370,294,93520,1,8,2:0:0:0:
345,282,93595,1,8,2:0:0:0:
317,280,93670,2,0,P|293:286|265:306,3,40,0|0|0|0,1:0|3:0|3:0|3:0,2:0:0:0:
224,232,93970,2,0,P|212:253|206:287,3,40,0|0|0|0,1:0|3:0|3:0|3:0,2:0:0:0:
176,166,94270,6,0,B|214:148|214:148|274:160,1,80,4|10,1:2|2:0,2:0:0:0:
336,199,94570,1,2,1:2:0:0:
336,199,94720,1,10,1:2:0:0:
386,111,94870,2,0,L|294:122,1,80,2|10,1:2|2:0,2:0:0:0:
253,65,95170,1,0,1:0:0:0:
176,44,95320,1,10,1:2:0:0:
111,121,95470,54,0,B|93:159|93:159|111:255,1,120,2|0,1:2|3:0,2:0:0:0:
115,264,95770,1,0,1:0:0:0:
133,341,95920,1,10,1:2:0:0:
216,266,96070,2,0,L|233:187,1,80,0|10,1:0|2:0,2:0:0:0:
322,169,96370,1,0,1:0:0:0:
322,169,96445,1,0,1:0:0:0:
322,169,96520,1,10,1:2:0:0:
331,282,96670,6,0,P|376:270|410:238,1,80,2|10,1:2|2:0,2:0:0:0:
431,170,96970,1,2,1:2:0:0:
414,91,97120,1,10,1:2:0:0:
316,20,97270,2,0,P|294:108|328:175,1,160,2|0,1:2|1:0,2:0:0:0:
380,236,97720,54,0,P|402:324|368:391,1,160,14|8,1:2|2:0,2:0:0:0:
274,352,98170,1,0,1:0:0:0:
261,336,98245,1,0,1:0:0:0:
251,319,98320,1,10,1:2:0:0:
245,300,98395,1,0,3:0:0:0:
243,280,98470,2,0,P|242:253|249:235,3,40,0|0|10|0,1:0|1:0|1:2|1:0,2:0:0:0:
187,198,98770,6,0,B|158:186|158:186|132:201|132:201|99:189|99:189|55:192,1,120,0|0,1:0|1:0,2:0:0:0:
8,152,99070,54,0,B|22:126|22:126|20:105|20:105|37:70,1,80,4|8,1:2|2:0,2:0:0:0:
121,15,99370,1,2,1:2:0:0:
121,15,99520,1,10,1:2:0:0:
202,92,99670,2,0,L|117:102,1,80,2|10,1:2|2:0,2:0:0:0:
230,11,99970,1,0,1:0:0:0:
293,58,100120,1,10,1:2:0:0:
253,159,100270,6,0,B|235:241|235:241|261:300,1,120,2|0,1:2|3:0,2:0:0:0:
268,294,100570,1,0,1:0:0:0:
326,228,100720,1,10,1:2:0:0:
402,206,100870,2,0,P|451:201|491:212,1,80,0|10,1:0|2:0,2:0:0:0:
479,346,101170,2,0,P|430:351|390:340,1,80,0|10,1:0|1:2,2:0:0:0:
326,228,101470,54,0,P|328:183|350:140,1,80,2|10,1:2|2:0,2:0:0:0:
311,359,101770,2,0,P|280:325|265:279,1,80,2|10,1:2|1:2,2:0:0:0:
253,159,102070,1,2,1:2:0:0:
202,92,102220,1,10,2:0:0:0:
138,140,102370,1,0,1:0:0:0:
189,207,102520,6,0,B|214:241|214:241|182:360,1,160,14|0,1:2|3:0,2:0:0:0:
58,256,102970,1,8,2:0:0:0:
56,237,103045,1,8,2:0:0:0:
55,218,103120,1,8,2:0:0:0:
53,199,103195,1,8,2:0:0:0:
51,180,103270,2,0,L|43:124,3,40,0|0|0|0,1:0|3:0|3:0|3:0,2:0:0:0:
143,100,103570,2,0,L|135:156,3,40,0|0|0|0,1:0|3:0|3:0|3:0,2:0:0:0:
189,207,103870,54,0,P|162:222|131:223,3,40,4|0|0|0,1:2|1:0|1:0|1:0,2:0:0:0:
292,228,104170,2,0,P|284:258|263:279,3,40,10|0|0|0,1:2|1:0|1:0|1:0,2:0:0:0:
379,170,104470,2,0,P|394:196|395:227,3,40,10|0|0|0,1:2|1:0|1:0|1:0,2:0:0:0:
399,67,104770,2,0,P|429:74|450:95,3,40,10|0|0|0,1:2|1:0|1:0|1:0,2:0:0:0:
314,103,105070,5,10,1:2:0:0:
294,98,105145,1,0,1:0:0:0:
277,88,105220,1,0,1:0:0:0:
263,74,105295,1,0,1:0:0:0:
253,56,105370,2,0,P|247:28|247:10,3,40,8|0|0|0,1:2|1:0|1:0|1:0,2:0:0:0:
124,48,105670,53,8,1:2:0:0:
143,52,105745,1,0,1:0:0:0:
160,62,105820,1,2,1:2:0:0:
174,76,105895,1,0,1:0:0:0:
184,94,105970,2,0,P|190:122|190:140,3,40,8|0|2|0,1:2|1:0|1:2|1:0,2:0:0:0:
254,191,106270,6,0,P|233:206|199:215,3,40,8|0|0|0,1:2|1:0|1:0|1:0,2:0:0:0:
325,244,106570,2,0,P|346:259|380:268,3,40,10|0|0|0,1:2|1:0|1:0|1:0,2:0:0:0:
246,290,106870,2,0,P|225:305|191:314,3,40,10|0|0|0,1:2|1:0|1:0|1:0,2:0:0:0:
317,343,107170,2,0,P|338:358|372:367,3,40,10|0|0|0,1:2|1:0|1:0|1:0,2:0:0:0:
430,349,107470,53,10,1:2:0:0:
431,329,107545,1,0,1:0:0:0:
432,309,107620,1,0,1:0:0:0:
433,289,107695,1,0,1:0:0:0:
434,269,107770,2,0,L|436:222,3,40,8|0|0|0,1:2|1:0|1:0|1:0,2:0:0:0:
325,244,108070,5,8,1:2:0:0:
324,224,108145,1,0,1:0:0:0:
323,204,108220,1,2,1:2:0:0:
322,184,108295,1,0,1:0:0:0:
321,164,108370,2,0,L|319:117,3,40,8|0|2|0,1:2|1:0|1:2|1:0,2:0:0:0:
428,83,108670,54,0,L|432:21,3,40,12|0|0|0,1:2|1:0|1:0|1:0,2:0:0:0:
325,0,108970,2,0,L|327:39,3,40,10|0|0|0,1:2|1:0|1:0|1:0,2:0:0:0:
321,164,109270,2,0,L|325:102,3,40,10|0|0|0,1:2|1:0|1:0|1:0,2:0:0:0:
218,81,109570,2,0,L|220:120,3,40,10|0|0|0,1:2|1:0|1:0|1:0,2:0:0:0:
216,228,109870,5,10,1:2:0:0:
202,242,109945,1,0,1:0:0:0:
186,254,110020,1,0,1:0:0:0:
168,263,110095,1,0,1:0:0:0:
149,268,110170,2,0,P|121:270|89:263,3,40,8|0|0|0,1:2|1:0|1:0|1:0,2:0:0:0:
135,178,110470,53,10,1:2:0:0:
135,178,110545,1,0,1:0:0:0:
135,178,110620,2,0,L|123:129,1,40,0|0,1:0|1:0,2:0:0:0:
51,78,110770,1,10,1:2:0:0:
51,78,110845,1,0,1:0:0:0:
51,78,110920,2,0,L|39:127,1,40,0|0,1:0|1:0,2:0:0:0:
150,36,111070,6,0,P|159:59|159:93,3,40,10|0|0|0,1:2|1:0|1:0|1:0,2:0:0:0:
250,98,111370,2,0,P|240:120|216:144,3,40,8|0|0|0,1:2|1:0|1:0|1:0,2:0:0:0:
276,212,111670,2,0,P|253:221|219:221,3,40,8|0|0|0,1:2|1:0|1:0|1:0,2:0:0:0:
213,310,111970,2,0,P|190:300|150:228,1,80,14|0,1:2|1:0,2:0:0:0:
136,177,112270,53,10,2:0:0:0:
136,177,112345,1,8,2:0:0:0:
136,177,112420,1,8,2:0:0:0:
230,132,112570,2,0,L|326:142,1,80,0|0,1:0|3:0,2:0:0:0:
270,295,112870,2,0,L|230:206,1,80,2|0,1:2|3:0,2:0:0:0:
392,179,113170,2,0,L|335:257,1,80,2|0,1:2|3:0,2:0:0:0:
377,102,113470,5,6,1:2:0:0:
350,26,113620,1,10,2:0:0:0:
271,10,113770,2,0,L|223:6,2,40,0|0|10,1:0|1:0|1:2,2:0:0:0:
124,40,114070,53,0,1:0:0:0:
151,116,114220,1,10,2:0:0:0:
230,132,114370,2,0,L|278:136,2,40,2|0|10,1:2|1:0|1:2,2:0:0:0:
172,208,114670,5,2,1:2:0:0:
172,208,114820,1,10,2:0:0:0:
71,229,114970,1,0,1:0:0:0:
71,229,115045,1,0,1:0:0:0:
71,229,115120,1,10,1:2:0:0:
93,318,115270,53,2,1:2:0:0:
93,318,115420,1,10,2:0:0:0:
194,297,115570,1,0,1:0:0:0:
194,297,115645,1,0,1:0:0:0:
194,297,115720,1,10,1:2:0:0:
267,229,115870,21,10,2:0:0:0:
272,201,115945,1,8,2:0:0:0:
277,173,116020,1,8,2:0:0:0:
282,145,116095,1,8,2:0:0:0:
287,117,116170,2,0,L|296:65,3,40,0|0|0|0,1:0|3:0|3:0|3:0,2:0:0:0:
377,35,116470,2,0,L|384:74,3,40,0|0|0|0,1:0|3:0|3:0|3:0,2:0:0:0:
378,158,116770,5,8,2:0:0:0:
383,186,116845,1,8,2:0:0:0:
388,214,116920,1,8,2:0:0:0:
393,242,116995,1,8,2:0:0:0:
398,270,117070,2,0,L|407:322,3,40,0|0|0|0,1:0|3:0|3:0|3:0,2:0:0:0:
480,245,117370,1,0,1:0:0:0:
485,217,117445,1,0,3:0:0:0:
490,189,117520,1,0,3:0:0:0:
495,161,117595,1,0,3:0:0:0:
499,133,117670,1,8,2:0:0:0:
409,94,118270,54,0,P|423:133|416:185,1,80,6|8,1:2|2:0,2:0:0:0:
348,233,118570,1,0,1:0:0:0:
348,233,118645,1,0,1:0:0:0:
348,233,118720,1,8,1:2:0:0:
438,255,118870,2,0,P|420:292|378:324,1,80,2|8,1:2|2:0,2:0:0:0:
296,310,119170,1,2,1:2:0:0:
296,310,119245,1,0,1:0:0:0:
296,310,119320,1,8,1:2:0:0:
330,147,119470,5,2,1:2:0:0:
265,218,119620,1,8,2:0:0:0:
236,126,119770,2,0,L|225:74,2,40,0|0|8,1:0|1:0|1:2,2:0:0:0:
330,147,120070,53,0,1:0:0:0:
395,218,120220,1,8,2:0:0:0:
424,126,120370,1,2,1:2:0:0:
424,126,120445,1,0,1:0:0:0:
424,126,120520,1,8,1:2:0:0:
330,37,120670,6,0,L|241:17,1,80,2|8,1:2|2:0,2:0:0:0:
236,126,120970,2,0,L|147:106,1,80,0|8,1:0|1:2,2:0:0:0:
186,235,121270,2,0,L|275:215,1,80,2|8,1:2|2:0,2:0:0:0:
280,324,121570,2,0,L|369:304,1,80,0|8,1:0|1:2,2:0:0:0:
150,361,121870,53,2,1:2:0:0:
73,302,122020,1,8,2:0:0:0:
162,267,122170,2,0,L|189:231,2,40,0|0|8,1:0|1:0|1:2,2:0:0:0:
85,205,122470,5,0,1:0:0:0:
162,146,122620,1,8,2:0:0:0:
73,111,122770,2,0,L|46:75,2,40,2|0|8,1:2|1:0|1:2,2:0:0:0:
150,43,123070,53,2,1:2:0:0:
177,41,123145,1,0,1:0:0:0:
204,48,123220,1,8,1:2:0:0:
228,62,123295,1,0,1:0:0:0:
247,83,123370,2,0,P|262:109|266:132,1,40,0|0,1:0|1:0,2:0:0:0:
264,217,123520,2,0,P|316:203|358:159,1,80,8|0,1:2|1:0,2:0:0:0:
384,94,123820,1,8,1:2:0:0:
432,185,123970,2,0,L|427:274,1,80,2|8,1:2|1:2,2:0:0:0:
322,318,124270,6,0,L|331:264,3,40,2|0|8|0,1:2|1:0|1:2|1:0,2:0:0:0:
264,217,124570,2,0,L|255:163,3,40,2|0|8|0,1:2|1:0|1:2|1:0,2:0:0:0:
206,331,124870,2,0,L|215:277,3,40,2|0|8|0,1:2|1:0|1:2|1:0,2:0:0:0:
148,230,125170,2,0,L|139:176,3,40,2|0|8|0,1:2|1:0|1:2|1:0,2:0:0:0:
76,328,125470,53,2,1:2:0:0:
71,300,125545,1,0,1:0:0:0:
67,272,125620,1,8,1:2:0:0:
62,245,125695,1,0,1:0:0:0:
58,217,125770,2,0,B|73:127,1,80,0|8,1:0|1:2,2:0:0:0:
121,37,126070,1,2,1:2:0:0:
135,61,126145,1,0,1:0:0:0:
155,80,126220,1,8,1:2:0:0:
179,93,126295,1,0,1:0:0:0:
206,100,126370,1,0,1:0:0:0:
234,99,126445,1,0,1:0:0:0:
260,90,126520,1,8,1:2:0:0:
283,73,126595,1,0,1:0:0:0:
302,52,126670,6,0,B|344:46|344:46|394:78,1,80,14|8,2:0|2:0,2:0:0:0:
461,179,126970,2,0,P|478:170|498:165,3,40,8|8|8|8,2:0|2:0|2:0|2:0,2:0:0:0:
370,183,127270,2,0,P|354:172|340:158,3,40,0|0|0|0,1:0|3:0|3:0|3:0,2:0:0:0:
419,259,127570,2,0,P|407:308|399:322,3,40,0|0|0|0,1:0|3:0|3:0|3:0,2:0:0:0:
332,260,127870,54,0,L|313:356,1,80,6|8,1:2|2:0,2:0:0:0:
227,375,128170,1,0,1:0:0:0:
227,375,128245,1,0,1:0:0:0:
227,375,128320,1,8,1:2:0:0:
235,279,128470,2,0,L|216:183,1,80,2|8,1:2|2:0,2:0:0:0:
130,164,128770,1,0,1:0:0:0:
130,164,128845,1,0,1:0:0:0:
130,164,128920,1,8,1:2:0:0:
130,260,129070,5,2,1:2:0:0:
98,350,129220,1,8,2:0:0:0:
33,278,129370,2,0,L|-7:270,2,40,0|0|8,1:0|1:0|1:2,2:0:0:0:
33,182,129670,53,0,1:2:0:0:
65,92,129820,1,8,2:0:0:0:
130,164,129970,1,2,1:2:0:0:
130,164,130045,1,0,1:0:0:0:
130,164,130120,2,0,L|173:169,1,40,8|0,1:2|3:0,2:0:0:0:
284,187,130270,6,0,B|324:206|324:206|334:287,1,120,2|0,1:2|2:0,2:0:0:0:
336,309,130570,1,0,1:0:0:0:
453,135,130720,2,0,B|416:160|416:160|341:128,1,120,10|0,1:2|2:0,2:0:0:0:
321,119,131020,1,8,2:0:0:0:
413,313,131170,2,0,B|408:233,1,80,2|8,1:2|1:2,2:0:0:0:
401,72,131470,53,2,1:2:0:0:
380,52,131545,1,0,1:0:0:0:
356,39,131620,1,8,1:2:0:0:
328,34,131695,1,0,1:0:0:0:
301,36,131770,1,0,1:0:0:0:
275,47,131845,1,0,1:0:0:0:
253,64,131920,2,0,P|236:90|231:105,1,40,10|0,1:2|1:0,2:0:0:0:
256,195,132070,5,2,1:2:0:0:
257,222,132145,1,0,1:0:0:0:
259,250,132220,1,8,1:2:0:0:
261,278,132295,1,0,1:0:0:0:
263,306,132370,2,0,L|267:351,3,40,0|0|8|0,1:0|1:0|1:2|1:0,2:0:0:0:
182,251,132670,53,6,1:2:0:0:
172,224,132745,1,0,1:0:0:0:
169,196,132820,1,0,1:0:0:0:
171,169,132895,1,0,1:0:0:0:
179,142,132970,2,0,P|197:118|216:106,3,40,12|0|2|0,1:2|1:0|1:2|1:0,2:0:0:0:
330,133,133270,5,12,1:2:0:0:
339,159,133345,1,0,1:0:0:0:
342,187,133420,1,0,1:0:0:0:
340,214,133495,1,0,1:0:0:0:
332,241,133570,2,0,P|315:266|296:278,3,40,14|0|0|0,1:2|1:0|1:0|1:0,2:0:0:0:
256,192,133870,53,6,1:2:0:0:
77,202,135070,54,0,P|58:37|179:162,1,420.000000000001,6|0,2:0|2:0,2:0:0:0:
176,244,136270,37,10,2:2:0:0:
176,244,136345,1,8,2:0:0:0:
176,244,136420,1,8,2:0:0:0:
176,244,136495,1,8,2:0:0:0:
176,244,136570,2,0,L|184:303,1,40,2|0,1:2|3:0,2:0:0:0:
285,384,136870,2,0,L|290:344,1,40,10|8,2:2|2:0,2:0:0:0:
409,268,137170,2,0,L|417:327,1,40,2|0,1:2|3:0,2:0:0:0:
481,137,137470,37,6,1:2:0:0:
464,159,137545,1,2,2:0:0:0:
441,175,137620,1,10,2:0:0:0:
415,185,137695,1,2,2:0:0:0:
386,188,137770,2,0,P|355:182|341:176,3,40,2|2|10|2,1:2|1:2|1:2|2:0,2:0:0:0:
394,106,138070,1,2,1:2:0:0:
368,94,138145,1,2,2:0:0:0:
340,91,138220,1,10,2:0:0:0:
313,97,138295,1,2,2:0:0:0:
289,111,138370,1,2,1:2:0:0:
271,133,138445,1,2,1:2:0:0:
261,159,138520,1,10,1:2:0:0:
260,186,138595,1,2,2:0:0:0:
266,212,138670,6,0,L|286:264,3,40,2|2|10|2,1:2|2:0|2:0|2:0,2:0:0:0:
375,303,138970,2,0,L|361:266,3,40,2|2|10|2,1:2|1:2|1:2|2:0,2:0:0:0:
283,332,139270,1,2,1:2:0:0:
243,338,139345,1,2,2:0:0:0:
205,327,139420,1,10,2:0:0:0:
176,300,139495,1,2,2:0:0:0:
161,264,139570,2,0,B|154:218|154:218|168:188|168:188|161:136,1,120,2|0,1:2|3:0,2:0:0:0:
119,76,139870,53,2,1:2:0:0:
97,93,139945,1,2,2:0:0:0:
83,117,140020,1,10,2:0:0:0:
77,144,140095,1,2,2:0:0:0:
80,172,140170,2,0,L|84:220,3,40,2|2|10|2,1:2|1:2|1:2|2:0,2:0:0:0:
162,147,140470,6,0,P|202:154|233:177,1,80,2|10,1:2|2:0,2:0:0:0:
232,294,140770,2,0,P|191:286|161:264,1,80,2|10,1:2|1:2,2:0:0:0:
309,116,141070,54,0,L|321:241,2,120,2|2|10,1:2|2:0|1:2,2:0:0:0:
429,119,141670,2,0,L|440:0,2,120,2|2|10,1:2|2:0|1:2,2:0:0:0:
421,270,142270,6,0,P|398:318|329:341,1,120,2|2,1:2|2:0,2:0:0:0:
304,333,142570,1,0,1:0:0:0:
203,298,142720,2,0,P|226:250|295:227,1,120,10|2,1:2|2:0,2:0:0:0:
320,235,143020,1,10,2:0:0:0:
321,121,143170,54,0,B|317:100|317:100|297:117|297:117|303:100|303:100|289:102|289:102|289:92|289:92|282:93|282:93|245:66,1,120,2|0,1:2|2:0,2:0:0:0:
201,20,143470,6,0,P|181:60|204:143,1,120,2|0,1:2|3:0,2:0:0:0:
224,153,143770,1,2,1:2:0:0:
143,228,143920,1,10,1:2:0:0:
46,175,144070,2,0,B|25:153|25:153|14:58,2,120,2|2|10,1:2|0:2|1:2,2:0:0:0:
173,233,144670,53,2,1:2:0:0:
196,235,144745,1,2,2:0:0:0:
219,237,144820,1,10,2:0:0:0:
242,239,144895,1,2,2:0:0:0:
265,241,144970,2,0,L|316:246,3,40,2|2|10|2,1:2|1:2|1:2|2:0,2:0:0:0:
217,154,145270,5,2,1:2:0:0:
234,139,145345,1,2,2:0:0:0:
252,124,145420,1,10,2:0:0:0:
270,109,145495,1,2,2:0:0:0:
287,94,145570,2,0,L|326:61,3,40,2|2|10|2,1:2|1:2|1:2|2:0,2:0:0:0:
369,142,145870,54,0,L|420:146,3,40,2|2|10|2,1:2|2:0|2:0|2:0,2:0:0:0:
451,67,146170,2,0,L|490:63,3,40,2|2|10|2,1:2|1:2|1:2|2:0,2:0:0:0:
491,177,146470,1,2,1:2:0:0:
489,204,146545,1,2,2:0:0:0:
488,231,146620,1,10,2:0:0:0:
487,258,146695,1,2,2:0:0:0:
486,285,146770,2,0,P|475:330|428:373,1,80,2|8,1:2|2:0,2:0:0:0:
271,381,147070,5,6,1:2:0:0:
260,355,147145,1,2,2:0:0:0:
256,327,147220,1,10,2:0:0:0:
261,300,147295,1,2,2:0:0:0:
278,268,147370,1,2,1:2:0:0:
292,244,147445,1,2,1:2:0:0:
299,217,147520,1,10,1:2:0:0:
298,189,147595,1,2,2:0:0:0:
289,163,147670,2,0,L|268:120,3,40,2|2|10|2,1:2|2:0|2:0|2:0,2:0:0:0:
213,205,147970,2,0,P|181:155|185:97,1,120,2|0,1:2|3:0,2:0:0:0:
198,69,148270,53,2,1:2:0:0:
106,44,148420,1,10,2:0:0:0:
106,44,148495,1,2,2:0:0:0:
106,44,148570,1,2,1:2:0:0:
78,149,148720,1,10,1:2:0:0:
78,149,148795,1,2,2:0:0:0:
78,149,148870,2,0,L|90:242,1,80,2|10,1:2|2:0,2:0:0:0:
213,205,149170,2,0,L|201:298,1,80,2|10,1:2|1:2,2:0:0:0:
305,312,149470,5,2,1:2:0:0:
332,313,149545,1,2,2:0:0:0:
360,307,149620,1,10,2:0:0:0:
384,294,149695,1,2,2:0:0:0:
404,274,149770,2,0,P|416:246|419:218,3,40,2|2|10|2,1:2|1:2|1:2|2:0,2:0:0:0:
295,201,150070,2,0,P|313:225|335:241,3,40,2|2|10|2,1:2|2:0|2:0|2:0,2:0:0:0:
412,143,150370,2,0,P|381:146|356:158,3,40,2|2|10|2,1:2|1:2|1:2|2:0,2:0:0:0:
317,85,150670,53,2,1:2:0:0:
317,85,150745,1,2,2:0:0:0:
317,85,150820,2,0,P|298:108|288:135,1,40,10|2,2:0|2:0,2:0:0:0:
210,106,150970,1,2,1:2:0:0:
210,106,151045,1,2,1:2:0:0:
210,106,151120,2,0,P|213:136|225:161,1,40,10|2,1:2|2:0,2:0:0:0:
295,201,151270,6,0,P|270:294|129:219,1,280,2|0,1:2|3:0,2:0:0:0:
47,193,151870,54,0,L|53:148,3,40,2|2|10|2,1:2|2:0|2:0|2:0,2:0:0:0:
124,120,152170,2,0,L|118:75,3,40,2|2|10|2,1:2|1:2|1:2|2:0,2:0:0:0:
204,145,152470,2,0,L|209:105,3,40,2|2|10|2,1:2|2:0|2:0|2:0,2:0:0:0:
288,220,152770,1,2,1:2:0:0:
299,194,152845,1,2,1:2:0:0:
310,168,152920,1,10,1:2:0:0:
323,143,152995,1,2,2:0:0:0:
336,118,153070,6,0,L|330:78,3,40,2|2|10|2,1:2|2:0|2:0|2:0,2:0:0:0:
399,186,153370,2,0,L|393:225,3,40,2|2|10|2,1:2|1:2|1:2|2:0,2:0:0:0:
469,119,153670,2,0,L|474:79,3,40,2|2|10|2,1:2|2:0|2:0|2:0,2:0:0:0:
481,215,153970,1,2,1:2:0:0:
480,238,154045,1,2,1:2:0:0:
479,261,154120,1,10,1:2:0:0:
478,284,154195,1,2,2:0:0:0:
478,308,154270,54,0,B|419:338|364:301|364:301|339:329|339:329|272:285|218:330,1,280,2|0,1:2|3:0,2:0:0:0:
149,367,154870,5,2,1:2:0:0:
149,367,154945,1,2,2:0:0:0:
149,367,155020,2,0,L|139:309,1,40,10|2,2:0|2:0,2:0:0:0:
64,272,155170,1,2,1:2:0:0:
64,272,155245,1,2,1:2:0:0:
64,272,155320,2,0,L|54:330,1,40,10|2,1:2|2:0,2:0:0:0:
160,236,155470,53,10,2:0:0:0:
170,210,155545,1,10,2:0:0:0:
172,182,155620,1,10,2:0:0:0:
166,155,155695,1,10,2:0:0:0:
152,131,155770,2,0,P|131:116|109:106,3,40,2|2|2|2,1:2|3:2|3:2|3:2,2:0:0:0:
56,213,156070,2,0,P|79:202|99:188,3,40,2|2|2|2,1:2|3:2|3:2|3:2,2:0:0:0:
32,88,156370,2,0,P|29:113|31:137,3,40,2|2|2|2,1:2|3:2|3:2|3:2,2:0:0:0:
91,22,156670,22,0,P|256:64|241:212,1,320,6|0,1:2|1:0,2:0:0:0:
113,266,157420,2,0,P|103:207|125:152,1,120,10|0,2:0|1:0,2:0:0:0:
152,131,157720,1,10,1:2:0:0:
257,189,157870,6,0,L|239:331,2,120,2|2|10,1:2|2:0|1:2,2:0:0:0:
347,33,158470,2,0,P|442:42|399:187,1,280,2|0,1:2|2:0,2:0:0:0:
385,188,159070,6,0,P|342:172|306:108,2,120,2|2|10,1:2|2:0|1:2,2:0:0:0:
220,164,159670,2,0,P|200:122|220:51,2,120,2|2|10,1:2|2:0|1:2,2:0:0:0:
315,264,160270,38,0,P|319:333|185:291,1,240,2|10,1:2|1:2,2:0:0:0:
82,190,160870,2,0,B|138:162|195:195|195:195|219:166|219:166|273:205|336:171,1,280,2|0,1:2|3:0,2:0:0:0:
410,122,161470,37,6,1:2:0:0:
389,102,161545,1,2,1:2:0:0:
364,90,161620,1,10,1:2:0:0:
337,86,161695,1,2,1:2:0:0:
309,90,161770,1,2,1:2:0:0:
266,99,161845,1,2,1:2:0:0:
231,93,161920,1,10,1:2:0:0:
201,73,161995,1,2,1:2:0:0:
180,44,162070,2,0,B|172:11|172:11|152:106,2,120,2|2|10,1:2|1:2|1:2,2:0:0:0:
65,76,162670,5,2,1:2:0:0:
62,103,162745,1,0,1:2:0:0:
67,130,162820,1,8,1:2:0:0:
80,155,162895,1,0,1:0:0:0:
100,175,162970,2,0,P|132:188|175:185,3,40,0|0|10|0,1:0|1:0|1:2|1:0,2:0:0:0:
208,234,163270,2,0,L|212:286,3,40,2|0|8|0,1:2|1:0|1:2|1:0,2:0:0:0:
119,350,163570,2,0,L|122:310,3,40,2|0|8|0,1:2|1:0|1:2|1:0,2:0:0:0:
210,383,163870,53,2,1:2:0:0:
245,379,163945,1,0,1:0:0:0:
276,362,164020,1,10,1:2:0:0:
297,333,164095,1,0,1:0:0:0:
304,298,164170,1,0,1:0:0:0:
305,270,164245,1,0,1:0:0:0:
320,237,164320,1,8,1:2:0:0:
348,215,164395,1,0,1:0:0:0:
382,205,164470,1,0,1:0:0:0:
417,212,164545,1,0,1:0:0:0:
446,232,164620,1,8,1:2:0:0:
464,263,164695,1,0,1:0:0:0:
467,299,164770,2,0,L|463:348,3,40,0|0|8|0,1:0|1:0|1:2|1:0,2:0:0:0:
453,152,165070,5,8,2:0:0:0:
453,152,165145,1,8,2:0:0:0:
453,152,165220,2,0,B|446:113|446:113|471:12,1,120,10|0,2:0|3:0,2:0:0:0:
476,3,165520,2,0,L|422:16,1,40,2|2,3:2|3:2,2:0:0:0:
358,62,165670,2,0,L|279:44,1,80,2|0,1:2|3:2,2:0:0:0:
137,7,165970,1,10,2:0:0:0:
140,22,166045,1,8,2:0:0:0:
143,37,166120,1,8,2:0:0:0:
146,52,166195,1,8,2:0:0:0:
148,68,166270,6,0,P|257:184|358:62,1,360,6|0,1:2|2:0,2:0:0:0:
359,26,167020,2,0,B|392:13|392:13|492:35,1,120,10|0,2:0|2:0,2:0:0:0:
501,38,167320,1,10,1:2:0:0:
445,123,167470,6,0,L|461:255,2,120,2|2|10,1:2|2:0|1:2,2:0:0:0:
343,181,168070,2,0,L|357:61,2,120,2|2|10,1:2|2:0|1:2,2:0:0:0:
373,273,168670,6,0,B|299:291|299:291|274:332|274:332|196:356,1,200,2|0,1:2|1:0,2:0:0:0:
169,365,169120,1,10,1:2:0:0:
139,273,169270,38,0,B|213:255|213:255|238:214|238:214|316:190,1,200,2|0,1:2|1:0,2:0:0:0:
343,181,169720,1,10,1:2:0:0:
246,126,169870,6,0,B|184:140|184:140|163:175|163:175|98:195,1,160,2|0,1:2|1:0,2:0:0:0:
78,202,170320,1,10,1:2:0:0:
45,115,170470,6,0,B|105:100|105:100|126:66|126:66|190:46,1,168,2|0,1:2|2:0,2:0:0:0:
223,38,171070,5,6,1:2:0:0:
238,34,171145,1,2,1:2:0:0:
257,38,171220,1,10,1:2:0:0:
278,49,171295,1,2,1:2:0:0:
298,67,171370,1,2,1:2:0:0:
311,96,171445,1,2,1:2:0:0:
312,131,171520,1,10,1:2:0:0:
299,169,171595,1,2,1:2:0:0:
262,194,171670,2,0,L|253:252,3,40,2|2|10|2,1:2|1:2|1:2|1:2,2:0:0:0:
205,129,171970,2,0,B|166:140|166:140|125:222,1,120,2|0,1:2|1:0,2:0:0:0:
40,272,172270,5,2,1:2:0:0:
67,301,172345,1,2,1:2:0:0:
103,320,172420,1,10,1:2:0:0:
142,326,172495,1,2,1:2:0:0:
181,319,172570,1,2,1:2:0:0:
216,299,172645,1,2,1:2:0:0:
243,270,172720,1,10,1:2:0:0:
258,233,172795,1,2,1:2:0:0:
262,193,172870,2,0,P|274:177|289:164,3,40,2|2|10|2,1:2|1:2|1:2|1:2,2:0:0:0:
385,160,173170,2,0,P|409:178|423:198,3,40,2|2|10|2,1:2|1:2|1:2|1:2,2:0:0:0:
341,265,173470,53,2,1:2:0:0:
340,276,173545,1,0,1:0:0:0:
339,287,173620,1,8,1:2:0:0:
339,299,173695,1,0,1:0:0:0:
339,310,173770,1,0,1:0:0:0:
339,321,173845,1,0,1:0:0:0:
339,332,173920,2,0,L|337:379,1,40,8|0,1:2|1:0,2:0:0:0:
247,316,174070,5,2,1:2:0:0:
245,294,174145,1,0,1:0:0:0:
243,272,174220,1,8,1:2:0:0:
243,248,174295,1,0,1:0:0:0:
243,226,174370,1,0,1:0:0:0:
243,204,174445,1,0,1:0:0:0:
243,182,174520,2,0,L|240:108,1,40,8|0,1:2|1:0,2:0:0:0:
229,33,174670,53,8,2:0:0:0:
187,45,174745,1,8,2:0:0:0:
154,74,174820,1,10,2:2:0:0:
134,113,174895,1,8,2:0:0:0:
133,157,174970,2,0,L|141:248,1,80,0|2,1:0|3:2,2:0:0:0:
371,236,175270,2,0,L|378:157,1,80,2|0,1:2|3:0,2:0:0:0:
189,352,175570,1,2,1:2:0:0:
323,352,175720,1,0,3:0:0:0:
256,240,175870,53,6,1:2:0:0:
256,240,178270,53,6,1:2:0:0:
256,224,180670,53,6,1:2:0:0:
256,208,181870,21,6,1:2:0:0:
256,192,183070,53,6,1:2:0:0:
90,68,184270,53,10,2:0:0:0:
90,68,184345,1,8,2:0:0:0:
90,68,184420,1,8,2:0:0:0:
67,158,184570,2,0,P|118:158|165:128,1,80,0|0,1:0|3:0,2:0:0:0:
189,225,184870,2,0,P|225:188|237:134,1,80,2|0,1:2|3:0,2:0:0:0:
322,186,185170,2,0,P|322:134|292:87,1,80,2|0,1:2|3:0,2:0:0:0:
207,53,185470,21,6,1:2:0:0:
282,0,185620,1,10,2:0:0:0:
374,16,185770,2,0,L|428:39,2,40,0|0|10,1:0|1:0|1:2,2:0:0:0:
310,109,186070,53,0,1:0:0:0:
235,162,186220,1,10,2:0:0:0:
143,146,186370,2,0,L|89:123,2,40,2|0|10,1:2|1:0|1:2,2:0:0:0:
178,250,186670,53,2,1:2:0:0:
178,250,186820,1,10,2:0:0:0:
272,264,186970,2,0,L|313:272,2,40,0|0|10,1:0|1:0|1:2,2:0:0:0:
257,362,187270,21,2,1:2:0:0:
257,362,187420,1,10,2:0:0:0:
163,348,187570,2,0,L|122:340,2,40,0|0|10,1:0|1:0|1:2,2:0:0:0:
256,192,187870,12,8,189670,2:0:0:0:
286,343,190270,6,0,B|281:299|281:299|308:246,1,80,6|8,1:2|2:0,2:0:0:0:
396,328,190570,1,0,1:0:0:0:
396,328,190645,1,0,1:0:0:0:
396,328,190720,1,8,1:2:0:0:
484,261,190870,2,0,B|456:226|456:226|399:207,1,80,2|8,1:2|2:0,2:0:0:0:
396,328,191170,1,2,1:2:0:0:
396,328,191245,1,0,1:0:0:0:
396,328,191320,1,8,1:2:0:0:
345,212,191470,5,2,1:2:0:0:
350,116,191620,1,8,2:0:0:0:
264,159,191770,2,0,L|220:155,2,40,0|0|8,1:0|1:0|1:2,2:0:0:0:
350,116,192070,53,0,1:0:0:0:
355,20,192220,1,8,2:0:0:0:
269,63,192370,1,2,1:2:0:0:
269,63,192445,1,0,1:0:0:0:
269,63,192520,1,8,1:2:0:0:
172,96,192670,6,0,P|192:130|223:154,1,80,2|8,1:2|2:0,2:0:0:0:
180,250,192970,2,0,P|218:260|257:255,1,80,0|8,1:0|1:2,2:0:0:0:
77,249,193270,2,0,P|38:259|0:254,1,80,2|8,1:2|2:0,2:0:0:0:
85,96,193570,2,0,P|64:130|33:154,1,80,0|8,1:0|1:2,2:0:0:0:
128,18,193870,53,2,1:2:0:0:
223,11,194020,1,8,2:0:0:0:
318,1,194170,2,0,L|323:47,2,40,0|0|8,1:0|1:0|1:2,2:0:0:0:
366,110,194470,5,0,1:0:0:0:
271,103,194620,1,8,2:0:0:0:
176,93,194770,2,0,L|167:177,1,80,2|8,1:2|1:2,2:0:0:0:
280,212,195070,53,6,1:2:0:0:
286,185,195145,1,0,1:0:0:0:
286,157,195220,1,8,1:2:0:0:
281,129,195295,1,0,1:0:0:0:
271,103,195370,2,0,P|259:84|241:66,1,40,0|0,1:0|1:0,2:0:0:0:
107,37,195520,2,0,P|89:77|100:134,1,80,8|0,1:2|1:0,2:0:0:0:
51,253,195820,1,8,1:2:0:0:
183,247,195970,2,0,P|183:207|166:171,1,80,2|8,1:2|1:2,2:0:0:0:
51,253,196270,6,0,L|41:313,3,40,2|0|8|0,1:2|1:0|1:2|1:0,2:0:0:0:
118,381,196570,2,0,L|111:341,3,40,2|0|8|0,1:2|1:0|1:2|1:0,2:0:0:0:
183,247,196870,2,0,L|173:307,3,40,2|0|8|0,1:2|1:0|1:2|1:0,2:0:0:0:
250,375,197170,2,0,L|243:335,3,40,2|0|8|0,1:2|1:0|1:2|1:0,2:0:0:0:
279,225,197470,53,2,1:2:0:0:
299,205,197545,1,0,1:0:0:0:
324,193,197620,1,8,1:2:0:0:
351,187,197695,1,0,1:0:0:0:
379,190,197770,2,0,P|413:202|445:237,1,80,0|8,1:0|1:2,2:0:0:0:
501,361,198070,1,2,1:2:0:0:
469,378,198145,1,0,1:0:0:0:
434,381,198220,1,8,1:2:0:0:
401,366,198295,1,0,1:0:0:0:
379,338,198370,1,0,1:0:0:0:
373,303,198445,1,0,1:0:0:0:
383,269,198520,1,8,1:2:0:0:
408,243,198595,1,0,1:0:0:0:
442,233,198670,6,0,B|472:203|472:203|477:141,1,80,12|8,2:0|2:0,2:0:0:0:
430,53,198970,2,0,P|410:74|401:94,3,40,10|8|8|8,2:0|2:0|2:0|2:0,2:0:0:0:
367,183,199270,2,0,P|358:155|345:137,3,40,0|0|0|0,1:0|3:0|3:0|3:0,2:0:0:0:
285,63,199570,2,0,P|313:69|335:67,3,40,0|0|0|0,1:0|3:0|3:0|3:0,2:0:0:0:
264,152,199870,54,0,L|248:250,1,80,6|8,1:2|2:0,2:0:0:0:
185,302,200170,1,0,1:0:0:0:
185,302,200245,1,0,1:0:0:0:
185,302,200320,1,8,1:2:0:0:
169,207,200470,2,0,L|153:109,1,80,2|8,1:2|2:0,2:0:0:0:
90,57,200770,1,0,1:0:0:0:
90,57,200845,1,0,1:0:0:0:
90,57,200920,1,8,1:2:0:0:
21,124,201070,5,2,1:2:0:0:
84,196,201220,1,8,2:0:0:0:
19,266,201370,2,0,L|14:315,2,40,0|0|8,1:0|1:0|1:2,2:0:0:0:
147,268,201670,53,0,1:0:0:0:
84,196,201820,1,8,2:0:0:0:
149,126,201970,1,2,1:2:0:0:
149,126,202045,1,0,1:0:0:0:
149,126,202120,2,0,L|154:77,1,40,8|0,1:2|3:0,2:0:0:0:
233,22,202270,6,0,B|295:17|295:17|341:74,1,120,2|0,1:2|2:0,2:0:0:0:
342,81,202570,1,0,1:0:0:0:
263,224,202720,2,0,B|227:172|227:172|254:103,1,120,10|0,1:2|2:0,2:0:0:0:
259,100,203020,1,8,2:0:0:0:
423,97,203170,2,0,L|383:183,1,80,2|8,1:2|1:2,2:0:0:0:
332,275,203470,53,2,1:2:0:0:
337,302,203545,1,0,1:0:0:0:
350,327,203620,1,8,1:2:0:0:
369,347,203695,1,0,1:0:0:0:
393,360,203770,1,0,1:0:0:0:
421,366,203845,1,0,1:0:0:0:
448,362,203920,2,0,L|444:311,1,40,10|0,1:2|1:0,2:0:0:0:
431,208,204070,5,2,1:2:0:0:
429,180,204145,1,0,1:0:0:0:
427,152,204220,1,8,1:2:0:0:
425,124,204295,1,0,1:0:0:0:
423,97,204370,2,0,L|418:42,3,40,0|0|8|0,1:0|1:0|1:2|1:0,2:0:0:0:
341,17,204670,53,6,1:2:0:0:
319,34,204745,1,0,1:0:0:0:
303,58,204820,1,0,1:0:0:0:
295,84,204895,1,0,1:0:0:0:
293,112,204970,2,0,L|300:162,3,40,12|0|2|0,1:2|1:0|1:2|1:0,2:0:0:0:
171,17,205270,5,12,1:2:0:0:
192,34,205345,1,0,1:0:0:0:
208,58,205420,1,0,1:0:0:0:
216,84,205495,1,0,1:0:0:0:
218,112,205570,2,0,L|212:162,3,40,14|0|0|0,1:2|1:0|1:0|1:0,2:0:0:0:
256,224,205870,53,14,1:2:0:0:
256,224,207070,21,6,1:2:0:0:
189,281,207220,2,0,L|189:325,2,40,10|0|2,2:0|3:0|1:2,2:0:0:0:
109,243,207520,1,10,1:2:0:0:
175,185,207670,2,0,L|183:101,1,80,2|10,1:2|2:0,2:0:0:0:
102,84,207970,1,2,1:2:0:0:
101,104,208045,1,2,1:2:0:0:
99,124,208120,1,10,1:2:0:0:
97,144,208195,1,2,2:0:0:0:
95,164,208270,6,0,L|109:247,1,80,2|10,1:2|2:0,2:0:0:0:
189,280,208570,1,2,1:2:0:0:
181,126,208720,2,0,L|195:209,1,80,10|2,1:2|1:2,2:0:0:0:
275,242,209020,1,10,2:0:0:0:
353,201,209170,1,2,1:2:0:0:
355,181,209245,1,2,1:2:0:0:
357,161,209320,1,10,1:2:0:0:
359,141,209395,1,2,2:0:0:0:
363,119,209470,70,0,L|374:26,2,80,2|10|2,1:2|2:0|1:2,2:0:0:0:
462,136,209920,2,0,L|473:229,2,80,10|2|10,1:2|1:2|2:0,2:0:0:0:
410,275,210370,1,2,1:2:0:0:
410,275,210445,1,2,1:2:0:0:
410,275,210520,1,10,1:2:0:0:
326,322,210670,54,0,P|286:354|248:364,1,80,2|10,1:2|1:2,2:0:0:0:
258,362,210895,1,0,1:0:0:0:
258,362,210970,1,2,1:2:0:0:
251,204,211120,2,0,P|299:221|326:249,1,80,10|2,1:2|1:2,2:0:0:0:
319,240,211345,1,0,1:0:0:0:
319,240,211420,1,10,1:2:0:0:
186,326,211570,2,0,P|177:275|181:251,3,40,2|2|10|2,1:2|1:2|1:2|1:2,2:0:0:0:
171,243,211870,5,6,1:2:0:0:
96,196,212020,2,0,L|96:154,2,40,10|0|2,2:0|3:0|1:2,2:0:0:0:
17,237,212320,1,10,1:2:0:0:
97,276,212470,2,0,L|182:288,1,80,2|10,1:2|2:0,2:0:0:0:
86,373,212770,1,2,1:2:0:0:
66,375,212845,1,2,1:2:0:0:
46,378,212920,1,10,1:2:0:0:
26,381,212995,1,2,2:0:0:0:
6,384,213070,70,0,L|-4:304,1,80,2|10,1:2|2:0,2:0:0:0:
97,276,213370,1,2,1:2:0:0:
163,210,213520,2,0,L|173:130,1,80,10|2,1:2|1:2,2:0:0:0:
72,102,213820,1,10,2:0:0:0:
141,47,213970,1,2,1:2:0:0:
160,44,214045,1,2,1:2:0:0:
180,41,214120,1,10,1:2:0:0:
200,39,214195,1,2,2:0:0:0:
220,36,214270,54,0,P|262:41|298:68,2,80,2|10|2,1:2|2:0|1:2,2:0:0:0:
264,190,214720,2,0,P|237:156|231:112,2,80,10|2|10,1:2|1:2|2:0,2:0:0:0:
365,136,215170,1,2,1:2:0:0:
365,136,215245,1,2,1:2:0:0:
365,136,215320,1,10,1:2:0:0:
457,140,215470,6,0,P|448:178|423:209,1,80,2|10,1:2|2:0,2:0:0:0:
338,233,215770,1,2,1:2:0:0:
402,293,215920,2,0,P|368:313|329:317,1,80,10|2,1:2|1:2,2:0:0:0:
252,274,216220,1,10,2:0:0:0:
166,253,216370,1,2,1:2:0:0:
163,233,216445,1,2,1:2:0:0:
160,213,216520,1,10,1:2:0:0:
157,193,216595,1,2,2:0:0:0:
154,173,216670,70,0,L|153:92,1,80,6|10,1:2|2:0,2:0:0:0:
96,25,216970,1,2,1:2:0:0:
14,58,217120,2,0,L|15:139,1,80,10|2,1:2|1:2,2:0:0:0:
72,206,217420,1,10,2:0:0:0:
10,268,217570,1,2,1:2:0:0:
10,287,217645,1,2,1:2:0:0:
11,307,217720,1,10,1:2:0:0:
12,327,217795,1,2,2:0:0:0:
13,347,217870,54,0,L|98:363,1,80,2|10,1:2|2:0,2:0:0:0:
177,318,218170,1,2,1:2:0:0:
242,247,218320,2,0,L|326:231,1,80,10|2,1:2|1:2,2:0:0:0:
405,277,218620,1,10,2:0:0:0:
477,214,218770,1,2,1:2:0:0:
477,190,218845,1,2,1:2:0:0:
478,166,218920,1,10,1:2:0:0:
479,142,218995,1,2,2:0:0:0:
480,118,219070,6,0,L|475:23,2,80,2|10|2,1:2|2:0|1:2,2:0:0:0:
389,104,219520,2,0,L|384:183,2,80,10|2|10,1:2|1:2|2:0,2:0:0:0:
325,33,219970,1,2,1:2:0:0:
325,33,220045,1,2,1:2:0:0:
325,33,220120,1,10,1:2:0:0:
245,97,220270,69,2,1:2:0:0:
236,114,220345,1,0,1:0:0:0:
230,133,220420,1,10,1:2:0:0:
226,153,220495,1,0,1:0:0:0:
226,173,220570,2,0,P|233:207|243:225,3,40,2|0|10|0,1:2|1:0|1:2|1:0,2:0:0:0:
316,161,220870,1,2,1:2:0:0:
326,186,220945,1,0,1:0:0:0:
329,214,221020,1,10,1:2:0:0:
323,241,221095,1,0,1:0:0:0:
310,266,221170,1,2,1:2:0:0:
289,292,221245,1,2,1:2:0:0:
255,307,221320,1,10,1:2:0:0:
215,307,221395,1,2,1:2:0:0:
174,289,221470,22,0,L|154:198,1,80,6|10,1:2|2:0,2:0:0:0:
89,131,221770,1,2,1:2:0:0:
226,173,221920,2,0,L|206:82,1,80,10|2,1:2|1:2,2:0:0:0:
141,15,222220,1,10,2:0:0:0:
33,58,222370,1,2,1:2:0:0:
12,82,222445,1,2,1:2:0:0:
0,112,222520,1,10,1:2:0:0:
0,143,222595,1,2,2:0:0:0:
7,174,222670,6,0,P|36:206|75:222,1,80,2|10,1:2|2:0,2:0:0:0:
153,158,222970,1,2,1:2:0:0:
299,174,223120,2,0,P|270:206|231:222,1,80,10|2,1:2|1:2,2:0:0:0:
153,158,223420,1,10,2:0:0:0:
152,267,223570,1,2,1:2:0:0:
160,297,223645,1,2,1:2:0:0:
179,323,223720,1,10,1:2:0:0:
206,340,223795,1,2,2:0:0:0:
237,345,223870,54,0,L|326:328,2,80,2|10|2,1:2|2:0|1:2,2:0:0:0:
304,224,224320,2,0,L|215:206,2,80,10|2|10,1:2|1:2|2:0,2:0:0:0:
340,115,224770,1,2,1:2:0:0:
340,115,224845,1,2,1:2:0:0:
340,115,224920,1,10,1:2:0:0:
340,115,224995,1,2,2:0:0:0:
340,115,225070,5,2,1:2:0:0:
366,117,225145,1,0,3:0:0:0:
396,128,225220,1,10,2:0:0:0:
424,150,225295,1,0,3:0:0:0:
442,185,225370,1,2,1:2:0:0:
444,228,225445,1,0,1:0:0:0:
426,272,225520,1,10,1:2:0:0:
387,305,225595,1,0,3:0:0:0:
331,313,225670,54,0,L|281:285,1,40,2|0,1:2|3:0,2:0:0:0:
181,313,225820,2,0,L|230:285,1,40,10|0,2:0|3:0,2:0:0:0:
344,213,225970,2,0,L|292:191,1,40,2|2,1:2|1:2,2:0:0:0:
168,213,226120,2,0,L|220:191,1,40,10|2,1:2|2:0,2:0:0:0:
256,96,226270,22,0,B|274:58|274:58|311:44|311:44|340:-1,1,120,6|0,1:2|3:0,2:0:0:0:
407,53,226570,1,8,2:0:0:0:
410,72,226645,1,8,2:0:0:0:
414,92,226720,1,8,2:0:0:0:
417,112,226795,1,8,2:0:0:0:
421,131,226870,2,0,L|429:178,3,40,0|0|0|0,1:0|3:0|3:0|3:0,2:0:0:0:
354,213,227170,2,0,L|346:259,3,40,0|0|0|0,1:0|3:0|3:0|3:0,2:0:0:0:
448,282,227470,5,0,1:0:0:0:
448,282,227545,1,0,3:0:0:0:
448,282,227620,2,0,L|456:329,1,40,0|0,3:0|3:0,2:0:0:0:
350,381,227770,1,0,1:0:0:0:
350,381,227845,1,0,3:0:0:0:
350,381,227920,2,0,L|358:334,1,40,0|0,3:0|3:0,2:0:0:0:
256,272,228070,53,8,2:0:0:0:
160,112,228670,6,0,L|151:208,1,80,10|2,3:2|3:2,2:0:0:0:
359,191,228970,2,0,L|352:112,1,80,2|2,3:2|2:0,2:0:0:0:
256,16,229270,2,0,L|256:144,2,120,10|2|2,2:0|3:2|3:2,2:0:0:0:
152,191,229870,54,0,P|259:242|362:188,1,240,6|0,1:2|1:0,2:0:0:0:
411,144,230395,1,0,1:0:0:0:
424,136,230470,38,0,B|461:166|461:166|433:194|433:194|459:215|459:215|439:237|439:237|458:244|458:244|445:260|445:260|457:268|457:268|448:282|448:282|454:351,1,272.000000000001,14|0,1:2|3:0,2:0:0:0:
