osu file format v14

[General]
AudioFilename: audio.mp3
AudioLeadIn: 0
PreviewTime: 53395
Countdown: 0
SampleSet: Soft
StackLeniency: 0.4
Mode: 0
LetterboxInBreaks: 0
WidescreenStoryboard: 1

[Editor]
Bookmarks: 812,822,10412,22412,32012,41612,51212,56012,71612,72812,84812,94412,104012,113612,118412,134012,135212,137612,147212,156812,161612,166412,171212,176012,184412,185612,188012,190412,206012,207212,216812,220787,221612,225212,226412,228812,231212
DistanceSpacing: 0.6
BeatDivisor: 4
GridSize: 16
TimelineZoom: 2.5

[Metadata]
Title:Judgment Day Has Come
TitleUnicode:Judgment Day Has Come
Artist:IOSYS feat. Nanahira
ArtistUnicode:IOSYS feat. ななひら
Creator:-Tynamo
Version:Hard
Source:東方緋想天 ~ Scarlet Weather Rhapsody.
Tags:Minami 有頂天変 ~ Wonderful Heaven BarkingMadDog bmd Bibbity Bill judgement tenshi hinanawi theme japanese power metal zun 上海アリス幻樂団 Yoshimi Youno 東方極楽湯界─イオシス東方コンピレーション vol.24 夕野ヨシミ Confetto team shanghai alice star stream star_stream touhou project 10.5 th10.5 Catastrophe in Bhavaagra Hisouten rock video game Hakurei Shrine Autumn Reitaisai 3 xidorn 比那名居 天子 東方project イオシス
BeatmapID:2405864
BeatmapSetID:1152650

[Difficulty]
HPDrainRate:5
CircleSize:3.8
OverallDifficulty:7
ApproachRate:8
SliderMultiplier:1.4
SliderTickRate:1

[Events]
//Background and Video events
0,0,"judgementday.jpg",0,0
//Break Periods
2,176070,183520
//Storyboard Layer 0 (Background)
//Storyboard Layer 1 (Fail)
//Storyboard Layer 2 (Pass)
//Storyboard Layer 3 (Foreground)
//Storyboard Layer 4 (Overlay)
//Storyboard Sound Samples

[TimingPoints]
670,300,4,2,1,40,1,0
670,-133.333333333333,4,2,1,40,0,0
820,-133.333333333333,4,2,0,60,0,0
970,-133.333333333333,4,2,1,40,0,0
2020,-133.333333333333,4,2,0,60,0,0
2170,-133.333333333333,4,2,1,40,0,0
3220,-133.333333333333,4,2,0,60,0,0
3370,-133.333333333333,4,2,1,40,0,0
5620,-133.333333333333,4,2,0,60,0,0
5770,-133.333333333333,4,2,1,40,0,0
6820,-133.333333333333,4,2,0,60,0,0
6970,-133.333333333333,4,2,1,40,0,0
8020,-133.333333333333,4,2,0,60,0,0
8170,-133.333333333333,4,2,1,40,0,0
10270,-133.333333333333,4,2,1,50,0,0
10420,-100,4,2,1,50,0,0
11695,-100,4,2,0,60,0,0
11770,-100,4,2,1,50,0,0
20470,-100,4,2,2,50,0,0
20545,-100,4,2,1,50,0,0
20770,-100,4,2,3,50,0,0
20845,-100,4,2,2,50,0,0
21070,-100,4,2,4,50,0,0
21220,-100,4,2,3,50,0,0
21370,-100,4,2,5,50,0,0
21520,-100,4,2,4,50,0,0
21670,-100,4,2,1,50,0,0
22270,-100,4,2,1,60,0,0
22420,-100,4,2,2,60,0,0
22570,-100,4,2,1,60,0,0
22720,-100,4,2,6,60,0,0
22870,-100,4,2,1,60,0,0
23020,-100,4,2,2,60,0,0
23320,-100,4,2,6,60,0,0
23470,-100,4,2,1,60,0,0
23620,-100,4,2,3,60,0,0
23770,-100,4,2,7,60,0,0
24220,-100,4,2,3,60,0,0
24370,-100,4,2,6,60,0,0
24670,-100,4,2,1,60,0,0
24820,-100,4,2,3,60,0,0
24970,-100,4,2,1,60,0,0
25120,-100,4,2,7,60,0,0
25270,-100,4,2,1,60,0,0
25420,-100,4,2,3,60,0,0
25570,-100,4,2,7,60,0,0
26020,-100,4,2,3,60,0,0
26170,-100,4,2,6,60,0,0
27220,-100,4,2,2,60,0,0
27370,-100,4,2,1,60,0,0
27520,-100,4,2,6,60,0,0
27670,-100,4,2,1,60,0,0
27820,-100,4,2,2,60,0,0
27970,-100,4,2,6,60,0,0
28270,-100,4,2,1,60,0,0
28720,-100,4,2,7,60,0,0
29020,-100,4,2,3,60,0,0
29170,-100,4,2,6,60,0,0
29470,-100,4,2,1,60,0,0
29620,-100,4,2,3,60,0,0
29770,-100,4,2,1,60,0,0
29920,-100,4,2,7,60,0,0
30070,-100,4,2,1,60,0,0
30220,-100,4,2,3,60,0,0
30370,-100,4,2,7,60,0,0
30820,-100,4,2,3,60,0,0
30970,-100,4,2,6,60,0,0
31270,-100,4,2,2,60,0,0
31720,-100,4,2,1,60,0,0
32320,-100,4,2,6,60,0,0
32470,-100,4,2,1,60,0,0
32620,-100,4,2,2,60,0,0
32770,-100,4,2,6,60,0,0
33070,-100,4,2,1,60,0,0
33520,-100,4,2,7,60,0,0
33820,-100,4,2,3,60,0,0
33970,-100,4,2,6,60,0,0
34270,-100,4,2,1,60,0,0
34420,-100,4,2,3,60,0,0
34570,-100,4,2,1,60,0,0
34720,-100,4,2,7,60,0,0
34870,-100,4,2,1,60,0,0
35020,-100,4,2,3,60,0,0
35170,-100,4,2,1,60,0,0
35320,-100,4,2,7,60,0,0
35620,-100,4,2,3,60,0,0
35770,-100,4,2,6,60,0,0
36595,-100,4,2,6,5,0,0
36670,-100,4,2,6,60,0,0
37270,-100,4,2,1,60,0,0
37420,-100,4,2,3,60,0,0
37570,-100,4,2,6,60,0,0
37870,-100,4,2,1,60,0,0
38320,-100,4,2,7,60,0,0
38620,-100,4,2,3,60,0,0
38770,-100,4,2,6,60,0,0
39070,-100,4,2,1,60,0,0
39220,-100,4,2,3,60,0,0
39370,-100,4,2,1,60,0,0
39520,-100,4,2,6,60,0,0
39670,-100,4,2,1,60,0,0
39820,-100,4,2,3,60,0,0
39970,-100,4,2,7,60,0,0
40420,-100,4,2,7,5,0,0
40570,-100,4,2,7,60,0,0
40645,-100,4,2,2,60,0,0
40945,-100,4,2,1,60,0,0
41170,-100,4,2,3,60,0,0
41245,-100,4,2,2,60,0,0
41470,-100,4,2,1,60,0,0
50170,-100,4,2,2,60,0,0
50320,-100,4,2,1,60,0,0
50470,-100,4,2,8,60,0,0
50620,-100,4,2,2,60,0,0
50770,-100,4,2,4,60,0,0
50920,-100,4,2,3,60,0,0
51070,-100,4,2,1,60,0,0
51220,-100,4,2,3,60,0,0
51370,-100,4,2,6,60,0,0
51820,-100,4,2,3,60,0,0
51970,-100,4,2,1,60,0,0
52120,-100,4,2,6,60,0,0
52270,-100,4,2,1,60,0,0
52420,-100,4,2,3,60,0,0
52570,-100,4,2,6,60,0,0
52870,-100,4,2,1,60,0,0
53020,-100,4,2,3,60,0,0
53170,-100,4,2,6,60,0,0
55270,-100,4,2,1,60,0,0
55870,-100,4,2,1,80,0,1
60370,-100,4,2,1,80,0,0
60670,-100,4,2,1,80,0,1
64270,-100,4,2,1,80,0,0
64870,-100,4,2,2,80,0,0
64945,-100,4,2,1,80,0,0
65170,-100,4,2,3,80,0,0
65245,-100,4,2,2,80,0,0
65470,-100,4,2,1,80,0,1
69970,-100,4,2,1,80,0,0
70270,-100,4,2,1,80,0,1
71470,-100,4,2,1,60,0,0
72670,-100,4,2,1,50,0,0
72895,-100,4,2,0,60,0,0
72970,-100,4,2,1,50,0,0
74095,-100,4,2,0,60,0,0
74170,-100,4,2,1,50,0,0
82870,-100,4,2,2,50,0,0
82945,-100,4,2,1,50,0,0
83170,-100,4,2,3,50,0,0
83245,-100,4,2,2,50,0,0
83470,-100,4,2,4,50,0,0
83620,-100,4,2,3,50,0,0
83770,-100,4,2,5,50,0,0
83920,-100,4,2,4,50,0,0
84070,-100,4,2,1,50,0,0
84670,-100,4,2,6,60,0,0
84820,-100,4,2,1,60,0,0
84970,-100,4,2,7,60,0,0
85420,-100,4,2,1,60,0,0
85570,-100,4,2,6,60,0,0
85870,-100,4,2,7,60,0,0
86170,-100,4,2,6,60,0,0
86320,-100,4,2,1,60,0,0
86770,-100,4,2,6,60,0,0
87070,-100,4,2,7,60,0,0
87520,-100,4,2,1,60,0,0
87670,-100,4,2,7,60,0,0
87970,-100,4,2,6,60,0,0
88120,-100,4,2,1,60,0,0
88570,-100,4,2,6,60,0,0
89620,-100,4,2,1,60,0,0
89770,-100,4,2,7,60,0,0
90220,-100,4,2,1,60,0,0
90370,-100,4,2,6,60,0,0
90670,-100,4,2,7,60,0,0
90970,-100,4,2,6,60,0,0
91120,-100,4,2,1,60,0,0
91570,-100,4,2,6,60,0,0
91870,-100,4,2,7,60,0,0
92470,-100,4,2,1,60,0,0
93670,-100,4,2,2,60,0,0
93745,-100,4,2,1,60,0,0
93970,-100,4,2,3,60,0,0
94045,-100,4,2,2,60,0,0
94270,-100,4,2,1,60,0,0
94720,-100,4,2,6,60,0,0
94870,-100,4,2,1,60,0,0
95020,-100,4,2,2,60,0,0
95170,-100,4,2,6,60,0,0
95470,-100,4,2,1,60,0,0
95920,-100,4,2,7,60,0,0
96220,-100,4,2,3,60,0,0
96370,-100,4,2,6,60,0,0
96670,-100,4,2,1,60,0,0
96820,-100,4,2,3,60,0,0
96970,-100,4,2,1,60,0,0
97120,-100,4,2,7,60,0,0
97270,-100,4,2,1,60,0,0
97420,-100,4,2,3,60,0,0
97570,-100,4,2,7,60,0,0
98020,-100,4,2,3,60,0,0
98170,-100,4,2,7,60,0,0
98320,-100,4,2,6,60,0,0
98995,-100,4,2,6,5,0,0
99070,-100,4,2,6,60,0,0
99370,-100,4,2,1,60,0,0
99520,-100,4,2,6,60,0,0
99670,-100,4,2,1,60,0,0
99820,-100,4,2,2,60,0,0
99970,-100,4,2,6,60,0,0
100270,-100,4,2,1,60,0,0
100720,-100,4,2,7,60,0,0
101020,-100,4,2,3,60,0,0
101170,-100,4,2,6,60,0,0
101470,-100,4,2,1,60,0,0
101620,-100,4,2,3,60,0,0
101770,-100,4,2,1,60,0,0
101920,-100,4,2,7,60,0,0
102070,-100,4,2,1,60,0,0
102220,-100,4,2,3,60,0,0
102370,-100,4,2,7,60,0,0
102820,-100,4,2,7,5,0,0
102970,-100,4,2,2,60,0,0
103345,-100,4,2,1,60,0,0
103570,-100,4,2,3,60,0,0
103645,-100,4,2,2,60,0,0
103870,-100,4,2,1,60,0,0
112570,-100,4,2,2,60,0,0
112720,-100,4,2,1,60,0,0
112870,-100,4,2,8,60,0,0
113020,-100,4,2,2,60,0,0
113170,-100,4,2,4,60,0,0
113320,-100,4,2,3,60,0,0
113470,-100,4,2,1,60,0,0
113620,-100,4,2,3,60,0,0
113770,-100,4,2,6,60,0,0
114220,-100,4,2,3,60,0,0
114370,-100,4,2,1,60,0,0
114520,-100,4,2,6,60,0,0
114670,-100,4,2,1,60,0,0
114820,-100,4,2,3,60,0,0
114970,-100,4,2,6,60,0,0
115270,-100,4,2,1,60,0,0
115420,-100,4,2,3,60,0,0
115570,-100,4,2,6,60,0,0
117670,-100,4,2,1,60,0,0
118270,-100,4,2,1,80,0,1
122770,-100,4,2,1,80,0,0
123070,-100,4,2,1,80,0,1
126670,-100,4,2,1,80,0,0
127270,-100,4,2,2,80,0,0
127345,-100,4,2,1,80,0,0
127570,-100,4,2,3,80,0,0
127645,-100,4,2,2,80,0,0
127870,-100,4,2,1,80,0,1
132370,-100,4,2,1,80,0,0
132670,-100,4,2,1,80,0,1
133870,-100,4,2,1,60,0,0
135070,-100,4,2,1,50,0,0
136570,-100,4,2,12,50,0,0
137170,-100,4,2,13,50,0,0
137470,-100,4,2,1,80,0,1
137620,-100,4,2,2,80,0,1
137770,-100,4,2,1,80,0,1
137920,-100,4,2,7,80,0,1
138070,-100,4,2,1,80,0,1
138220,-100,4,2,2,80,0,1
138295,-100,4,2,1,80,0,1
138520,-100,4,2,7,80,0,1
138595,-100,4,2,1,80,0,1
138820,-100,4,2,2,80,0,1
138970,-100,4,2,1,80,0,1
139120,-100,4,2,7,80,0,1
139270,-100,4,2,1,80,0,1
139420,-100,4,2,2,80,0,1
139570,-100,4,2,1,80,0,1
139795,-100,4,2,0,60,0,1
139870,-100,4,2,1,80,0,1
140020,-100,4,2,2,80,0,1
140095,-100,4,2,1,80,0,1
140320,-100,4,2,7,80,0,1
140395,-100,4,2,1,80,0,1
140620,-100,4,2,2,80,0,1
140770,-100,4,2,1,80,0,1
140920,-100,4,2,7,80,0,1
141070,-100,4,2,1,80,0,1
141520,-100,4,2,7,80,0,1
141670,-100,4,2,1,80,0,1
142120,-100,4,2,7,80,0,1
142270,-100,4,2,1,80,0,1
142720,-100,4,2,7,80,0,1
143020,-100,4,2,3,80,0,1
143170,-100,4,2,1,80,0,1
143920,-100,4,2,7,80,0,1
144070,-100,4,2,1,80,0,0
144295,-100,4,2,1,60,0,0
144520,-100,4,2,7,80,0,0
144670,-100,4,2,1,80,0,1
144820,-100,4,2,2,80,0,1
144970,-100,4,2,1,80,0,1
145120,-100,4,2,7,80,0,1
145270,-100,4,2,1,80,0,1
145420,-100,4,2,2,80,0,1
145570,-100,4,2,1,80,0,1
145720,-100,4,2,7,80,0,1
145870,-100,4,2,1,80,0,1
146020,-100,4,2,2,80,0,1
146095,-100,4,2,1,80,0,1
146320,-100,4,2,7,80,0,1
146470,-100,4,2,1,80,0,1
146620,-100,4,2,2,80,0,1
146770,-100,4,2,1,80,0,1
146845,-100,4,2,1,80,0,0
146995,-100,4,2,0,60,0,0
147070,-100,4,2,1,80,0,1
147220,-100,4,2,2,80,0,1
147370,-100,4,2,1,80,0,1
147520,-100,4,2,7,80,0,1
147670,-100,4,2,1,80,0,1
147820,-100,4,2,2,80,0,1
147895,-100,4,2,1,80,0,1
148195,-100,4,2,0,5,0,1
148270,-100,4,2,1,80,0,1
148420,-100,4,2,2,80,0,1
148495,-100,4,2,1,80,0,1
148720,-100,4,2,7,80,0,1
148870,-100,4,2,1,80,0,1
149020,-100,4,2,2,80,0,1
149095,-100,4,2,1,80,0,1
149320,-100,4,2,7,80,0,1
149470,-100,4,2,1,80,0,1
149620,-100,4,2,2,80,0,1
149695,-100,4,2,1,80,0,1
149920,-100,4,2,7,80,0,1
149995,-100,4,2,1,80,0,1
150220,-100,4,2,2,80,0,1
150295,-100,4,2,1,80,0,1
150520,-100,4,2,7,80,0,1
150595,-100,4,2,1,80,0,1
150820,-100,4,2,2,80,0,1
150970,-100,4,2,1,80,0,1
151120,-100,4,2,7,80,0,1
151270,-100,4,2,1,80,0,1
151720,-100,4,2,6,80,0,1
151870,-100,4,2,1,80,0,1
152020,-100,4,2,2,80,0,1
152170,-100,4,2,1,80,0,1
152320,-100,4,2,7,80,0,1
152395,-100,4,2,1,80,0,1
152620,-100,4,2,2,80,0,1
152770,-100,4,2,1,80,0,1
152920,-100,4,2,7,80,0,1
153070,-100,4,2,1,80,0,1
153220,-100,4,2,2,80,0,1
153370,-100,4,2,1,80,0,1
153520,-100,4,2,7,80,0,1
153595,-100,4,2,1,80,0,1
153820,-100,4,2,2,80,0,1
153970,-100,4,2,1,80,0,1
154120,-100,4,2,7,80,0,1
154270,-100,4,2,1,80,0,1
155020,-100,4,2,2,80,0,1
155170,-100,4,2,1,80,0,1
155320,-100,4,2,7,80,0,1
155470,-100,4,2,1,80,0,0
155770,-100,4,2,9,80,0,0
155920,-100,4,2,1,80,0,0
156070,-100,4,2,8,80,0,0
156220,-100,4,2,5,80,0,0
156370,-100,4,2,4,80,0,0
156520,-100,4,2,8,80,0,0
156670,-100,4,2,1,80,0,0
157420,-100,4,2,2,80,0,0
157720,-100,4,2,7,80,0,0
157870,-100,4,2,1,80,0,0
158320,-100,4,2,7,80,0,0
158470,-100,4,2,1,80,0,0
158620,-100,4,2,3,80,0,0
158770,-100,4,2,6,80,0,0
159070,-100,4,2,1,80,0,0
159520,-100,4,2,7,80,0,0
159670,-100,4,2,1,80,0,0
160120,-100,4,2,7,80,0,0
160270,-100,4,2,1,80,0,0
160720,-100,4,2,7,80,0,0
161320,-100,4,2,6,80,0,0
161470,-100,4,2,1,80,0,1
165070,-100,4,2,1,80,0,0
165670,-100,4,2,13,80,0,0
165820,-100,4,2,2,80,0,0
166270,-100,4,2,1,80,0,0
167020,-100,4,2,2,80,0,0
167320,-100,4,2,7,80,0,0
167470,-100,4,2,1,80,0,0
167920,-100,4,2,7,80,0,0
168070,-100,4,2,1,80,0,0
168520,-100,4,2,7,80,0,0
168670,-100,4,2,1,80,0,0
169120,-100,4,2,11,80,0,0
169870,-100,4,2,1,80,0,0
170320,-100,4,2,11,80,0,0
170920,-100,4,2,6,80,0,0
171070,-100,4,2,1,80,0,1
172195,-100,4,2,1,5,0,1
172270,-100,4,2,1,80,0,1
174595,-100,4,2,1,80,0,0
174670,-100,4,2,1,80,0,1
174970,-100,4,2,2,80,0,1
175120,-100,4,2,1,80,0,1
175270,-100,4,2,13,80,0,1
175420,-100,4,2,2,80,0,1
175570,-100,4,2,4,80,0,1
175720,-100,4,2,3,80,0,1
175870,-100,4,2,1,50,0,0
184270,-100,4,2,1,60,0,0
184570,-100,4,2,2,60,0,0
184720,-100,4,2,1,60,0,0
184870,-100,4,2,8,60,0,0
185020,-100,4,2,2,60,0,0
185170,-100,4,2,4,60,0,0
185320,-100,4,2,3,60,0,0
185470,-100,4,2,1,60,0,0
185620,-100,4,2,3,60,0,0
185770,-100,4,2,6,60,0,0
186220,-100,4,2,3,60,0,0
186370,-100,4,2,1,60,0,0
186520,-100,4,2,6,60,0,0
186670,-100,4,2,1,60,0,0
186820,-100,4,2,3,60,0,0
186970,-100,4,2,6,60,0,0
187270,-100,4,2,1,60,0,0
187420,-100,4,2,3,60,0,0
187570,-100,4,2,6,60,0,0
189670,-100,4,2,1,60,0,0
190270,-100,4,2,1,80,0,1
194770,-100,4,2,1,80,0,0
195070,-100,4,2,1,80,0,1
198670,-100,4,2,1,80,0,0
199270,-100,4,2,2,80,0,0
199345,-100,4,2,1,80,0,0
199570,-100,4,2,3,80,0,0
199645,-100,4,2,2,80,0,0
199870,-100,4,2,1,80,0,1
204370,-100,4,2,1,80,0,0
204670,-100,4,2,1,80,0,1
205870,-100,4,2,1,60,0,0
207070,-100,4,2,1,50,0,0
207295,-100,4,2,0,60,0,0
207370,-100,4,2,1,50,0,0
208495,-100,4,2,0,60,0,0
208570,-100,4,2,1,50,0,0
216895,-100,4,2,0,60,0,0
216970,-100,4,2,1,50,0,0
221470,-100,4,2,1,70,0,1
226270,-100,4,2,1,50,0,0
226870,-100,4,2,2,50,0,0
226945,-100,4,2,1,50,0,0
227170,-100,4,2,3,50,0,0
227245,-100,4,2,2,50,0,0
227470,-100,4,2,4,50,0,0
227620,-100,4,2,3,50,0,0
227770,-100,4,2,5,50,0,0
227920,-100,4,2,4,50,0,0
228070,-100,4,2,1,50,0,0
228670,-100,4,2,1,50,0,0
229495,-100,4,2,5,50,0,0
229870,-100,4,2,1,50,0,0
230470,-100,4,2,1,60,0,1
231070,-100,4,2,0,60,0,0

[Colours]
Combo1 : 255,79,79
Combo2 : 0,213,213
Combo3 : 47,187,240
Combo4 : 74,74,255
Combo5 : 255,106,34

[HitObjects]
35,22,670,6,0,L|39:74,1,52.5000000000001,14|0,2:0|3:0,2:0:0:0:
107,113,970,2,0,L|102:165,1,52.5000000000001,0|2,1:0|1:2,2:0:0:0:
56,230,1270,1,2,2:0:0:0:
56,230,1420,1,2,1:2:0:0:
56,230,1570,1,2,1:2:0:0:
221,331,1870,6,0,L|225:279,1,52.5000000000001,14|0,2:0|3:0,2:0:0:0:
293,240,2170,2,0,L|288:188,1,52.5000000000001,0|2,1:0|1:2,2:0:0:0:
242,123,2470,1,2,2:0:0:0:
242,123,2620,1,2,1:2:0:0:
242,123,2770,1,2,1:2:0:0:
477,22,3070,6,0,L|473:74,1,52.5000000000001,14|0,2:0|3:0,2:0:0:0:
405,113,3370,2,0,L|410:165,1,52.5000000000001,0|2,1:0|1:2,2:0:0:0:
471,228,3670,1,2,2:0:0:0:
471,228,3820,1,2,1:2:0:0:
471,228,3970,1,2,1:2:0:0:
261,232,4270,38,0,P|371:292|224:300,1,367.500000000001,14|0,2:0|2:0,2:0:0:0:
170,258,5470,6,0,P|137:248|106:252,1,52.5000000000001,14|0,2:0|3:0,2:0:0:0:
96,167,5770,2,0,P|65:183|46:208,1,52.5000000000001,0|2,1:0|1:2,2:0:0:0:
42,278,6070,1,2,2:0:0:0:
42,278,6220,1,2,1:2:0:0:
101,330,6370,2,0,P|134:340|165:336,1,52.5000000000001,14|0,1:2|2:0,2:0:0:0:
227,314,6670,6,0,L|233:246,1,52.5000000000001,14|0,2:0|3:0,2:0:0:0:
295,217,6970,2,0,L|289:149,1,52.5000000000001,0|2,1:0|1:2,2:0:0:0:
244,100,7270,1,2,2:0:0:0:
244,100,7420,1,2,1:2:0:0:
244,100,7570,1,2,1:2:0:0:
370,312,7870,38,0,L|318:316,1,52.5000000000001,14|0,2:0|3:0,2:0:0:0:
279,384,8170,2,0,L|227:379,1,52.5000000000001,0|2,1:0|1:2,2:0:0:0:
162,333,8470,1,2,2:0:0:0:
162,333,8620,1,2,1:2:0:0:
138,253,8770,2,0,L|143:201,1,52.5000000000001,14|0,1:2|2:0,2:0:0:0:
187,116,9070,5,14,2:0:0:0:
355,170,9370,1,12,2:0:0:0:
225,289,9670,1,14,2:0:0:0:
9,42,10270,5,6,1:2:0:0:
61,107,10420,2,0,L|99:88,2,35,10|0|2,2:0|2:0|1:2,2:0:0:0:
9,173,10720,1,10,1:2:0:0:
9,173,10870,2,0,P|21:216|21:251,1,70,2|10,1:2|2:0,2:0:0:0:
14,318,11170,2,0,L|30:349,3,35,2|2|10|2,1:2|1:2|1:2|2:0,2:0:0:0:
61,364,11470,37,2,1:2:0:0:
123,319,11620,2,0,L|121:273,2,35,10|0|2,2:0|3:0|1:2,2:0:0:0:
197,354,11920,1,10,1:2:0:0:
197,354,12070,2,0,L|277:342,1,70,2|10,1:2|2:0,2:0:0:0:
318,284,12370,2,0,L|387:294,1,70,2|10,1:2|1:2,2:0:0:0:
472,286,12670,6,0,P|472:248|493:205,2,70,2|10|2,1:2|2:0|1:2,2:0:0:0:
405,166,13120,2,0,P|431:139|477:123,2,70,10|2|10,1:2|1:2|2:0,2:0:0:0:
330,204,13570,1,2,1:2:0:0:
330,204,13645,1,2,1:2:0:0:
330,204,13720,1,10,1:2:0:0:
243,156,13870,6,0,L|230:199,3,35,2|0|10|0,1:2|1:0|1:2|1:0,2:0:0:0:
200,174,14170,2,0,L|206:218,3,35,2|0|10|0,1:2|1:0|1:2|1:0,2:0:0:0:
168,208,14470,2,0,L|192:245,3,35,2|0|10|0,1:2|1:0|1:2|1:0,2:0:0:0:
153,252,14770,2,0,L|191:275,3,35,2|2|10|2,1:2|1:2|1:2|1:2,2:0:0:0:
121,246,15070,37,6,1:2:0:0:
74,184,15220,2,0,L|23:129,1,70,10|2,2:0|1:2,2:0:0:0:
101,84,15520,1,10,1:2:0:0:
101,84,15670,2,0,L|184:91,1,70,2|10,1:2|2:0,2:0:0:0:
222,157,15970,2,0,L|291:151,1,70,2|10,1:2|1:2,2:0:0:0:
343,83,16270,5,2,1:2:0:0:
343,83,16420,2,0,P|371:122|375:161,1,70,10|2,2:0|1:2,2:0:0:0:
324,210,16720,1,10,1:2:0:0:
324,210,16870,2,0,P|296:171|292:132,1,70,2|10,1:2|2:0,2:0:0:0:
254,76,17170,2,0,L|254:39,3,35,2|2|10|2,1:2|1:2|1:2|2:0,2:0:0:0:
220,0,17470,6,0,L|135:6,2,70,2|10|2,1:2|2:0|1:2,2:0:0:0:
174,84,17920,2,0,L|99:124,2,70,10|2|10,1:2|1:2|2:0,2:0:0:0:
237,166,18370,1,2,1:2:0:0:
237,166,18445,1,2,1:2:0:0:
237,166,18520,1,10,1:2:0:0:
324,189,18670,38,0,P|302:222|270:248,1,70,2|10,1:2|2:0,2:0:0:0:
207,271,18970,1,2,1:2:0:0:
239,341,19120,2,0,P|277:348|318:344,1,70,10|2,1:2|1:2,2:0:0:0:
362,288,19420,1,10,2:0:0:0:
386,361,19570,2,0,L|426:368,3,35,2|2|10|2,1:2|1:2|1:2|2:0,2:0:0:0:
444,336,19870,6,0,B|450:278|450:278|436:252|436:252|440:200,1,140,6|8,1:2|2:0,2:0:0:0:
432,123,20320,1,8,2:0:0:0:
365,84,20470,2,0,L|359:126,3,35,0|0|0|0,1:0|3:0|3:0|3:0,2:0:0:0:
321,110,20770,2,0,L|315:152,3,35,0|0|0|0,1:0|3:0|3:0|3:0,2:0:0:0:
277,142,21070,6,0,B|264:190|264:190|271:230,1,70,0|0,1:0|3:0,2:0:0:0:
342,230,21370,2,0,B|355:278|355:278|348:318,1,70,0|0,1:0|3:0,2:0:0:0:
351,297,21595,1,0,3:0:0:0:
351,297,21670,1,8,2:0:0:0:
108,59,22270,37,4,1:2:0:0:
192,66,22420,1,10,2:0:0:0:
192,66,22570,2,0,L|209:158,1,70,2|10,1:2|1:2,2:0:0:0:
134,161,22870,1,2,1:2:0:0:
134,161,23020,2,0,P|113:227|176:292,1,140,10|10,2:0|1:2,2:0:0:0:
226,272,23470,6,0,P|206:230|176:208,1,70,2|10,1:2|2:0,2:0:0:0:
149,281,23770,1,0,1:0:0:0:
157,357,23920,2,0,P|197:379|234:379,1,70,10|0,1:2|1:0,2:0:0:0:
291,350,24220,1,10,2:0:0:0:
333,285,24370,2,0,L|344:241,3,35,0|0|10|0,1:0|1:0|1:2|3:0,2:0:0:0:
372,227,24670,6,0,L|461:209,1,70,2|10,1:2|2:0,2:0:0:0:
486,151,24970,1,2,1:2:0:0:
486,151,25120,1,10,1:2:0:0:
407,134,25270,2,0,L|318:116,1,70,2|10,1:2|2:0,2:0:0:0:
293,58,25570,1,0,1:0:0:0:
293,58,25720,38,0,B|231:81|231:81|217:103|217:103|152:129,1,140,14|10,1:2|2:0,2:0:0:0:
102,146,26170,1,0,1:0:0:0:
102,146,26320,1,10,1:2:0:0:
136,214,26470,2,0,L|134:261,3,35,0|0|10|0,1:0|1:0|1:2|1:0,2:0:0:0:
161,274,26770,2,0,B|201:303|201:303|232:311,1,70,0|10,1:0|1:2,2:0:0:0:
280,243,27070,5,4,1:2:0:0:
329,177,27220,2,0,P|357:214|360:258,1,70,10|2,2:0|1:2,2:0:0:0:
325,311,27520,1,10,1:2:0:0:
276,377,27670,2,0,P|248:340|245:296,1,70,2|10,1:2|2:0,2:0:0:0:
280,243,27970,1,0,1:0:0:0:
237,178,28120,1,10,1:2:0:0:
237,178,28270,6,0,P|241:125|307:69,1,140,2|0,1:2|1:0,2:0:0:0:
383,45,28720,2,0,P|379:98|313:154,1,140,10|10,1:2|2:0,2:0:0:0:
373,214,29170,2,0,L|379:259,3,35,0|0|10|0,1:0|1:0|1:2|3:0,2:0:0:0:
399,284,29470,38,0,L|329:298,1,70,2|10,1:2|2:0,2:0:0:0:
247,312,29770,1,2,1:2:0:0:
247,312,29920,1,10,1:2:0:0:
192,248,30070,2,0,L|122:234,1,70,2|10,1:2|2:0,2:0:0:0:
40,220,30370,1,0,1:0:0:0:
4,143,30520,6,0,P|-18:102|24:18,1,140,14|10,1:2|2:0,2:0:0:0:
94,14,30970,1,0,1:0:0:0:
137,77,31120,1,10,1:2:0:0:
90,139,31270,1,8,2:0:0:0:
90,139,31345,1,8,2:0:0:0:
90,139,31420,1,8,2:0:0:0:
78,215,31570,2,0,L|152:232,1,70,0|0,1:0|3:0,2:0:0:0:
208,186,31870,6,0,P|259:198|345:159,1,140,4|2,1:2|1:2,2:0:0:0:
366,87,32320,1,10,1:2:0:0:
366,87,32470,2,0,L|425:139,1,70,2|10,1:2|2:0,2:0:0:0:
390,212,32770,2,0,L|331:160,1,70,0|10,1:0|1:2,2:0:0:0:
265,121,33070,38,0,P|214:109|128:148,1,140,2|0,1:2|1:0,2:0:0:0:
81,206,33520,1,10,1:2:0:0:
81,206,33670,2,0,L|90:282,1,70,0|10,1:0|2:0,2:0:0:0:
167,306,33970,2,0,L|158:382,1,70,0|10,1:0|1:2,2:0:0:0:
242,372,34270,5,2,1:2:0:0:
242,372,34420,1,10,2:0:0:0:
264,291,34570,2,0,L|246:250,2,35,2|0|10,1:2|1:0|1:2,2:0:0:0:
342,319,34870,1,2,1:2:0:0:
342,319,35020,1,10,2:0:0:0:
350,235,35170,1,0,1:0:0:0:
420,279,35320,6,0,B|451:231|451:231|446:202|446:202|472:155,1,140,14|10,1:2|2:0,2:0:0:0:
460,72,35770,1,0,1:0:0:0:
460,72,35845,1,0,1:0:0:0:
460,72,35920,1,10,1:2:0:0:
386,111,36070,2,0,L|385:151,3,35,0|0|10|0,1:0|1:0|1:2|1:0,2:0:0:0:
356,86,36370,2,0,B|344:78|344:78|337:89|337:89|322:83|322:83|307:91|307:91|289:89|256:108,1,105,0|0,1:0|1:0,2:0:0:0:
244,140,36670,38,0,L|231:288,1,140,4|0,1:2|1:0,2:0:0:0:
180,346,37120,1,10,1:2:0:0:
96,347,37270,2,0,P|62:316|55:285,1,70,2|10,1:2|2:0,2:0:0:0:
93,219,37570,2,0,P|127:250|134:281,1,70,0|10,1:0|1:2,2:0:0:0:
180,346,37870,6,0,P|219:368|308:331,1,140,2|0,1:2|1:0,2:0:0:0:
333,259,38320,1,10,1:2:0:0:
300,178,38470,2,0,P|269:148|226:138,1,70,0|10,1:0|2:0,2:0:0:0:
193,208,38770,2,0,P|223:237|266:247,1,70,0|10,1:0|1:2,2:0:0:0:
333,259,39070,6,0,P|369:228|384:189,1,70,2|10,1:2|2:0,2:0:0:0:
457,240,39370,2,0,P|460:192|443:154,1,70,2|10,1:2|1:2,2:0:0:0:
380,130,39670,1,2,1:2:0:0:
380,130,39820,1,10,2:0:0:0:
423,57,39970,1,0,1:0:0:0:
339,57,40120,38,0,B|289:71|289:71|263:61|263:61|200:77,1,140,14|0,1:2|1:0,2:0:0:0:
126,105,40570,1,8,1:2:0:0:
126,105,40645,1,8,2:0:0:0:
126,105,40720,1,8,2:0:0:0:
189,159,40870,2,0,L|200:218,3,35,0|0|0|0,1:0|3:0|3:0|3:0,2:0:0:0:
237,186,41170,2,0,L|248:245,3,35,0|0|0|0,1:0|3:0|3:0|3:0,2:0:0:0:
281,238,41470,5,4,1:2:0:0:
281,238,41620,1,0,1:0:0:0:
340,178,41770,2,0,L|351:97,1,70,10|0,1:2|1:0,2:0:0:0:
431,89,42070,2,0,L|421:158,1,70,10|0,1:2|1:0,2:0:0:0:
496,195,42370,2,0,L|507:114,1,70,10|0,1:2|1:0,2:0:0:0:
501,45,42670,5,10,1:2:0:0:
501,45,42820,1,0,1:0:0:0:
428,14,42970,1,8,1:2:0:0:
428,14,43120,1,0,1:0:0:0:
356,53,43270,1,8,1:2:0:0:
356,53,43420,2,0,L|278:37,1,70,2|8,1:2|1:2,2:0:0:0:
205,58,43720,1,2,1:2:0:0:
155,126,43870,37,8,1:2:0:0:
155,126,44020,1,0,1:0:0:0:
234,153,44170,2,0,P|212:188|170:207,1,70,10|0,1:2|1:0,2:0:0:0:
226,277,44470,2,0,P|185:286|142:269,1,70,10|0,1:2|1:0,2:0:0:0:
133,359,44770,2,0,P|98:337|79:295,1,70,10|0,1:2|1:0,2:0:0:0:
93,229,45070,5,10,1:2:0:0:
93,229,45220,1,0,1:0:0:0:
29,183,45370,1,8,1:2:0:0:
29,183,45520,1,0,1:0:0:0:
40,103,45670,1,8,1:2:0:0:
40,103,45820,2,0,L|113:89,1,70,2|8,1:2|1:2,2:0:0:0:
192,79,46120,1,2,1:2:0:0:
222,157,46270,6,0,P|245:196|271:208,1,70,12|0,1:2|1:0,2:0:0:0:
343,198,46570,2,0,L|351:158,3,35,10|0|0|0,1:2|1:0|1:0|1:0,2:0:0:0:
381,185,46870,2,0,L|389:145,3,35,10|0|0|0,1:2|1:0|1:0|1:0,2:0:0:0:
421,169,47170,2,0,L|429:129,3,35,10|0|0|0,1:2|1:0|1:0|1:0,2:0:0:0:
448,101,47470,38,0,L|441:17,1,70,10|0,1:2|1:0,2:0:0:0:
371,0,47770,2,0,L|365:69,1,70,8|0,1:2|1:0,2:0:0:0:
300,111,48070,2,0,P|259:116|225:106,1,70,10|0,1:2|1:0,2:0:0:0:
201,186,48370,2,0,P|168:160|151:129,1,70,10|0,1:2|1:0,2:0:0:0:
164,62,48670,5,10,1:2:0:0:
164,62,48820,1,0,1:0:0:0:
106,7,48970,2,0,L|31:2,1,70,8|0,1:2|1:0,2:0:0:0:
21,80,49270,1,8,1:2:0:0:
21,80,49420,1,0,1:0:0:0:
23,156,49570,2,0,L|28:236,1,70,14|0,1:2|1:0,2:0:0:0:
39,308,49870,5,10,2:0:0:0:
39,308,49945,1,8,2:0:0:0:
39,308,50020,1,8,2:0:0:0:
96,256,50170,2,0,L|185:272,1,70,0|0,1:0|3:0,2:0:0:0:
184,343,50470,2,0,L|252:330,1,70,2|0,1:2|3:0,2:0:0:0:
304,273,50770,2,0,L|393:289,1,70,2|0,1:2|3:0,2:0:0:0:
432,351,51070,37,6,1:2:0:0:
432,351,51220,1,10,2:0:0:0:
477,280,51370,2,0,L|499:240,2,35,0|0|10,1:0|1:0|1:2,2:0:0:0:
423,222,51670,1,0,1:0:0:0:
423,222,51820,1,10,2:0:0:0:
378,151,51970,2,0,L|356:111,2,35,2|0|10,1:2|1:0|1:2,2:0:0:0:
450,108,52270,6,0,P|428:66|399:44,1,70,2|10,1:2|2:0,2:0:0:0:
320,16,52570,2,0,P|294:56|290:92,1,70,0|10,1:0|1:2,2:0:0:0:
309,156,52870,2,0,P|356:157|389:143,1,70,2|10,1:2|2:0,2:0:0:0:
411,51,53170,1,0,1:0:0:0:
411,51,53245,1,0,1:0:0:0:
411,51,53320,1,10,1:2:0:0:
256,192,53470,12,8,55270,2:0:0:0:
61,128,55870,22,0,B|97:108|128:127|128:127|163:148|196:128,1,140,6|0,1:2|1:0,2:0:0:0:
253,80,56320,1,8,1:2:0:0:
319,119,56470,2,0,L|330:192,1,70,2|8,1:2|2:0,2:0:0:0:
257,218,56770,2,0,L|246:291,1,70,2|8,1:2|1:2,2:0:0:0:
182,329,57070,5,2,1:2:0:0:
182,329,57220,1,8,2:0:0:0:
111,292,57370,2,0,L|98:256,2,35,0|0|8,1:0|1:0|1:2,2:0:0:0:
180,241,57670,1,0,1:0:0:0:
180,241,57820,1,8,2:0:0:0:
257,218,57970,2,0,B|270:171|270:171|261:131,1,70,2|8,1:2|1:2,2:0:0:0:
214,92,58270,54,0,P|267:74|300:80,1,70,2|8,1:2|2:0,2:0:0:0:
294,0,58570,2,0,P|343:25|363:53,1,70,0|8,1:0|1:2,2:0:0:0:
417,77,58870,2,0,P|399:130|405:163,1,70,2|8,1:2|2:0,2:0:0:0:
325,157,59170,2,0,P|350:206|378:226,1,70,0|8,1:0|1:2,2:0:0:0:
437,241,59470,5,2,1:2:0:0:
437,241,59620,1,8,2:0:0:0:
389,299,59770,2,0,L|412:332,2,35,0|0|8,1:0|1:0|1:2,2:0:0:0:
313,301,60070,1,0,1:0:0:0:
313,301,60220,1,8,2:0:0:0:
234,291,60370,2,0,P|208:241|180:221,1,70,2|8,1:2|1:2,2:0:0:0:
121,240,60670,53,6,1:2:0:0:
121,240,60745,1,0,1:0:0:0:
121,240,60820,2,0,L|126:160,1,70,8|0,1:2|1:0,2:0:0:0:
203,146,61120,1,8,1:2:0:0:
203,146,61195,1,0,1:0:0:0:
203,146,61270,2,0,L|198:66,1,70,0|8,1:0|1:2,2:0:0:0:
129,41,61570,2,0,P|70:48|46:78,1,70,2|8,1:2|1:2,2:0:0:0:
57,130,61870,6,0,L|49:216,1,70,2|8,1:2|1:2,2:0:0:0:
127,202,62170,2,0,L|182:268,1,70,2|8,1:2|1:2,2:0:0:0:
227,203,62470,2,0,L|313:211,1,70,2|8,1:2|1:2,2:0:0:0:
298,132,62770,2,0,L|364:76,1,70,2|8,1:2|1:2,2:0:0:0:
432,108,63070,53,2,1:2:0:0:
432,108,63220,1,8,1:2:0:0:
454,181,63370,2,0,L|467:222,2,35,0|0|8,1:0|1:0|1:2,2:0:0:0:
389,224,63670,1,2,1:2:0:0:
379,300,63820,1,8,1:2:0:0:
326,355,63970,1,0,1:0:0:0:
326,355,64045,1,0,1:0:0:0:
326,355,64120,1,8,1:2:0:0:
279,284,64270,6,0,P|232:268|198:270,1,70,14|8,2:0|2:0,2:0:0:0:
151,315,64570,2,0,L|132:370,3,35,8|8|8|8,2:0|2:0|2:0|2:0,2:0:0:0:
99,335,64870,2,0,L|80:390,3,35,0|0|0|0,1:0|3:0|3:0|3:0,2:0:0:0:
48,351,65170,2,0,L|29:406,3,35,0|0|0|0,1:0|3:0|3:0|3:0,2:0:0:0:
17,323,65470,54,0,P|24:261|38:229,1,70,6|8,1:2|2:0,2:0:0:0:
69,182,65770,1,0,1:0:0:0:
69,182,65920,1,8,1:2:0:0:
150,202,66070,2,0,P|143:140|129:108,1,70,2|8,1:2|2:0,2:0:0:0:
96,67,66370,1,0,1:0:0:0:
96,67,66520,1,8,1:2:0:0:
164,22,66670,6,0,L|227:71,1,70,2|8,1:2|2:0,2:0:0:0:
255,140,66970,2,0,L|246:173,2,35,0|0|8,1:0|1:0|1:2,2:0:0:0:
324,91,67270,1,0,1:0:0:0:
324,91,67420,1,8,2:0:0:0:
381,29,67570,2,0,P|438:28|467:22,1,70,2|8,1:2|1:2,2:0:0:0:
476,106,67870,54,0,B|412:109|412:109|360:177,1,140,2|0,1:2|1:0,2:0:0:0:
314,226,68320,2,0,P|257:225|228:219,1,70,10|0,1:2|1:0,2:0:0:0:
197,162,68620,1,8,2:0:0:0:
235,95,68770,1,2,1:2:0:0:
235,95,68845,1,0,1:0:0:0:
235,95,68920,1,8,1:2:0:0:
153,88,69070,6,0,P|116:129|137:224,1,140,2|0,1:2|1:0,2:0:0:0:
185,257,69520,1,10,1:2:0:0:
244,305,69670,2,0,L|316:324,1,70,2|8,1:2|1:2,2:0:0:0:
377,281,69970,2,0,L|444:263,1,70,0|8,1:0|1:2,2:0:0:0:
449,185,70270,54,0,L|453:132,3,35,6|0|0|0,1:2|1:0|1:0|1:0,2:0:0:0:
412,135,70570,2,0,L|414:169,3,35,12|0|2|0,1:2|1:0|1:2|1:0,2:0:0:0:
377,189,70870,2,0,L|381:136,3,35,12|0|0|0,1:2|1:0|1:0|1:0,2:0:0:0:
343,133,71170,2,0,L|345:167,3,35,14|0|0|0,1:2|1:0|1:0|1:0,2:0:0:0:
298,97,71470,5,14,1:2:0:0:
298,97,72670,21,6,1:2:0:0:
217,124,72820,2,0,L|209:88,2,35,10|0|2,2:0|3:0|1:2,2:0:0:0:
270,195,73120,1,10,1:2:0:0:
270,195,73270,2,0,P|227:207|192:207,1,70,2|10,1:2|2:0,2:0:0:0:
126,168,73570,2,0,L|118:132,3,35,2|2|10|2,1:2|1:2|1:2|2:0,2:0:0:0:
111,92,73870,5,2,1:2:0:0:
166,29,74020,2,0,L|127:12,2,35,10|0|2,2:0|3:0|1:2,2:0:0:0:
253,48,74320,1,10,1:2:0:0:
253,48,74470,2,0,L|333:36,1,70,2|10,1:2|2:0,2:0:0:0:
367,109,74770,2,0,L|436:119,1,70,2|10,1:2|1:2,2:0:0:0:
462,199,75070,54,0,L|474:298,2,70,2|10|2,1:2|2:0|1:2,2:0:0:0:
383,212,75520,2,0,L|371:311,2,70,10|2|10,1:2|1:2|2:0,2:0:0:0:
311,182,75970,1,2,1:2:0:0:
311,182,76045,1,2,1:2:0:0:
311,182,76120,1,10,1:2:0:0:
229,162,76270,6,0,L|216:205,3,35,2|0|10|0,1:2|1:0|1:2|1:0,2:0:0:0:
178,183,76570,2,0,L|184:227,3,35,2|0|10|0,1:2|1:0|1:2|1:0,2:0:0:0:
140,214,76870,2,0,L|164:251,3,35,2|0|10|0,1:2|1:0|1:2|1:0,2:0:0:0:
118,253,77170,2,0,L|156:276,3,35,2|2|10|2,1:2|1:2|1:2|1:2,2:0:0:0:
159,311,77470,53,6,1:2:0:0:
223,362,77620,2,0,P|238:329|240:285,1,70,10|2,2:0|1:2,2:0:0:0:
323,310,77920,1,10,1:2:0:0:
323,310,78070,2,0,L|406:303,1,70,2|10,1:2|2:0,2:0:0:0:
416,228,78370,2,0,L|347:222,1,70,2|10,1:2|1:2,2:0:0:0:
266,220,78670,5,2,1:2:0:0:
266,220,78820,2,0,P|238:181|234:142,1,70,10|2,2:0|1:2,2:0:0:0:
285,93,79120,1,10,1:2:0:0:
285,93,79270,2,0,P|313:132|317:171,1,70,2|10,1:2|2:0,2:0:0:0:
401,140,79570,2,0,L|401:105,3,35,2|2|10|2,1:2|1:2|1:2|2:0,2:0:0:0:
397,63,79870,54,0,P|450:45|492:48,2,70,2|10|2,1:2|2:0|1:2,2:0:0:0:
318,32,80320,2,0,P|297:60|285:93,2,70,10|2|10,1:2|1:2|2:0,2:0:0:0:
244,6,80770,1,2,1:2:0:0:
244,6,80845,1,2,1:2:0:0:
244,6,80920,1,10,1:2:0:0:
173,52,81070,6,0,L|184:128,1,70,2|10,1:2|2:0,2:0:0:0:
155,191,81370,1,2,1:2:0:0:
212,241,81520,2,0,L|201:317,1,70,10|2,1:2|1:2,2:0:0:0:
147,365,81820,1,10,2:0:0:0:
72,362,81970,2,0,L|37:355,3,35,2|2|10|2,1:2|1:2|1:2|2:0,2:0:0:0:
21,320,82270,54,0,B|15:262|15:262|29:236|29:236|25:184,1,140,6|8,1:2|2:0,2:0:0:0:
83,129,82720,1,8,2:0:0:0:
145,75,82870,2,0,L|151:33,3,35,0|0|0|0,1:0|3:0|3:0|3:0,2:0:0:0:
188,58,83170,2,0,L|194:16,3,35,0|0|0|0,1:0|3:0|3:0|3:0,2:0:0:0:
235,22,83470,6,0,L|326:37,1,70,0|0,1:0|3:0,2:0:0:0:
336,110,83770,2,0,L|245:125,1,70,0|0,1:0|3:0,2:0:0:0:
266,121,83995,1,0,3:0:0:0:
266,121,84070,1,0,1:0:0:0:
233,286,84370,1,12,2:0:0:0:
89,212,84670,53,6,1:2:0:0:
134,142,84820,1,2,1:2:0:0:
134,142,84970,2,0,P|140:99|130:61,1,70,10|0,1:2|1:0,2:0:0:0:
221,58,85270,1,2,1:2:0:0:
221,58,85420,2,0,P|215:101|225:139,2,70,2|10|0,1:2|1:2|1:0,2:0:0:0:
305,40,85870,6,0,P|326:102|282:168,1,140,2|10,1:2|1:2,2:0:0:0:
222,208,86320,2,0,P|187:266|208:330,1,140,2|0,1:2|1:0,2:0:0:0:
109,303,86770,2,0,B|105:233,1,70,10|0,1:2|1:0,2:0:0:0:
164,159,87070,54,0,P|127:129|96:120,1,70,2|0,1:2|1:0,2:0:0:0:
24,145,87370,1,10,1:2:0:0:
45,70,87520,1,2,1:2:0:0:
45,70,87670,2,0,P|75:51|109:43,2,70,2|0|10,1:2|1:0|1:2,2:0:0:0:
24,145,88120,6,0,P|96:164|165:160,1,140,6|0,1:2|1:0,2:0:0:0:
247,145,88570,1,10,1:2:0:0:
247,145,88720,1,0,1:0:0:0:
287,71,88870,2,0,L|365:88,1,70,2|0,1:2|1:0,2:0:0:0:
404,154,89170,2,0,L|326:171,1,70,10|0,1:2|1:0,2:0:0:0:
299,244,89470,53,6,1:2:0:0:
369,289,89620,1,2,1:2:0:0:
369,289,89770,2,0,L|383:380,1,70,10|0,1:2|1:0,2:0:0:0:
281,384,90070,1,2,1:2:0:0:
281,384,90220,2,0,L|291:314,2,70,2|10|0,1:2|1:2|1:0,2:0:0:0:
214,281,90670,6,0,P|169:300|79:241,1,140,2|10,1:2|1:2,2:0:0:0:
39,190,91120,2,0,P|84:171|174:230,1,140,2|0,1:2|1:0,2:0:0:0:
190,117,91570,1,10,1:2:0:0:
190,117,91720,1,0,1:0:0:0:
185,28,91870,53,6,1:2:0:0:
435,163,92470,1,6,2:0:0:0:
230,206,92920,6,0,B|176:222|176:222|159:250|159:250|102:268,1,140,6|0,2:0|2:0,2:0:0:0:
37,239,93370,1,8,2:0:0:0:
37,239,93445,1,8,2:0:0:0:
37,239,93520,1,8,2:0:0:0:
83,177,93670,2,0,L|86:142,3,35,0|0|0|0,1:0|3:0|3:0|3:0,2:0:0:0:
49,131,93970,2,0,L|52:96,3,35,0|0|0|0,1:0|3:0|3:0|3:0,2:0:0:0:
80,70,94270,54,0,B|131:63|131:63|168:73|168:73|221:63,1,140,4|2,1:2|1:2,2:0:0:0:
286,96,94720,1,10,1:2:0:0:
350,137,94870,2,0,L|357:212,1,70,2|10,1:2|2:0,2:0:0:0:
429,231,95170,2,0,L|435:161,1,70,0|10,1:0|1:2,2:0:0:0:
409,86,95470,6,0,P|348:63|285:96,1,140,2|0,1:2|1:0,2:0:0:0:
248,163,95920,1,10,1:2:0:0:
250,239,96070,2,0,P|215:269|175:281,1,70,0|10,1:0|2:0,2:0:0:0:
125,240,96370,2,0,P|160:210|200:198,1,70,0|10,1:0|1:2,2:0:0:0:
158,128,96670,53,2,1:2:0:0:
158,128,96820,1,10,2:0:0:0:
82,111,96970,2,0,L|44:134,2,35,2|0|10,1:2|1:0|1:2,2:0:0:0:
113,40,97270,1,2,1:2:0:0:
113,40,97420,1,10,2:0:0:0:
188,56,97570,1,0,1:0:0:0:
250,10,97720,6,0,P|288:48|378:30,1,140,14|8,1:2|2:0,2:0:0:0:
443,7,98170,1,0,1:0:0:0:
443,7,98245,1,0,1:0:0:0:
443,7,98320,1,10,1:2:0:0:
457,82,98470,2,0,L|461:126,3,35,0|0|10|0,1:0|1:0|1:2|1:0,2:0:0:0:
431,142,98770,2,0,B|409:158|409:158|397:152|397:152|389:164|389:164|377:164|377:164|366:181|343:184,1,105,0|0,1:0|1:0,2:0:0:0:
307,177,99070,54,0,B|288:214|288:214|315:312,1,140,4|2,1:2|1:2,2:0:0:0:
382,348,99520,1,10,1:2:0:0:
458,327,99670,2,0,P|440:292|409:272,1,70,2|10,1:2|2:0,2:0:0:0:
458,202,99970,2,0,P|421:190|385:197,1,70,0|10,1:0|1:2,2:0:0:0:
307,177,100270,6,0,B|270:158|270:158|172:185,1,140,2|0,1:2|1:0,2:0:0:0:
136,251,100720,1,10,1:2:0:0:
157,328,100870,2,0,P|191:310|211:279,1,70,0|10,1:0|2:0,2:0:0:0:
282,328,101170,2,0,P|293:291|286:255,1,70,0|10,1:0|1:2,2:0:0:0:
307,177,101470,53,2,1:2:0:0:
307,177,101620,1,10,2:0:0:0:
288,94,101770,2,0,L|301:51,2,35,2|0|10,1:2|1:0|1:2,2:0:0:0:
217,58,102070,1,2,1:2:0:0:
217,58,102220,1,10,2:0:0:0:
198,141,102370,1,0,1:0:0:0:
143,86,102520,6,0,B|111:57|111:57|107:159,1,140,14|0,1:2|3:0,2:0:0:0:
99,236,102970,1,8,2:0:0:0:
99,236,103045,1,8,2:0:0:0:
99,236,103120,1,8,2:0:0:0:
36,285,103270,2,0,L|42:333,3,35,0|0|0|0,1:0|3:0|3:0|3:0,2:0:0:0:
82,317,103570,2,0,L|88:365,3,35,0|0|0|0,1:0|3:0|3:0|3:0,2:0:0:0:
127,360,103870,53,4,1:2:0:0:
127,360,104020,1,0,1:0:0:0:
202,346,104170,2,0,L|213:264,1,70,10|0,1:2|1:0,2:0:0:0:
278,238,104470,2,0,L|227:172,1,70,10|0,1:2|1:0,2:0:0:0:
255,107,104770,2,0,L|173:96,1,70,10|0,1:2|1:0,2:0:0:0:
157,26,105070,5,10,1:2:0:0:
157,26,105220,1,0,1:0:0:0:
244,26,105370,1,8,1:2:0:0:
244,26,105520,1,0,1:0:0:0:
325,62,105670,1,8,1:2:0:0:
325,62,105820,2,0,P|340:104|336:136,1,70,2|8,1:2|1:2,2:0:0:0:
309,207,106120,1,2,1:2:0:0:
395,197,106270,53,8,1:2:0:0:
395,197,106420,1,0,1:0:0:0:
430,273,106570,2,0,P|390:279|342:259,1,70,10|0,1:2|1:0,2:0:0:0:
331,350,106870,2,0,P|298:326|278:278,1,70,10|0,1:2|1:0,2:0:0:0:
206,333,107170,2,0,P|199:293|219:245,1,70,10|0,1:2|1:0,2:0:0:0:
224,185,107470,5,10,1:2:0:0:
224,185,107620,1,0,1:0:0:0:
160,138,107770,1,8,1:2:0:0:
160,138,107920,1,0,1:0:0:0:
80,153,108070,1,8,1:2:0:0:
80,153,108220,2,0,P|83:104|94:80,1,70,2|8,1:2|1:2,2:0:0:0:
159,50,108520,1,2,1:2:0:0:
235,56,108670,54,0,L|316:68,1,70,12|0,1:2|1:0,2:0:0:0:
346,131,108970,2,0,L|357:179,3,35,10|0|0|0,1:2|1:0|1:0|1:0,2:0:0:0:
390,154,109270,2,0,L|401:202,3,35,10|0|0|0,1:2|1:0|1:0|1:0,2:0:0:0:
434,177,109570,2,0,L|445:225,3,35,10|0|0|0,1:2|1:0|1:0|1:0,2:0:0:0:
475,229,109870,6,0,L|464:317,1,70,10|0,1:2|1:0,2:0:0:0:
395,330,110170,2,0,L|386:260,1,70,8|0,1:2|1:0,2:0:0:0:
328,201,110470,2,0,P|308:242|308:280,1,70,10|0,1:2|1:0,2:0:0:0:
223,268,110770,2,0,P|237:311|264:338,1,70,10|0,1:2|1:0,2:0:0:0:
189,373,111070,53,10,1:2:0:0:
189,373,111220,1,0,1:0:0:0:
112,370,111370,2,0,L|34:343,1,70,8|0,1:2|1:0,2:0:0:0:
16,281,111670,1,8,1:2:0:0:
16,281,111820,1,0,1:0:0:0:
92,276,111970,2,0,P|123:250|144:214,1,70,14|0,1:2|1:0,2:0:0:0:
108,154,112270,5,10,2:0:0:0:
108,154,112345,1,8,2:0:0:0:
108,154,112420,1,8,2:0:0:0:
140,76,112570,2,0,P|172:105|185:133,1,70,0|0,1:0|3:0,2:0:0:0:
256,103,112870,2,0,P|258:146|247:175,1,70,2|0,1:2|3:0,2:0:0:0:
318,204,113170,2,0,P|289:236|261:248,1,70,2|0,1:2|3:0,2:0:0:0:
185,217,113470,53,6,1:2:0:0:
185,217,113620,1,10,2:0:0:0:
165,298,113770,2,0,L|123:326,2,35,0|0|10,1:0|1:0|1:2,2:0:0:0:
245,328,114070,1,0,1:0:0:0:
245,328,114220,1,10,2:0:0:0:
265,247,114370,2,0,L|307:219,2,35,2|0|10,1:2|1:0|1:2,2:0:0:0:
325,305,114670,6,0,L|401:297,1,70,2|10,1:2|2:0,2:0:0:0:
437,225,114970,2,0,L|361:217,1,70,0|10,1:0|1:2,2:0:0:0:
323,154,115270,1,2,1:2:0:0:
398,139,115420,1,10,2:0:0:0:
435,75,115570,1,0,1:0:0:0:
435,75,115645,1,0,1:0:0:0:
435,75,115720,1,10,1:2:0:0:
256,192,115870,12,8,117670,2:0:0:0:
450,273,118270,6,0,B|414:253|383:272|383:272|348:293|315:273,1,140,6|0,1:2|1:0,2:0:0:0:
259,222,118720,1,8,1:2:0:0:
224,153,118870,2,0,P|188:114|151:108,1,70,2|8,1:2|2:0,2:0:0:0:
103,143,119170,2,0,P|139:182|176:188,1,70,2|8,1:2|1:2,2:0:0:0:
178,265,119470,5,2,1:2:0:0:
178,265,119620,1,8,2:0:0:0:
125,321,119770,2,0,L|120:364,2,35,0|0|8,1:0|1:0|1:2,2:0:0:0:
71,262,120070,1,0,1:0:0:0:
71,262,120220,1,8,2:0:0:0:
17,197,120370,2,0,L|10:122,1,70,2|8,1:2|1:2,2:0:0:0:
67,65,120670,54,0,L|144:51,1,70,2|8,1:2|2:0,2:0:0:0:
171,130,120970,2,0,L|94:144,1,70,0|8,1:0|1:2,2:0:0:0:
212,63,121270,2,0,L|289:49,1,70,2|8,1:2|2:0,2:0:0:0:
316,128,121570,2,0,L|239:142,1,70,0|8,1:0|1:2,2:0:0:0:
203,214,121870,5,2,1:2:0:0:
203,214,122020,1,8,2:0:0:0:
244,287,122170,2,0,L|263:323,2,35,0|0|8,1:0|1:0|1:2,2:0:0:0:
305,228,122470,1,0,1:0:0:0:
305,228,122620,1,8,2:0:0:0:
344,301,122770,2,0,P|360:335|391:360,1,70,2|8,1:2|1:2,2:0:0:0:
505,380,123070,53,2,1:2:0:0:
505,380,123145,1,0,1:0:0:0:
505,380,123220,2,0,L|509:301,1,70,8|0,1:2|1:0,2:0:0:0:
435,291,123520,1,8,1:2:0:0:
435,291,123595,1,0,1:0:0:0:
435,291,123670,2,0,L|431:212,1,70,0|8,1:0|1:2,2:0:0:0:
486,156,123970,2,0,P|447:139|401:144,1,70,2|8,1:2|1:2,2:0:0:0:
355,192,124270,6,0,P|320:190|289:174,1,70,2|8,1:2|1:2,2:0:0:0:
244,246,124570,2,0,P|220:220|209:187,1,70,2|8,1:2|1:2,2:0:0:0:
126,202,124870,2,0,P|127:167|143:136,1,70,2|8,1:2|1:2,2:0:0:0:
72,88,125170,2,0,P|97:64|130:53,1,70,2|8,1:2|1:2,2:0:0:0:
215,57,125470,53,2,1:2:0:0:
215,57,125620,1,8,1:2:0:0:
290,72,125770,2,0,L|333:79,2,35,0|0|8,1:0|1:0|1:2,2:0:0:0:
249,138,126070,1,2,1:2:0:0:
172,145,126220,1,8,1:2:0:0:
139,218,126370,1,0,1:0:0:0:
139,218,126445,1,0,1:0:0:0:
139,218,126520,1,8,1:2:0:0:
217,215,126670,6,0,P|276:220|332:161,1,140,14|8,2:0|2:0,2:0:0:0:
399,119,127120,1,8,2:0:0:0:
467,166,127270,2,0,L|481:217,3,35,0|0|0|0,1:0|3:0|3:0|3:0,2:0:0:0:
443,225,127570,2,0,L|457:276,3,35,0|0|0|0,1:0|3:0|3:0|3:0,2:0:0:0:
435,297,127870,54,0,L|365:305,1,70,6|8,1:2|2:0,2:0:0:0:
300,260,128170,1,0,1:0:0:0:
300,260,128320,1,8,1:2:0:0:
245,323,128470,2,0,L|175:315,1,70,2|8,1:2|2:0,2:0:0:0:
110,360,128770,1,0,1:0:0:0:
110,360,128920,1,8,1:2:0:0:
81,280,129070,6,0,P|76:236|81:200,1,70,2|8,1:2|2:0,2:0:0:0:
103,130,129370,2,0,L|94:97,2,35,0|0|8,1:0|1:0|1:2,2:0:0:0:
181,173,129670,1,0,1:0:0:0:
181,173,129820,1,8,2:0:0:0:
260,200,129970,2,0,P|262:156|240:115,1,70,2|8,1:2|1:2,2:0:0:0:
179,91,130270,54,0,B|209:52|209:52|304:47,1,140,2|0,1:2|1:0,2:0:0:0:
322,128,130720,2,0,L|248:132,1,70,10|0,1:2|1:0,2:0:0:0:
181,173,131020,1,8,2:0:0:0:
186,261,131170,1,2,1:2:0:0:
186,261,131245,1,0,1:0:0:0:
186,261,131320,1,8,1:2:0:0:
105,278,131470,6,0,P|57:254|38:175,1,140,2|0,1:2|1:0,2:0:0:0:
81,104,131920,1,10,1:2:0:0:
81,104,132070,2,0,L|159:94,1,70,2|8,1:2|1:2,2:0:0:0:
181,173,132370,2,0,L|250:181,1,70,0|8,1:0|1:2,2:0:0:0:
312,124,132670,54,0,L|321:84,3,35,6|0|0|0,1:2|1:0|1:0|1:0,2:0:0:0:
351,70,132970,2,0,L|358:104,3,35,12|0|2|0,1:2|1:0|1:2|1:0,2:0:0:0:
388,129,133270,2,0,L|397:89,3,35,12|0|0|0,1:2|1:0|1:0|1:0,2:0:0:0:
427,75,133570,2,0,L|434:109,3,35,14|0|0|0,1:2|1:0|1:0|1:0,2:0:0:0:
469,132,133870,5,6,1:2:0:0:
67,299,135070,38,0,P|130:104|185:275,1,490,6|0,2:0|2:0,2:0:0:0:
170,342,136270,2,0,L|211:361,3,35,10|8|8|8,2:2|2:0|2:0|2:0,2:0:0:0:
239,338,136570,1,2,1:2:0:0:
306,215,136870,2,0,L|347:196,3,35,10|8|8|8,2:2|2:0|2:0|2:0,2:0:0:0:
375,219,137170,1,2,1:2:0:0:
465,317,137470,5,6,1:2:0:0:
465,317,137545,1,2,2:0:0:0:
465,317,137620,1,10,2:0:0:0:
493,237,137770,2,0,L|481:161,1,70,2|10,1:2|1:2,2:0:0:0:
406,131,138070,2,0,L|413:78,3,35,2|2|10|2,1:2|2:0|2:0|2:0,2:0:0:0:
355,151,138370,2,0,L|362:98,3,35,2|2|10|2,1:2|1:2|1:2|2:0,2:0:0:0:
305,164,138670,6,0,P|256:147|236:117,1,70,2|10,1:2|2:0,2:0:0:0:
191,190,138970,2,0,P|168:143|175:107,1,70,2|10,1:2|1:2,2:0:0:0:
211,54,139270,1,2,1:2:0:0:
211,54,139345,1,2,2:0:0:0:
211,54,139420,1,10,2:0:0:0:
130,31,139570,2,0,B|100:35|100:35|56:127,1,105,2|0,1:2|3:0,2:0:0:0:
53,141,139870,54,0,L|60:179,3,35,2|2|10|2,1:2|2:0|2:0|2:0,2:0:0:0:
101,170,140170,2,0,L|108:208,3,35,2|2|10|2,1:2|1:2|1:2|2:0,2:0:0:0:
143,224,140470,2,0,B|180:219|180:219|211:192,1,70,2|10,1:2|2:0,2:0:0:0:
218,123,140770,2,0,B|253:132|253:132|276:161,1,70,2|10,1:2|1:2,2:0:0:0:
296,234,141070,6,0,B|297:272|297:272|246:330,2,105,2|2|10,1:2|2:0|1:2,2:0:0:0:
346,166,141670,2,0,B|373:192|373:192|378:269,2,105,2|2|10,1:2|2:0|1:2,2:0:0:0:
290,99,142270,54,0,P|353:81|421:127,1,140,2|0,1:2|1:0,2:0:0:0:
469,178,142720,2,0,P|494:115|454:44,1,140,10|10,1:2|2:0,2:0:0:0:
400,0,143170,2,0,B|377:-5|377:-5|360:4|360:4|343:-3|343:-3|325:7|325:7|303:2|274:9,1,105,2|0,1:2|2:0,2:0:0:0:
261,17,143470,6,0,P|214:58|212:137,1,140,2|2,1:2|1:2,2:0:0:0:
253,209,143920,1,10,1:2:0:0:
253,209,144070,2,0,B|270:252|270:252|269:334,2,105,2|2|10,1:2|0:0|1:2,2:0:0:0:
180,253,144670,54,0,B|101:237,1,70,2|10,1:2|2:0,2:0:0:0:
39,192,144970,1,2,1:2:0:0:
39,192,145045,1,2,1:2:0:0:
39,192,145120,1,10,1:2:0:0:
82,112,145270,2,0,B|161:96,1,70,2|10,1:2|2:0,2:0:0:0:
235,103,145570,1,2,1:2:0:0:
235,103,145645,1,2,1:2:0:0:
235,103,145720,1,10,1:2:0:0:
248,19,145870,6,0,L|285:-8,3,35,2|2|10|2,1:2|2:0|2:0|2:0,2:0:0:0:
303,29,146170,2,0,P|307:72|324:108,1,70,2|10,1:2|1:2,2:0:0:0:
394,103,146470,1,2,1:2:0:0:
395,82,146545,1,2,2:0:0:0:
390,61,146620,1,10,2:0:0:0:
473,6,146770,2,0,B|460:31|473:59|473:59|485:89|473:123,1,105,2|0,1:2|3:0,2:0:0:0:
476,157,147070,54,0,L|466:241,1,70,6|10,1:2|2:0,2:0:0:0:
384,213,147370,2,0,L|394:297,1,70,2|10,1:2|1:2,2:0:0:0:
398,359,147670,2,0,L|442:372,3,35,2|2|10|2,1:2|2:0|2:0|2:0,2:0:0:0:
360,369,147970,2,0,B|320:364|320:364|295:378|295:378|250:370,1,105,2|0,1:2|3:0,2:0:0:0:
226,351,148270,5,2,1:2:0:0:
171,287,148420,1,10,2:0:0:0:
171,287,148495,1,2,2:0:0:0:
171,287,148570,2,0,B|202:268|202:268|261:269,1,70,2|10,1:2|1:2,2:0:0:0:
321,269,148870,1,2,1:2:0:0:
285,195,149020,1,10,2:0:0:0:
285,195,149095,1,2,2:0:0:0:
285,195,149170,2,0,B|254:176|254:176|195:177,1,70,2|10,1:2|1:2,2:0:0:0:
138,189,149470,54,0,L|88:198,3,35,2|2|10|2,1:2|2:0|2:0|2:0,2:0:0:0:
91,162,149770,2,0,L|57:156,3,35,2|2|10|2,1:2|1:2|1:2|2:0,2:0:0:0:
138,126,150070,2,0,L|88:135,3,35,2|2|10|2,1:2|2:0|2:0|2:0,2:0:0:0:
86,104,150370,2,0,L|52:98,3,35,2|2|10|2,1:2|1:2|1:2|2:0,2:0:0:0:
49,59,150670,6,0,L|144:49,1,70,2|10,1:2|2:0,2:0:0:0:
199,21,150970,1,2,1:2:0:0:
199,21,151045,1,2,1:2:0:0:
199,21,151120,1,10,1:2:0:0:
279,16,151270,2,0,P|317:78|214:168,1,210,2|10,1:2|1:2,2:0:0:0:
147,149,151870,53,2,1:2:0:0:
147,149,151945,1,2,2:0:0:0:
147,149,152020,2,0,B|125:179|125:179|116:241,1,70,10|2,2:0|1:2,2:0:0:0:
204,247,152320,1,10,1:2:0:0:
204,247,152395,1,2,2:0:0:0:
204,247,152470,1,2,1:2:0:0:
267,310,152620,2,0,B|307:318|307:318|345:306,2,70,10|2|10,2:0|1:2|1:2,2:0:0:0:
200,375,153070,5,2,1:2:0:0:
200,375,153145,1,2,2:0:0:0:
200,375,153220,2,0,L|126:385,1,70,10|2,2:0|1:2,2:0:0:0:
84,282,153520,1,10,1:2:0:0:
84,282,153595,1,2,2:0:0:0:
84,282,153670,2,0,L|158:292,1,70,2|10,1:2|2:0,2:0:0:0:
53,364,153970,1,2,1:2:0:0:
53,364,154045,1,2,1:2:0:0:
53,364,154120,1,10,1:2:0:0:
0,291,154270,54,0,B|-13:239|-13:239|16:211|16:211|5:175|5:175|15:144|15:144|25:79,1,210,2|10,1:2|2:0,2:0:0:0:
89,176,154870,2,0,L|96:215,2,35,2|2|10,1:2|2:0|2:0,2:0:0:0:
171,206,155170,2,0,L|178:245,2,35,2|2|10,1:2|1:2|1:2,2:0:0:0:
238,160,155470,5,10,2:0:0:0:
238,160,155545,1,10,2:0:0:0:
238,160,155620,1,10,2:0:0:0:
281,87,155770,2,0,P|316:127|325:162,1,70,2|2,1:2|3:2,2:0:0:0:
398,142,156070,2,0,P|415:91|440:66,1,70,2|2,1:2|3:2,2:0:0:0:
388,14,156370,2,0,P|335:24|301:14,1,70,2|2,1:2|3:2,2:0:0:0:
241,21,156670,6,0,B|154:64|149:-26|95:-11|54:10|13:65|43:147|142:148|165:95,1,350,6|10,1:2|2:0,2:0:0:0:
297,182,157720,1,10,1:2:0:0:
297,182,157870,6,0,B|312:203|312:203|302:303,2,105,2|2|10,1:2|2:0|1:2,2:0:0:0:
230,234,158470,2,0,L|222:303,1,70,2|10,1:2|2:0,2:0:0:0:
148,344,158770,2,0,L|140:275,1,70,0|10,1:0|1:2,2:0:0:0:
136,190,159070,6,0,B|102:173|102:173|24:190,2,105,2|2|10,1:2|2:0|1:2,2:0:0:0:
210,151,159670,2,0,B|197:114|197:114|130:71,2,105,2|2|10,1:2|2:0|1:2,2:0:0:0:
293,161,160270,38,0,P|346:172|421:44,1,210,2|10,1:2|1:2,2:0:0:0:
335,74,160870,2,0,B|386:159|386:159|366:275,1,210,0|10,1:0|1:2,2:0:0:0:
315,335,161470,37,6,1:2:0:0:
315,335,161545,1,2,1:2:0:0:
315,335,161620,1,10,1:2:0:0:
234,299,161770,2,0,L|221:251,2,35,2|2|10,1:2|1:2|1:2,2:0:0:0:
184,359,162070,2,0,B|150:376|150:376|71:371,2,105,2|2|10,1:2|1:2|1:2,2:0:0:0:
127,292,162670,6,0,B|114:214|114:214|69:178|69:178|55:95,1,210,2|10,1:2|1:2,2:0:0:0:
128,61,163270,2,0,L|144:144,1,70,2|8,1:2|1:2,2:0:0:0:
209,178,163570,2,0,L|222:109,1,70,2|8,1:2|1:2,2:0:0:0:
285,60,163870,53,2,1:2:0:0:
285,60,164020,2,0,B|289:28|330:-29|424:-14|470:67|423:137|423:137|381:207|434:264,1,420,10|8,1:2|1:2,2:0:0:0:
490,342,165070,5,8,2:0:0:0:
490,342,165145,1,8,2:0:0:0:
490,342,165220,2,0,B|436:355|436:355|405:342|405:342|347:357,1,140,10|2,2:0|3:2,2:0:0:0:
282,384,165670,2,0,L|197:354,1,70,2|0,1:2|3:2,2:0:0:0:
197,272,165970,1,10,2:0:0:0:
197,272,166045,1,8,2:0:0:0:
197,272,166120,1,8,2:0:0:0:
131,348,166270,6,0,P|112:211|294:233,1,350,6|10,1:2|2:0,2:0:0:0:
432,294,167320,1,10,1:2:0:0:
432,294,167470,6,0,B|448:262|448:262|442:172,2,105,2|2|10,1:2|2:0|1:2,2:0:0:0:
359,251,168070,2,0,B|343:283|343:283|349:373,2,105,2|2|10,1:2|2:0|1:2,2:0:0:0:
357,167,168670,6,0,B|342:114|342:114|351:86|351:86|334:17,1,140,2|0,1:2|1:0,2:0:0:0:
257,29,169120,1,10,1:2:0:0:
257,29,169270,2,0,B|272:82|272:82|263:110|263:110|280:179,1,140,2|0,1:2|1:0,2:0:0:0:
233,235,169720,1,10,1:2:0:0:
233,235,169870,38,0,P|186:206|92:228,1,140,2|0,1:2|1:0,2:0:0:0:
161,287,170320,1,10,1:2:0:0:
161,287,170470,2,0,P|208:316|321:231,1,210,2|10,1:2|1:2,2:0:0:0:
371,172,171070,37,6,1:2:0:0:
371,172,171145,1,2,1:2:0:0:
371,172,171220,1,10,1:2:0:0:
455,172,171370,2,0,L|461:134,3,35,2|2|10|2,1:2|1:2|1:2|1:2,2:0:0:0:
495,131,171670,2,0,L|501:93,3,35,2|2|10|2,1:2|1:2|1:2|1:2,2:0:0:0:
481,66,171970,2,0,B|465:46|465:46|446:59|446:59|431:53|431:53|421:62|421:62|403:56|384:65,1,105,2|0,1:2|1:0,2:0:0:0:
364,78,172270,6,0,L|348:132,3,35,2|2|10|2,1:2|1:2|1:2|1:2,2:0:0:0:
319,103,172570,2,0,L|303:157,3,35,2|2|10|2,1:2|1:2|1:2|1:2,2:0:0:0:
276,157,172870,2,0,B|244:179|244:179|196:173,1,70,2|10,1:2|1:2,0:0:0:0:
141,164,173170,1,2,1:2:0:0:
141,164,173245,1,2,1:2:0:0:
141,164,173320,1,10,1:2:0:0:
156,74,173470,54,0,P|101:79|77:217,1,210,2|8,1:2|1:2,2:0:0:0:
48,291,174070,2,0,P|103:286|127:148,1,210,2|8,1:2|1:2,2:0:0:0:
233,175,174670,5,8,2:0:0:0:
233,175,174745,1,8,2:0:0:0:
233,175,174820,2,0,L|323:196,1,70,10|0,2:2|1:0,2:0:0:0:
376,204,175120,1,2,3:2:0:0:
330,267,175270,1,2,1:2:0:0:
330,267,175420,1,0,3:0:0:0:
377,335,175570,2,0,L|457:344,1,70,2|0,1:2|3:0,2:0:0:0:
317,384,175870,37,6,1:2:0:0:
203,56,184270,53,10,2:0:0:0:
203,56,184345,1,8,2:0:0:0:
203,56,184420,1,8,2:0:0:0:
147,114,184570,2,0,P|181:134|232:132,1,70,0|0,1:0|3:0,2:0:0:0:
210,220,184870,2,0,P|248:210|282:172,1,70,2|0,1:2|3:0,2:0:0:0:
329,252,185170,2,0,P|349:217|347:167,1,70,2|0,1:2|3:0,2:0:0:0:
301,118,185470,53,6,1:2:0:0:
301,118,185620,1,10,2:0:0:0:
337,50,185770,2,0,L|319:17,2,35,0|0|10,1:0|1:0|1:2,2:0:0:0:
417,44,186070,1,0,1:0:0:0:
417,44,186220,1,10,2:0:0:0:
481,86,186370,2,0,L|475:173,1,70,2|10,1:2|1:2,2:0:0:0:
401,175,186670,22,0,L|407:262,1,70,2|10,1:2|2:0,2:0:0:0:
476,287,186970,1,0,1:0:0:0:
476,287,187120,1,10,1:2:0:0:
433,351,187270,2,0,L|347:358,1,70,2|10,1:2|2:0,2:0:0:0:
308,301,187570,1,0,1:0:0:0:
308,301,187645,1,0,1:0:0:0:
308,301,187720,1,10,1:2:0:0:
256,192,187870,12,8,189670,2:0:0:0:
62,111,190270,6,0,B|98:131|129:112|129:112|164:91|197:111,1,140,6|0,1:2|1:0,2:0:0:0:
248,165,190720,1,8,1:2:0:0:
326,134,190870,2,0,P|331:171|310:216,1,70,2|8,1:2|2:0,2:0:0:0:
398,234,191170,2,0,P|375:263|328:280,1,70,2|8,1:2|1:2,2:0:0:0:
269,259,191470,5,2,1:2:0:0:
269,259,191620,1,8,2:0:0:0:
197,303,191770,2,0,L|202:341,2,35,0|0|8,1:0|1:0|1:2,2:0:0:0:
118,326,192070,1,0,1:0:0:0:
118,326,192220,1,8,2:0:0:0:
35,306,192370,2,0,L|22:235,1,70,2|8,1:2|1:2,2:0:0:0:
42,154,192670,54,0,P|83:179|100:206,1,70,2|8,1:2|2:0,2:0:0:0:
169,155,192970,2,0,P|180:201|173:232,1,70,0|8,1:0|1:2,2:0:0:0:
197,303,193270,2,0,P|238:278|255:251,1,70,2|8,1:2|2:0,2:0:0:0:
324,302,193570,2,0,P|335:255|328:224,1,70,0|8,1:0|1:2,2:0:0:0:
271,184,193870,5,2,1:2:0:0:
271,184,194020,1,8,2:0:0:0:
280,100,194170,2,0,L|304:74,2,35,0|0|8,1:0|1:0|1:2,2:0:0:0:
202,84,194470,1,0,1:0:0:0:
202,84,194620,1,8,2:0:0:0:
152,15,194770,2,0,L|77:4,1,70,2|8,1:2|1:2,2:0:0:0:
10,46,195070,53,6,1:2:0:0:
10,46,195145,1,0,1:0:0:0:
10,46,195220,2,0,L|18:120,1,70,8|0,1:2|1:0,2:0:0:0:
108,133,195520,1,8,1:2:0:0:
108,133,195595,1,0,1:0:0:0:
108,133,195670,2,0,L|100:207,1,70,0|8,1:0|1:2,2:0:0:0:
31,251,195970,2,0,L|39:325,1,70,2|8,1:2|1:2,2:0:0:0:
114,355,196270,6,0,L|200:327,1,70,2|8,1:2|1:2,2:0:0:0:
195,250,196570,2,0,L|281:222,1,70,2|8,1:2|1:2,2:0:0:0:
321,286,196870,2,0,L|407:258,1,70,2|8,1:2|1:2,2:0:0:0:
402,181,197170,2,0,L|488:153,1,70,2|8,1:2|1:2,2:0:0:0:
499,91,197470,53,2,1:2:0:0:
499,91,197620,1,8,1:2:0:0:
462,23,197770,2,0,L|507:5,2,35,0|0|8,1:0|1:0|1:2,2:0:0:0:
399,68,198070,1,2,1:2:0:0:
327,37,198220,1,8,1:2:0:0:
291,108,198370,1,0,1:0:0:0:
291,108,198445,1,0,1:0:0:0:
291,108,198520,1,8,1:2:0:0:
210,76,198670,6,0,P|205:118|225:159,1,70,12|8,2:0|2:0,2:0:0:0:
253,216,198970,2,0,L|246:273,3,35,10|8|8|8,2:0|2:0|2:0|2:0,2:0:0:0:
214,259,199270,2,0,L|207:316,3,35,0|0|0|0,1:0|3:0|3:0|3:0,2:0:0:0:
174,298,199570,2,0,L|167:355,3,35,0|0|0|0,1:0|3:0|3:0|3:0,2:0:0:0:
133,338,199870,54,0,L|46:331,1,70,6|8,1:2|2:0,2:0:0:0:
4,282,200170,1,0,1:0:0:0:
4,282,200320,1,8,1:2:0:0:
62,232,200470,2,0,L|149:225,1,70,2|8,1:2|2:0,2:0:0:0:
191,176,200770,1,0,1:0:0:0:
191,176,200920,1,8,1:2:0:0:
116,137,201070,6,0,P|85:103|76:65,1,70,2|8,1:2|2:0,2:0:0:0:
2,55,201370,2,0,L|0:89,2,35,0|0|8,1:0|1:0|1:2,2:0:0:0:
70,4,201670,1,0,1:0:0:0:
70,4,201820,1,8,2:0:0:0:
146,37,201970,2,0,P|177:71|186:109,1,70,2|8,1:2|1:2,2:0:0:0:
116,137,202270,54,0,B|146:176|146:176|241:181,1,140,2|0,1:2|1:0,2:0:0:0:
313,214,202720,2,0,P|317:162|302:133,1,70,10|0,1:2|1:0,2:0:0:0:
269,73,203020,1,8,2:0:0:0:
341,30,203170,1,2,1:2:0:0:
341,30,203245,1,0,1:0:0:0:
341,30,203320,1,8,1:2:0:0:
425,21,203470,6,0,P|430:98|381:142,1,140,2|0,1:2|1:0,2:0:0:0:
310,146,203920,1,10,1:2:0:0:
297,229,204070,2,0,L|282:324,1,70,2|8,1:2|1:2,2:0:0:0:
214,343,204370,2,0,L|203:273,1,70,0|8,1:0|1:2,2:0:0:0:
203,189,204670,54,0,L|191:144,3,35,6|0|0|0,1:2|1:0|1:0|1:0,2:0:0:0:
156,135,204970,2,0,L|146:168,3,35,12|0|2|0,1:2|1:0|1:2|1:0,2:0:0:0:
129,207,205270,2,0,L|117:162,3,35,12|0|0|0,1:2|1:0|1:0|1:0,2:0:0:0:
86,147,205570,2,0,L|76:180,3,35,14|0|0|0,1:2|1:0|1:0|1:0,2:0:0:0:
60,220,205870,5,14,1:2:0:0:
383,363,207070,5,6,1:2:0:0:
454,324,207220,2,0,L|480:356,2,35,10|0|2,2:0|3:0|1:2,2:0:0:0:
394,272,207520,1,10,1:2:0:0:
394,272,207670,2,0,P|382:229|382:194,1,70,2|10,1:2|2:0,2:0:0:0:
450,155,207970,2,0,L|495:165,3,35,2|2|10|2,1:2|1:2|1:2|2:0,2:0:0:0:
510,131,208270,5,2,1:2:0:0:
455,67,208420,2,0,L|453:21,2,35,10|0|2,2:0|3:0|1:2,2:0:0:0:
382,106,208720,1,10,1:2:0:0:
382,106,208870,2,0,P|347:115|316:146,1,70,2|10,1:2|2:0,2:0:0:0:
260,90,209170,2,0,P|242:121|241:164,1,70,2|10,1:2|1:2,2:0:0:0:
227,231,209470,70,0,L|239:317,2,70,2|10|2,1:2|2:0|1:2,2:0:0:0:
154,192,209920,2,0,L|163:123,2,70,10|2|10,1:2|1:2|2:0,2:0:0:0:
128,267,210370,1,2,1:2:0:0:
128,267,210445,1,2,1:2:0:0:
128,267,210520,1,10,1:2:0:0:
55,185,210670,54,0,L|6:190,3,35,2|0|10|0,1:2|1:0|1:2|1:0,2:0:0:0:
47,220,210970,2,0,L|-2:225,3,35,2|0|10|0,1:2|1:0|1:2|1:0,2:0:0:0:
42,253,211270,2,0,L|-7:258,3,35,2|0|10|0,1:2|1:0|1:2|1:0,2:0:0:0:
34,288,211570,2,0,L|-15:293,3,35,2|2|10|2,1:2|1:2|1:2|1:2,2:0:0:0:
62,317,211870,6,0,L|82:398,2,70,6|10|2,1:2|2:0|1:2,2:0:0:0:
134,274,212320,2,0,L|150:206,2,70,10|2|10,1:2|1:2|2:0,2:0:0:0:
180,343,212770,2,0,L|187:388,3,35,2|2|10|2,1:2|1:2|1:2|2:0,2:0:0:0:
227,384,213070,69,2,1:2:0:0:
302,346,213220,2,0,P|314:308|306:270,1,70,10|2,2:0|1:2,2:0:0:0:
256,220,213520,1,10,1:2:0:0:
256,220,213670,2,0,P|252:185|263:152,1,70,2|10,1:2|2:0,2:0:0:0:
333,194,213970,2,0,L|367:205,3,35,2|2|10|2,1:2|1:2|1:2|2:0,2:0:0:0:
398,163,214270,54,0,P|435:190|450:239,2,70,2|10|2,1:2|2:0|1:2,2:0:0:0:
371,86,214720,2,0,P|416:78|461:102,2,70,10|2|10,1:2|1:2|2:0,2:0:0:0:
311,141,215170,1,2,1:2:0:0:
311,141,215245,1,2,1:2:0:0:
311,141,215320,1,10,1:2:0:0:
275,57,215470,5,2,1:2:0:0:
275,57,215620,2,0,L|183:42,1,70,10|2,2:0|1:2,2:0:0:0:
166,113,215920,1,10,1:2:0:0:
166,113,216070,2,0,L|74:128,1,70,2|10,1:2|2:0,2:0:0:0:
29,73,216370,2,0,L|20:108,3,35,2|2|10|2,1:2|1:2|1:2|2:0,2:0:0:0:
13,145,216670,69,6,1:2:0:0:
53,210,216820,2,0,L|48:252,2,35,10|0|2,2:0|3:0|1:2,2:0:0:0:
132,200,217120,1,10,1:2:0:0:
132,200,217270,2,0,P|133:248|122:280,1,70,2|10,1:2|2:0,2:0:0:0:
87,335,217570,2,0,L|82:377,3,35,2|2|10|2,1:2|1:2|1:2|2:0,2:0:0:0:
112,384,217870,54,0,L|191:373,2,70,2|10|2,1:2|2:0|1:2,2:0:0:0:
216,299,218320,2,0,L|137:288,2,70,10|2|10,1:2|1:2|2:0,2:0:0:0:
274,365,218770,1,2,1:2:0:0:
274,365,218845,1,2,1:2:0:0:
274,365,218920,1,10,1:2:0:0:
353,371,219070,5,2,1:2:0:0:
353,371,219220,2,0,L|359:286,1,70,10|2,2:0|1:2,2:0:0:0:
292,258,219520,1,10,1:2:0:0:
292,258,219670,2,0,L|286:173,1,70,2|10,1:2|2:0,2:0:0:0:
339,131,219970,1,2,1:2:0:0:
339,131,220045,1,2,1:2:0:0:
339,131,220120,1,10,1:2:0:0:
420,150,220270,70,0,L|461:157,3,35,2|0|10|0,1:2|1:0|1:2|1:0,2:0:0:0:
465,187,220570,2,0,L|500:193,3,35,2|0|10|0,1:2|1:0|1:2|1:0,2:0:0:0:
417,213,220870,2,0,L|458:220,3,35,2|0|10|0,1:2|1:0|1:2|1:0,2:0:0:0:
460,258,221170,2,0,L|494:263,3,35,2|2|10|2,1:2|1:2|1:2|1:2,2:0:0:0:
443,292,221470,21,6,1:2:0:0:
370,335,221620,2,0,L|297:348,1,70,10|2,2:0|1:2,2:0:0:0:
248,281,221920,1,10,1:2:0:0:
186,338,222070,2,0,L|113:325,1,70,2|10,1:2|2:0,2:0:0:0:
61,263,222370,2,0,L|36:301,3,35,2|2|10|2,1:2|1:2|1:2|2:0,2:0:0:0:
61,230,222670,5,2,1:2:0:0:
142,252,222820,2,0,P|141:200|120:165,1,70,10|2,2:0|1:2,2:0:0:0:
82,117,223120,1,10,1:2:0:0:
1,139,223270,2,0,P|1:87|22:52,1,70,2|10,1:2|2:0,2:0:0:0:
79,27,223570,2,0,L|125:20,3,35,2|2|10|2,1:2|1:2|1:2|2:0,2:0:0:0:
155,27,223870,54,0,L|161:103,2,70,2|10|2,1:2|2:0|1:2,2:0:0:0:
238,57,224320,2,0,L|232:133,2,70,10|2|10,1:2|1:2|2:0,2:0:0:0:
307,8,224770,1,2,1:2:0:0:
307,8,224845,1,2,1:2:0:0:
307,8,224920,1,10,1:2:0:0:
382,44,225070,6,0,P|391:91|386:124,1,70,2|10,1:2|2:0,2:0:0:0:
319,160,225370,2,0,P|310:113|315:80,1,70,2|10,1:2|1:2,2:0:0:0:
388,112,225670,1,2,1:2:0:0:
437,180,225820,1,10,2:0:0:0:
373,234,225970,1,2,1:2:0:0:
373,234,226045,1,2,1:2:0:0:
373,234,226120,1,10,1:2:0:0:
383,317,226270,6,0,P|317:297|287:236,1,140,6|8,1:2|2:0,2:0:0:0:
234,170,226720,1,8,2:0:0:0:
172,227,226870,2,0,L|164:283,3,35,0|0|0|0,1:0|3:0|3:0|3:0,2:0:0:0:
125,254,227170,2,0,L|117:310,3,35,0|0|0|0,1:0|3:0|3:0|3:0,2:0:0:0:
79,300,227470,6,0,B|66:252|66:252|73:212,1,70,0|0,1:0|3:0,2:0:0:0:
120,164,227770,2,0,B|133:116|133:116|126:76,1,70,0|0,1:0|3:0,2:0:0:0:
129,97,227995,1,0,3:0:0:0:
129,97,228070,1,8,2:0:0:0:
453,10,228670,54,0,L|460:96,1,70,10|2,3:2|3:2,2:0:0:0:
378,122,228970,2,0,L|383:52,1,70,2|2,3:2|2:0,2:0:0:0:
447,171,229270,2,0,P|398:201|344:197,2,105,10|2|2,2:0|3:2|3:2,2:0:0:0:
300,134,229870,6,0,P|274:184|321:279,1,140,6|0,1:2|2:0,2:0:0:0:
359,347,230320,1,0,1:0:0:0:
359,347,230395,1,0,1:0:0:0:
359,347,230470,22,0,B|334:374|334:374|317:348|317:348|306:371|306:371|290:352|290:352|279:369|279:369|266:358|266:358|258:368|258:368|246:361|246:361|238:368|238:368|232:365|232:365|226:369|226:369|133:369,1,280,14|0,1:2|3:0,2:0:0:0:
