osu file format v14

[General]
AudioFilename: audio.mp3
AudioLeadIn: 0
PreviewTime: 53395
Countdown: 0
SampleSet: Soft
StackLeniency: 0.4
Mode: 0
LetterboxInBreaks: 0
WidescreenStoryboard: 1

[Editor]
Bookmarks: 812,822,10412,22412,32012,41612,51212,56012,71612,72812,84812,94412,104012,113612,118412,134012,135212,137612,147212,156812,161612,166412,171212,184412,185612,188012,190412,206012,207212,216812,220787,221612,225212,226412,228812,231212
DistanceSpacing: 0.9
BeatDivisor: 4
GridSize: 16
TimelineZoom: 2.5

[Metadata]
Title:Judgment Day Has Come
TitleUnicode:Judgment Day Has Come
Artist:IOSYS feat. Nanahira
ArtistUnicode:IOSYS feat. ななひら
Creator:-Tynamo
Version:Celestial Judgment
Source:東方緋想天 ~ Scarlet Weather Rhapsody.
Tags:Minami 有頂天変 ~ Wonderful Heaven BarkingMadDog bmd Bibbity Bill judgement tenshi hinanawi theme japanese power metal zun 上海アリス幻樂団 Yoshimi Youno 東方極楽湯界─イオシス東方コンピレーション vol.24 夕野ヨシミ Confetto team shanghai alice star stream star_stream touhou project 10.5 th10.5 Catastrophe in Bhavaagra Hisouten rock video game Hakurei Shrine Autumn Reitaisai 3 xidorn 比那名居 天子 東方project イオシス
BeatmapID:2405863
BeatmapSetID:1152650

[Difficulty]
HPDrainRate:5
CircleSize:4.2
OverallDifficulty:9.6
ApproachRate:9.7
SliderMultiplier:1.8
SliderTickRate:1

[Events]
//Background and Video events
0,0,"judgementday.jpg",0,0
//Break Periods
//Storyboard Layer 0 (Background)
//Storyboard Layer 1 (Fail)
//Storyboard Layer 2 (Pass)
//Storyboard Layer 3 (Foreground)
//Storyboard Layer 4 (Overlay)
//Storyboard Sound Samples

[TimingPoints]
670,300,4,2,1,40,1,0
820,-100,4,2,0,60,0,0
970,-100,4,2,1,40,0,0
2020,-100,4,2,0,60,0,0
2170,-100,4,2,1,40,0,0
3220,-100,4,2,0,60,0,0
3370,-100,4,2,1,40,0,0
4270,-133.333333333333,4,2,1,40,0,0
5395,-133.333333333333,4,2,0,5,0,0
5470,-133.333333333333,4,2,1,40,0,0
5620,-133.333333333333,4,2,0,60,0,0
5770,-133.333333333333,4,2,1,40,0,0
6595,-133.333333333333,4,2,0,5,0,0
6670,-133.333333333333,4,2,1,40,0,0
6820,-133.333333333333,4,2,0,60,0,0
6970,-133.333333333333,4,2,1,40,0,0
8020,-133.333333333333,4,2,0,60,0,0
8170,-133.333333333333,4,2,1,40,0,0
8995,-133.333333333333,4,2,0,5,0,0
9070,-66.6666666666667,4,2,1,40,0,0
9295,-66.6666666666667,4,2,0,5,0,0
9370,-66.6666666666667,4,2,1,40,0,0
9595,-66.6666666666667,4,2,0,5,0,0
9670,-66.6666666666667,4,2,1,40,0,0
9745,-66.6666666666667,4,2,0,60,0,0
10270,-66.6666666666667,4,2,1,50,0,0
11620,-100,4,2,1,50,0,0
11695,-100,4,2,0,60,0,0
11770,-100,4,2,1,50,0,0
12145,-100,4,2,0,60,0,0
12220,-100,4,2,1,50,0,0
12745,-100,4,2,0,60,0,0
12820,-100,4,2,1,50,0,0
13195,-100,4,2,0,60,0,0
13270,-100,4,2,1,50,0,0
15295,-100,4,2,0,60,0,0
15370,-100,4,2,1,50,0,0
15745,-100,4,2,0,60,0,0
15820,-100,4,2,1,50,0,0
16495,-100,4,2,0,60,0,0
16570,-100,4,2,1,50,0,0
17995,-100,4,2,0,60,0,0
18070,-100,4,2,1,50,0,0
18745,-100,4,2,0,60,0,0
18820,-100,4,2,1,50,0,0
19195,-100,4,2,0,60,0,0
19270,-100,4,2,1,50,0,0
19870,-66.6666666666667,4,2,1,50,0,0
20470,-66.6666666666667,4,2,2,50,0,0
20545,-66.6666666666667,4,2,1,50,0,0
20770,-66.6666666666667,4,2,3,50,0,0
20845,-66.6666666666667,4,2,2,50,0,0
21070,-66.6666666666667,4,2,4,50,0,0
21145,-66.6666666666667,4,2,3,50,0,0
21370,-66.6666666666667,4,2,5,50,0,0
21445,-66.6666666666667,4,2,4,50,0,0
21670,-66.6666666666667,4,2,1,50,0,0
22270,-66.6666666666667,4,2,1,60,0,0
22420,-66.6666666666667,4,2,2,60,0,0
22570,-66.6666666666667,4,2,1,60,0,0
22720,-66.6666666666667,4,2,6,60,0,0
22870,-66.6666666666667,4,2,1,60,0,0
23020,-66.6666666666667,4,2,2,60,0,0
23170,-66.6666666666667,4,2,6,60,0,0
23320,-100,4,2,6,60,0,0
23470,-100,4,2,1,60,0,0
23620,-100,4,2,3,60,0,0
23770,-100,4,2,7,60,0,0
24220,-100,4,2,3,60,0,0
24370,-100,4,2,6,60,0,0
24670,-100,4,2,1,60,0,0
24820,-100,4,2,3,60,0,0
24970,-100,4,2,1,60,0,0
25120,-100,4,2,7,60,0,0
25270,-100,4,2,1,60,0,0
25420,-100,4,2,3,60,0,0
25570,-100,4,2,7,60,0,0
26020,-100,4,2,3,60,0,0
26170,-100,4,2,6,60,0,0
27220,-100,4,2,2,60,0,0
27370,-100,4,2,1,60,0,0
27520,-100,4,2,6,60,0,0
27670,-100,4,2,1,60,0,0
27820,-100,4,2,2,60,0,0
27970,-100,4,2,6,60,0,0
28270,-100,4,2,1,60,0,0
28420,-100,4,2,3,60,0,0
28570,-100,4,2,7,60,0,0
28720,-100,4,2,11,60,0,0
29020,-100,4,2,3,60,0,0
29170,-100,4,2,6,60,0,0
29470,-100,4,2,1,60,0,0
29620,-100,4,2,3,60,0,0
29770,-100,4,2,1,60,0,0
29920,-100,4,2,7,60,0,0
30070,-100,4,2,1,60,0,0
30220,-100,4,2,3,60,0,0
30370,-100,4,2,7,60,0,0
30520,-100,4,2,11,60,0,0
30820,-100,4,2,3,60,0,0
30970,-100,4,2,6,60,0,0
31270,-100,4,2,2,60,0,0
31645,-100,4,2,1,60,0,0
31945,-100,4,2,0,60,0,0
32020,-100,4,2,2,60,0,0
32095,-100,4,2,0,60,0,0
32170,-100,4,2,1,60,0,0
32320,-100,4,2,6,60,0,0
32470,-100,4,2,1,60,0,0
32545,-100,4,2,0,60,0,0
32620,-100,4,2,2,60,0,0
32695,-100,4,2,0,60,0,0
32770,-100,4,2,10,60,0,0
33070,-100,4,2,1,60,0,0
33145,-100,4,2,0,60,0,0
33220,-100,4,2,3,60,0,0
33295,-100,4,2,0,60,0,0
33370,-100,4,2,11,60,0,0
33820,-100,4,2,3,60,0,0
33895,-100,4,2,0,60,0,0
33970,-100,4,2,10,60,0,0
34270,-100,4,2,1,60,0,0
34420,-100,4,2,3,60,0,0
34570,-100,4,2,1,60,0,0
34720,-100,4,2,7,60,0,0
34870,-100,4,2,1,60,0,0
35020,-100,4,2,3,60,0,0
35170,-100,4,2,1,60,0,0
35245,-100,4,2,4,60,0,0
35320,-100,4,2,7,60,0,0
35470,-100,4,2,11,60,0,0
35620,-100,4,2,3,60,0,0
35770,-100,4,2,10,60,0,0
36370,-66.6666666666667,4,2,10,60,0,0
36595,-66.6666666666667,4,2,6,5,0,0
36670,-100,4,2,6,60,0,0
36820,-100,4,2,2,60,0,0
36895,-100,4,2,0,60,0,0
36970,-100,4,2,6,60,0,0
37270,-100,4,2,1,60,0,0
37345,-100,4,2,0,60,0,0
37420,-100,4,2,3,60,0,0
37495,-100,4,2,0,60,0,0
37570,-100,4,2,10,60,0,0
37870,-100,4,2,1,60,0,0
37945,-100,4,2,0,60,0,0
38020,-100,4,2,3,60,0,0
38095,-100,4,2,0,60,0,0
38170,-100,4,2,11,60,0,0
38620,-100,4,2,3,60,0,0
38695,-100,4,2,0,60,0,0
38770,-100,4,2,10,60,0,0
39070,-100,4,2,1,60,0,0
39220,-100,4,2,3,60,0,0
39370,-100,4,2,1,60,0,0
39520,-100,4,2,6,60,0,0
39670,-100,4,2,1,60,0,0
39820,-100,4,2,3,60,0,0
39970,-100,4,2,7,60,0,0
40120,-66.6666666666667,4,2,11,60,0,0
40420,-66.6666666666667,4,2,7,5,0,0
40495,-66.6666666666667,4,2,7,60,0,0
40570,-66.6666666666667,4,2,2,60,0,0
40945,-66.6666666666667,4,2,1,60,0,0
41170,-100,4,2,3,60,0,0
41245,-100,4,2,2,60,0,0
41470,-100,4,2,1,60,0,0
50170,-100,4,2,2,60,0,0
50245,-100,4,2,1,60,0,0
50470,-133.333333333333,4,2,8,60,0,0
50545,-133.333333333333,4,2,2,60,0,0
50770,-133.333333333333,4,2,4,60,0,0
50845,-133.333333333333,4,2,3,60,0,0
51070,-133.333333333333,4,2,1,60,0,0
51220,-133.333333333333,4,2,3,60,0,0
51370,-100,4,2,6,60,0,0
51820,-100,4,2,3,60,0,0
51970,-100,4,2,1,60,0,0
52120,-100,4,2,6,60,0,0
52270,-100,4,2,1,60,0,0
52420,-100,4,2,3,60,0,0
52570,-100,4,2,6,60,0,0
52870,-100,4,2,1,60,0,0
53020,-100,4,2,3,60,0,0
53170,-100,4,2,6,60,0,0
53470,-100,4,2,1,60,0,0
53770,-100,4,2,2,60,0,0
53845,-100,4,2,1,60,0,0
54070,-100,4,2,3,60,0,0
54145,-100,4,2,2,60,0,0
54670,-100,4,2,4,60,0,0
54745,-100,4,2,3,60,0,0
54970,-100,4,2,5,60,0,0
55045,-100,4,2,4,60,0,0
55270,-500,4,2,1,60,0,0
55795,-500,4,2,0,5,0,0
55870,-500,4,2,1,80,0,1
56470,-83.3333333333333,4,2,1,80,0,1
56545,-83.3333333333333,4,2,0,60,0,1
56620,-83.3333333333333,4,2,1,80,0,1
56695,-83.3333333333333,4,2,0,60,0,1
56770,-83.3333333333333,4,2,1,80,0,1
56995,-83.3333333333333,4,2,0,60,0,1
57070,-83.3333333333333,4,2,1,80,0,1
58195,-83.3333333333333,4,2,0,60,0,1
58270,-83.3333333333333,4,2,1,80,0,1
60370,-83.3333333333333,4,2,1,80,0,0
60595,-83.3333333333333,4,2,0,60,0,0
60670,-83.3333333333333,4,2,1,80,0,1
64270,-57.1428571428571,4,2,1,80,0,0
64870,-57.1428571428571,4,2,2,80,0,0
64945,-57.1428571428571,4,2,1,80,0,0
65170,-57.1428571428571,4,2,3,80,0,0
65245,-57.1428571428571,4,2,2,80,0,0
65470,-57.1428571428571,4,2,1,80,0,1
66070,-83.3333333333333,4,2,1,80,0,1
66145,-83.3333333333333,4,2,0,60,0,1
66220,-83.3333333333333,4,2,1,80,0,1
66295,-83.3333333333333,4,2,0,60,0,1
66370,-83.3333333333333,4,2,1,80,0,1
66595,-83.3333333333333,4,2,0,60,0,1
66670,-83.3333333333333,4,2,1,80,0,1
67795,-83.3333333333333,4,2,0,60,0,1
67870,-83.3333333333333,4,2,1,80,0,1
69970,-83.3333333333333,4,2,1,80,0,0
70270,-83.3333333333333,4,2,1,80,0,1
71470,-83.3333333333333,4,2,1,60,0,0
72670,-83.3333333333333,4,2,1,50,0,0
72895,-83.3333333333333,4,2,0,60,0,0
72970,-100,4,2,1,50,0,0
73195,-100,4,2,0,60,0,0
73270,-100,4,2,1,50,0,0
73345,-100,4,2,0,60,0,0
73420,-100,4,2,1,50,0,0
73495,-100,4,2,0,60,0,0
73570,-100,4,2,1,50,0,0
74095,-100,4,2,0,60,0,0
74170,-100,4,2,1,50,0,0
74395,-100,4,2,0,60,0,0
74470,-100,4,2,1,50,0,0
75145,-100,4,2,0,60,0,0
75220,-100,4,2,1,50,0,0
75295,-100,4,2,0,60,0,0
75370,-100,4,2,1,50,0,0
75595,-100,4,2,0,60,0,0
75670,-100,4,2,1,50,0,0
75745,-100,4,2,0,60,0,0
75820,-100,4,2,1,50,0,0
77545,-100,4,2,0,60,0,0
77620,-100,4,2,1,50,0,0
77695,-100,4,2,0,60,0,0
77770,-100,4,2,1,50,0,0
77995,-100,4,2,0,60,0,0
78070,-100,4,2,1,50,0,0
78745,-100,4,2,0,60,0,0
78820,-100,4,2,1,50,0,0
78895,-100,4,2,0,60,0,0
78970,-100,4,2,1,50,0,0
79195,-100,4,2,0,60,0,0
79270,-100,4,2,1,50,0,0
79945,-100,4,2,0,60,0,0
80020,-100,4,2,1,50,0,0
80095,-100,4,2,0,60,0,0
80170,-100,4,2,1,50,0,0
80395,-100,4,2,0,60,0,0
80470,-100,4,2,1,50,0,0
81145,-100,4,2,0,60,0,0
81220,-100,4,2,1,50,0,0
81295,-100,4,2,0,60,0,0
81370,-100,4,2,1,50,0,0
81595,-100,4,2,0,60,0,0
81670,-100,4,2,1,50,0,0
82270,-66.6666666666667,4,2,1,50,0,0
82870,-66.6666666666667,4,2,2,50,0,0
82945,-66.6666666666667,4,2,1,50,0,0
83170,-66.6666666666667,4,2,3,50,0,0
83245,-66.6666666666667,4,2,2,50,0,0
83470,-66.6666666666667,4,2,4,50,0,0
83545,-66.6666666666667,4,2,3,50,0,0
83770,-66.6666666666667,4,2,5,50,0,0
83845,-66.6666666666667,4,2,4,50,0,0
84070,-66.6666666666667,4,2,1,50,0,0
84670,-100,4,2,6,60,0,0
84820,-100,4,2,1,60,0,0
84970,-100,4,2,7,60,0,0
85420,-100,4,2,1,60,0,0
85570,-100,4,2,6,60,0,0
85870,-100,4,2,7,60,0,0
86170,-100,4,2,6,60,0,0
86320,-100,4,2,1,60,0,0
86470,-100,4,2,6,60,0,0
87070,-100,4,2,7,60,0,0
87520,-100,4,2,1,60,0,0
87670,-100,4,2,7,60,0,0
87970,-100,4,2,6,60,0,0
88120,-100,4,2,1,60,0,0
88570,-100,4,2,6,60,0,0
89620,-100,4,2,1,60,0,0
89770,-100,4,2,7,60,0,0
90220,-100,4,2,1,60,0,0
90370,-100,4,2,6,60,0,0
90670,-100,4,2,7,60,0,0
90970,-100,4,2,6,60,0,0
91120,-100,4,2,1,60,0,0
91270,-100,4,2,6,60,0,0
91870,-100,4,2,7,60,0,0
92470,-100,4,2,1,60,0,0
92920,-76.9230769230769,4,2,1,60,0,0
93670,-76.9230769230769,4,2,2,60,0,0
93745,-76.9230769230769,4,2,1,60,0,0
93970,-76.9230769230769,4,2,3,60,0,0
94045,-76.9230769230769,4,2,2,60,0,0
94270,-100,4,2,1,60,0,0
94345,-100,4,2,0,60,0,0
94420,-100,4,2,2,60,0,0
94495,-100,4,2,0,60,0,0
94570,-100,4,2,1,60,0,0
94720,-100,4,2,6,60,0,0
94870,-100,4,2,1,60,0,0
94945,-100,4,2,0,60,0,0
95020,-100,4,2,2,60,0,0
95095,-100,4,2,0,60,0,0
95170,-100,4,2,10,60,0,0
95470,-100,4,2,1,60,0,0
95545,-100,4,2,0,60,0,0
95620,-100,4,2,3,60,0,0
95695,-100,4,2,0,60,0,0
95770,-100,4,2,11,60,0,0
96220,-100,4,2,3,60,0,0
96295,-100,4,2,0,60,0,0
96370,-100,4,2,10,60,0,0
96670,-100,4,2,1,60,0,0
96820,-100,4,2,3,60,0,0
96970,-100,4,2,1,60,0,0
97120,-100,4,2,7,60,0,0
97270,-100,4,2,1,60,0,0
97420,-100,4,2,3,60,0,0
97570,-100,4,2,7,60,0,0
97720,-100,4,2,11,60,0,0
97870,-80,4,2,11,60,0,0
98020,-80,4,2,3,60,0,0
98095,-100,4,2,7,5,0,0
98170,-100,4,2,10,60,0,0
98770,-66.6666666666667,4,2,10,60,0,0
98995,-66.6666666666667,4,2,6,5,0,0
99070,-100,4,2,6,60,0,0
99220,-100,4,2,2,60,0,0
99295,-100,4,2,0,60,0,0
99370,-100,4,2,1,60,0,0
99520,-100,4,2,6,60,0,0
99670,-100,4,2,1,60,0,0
99745,-100,4,2,0,60,0,0
99820,-100,4,2,2,60,0,0
99895,-100,4,2,0,60,0,0
99970,-100,4,2,10,60,0,0
100270,-100,4,2,1,60,0,0
100345,-100,4,2,0,60,0,0
100420,-100,4,2,3,60,0,0
100495,-100,4,2,0,60,0,0
100570,-100,4,2,11,60,0,0
101020,-100,4,2,3,60,0,0
101095,-100,4,2,0,60,0,0
101170,-100,4,2,10,60,0,0
101470,-100,4,2,1,60,0,0
101620,-100,4,2,3,60,0,0
101770,-100,4,2,1,60,0,0
101920,-100,4,2,7,60,0,0
102070,-100,4,2,1,60,0,0
102220,-100,4,2,3,60,0,0
102370,-100,4,2,7,60,0,0
102520,-66.6666666666667,4,2,11,60,0,0
102820,-66.6666666666667,4,2,7,5,0,0
102895,-66.6666666666667,4,2,7,60,0,0
102970,-66.6666666666667,4,2,2,60,0,0
103345,-66.6666666666667,4,2,1,60,0,0
103570,-100,4,2,3,60,0,0
103645,-100,4,2,2,60,0,0
103870,-100,4,2,1,60,0,0
112570,-100,4,2,2,60,0,0
112645,-100,4,2,1,60,0,0
112870,-100,4,2,8,60,0,0
113020,-100,4,2,2,60,0,0
113170,-100,4,2,4,60,0,0
113320,-100,4,2,3,60,0,0
113470,-100,4,2,1,60,0,0
113620,-100,4,2,3,60,0,0
113770,-100,4,2,6,60,0,0
114220,-100,4,2,3,60,0,0
114370,-100,4,2,1,60,0,0
114520,-100,4,2,6,60,0,0
114670,-100,4,2,1,60,0,0
114820,-100,4,2,3,60,0,0
114970,-100,4,2,6,60,0,0
115270,-100,4,2,1,60,0,0
115420,-100,4,2,3,60,0,0
115570,-100,4,2,6,60,0,0
115870,-100,4,2,1,60,0,0
116170,-100,4,2,2,60,0,0
116245,-100,4,2,1,60,0,0
116470,-100,4,2,3,60,0,0
116545,-100,4,2,2,60,0,0
117070,-100,4,2,4,60,0,0
117145,-100,4,2,3,60,0,0
117370,-100,4,2,5,60,0,0
117445,-100,4,2,4,60,0,0
117670,-500,4,2,1,60,0,0
118195,-500,4,2,0,5,0,0
118270,-500,4,2,1,80,0,1
118870,-83.3333333333333,4,2,1,80,0,1
118945,-83.3333333333333,4,2,0,60,0,1
119020,-83.3333333333333,4,2,1,80,0,1
119095,-83.3333333333333,4,2,0,60,0,1
119170,-83.3333333333333,4,2,1,80,0,1
119395,-83.3333333333333,4,2,0,60,0,1
119470,-83.3333333333333,4,2,1,80,0,1
120595,-83.3333333333333,4,2,0,60,0,1
120670,-83.3333333333333,4,2,1,80,0,1
122770,-83.3333333333333,4,2,1,80,0,0
122995,-83.3333333333333,4,2,0,60,0,0
123070,-83.3333333333333,4,2,1,80,0,1
126670,-57.1428571428571,4,2,1,80,0,0
127270,-57.1428571428571,4,2,2,80,0,0
127345,-57.1428571428571,4,2,1,80,0,0
127570,-57.1428571428571,4,2,3,80,0,0
127645,-57.1428571428571,4,2,2,80,0,0
127870,-57.1428571428571,4,2,1,80,0,1
128470,-83.3333333333333,4,2,1,80,0,1
128545,-83.3333333333333,4,2,0,60,0,1
128620,-83.3333333333333,4,2,1,80,0,1
128695,-83.3333333333333,4,2,0,60,0,1
128770,-83.3333333333333,4,2,1,80,0,1
128995,-83.3333333333333,4,2,0,60,0,1
129070,-83.3333333333333,4,2,1,80,0,1
130195,-83.3333333333333,4,2,0,60,0,1
130270,-83.3333333333333,4,2,1,80,0,1
132370,-83.3333333333333,4,2,1,80,0,0
132670,-83.3333333333333,4,2,1,80,0,1
133870,-83.3333333333333,4,2,1,60,0,0
135070,-100,4,2,1,50,0,0
136195,-100,4,2,0,5,0,0
136270,-100,4,2,1,50,0,0
136570,-100,4,2,12,50,0,0
136645,-100,4,2,1,50,0,0
137170,-100,4,2,13,50,0,0
137245,-100,4,2,2,50,0,0
137470,-100,4,2,1,80,0,1
137620,-100,4,2,2,80,0,1
137695,-100,4,2,1,80,0,1
137920,-100,4,2,7,80,0,1
137995,-100,4,2,1,80,0,1
138220,-100,4,2,2,80,0,1
138295,-100,4,2,1,80,0,1
138520,-100,4,2,7,80,0,1
138595,-100,4,2,1,80,0,1
138820,-100,4,2,2,80,0,1
138895,-100,4,2,1,80,0,1
139120,-100,4,2,7,80,0,1
139195,-100,4,2,1,80,0,1
139420,-100,4,2,2,80,0,1
139495,-100,4,2,1,80,0,1
139570,-66.6666666666667,4,2,1,80,0,1
139795,-66.6666666666667,4,2,0,60,0,1
139870,-66.6666666666667,4,2,1,80,0,1
140020,-66.6666666666667,4,2,2,80,0,1
140095,-66.6666666666667,4,2,1,80,0,1
140320,-66.6666666666667,4,2,7,80,0,1
140395,-66.6666666666667,4,2,1,80,0,1
140470,-76.9230769230769,4,2,1,80,0,1
140620,-76.9230769230769,4,2,2,80,0,1
140695,-76.9230769230769,4,2,1,80,0,1
140920,-76.9230769230769,4,2,7,80,0,1
140995,-76.9230769230769,4,2,1,80,0,1
141145,-76.9230769230769,4,2,0,60,0,1
141220,-76.9230769230769,4,2,3,80,0,1
141295,-76.9230769230769,4,2,1,80,0,1
141520,-76.9230769230769,4,2,7,80,0,1
141595,-76.9230769230769,4,2,7,60,0,1
141670,-76.9230769230769,4,2,1,80,0,1
141745,-76.9230769230769,4,2,0,60,0,1
141820,-76.9230769230769,4,2,3,80,0,1
141895,-62.5,4,2,1,80,0,1
142120,-76.9230769230769,4,2,7,80,0,1
142195,-76.9230769230769,4,2,7,60,0,1
142270,-76.9230769230769,4,2,1,80,0,1
142345,-76.9230769230769,4,2,0,60,0,1
142420,-76.9230769230769,4,2,3,80,0,1
142495,-76.9230769230769,4,2,1,80,0,1
142720,-76.9230769230769,4,2,7,80,0,1
142795,-76.9230769230769,4,2,7,60,0,1
142870,-76.9230769230769,4,2,7,80,0,1
142945,-76.9230769230769,4,2,1,80,0,1
143020,-76.9230769230769,4,2,3,80,0,1
143095,-76.9230769230769,4,2,0,60,0,1
143170,-66.6666666666667,4,2,1,80,0,1
143320,-66.6666666666667,4,2,6,80,0,1
143395,-66.6666666666667,4,2,1,80,0,1
143695,-66.6666666666667,4,2,0,60,0,1
143770,-76.9230769230769,4,2,1,80,0,1
143920,-76.9230769230769,4,2,7,80,0,1
143995,-76.9230769230769,4,2,7,60,0,1
144070,-66.6666666666667,4,2,1,80,0,0
144220,-66.6666666666667,4,2,2,80,0,0
144295,-66.6666666666667,4,2,1,60,0,0
144445,-66.6666666666667,4,2,7,80,0,0
144595,-66.6666666666667,4,2,7,60,0,0
144670,-66.6666666666667,4,2,1,80,0,1
144820,-66.6666666666667,4,2,2,80,0,1
144895,-66.6666666666667,4,2,1,80,0,1
145120,-66.6666666666667,4,2,7,80,0,1
145195,-66.6666666666667,4,2,1,80,0,1
145420,-66.6666666666667,4,2,2,80,0,1
145495,-66.6666666666667,4,2,1,80,0,1
145720,-66.6666666666667,4,2,7,80,0,1
145795,-66.6666666666667,4,2,1,80,0,1
146020,-66.6666666666667,4,2,2,80,0,1
146095,-66.6666666666667,4,2,1,80,0,1
146320,-66.6666666666667,4,2,7,80,0,1
146395,-66.6666666666667,4,2,1,80,0,1
146620,-66.6666666666667,4,2,2,80,0,1
146695,-66.6666666666667,4,2,1,80,0,1
146845,-66.6666666666667,4,2,1,80,0,0
146995,-66.6666666666667,4,2,0,60,0,0
147070,-66.6666666666667,4,2,1,80,0,1
147220,-66.6666666666667,4,2,2,80,0,1
147295,-66.6666666666667,4,2,1,80,0,1
147520,-66.6666666666667,4,2,7,80,0,1
147595,-66.6666666666667,4,2,1,80,0,1
147820,-66.6666666666667,4,2,2,80,0,1
147895,-66.6666666666667,4,2,1,80,0,1
148195,-66.6666666666667,4,2,0,5,0,1
148270,-76.9230769230769,4,2,1,80,0,1
148345,-76.9230769230769,4,2,0,60,0,1
148420,-76.9230769230769,4,2,2,80,0,1
148495,-76.9230769230769,4,2,1,80,0,1
148720,-76.9230769230769,4,2,7,80,0,1
148795,-76.9230769230769,4,2,1,80,0,1
148945,-76.9230769230769,4,2,0,60,0,1
149020,-76.9230769230769,4,2,2,80,0,1
149095,-76.9230769230769,4,2,1,80,0,1
149320,-76.9230769230769,4,2,7,80,0,1
149395,-76.9230769230769,4,2,7,60,0,1
149470,-76.9230769230769,4,2,1,80,0,1
149620,-76.9230769230769,4,2,2,80,0,1
149695,-76.9230769230769,4,2,1,80,0,1
149920,-76.9230769230769,4,2,7,80,0,1
149995,-76.9230769230769,4,2,1,80,0,1
150220,-76.9230769230769,4,2,2,80,0,1
150295,-76.9230769230769,4,2,1,80,0,1
150520,-76.9230769230769,4,2,7,80,0,1
150595,-76.9230769230769,4,2,1,80,0,1
150820,-76.9230769230769,4,2,2,80,0,1
150895,-76.9230769230769,4,2,1,80,0,1
151120,-76.9230769230769,4,2,7,80,0,1
151195,-76.9230769230769,4,2,1,80,0,1
151270,-66.6666666666667,4,2,1,80,0,1
151795,-66.6666666666667,4,2,6,5,0,1
151870,-66.6666666666667,4,2,1,80,0,1
152020,-66.6666666666667,4,2,2,80,0,1
152095,-66.6666666666667,4,2,1,80,0,1
152320,-66.6666666666667,4,2,7,80,0,1
152395,-66.6666666666667,4,2,1,80,0,1
152620,-76.9230769230769,4,2,2,80,0,1
152695,-76.9230769230769,4,2,1,80,0,1
152920,-76.9230769230769,4,2,7,80,0,1
152995,-76.9230769230769,4,2,1,80,0,1
153220,-76.9230769230769,4,2,2,80,0,1
153295,-76.9230769230769,4,2,1,80,0,1
153520,-76.9230769230769,4,2,7,80,0,1
153595,-76.9230769230769,4,2,1,80,0,1
153820,-76.9230769230769,4,2,2,80,0,1
153895,-76.9230769230769,4,2,1,80,0,1
153970,-66.6666666666667,4,2,1,80,0,1
154120,-66.6666666666667,4,2,7,80,0,1
154195,-66.6666666666667,4,2,1,80,0,1
154795,-66.6666666666667,4,2,0,5,0,1
154870,-66.6666666666667,4,2,1,80,0,1
155020,-66.6666666666667,4,2,2,80,0,1
155095,-66.6666666666667,4,2,1,80,0,1
155320,-66.6666666666667,4,2,7,80,0,1
155395,-66.6666666666667,4,2,1,80,0,1
155470,-66.6666666666667,4,2,1,80,0,0
155770,-76.9230769230769,4,2,9,80,0,0
155845,-76.9230769230769,4,2,1,80,0,0
156070,-90.9090909090909,4,2,8,80,0,0
156145,-90.9090909090909,4,2,5,80,0,0
156370,-111.111111111111,4,2,4,80,0,0
156445,-111.111111111111,4,2,8,80,0,0
156670,-111.111111111111,4,2,1,80,0,0
156820,-111.111111111111,4,2,3,80,0,0
156970,-76.9230769230769,4,2,6,80,0,0
157420,-76.9230769230769,4,2,2,80,0,0
157570,-76.9230769230769,4,2,7,80,0,0
157870,-76.9230769230769,4,2,1,80,0,0
158020,-76.9230769230769,4,2,3,80,0,0
158095,-76.9230769230769,4,2,1,80,0,0
158320,-76.9230769230769,4,2,7,80,0,0
158395,-76.9230769230769,4,2,7,60,0,0
158470,-76.9230769230769,4,2,1,80,0,0
158620,-76.9230769230769,4,2,3,80,0,0
158770,-76.9230769230769,4,2,6,80,0,0
159070,-76.9230769230769,4,2,1,80,0,0
159220,-76.9230769230769,4,2,3,80,0,0
159295,-76.9230769230769,4,2,1,80,0,0
159520,-76.9230769230769,4,2,7,80,0,0
159595,-76.9230769230769,4,2,7,60,0,0
159670,-76.9230769230769,4,2,1,80,0,0
159820,-76.9230769230769,4,2,3,80,0,0
159895,-76.9230769230769,4,2,1,80,0,0
160120,-76.9230769230769,4,2,7,80,0,0
160195,-76.9230769230769,4,2,7,60,0,0
160270,-76.9230769230769,4,2,1,80,0,0
160420,-76.9230769230769,4,2,3,80,0,0
160570,-76.9230769230769,4,2,7,80,0,0
161020,-76.9230769230769,4,2,3,80,0,0
161170,-76.9230769230769,4,2,6,80,0,0
161395,-76.9230769230769,4,2,6,60,0,0
161470,-76.9230769230769,4,2,1,80,0,1
165070,-76.9230769230769,4,2,1,80,0,0
165220,-71.4285714285714,4,2,1,80,0,0
165445,-71.4285714285714,4,2,1,5,0,0
165520,-71.4285714285714,4,2,1,80,0,0
165670,-76.9230769230769,4,2,13,80,0,0
165745,-76.9230769230769,4,2,2,80,0,0
166270,-76.9230769230769,4,2,1,80,0,0
166420,-76.9230769230769,4,2,3,80,0,0
166570,-76.9230769230769,4,2,6,80,0,0
167020,-76.9230769230769,4,2,2,80,0,0
167170,-76.9230769230769,4,2,7,80,0,0
167470,-76.9230769230769,4,2,1,80,0,0
167620,-76.9230769230769,4,2,3,80,0,0
167695,-76.9230769230769,4,2,1,80,0,0
167920,-76.9230769230769,4,2,7,80,0,0
167995,-76.9230769230769,4,2,7,60,0,0
168070,-76.9230769230769,4,2,1,80,0,0
168220,-76.9230769230769,4,2,3,80,0,0
168295,-76.9230769230769,4,2,1,80,0,0
168520,-76.9230769230769,4,2,7,80,0,0
168595,-76.9230769230769,4,2,7,60,0,0
168670,-76.9230769230769,4,2,1,80,0,0
168820,-76.9230769230769,4,2,3,80,0,0
168970,-76.9230769230769,4,2,7,80,0,0
169270,-76.9230769230769,4,2,11,80,0,0
169420,-76.9230769230769,4,2,3,80,0,0
169570,-76.9230769230769,4,2,7,80,0,0
169795,-76.9230769230769,4,2,7,60,0,0
169870,-76.9230769230769,4,2,1,80,0,0
170020,-76.9230769230769,4,2,3,80,0,0
170170,-76.9230769230769,4,2,7,80,0,0
170320,-76.9230769230769,4,2,11,80,0,0
170620,-76.9230769230769,4,2,3,80,0,0
170770,-76.9230769230769,4,2,6,80,0,0
171070,-76.9230769230769,4,2,1,80,0,1
171970,-58.8235294117647,4,2,1,80,0,1
172195,-58.8235294117647,4,2,1,5,0,1
172270,-58.8235294117647,4,2,1,80,0,1
174595,-58.8235294117647,4,2,1,80,0,0
174670,-58.8235294117647,4,2,1,80,0,1
174970,-58.8235294117647,4,2,2,80,0,1
175045,-58.8235294117647,4,2,2,5,0,1
175120,-58.8235294117647,4,2,1,80,0,1
175195,-58.8235294117647,4,2,1,5,0,1
175270,-58.8235294117647,4,2,13,80,0,1
175345,-58.8235294117647,4,2,3,5,0,1
175420,-58.8235294117647,4,2,2,80,0,1
175495,-58.8235294117647,4,2,2,5,0,1
175570,-58.8235294117647,4,2,4,80,0,1
175645,-58.8235294117647,4,2,2,5,0,1
175720,-58.8235294117647,4,2,3,80,0,1
175795,-58.8235294117647,4,2,3,5,0,1
175870,-166.666666666667,4,2,1,50,0,0
175945,-166.666666666667,4,2,1,30,0,0
178120,-166.666666666667,4,2,1,5,0,0
178270,-166.666666666667,4,2,1,50,0,0
178345,-166.666666666667,4,2,1,30,0,0
180520,-166.666666666667,4,2,1,5,0,0
180670,-166.666666666667,4,2,1,50,0,0
180745,-166.666666666667,4,2,1,30,0,0
181570,-166.666666666667,4,2,0,5,0,0
181870,-166.666666666667,4,2,1,50,0,0
181945,-166.666666666667,4,2,1,30,0,0
182770,-166.666666666667,4,2,0,5,0,0
183070,-166.666666666667,4,2,1,50,0,0
183145,-166.666666666667,4,2,1,30,0,0
184270,-166.666666666667,4,2,1,60,0,0
184570,-100,4,2,2,60,0,0
184645,-100,4,2,1,60,0,0
184870,-100,4,2,8,60,0,0
184945,-100,4,2,2,60,0,0
185170,-100,4,2,4,60,0,0
185245,-100,4,2,3,60,0,0
185470,-100,4,2,1,60,0,0
185620,-100,4,2,3,60,0,0
185770,-100,4,2,6,60,0,0
186220,-100,4,2,3,60,0,0
186370,-100,4,2,1,60,0,0
186520,-100,4,2,6,60,0,0
186670,-100,4,2,1,60,0,0
186820,-100,4,2,3,60,0,0
186970,-100,4,2,6,60,0,0
187270,-100,4,2,1,60,0,0
187420,-100,4,2,3,60,0,0
187570,-100,4,2,6,60,0,0
187870,-100,4,2,1,60,0,0
188170,-133.333333333333,4,2,2,60,0,0
188245,-133.333333333333,4,2,1,60,0,0
188470,-133.333333333333,4,2,3,60,0,0
188545,-133.333333333333,4,2,2,60,0,0
189070,-133.333333333333,4,2,4,60,0,0
189220,-133.333333333333,4,2,3,60,0,0
189370,-133.333333333333,4,2,5,60,0,0
189520,-133.333333333333,4,2,4,60,0,0
189670,-133.333333333333,4,2,1,60,0,0
190270,-133.333333333333,4,2,1,80,0,1
190870,-76.9230769230769,4,2,1,80,0,1
190945,-76.9230769230769,4,2,0,60,0,1
191020,-76.9230769230769,4,2,1,80,0,1
191095,-76.9230769230769,4,2,0,60,0,1
191170,-76.9230769230769,4,2,1,80,0,1
191395,-76.9230769230769,4,2,0,60,0,1
191470,-76.9230769230769,4,2,1,80,0,1
192595,-76.9230769230769,4,2,0,60,0,1
192670,-76.9230769230769,4,2,1,80,0,1
194770,-76.9230769230769,4,2,1,80,0,0
194995,-76.9230769230769,4,2,0,60,0,0
195070,-76.9230769230769,4,2,1,80,0,1
198670,-54.054054054054,4,2,1,80,0,0
199270,-54.054054054054,4,2,2,80,0,0
199345,-54.054054054054,4,2,1,80,0,0
199570,-54.054054054054,4,2,3,80,0,0
199645,-54.054054054054,4,2,2,80,0,0
199870,-54.054054054054,4,2,1,80,0,1
200470,-76.9230769230769,4,2,1,80,0,1
200545,-76.9230769230769,4,2,0,60,0,1
200620,-76.9230769230769,4,2,1,80,0,1
200695,-76.9230769230769,4,2,0,60,0,1
200770,-76.9230769230769,4,2,1,80,0,1
200995,-76.9230769230769,4,2,0,60,0,1
201070,-76.9230769230769,4,2,1,80,0,1
202195,-76.9230769230769,4,2,0,60,0,1
202270,-76.9230769230769,4,2,1,80,0,1
204370,-76.9230769230769,4,2,1,80,0,0
204670,-76.9230769230769,4,2,1,80,0,1
205870,-76.9230769230769,4,2,1,60,0,0
207070,-76.9230769230769,4,2,1,50,0,0
207295,-76.9230769230769,4,2,0,60,0,0
207370,-100,4,2,1,50,0,0
207595,-100,4,2,0,60,0,0
207670,-100,4,2,1,50,0,0
207745,-100,4,2,0,60,0,0
207820,-100,4,2,1,50,0,0
207895,-100,4,2,0,60,0,0
207970,-100,4,2,1,50,0,0
208495,-100,4,2,0,60,0,0
208570,-100,4,2,1,50,0,0
208795,-100,4,2,0,60,0,0
208870,-100,4,2,1,50,0,0
209545,-100,4,2,0,60,0,0
209620,-100,4,2,1,50,0,0
209695,-100,4,2,0,60,0,0
209770,-100,4,2,1,50,0,0
209995,-100,4,2,0,60,0,0
210070,-100,4,2,1,50,0,0
210145,-100,4,2,0,60,0,0
210220,-100,4,2,1,50,0,0
211945,-100,4,2,0,60,0,0
212020,-100,4,2,1,50,0,0
212095,-100,4,2,0,60,0,0
212170,-100,4,2,1,50,0,0
212320,-90.9090909090909,4,2,1,50,0,0
212395,-90.9090909090909,4,2,0,60,0,0
212470,-90.9090909090909,4,2,1,50,0,0
213145,-90.9090909090909,4,2,0,60,0,0
213220,-90.9090909090909,4,2,1,50,0,0
213295,-90.9090909090909,4,2,0,60,0,0
213370,-90.9090909090909,4,2,1,50,0,0
213595,-90.9090909090909,4,2,0,60,0,0
213670,-90.9090909090909,4,2,1,50,0,0
214345,-90.9090909090909,4,2,0,60,0,0
214420,-90.9090909090909,4,2,1,50,0,0
214495,-90.9090909090909,4,2,0,60,0,0
214570,-90.9090909090909,4,2,1,50,0,0
214795,-90.9090909090909,4,2,0,60,0,0
214870,-90.9090909090909,4,2,1,50,0,0
215545,-90.9090909090909,4,2,0,60,0,0
215620,-90.9090909090909,4,2,1,50,0,0
215695,-90.9090909090909,4,2,0,60,0,0
215770,-90.9090909090909,4,2,1,50,0,0
215995,-90.9090909090909,4,2,0,60,0,0
216070,-90.9090909090909,4,2,1,50,0,0
216670,-83.3333333333333,4,2,1,50,0,0
216745,-83.3333333333333,4,2,0,60,0,0
216820,-83.3333333333333,4,2,1,50,0,0
216895,-83.3333333333333,4,2,0,60,0,0
216970,-83.3333333333333,4,2,1,50,0,0
217195,-83.3333333333333,4,2,0,60,0,0
217270,-83.3333333333333,4,2,1,50,0,0
217945,-83.3333333333333,4,2,0,60,0,0
218020,-83.3333333333333,4,2,1,50,0,0
218095,-83.3333333333333,4,2,0,60,0,0
218170,-83.3333333333333,4,2,1,50,0,0
218395,-83.3333333333333,4,2,0,60,0,0
218470,-83.3333333333333,4,2,1,50,0,0
218545,-83.3333333333333,4,2,0,60,0,0
218620,-83.3333333333333,4,2,1,50,0,0
218695,-83.3333333333333,4,2,0,60,0,0
218770,-83.3333333333333,4,2,1,50,0,0
219520,-76.9230769230769,4,2,1,50,0,0
219595,-76.9230769230769,4,2,0,60,0,0
219670,-76.9230769230769,4,2,1,50,0,0
221170,-62.5,4,2,1,50,0,0
221470,-62.5,4,2,1,70,0,1
221695,-62.5,4,2,0,70,0,1
221770,-66.6666666666667,4,2,1,70,0,1
221995,-66.6666666666667,4,2,0,70,0,1
222070,-66.6666666666667,4,2,1,70,0,1
222145,-66.6666666666667,4,2,0,70,0,1
222220,-66.6666666666667,4,2,1,70,0,1
222295,-66.6666666666667,4,2,0,70,0,1
222370,-66.6666666666667,4,2,1,70,0,1
222670,-62.5,4,2,1,70,0,1
222745,-62.5,4,2,0,70,0,1
222820,-62.5,4,2,1,70,0,1
222895,-62.5,4,2,0,70,0,1
222970,-62.5,4,2,1,70,0,1
223345,-62.5,4,2,0,70,0,1
223420,-62.5,4,2,1,70,0,1
223495,-62.5,4,2,0,70,0,1
223570,-62.5,4,2,1,70,0,1
223870,-55.5555555555556,4,2,1,70,0,1
223945,-55.5555555555556,4,2,0,70,0,1
224020,-55.5555555555556,4,2,1,70,0,1
224095,-55.5555555555556,4,2,0,70,0,1
224170,-55.5555555555556,4,2,1,70,0,1
224395,-55.5555555555556,4,2,0,70,0,1
224470,-55.5555555555556,4,2,1,70,0,1
224545,-55.5555555555556,4,2,0,70,0,1
224620,-55.5555555555556,4,2,1,70,0,1
225145,-55.5555555555556,4,2,0,70,0,1
225220,-55.5555555555556,4,2,1,70,0,1
225295,-55.5555555555556,4,2,0,70,0,1
225370,-45.4545454545455,4,2,1,70,0,1
225595,-45.4545454545455,4,2,0,70,0,1
225670,-40,4,2,1,70,0,1
225745,-40,4,2,0,70,0,1
225820,-40,4,2,1,70,0,1
225895,-40,4,2,0,70,0,1
225970,-50,4,2,1,70,0,1
226270,-57.1428571428571,4,2,1,50,0,0
226495,-57.1428571428571,4,2,0,5,0,0
226570,-57.1428571428571,4,2,1,50,0,0
226870,-57.1428571428571,4,2,2,50,0,0
226945,-57.1428571428571,4,2,1,50,0,0
227170,-57.1428571428571,4,2,3,50,0,0
227245,-57.1428571428571,4,2,2,50,0,0
227470,-57.1428571428571,4,2,4,50,0,0
227545,-57.1428571428571,4,2,3,50,0,0
227770,-57.1428571428571,4,2,5,50,0,0
227845,-57.1428571428571,4,2,4,50,0,0
228070,-57.1428571428571,4,2,1,50,0,0
228670,-57.1428571428571,4,2,1,50,0,0
229495,-57.1428571428571,4,2,5,50,0,0
229870,-57.1428571428571,4,2,1,50,0,0
230470,-90.9090909090909,4,2,1,60,0,1
231070,-90.9090909090909,4,2,0,60,0,0

[Colours]
Combo1 : 255,79,79
Combo2 : 0,213,213
Combo3 : 47,187,240
Combo4 : 74,74,255
Combo5 : 255,106,34

[HitObjects]
404,0,670,5,14,2:0:0:0:
404,0,820,1,0,3:0:0:0:
318,118,970,1,0,1:0:0:0:
456,73,1120,1,2,1:2:0:0:
318,28,1270,1,2,2:0:0:0:
404,146,1420,1,2,1:2:0:0:
404,0,1570,1,2,1:2:0:0:
229,365,1870,5,14,2:0:0:0:
229,365,2020,1,0,3:0:0:0:
315,247,2170,1,0,1:0:0:0:
177,292,2320,1,2,1:2:0:0:
315,337,2470,1,2,2:0:0:0:
229,219,2620,1,2,1:2:0:0:
229,365,2770,1,2,1:2:0:0:
63,22,3070,5,14,2:0:0:0:
63,22,3220,1,0,3:0:0:0:
64,169,3370,1,0,1:0:0:0:
149,51,3520,1,2,1:2:0:0:
11,95,3670,1,2,2:0:0:0:
150,141,3820,1,2,1:2:0:0:
63,22,3970,1,2,1:2:0:0:
502,310,4270,38,0,B|442:264|371:304|371:304|343:276|343:276|279:318|198:279|179:196|216:135|279:116|334:136,1,506.250000000001,14|0,2:0|3:0,2:0:0:0:
299,213,5470,5,14,2:0:0:0:
299,213,5620,1,0,3:0:0:0:
213,331,5770,1,0,1:0:0:0:
351,286,5920,1,2,1:2:0:0:
213,241,6070,1,2,2:0:0:0:
299,359,6220,1,2,1:2:0:0:
299,213,6370,6,0,B|273:165|273:165|231:139,1,101.25,14|0,1:2|3:0,2:0:0:0:
144,140,6670,37,14,2:0:0:0:
144,140,6820,1,0,3:0:0:0:
190,2,6970,1,0,1:0:0:0:
233,140,7120,1,2,1:2:0:0:
118,53,7270,1,2,2:0:0:0:
262,56,7420,1,2,1:2:0:0:
144,140,7570,1,2,1:2:0:0:
52,384,7870,5,14,2:0:0:0:
52,384,8020,1,0,3:0:0:0:
138,266,8170,1,0,1:0:0:0:
0,311,8320,1,2,1:2:0:0:
138,356,8470,1,2,2:0:0:0:
52,238,8620,1,2,1:2:0:0:
50,384,8770,6,0,B|90:349|90:349|138:356,1,101.25,14|0,1:2|3:0,2:0:0:0:
138,266,9070,38,0,B|162:217|163:169|163:169|209:166|259:141,1,202.5,14|0,2:0|3:0,2:0:0:0:
402,278,9370,2,0,B|347:281|305:304|305:304|279:266|233:235,1,202.5,12|0,2:0|3:0,2:0:0:0:
306,79,9670,6,0,B|317:96|333:105|333:105|329:124|338:148,6,67.5,14|0|0|0|0|0|0,2:0|3:0|3:0|3:0|3:0|3:0|3:0,2:0:0:0:
105,115,10270,5,6,1:2:0:0:
121,294,10420,1,10,2:0:0:0:
268,191,10570,1,2,1:2:0:0:
268,191,10645,1,0,1:0:0:0:
268,191,10720,1,10,1:2:0:0:
61,209,10870,37,2,1:2:0:0:
208,105,11020,1,10,2:0:0:0:
224,284,11170,1,2,1:2:0:0:
266,299,11245,1,2,1:2:0:0:
310,293,11320,1,10,1:2:0:0:
347,268,11395,1,2,2:0:0:0:
368,229,11470,5,2,1:2:0:0:
333,52,11620,2,0,L|317:104,1,45,10|0,2:0|3:0,2:0:0:0:
282,224,11770,1,2,1:2:0:0:
426,109,11920,1,10,1:2:0:0:
246,111,12070,2,0,L|281:147,1,45,2|0,1:2|3:0,2:0:0:0:
378,244,12220,1,10,2:0:0:0:
332,35,12370,1,2,1:2:0:0:
287,32,12445,1,2,1:2:0:0:
242,30,12520,1,10,1:2:0:0:
197,27,12595,1,2,2:0:0:0:
152,25,12670,6,0,L|163:74,1,45,2|0,1:2|3:0,2:0:0:0:
190,201,12820,1,10,2:0:0:0:
242,30,12970,1,2,1:2:0:0:
106,175,13120,1,10,1:2:0:0:
106,175,13195,1,0,3:0:0:0:
106,175,13270,1,2,1:2:0:0:
274,112,13420,1,10,2:0:0:0:
30,124,13570,1,2,1:2:0:0:
29,146,13645,1,2,1:2:0:0:
29,168,13720,1,10,1:2:0:0:
29,190,13795,1,2,2:0:0:0:
29,212,13870,37,2,1:2:0:0:
62,241,13945,1,0,1:0:0:0:
105,251,14020,1,10,1:2:0:0:
148,240,14095,1,0,1:0:0:0:
181,210,14170,1,2,1:2:0:0:
212,178,14245,1,0,1:0:0:0:
255,167,14320,1,10,1:2:0:0:
298,180,14395,1,0,1:0:0:0:
328,212,14470,1,2,1:2:0:0:
339,256,14545,1,0,1:0:0:0:
326,298,14620,1,10,1:2:0:0:
293,328,14695,1,0,1:0:0:0:
250,338,14770,2,0,L|204:323,1,45,2|2,1:2|1:2,2:0:0:0:
105,251,14920,2,0,L|62:265,1,45,10|2,1:2|1:2,2:0:0:0:
0,384,15070,5,6,1:2:0:0:
164,309,15220,2,0,L|129:282,1,45,10|0,2:0|3:0,2:0:0:0:
17,205,15370,1,2,1:2:0:0:
17,205,15445,1,0,1:0:0:0:
17,205,15520,1,10,1:2:0:0:
181,130,15670,2,0,L|141:101,1,45,2|0,1:2|3:0,2:0:0:0:
34,26,15820,1,10,2:0:0:0:
108,189,15970,1,2,1:2:0:0:
145,213,16045,1,2,1:2:0:0:
189,218,16120,1,10,1:2:0:0:
232,204,16195,1,2,2:0:0:0:
263,172,16270,5,2,1:2:0:0:
143,340,16420,2,0,L|197:327,1,45,10|0,2:0|3:0,2:0:0:0:
341,279,16570,2,0,L|384:289,2,45,2|0|10,1:2|1:0|1:2,2:0:0:0:
145,213,16870,1,2,1:2:0:0:
266,381,17020,1,10,2:0:0:0:
263,172,17170,1,2,1:2:0:0:
294,140,17245,1,2,1:2:0:0:
337,126,17320,1,10,1:2:0:0:
381,131,17395,1,2,2:0:0:0:
418,155,17470,37,2,1:2:0:0:
257,24,17620,1,10,2:0:0:0:
348,224,17770,1,2,1:2:0:0:
432,7,17920,1,10,1:2:0:0:
432,7,17995,1,0,3:0:0:0:
432,7,18070,1,2,1:2:0:0:
226,96,18220,1,10,2:0:0:0:
447,190,18370,1,2,1:2:0:0:
449,238,18445,1,2,1:2:0:0:
429,283,18520,1,10,1:2:0:0:
390,313,18595,1,2,2:0:0:0:
342,322,18670,6,0,L|291:293,1,45,2|0,1:2|3:0,2:0:0:0:
158,222,18820,1,10,2:0:0:0:
348,224,18970,1,2,1:2:0:0:
226,96,19120,1,10,1:2:0:0:
226,96,19195,1,0,3:0:0:0:
226,96,19270,1,2,1:2:0:0:
237,275,19420,1,10,2:0:0:0:
95,131,19570,1,2,1:2:0:0:
69,168,19645,1,2,1:2:0:0:
58,211,19720,1,10,1:2:0:0:
62,255,19795,1,2,2:0:0:0:
81,296,19870,6,0,B|108:332|108:332|205:348,1,135,6|0,1:2|2:0,2:0:0:0:
268,206,20170,37,8,2:0:0:0:
294,145,20245,1,8,2:0:0:0:
352,113,20320,1,8,2:0:0:0:
417,123,20395,1,8,2:0:0:0:
462,172,20470,5,0,1:0:0:0:
458,206,20545,1,0,3:0:0:0:
454,240,20620,1,0,3:0:0:0:
449,274,20695,1,0,3:0:0:0:
478,284,20770,5,0,1:0:0:0:
480,302,20845,1,0,3:0:0:0:
482,319,20920,1,0,3:0:0:0:
485,336,20995,1,0,3:0:0:0:
450,356,21070,37,0,1:0:0:0:
433,366,21145,1,0,3:0:0:0:
407,371,21220,1,0,3:0:0:0:
375,364,21295,1,0,3:0:0:0:
347,336,21370,1,0,1:0:0:0:
330,293,21445,1,0,3:0:0:0:
296,252,21520,1,0,3:0:0:0:
243,237,21595,1,0,3:0:0:0:
188,256,21670,5,8,2:0:0:0:
188,256,22270,5,4,1:2:0:0:
95,113,22420,1,10,2:0:0:0:
42,232,22570,1,2,1:2:0:0:
51,261,22645,1,0,1:0:0:0:
61,290,22720,1,10,1:2:0:0:
248,212,22870,37,2,1:2:0:0:
155,69,23020,1,10,2:0:0:0:
102,188,23170,1,0,1:0:0:0:
111,217,23245,1,0,1:0:0:0:
121,246,23320,2,0,L|142:305,1,45,10|0,1:2|3:0,2:0:0:0:
337,256,23470,6,0,P|337:211|322:168,1,90,2|10,1:2|2:0,2:0:0:0:
156,69,23770,1,0,1:0:0:0:
156,69,23845,1,0,1:0:0:0:
155,69,23920,2,0,P|154:113|169:156,1,90,10|0,1:2|1:0,2:0:0:0:
254,299,24220,1,10,2:0:0:0:
242,98,24370,1,0,1:0:0:0:
286,92,24445,1,0,1:0:0:0:
330,86,24520,1,10,1:2:0:0:
374,78,24595,1,0,3:0:0:0:
424,69,24670,5,2,1:2:0:0:
336,156,24820,1,10,2:0:0:0:
512,157,24970,2,0,L|462:177,1,45,2|0,1:2|1:0,2:0:0:0:
268,232,25120,1,10,1:2:0:0:
512,245,25270,1,2,1:2:0:0:
424,69,25420,1,10,2:0:0:0:
384,342,25570,2,0,L|353:286,1,45,0|0,1:0|1:0,2:0:0:0:
242,98,25720,1,14,1:2:0:0:
157,256,25870,38,0,P|108:272|66:266,1,90,0|10,1:0|2:0,2:0:0:0:
11,107,26170,1,0,1:0:0:0:
11,107,26245,1,0,1:0:0:0:
11,107,26320,1,10,1:2:0:0:
180,168,26470,1,0,1:0:0:0:
217,192,26545,1,0,1:0:0:0:
238,231,26620,1,10,1:2:0:0:
241,276,26695,1,0,1:0:0:0:
222,316,26770,5,0,1:0:0:0:
244,322,26845,1,0,1:0:0:0:
266,327,26920,1,10,1:2:0:0:
288,331,26995,1,0,1:0:0:0:
310,336,27070,5,4,1:2:0:0:
413,188,27220,1,10,2:0:0:0:
475,323,27370,1,2,1:2:0:0:
469,353,27445,1,0,1:0:0:0:
463,384,27520,1,10,1:2:0:0:
222,316,27670,37,2,1:2:0:0:
325,168,27820,1,10,2:0:0:0:
387,303,27970,1,0,1:0:0:0:
381,333,28045,1,0,1:0:0:0:
375,364,28120,2,0,L|329:382,1,45,10|0,1:2|3:0,2:0:0:0:
133,292,28270,6,0,P|159:245|220:223,1,90,2|10,1:2|2:0,2:0:0:0:
408,175,28570,1,0,1:0:0:0:
408,175,28645,1,0,1:0:0:0:
408,175,28720,2,0,P|382:222|321:244,1,90,10|0,1:2|1:0,2:0:0:0:
205,134,29020,1,10,2:0:0:0:
223,313,29170,1,0,1:0:0:0:
199,351,29245,1,0,1:0:0:0:
161,374,29320,1,10,1:2:0:0:
117,377,29395,1,0,3:0:0:0:
76,360,29470,5,2,1:2:0:0:
4,202,29620,1,10,2:0:0:0:
133,292,29770,2,0,L|156:247,1,45,2|0,1:2|1:0,2:0:0:0:
205,134,29920,1,10,1:2:0:0:
41,283,30070,1,2,1:2:0:0:
67,70,30220,1,10,2:0:0:0:
169,219,30370,2,0,L|219:231,1,45,0|0,1:0|1:0,2:0:0:0:
339,70,30520,1,14,1:2:0:0:
296,272,30670,37,0,1:0:0:0:
266,101,30820,1,10,2:0:0:0:
390,280,30970,1,0,1:0:0:0:
390,280,31045,1,0,1:0:0:0:
390,280,31120,1,10,1:2:0:0:
410,102,31270,5,8,2:0:0:0:
415,57,31345,1,8,2:0:0:0:
400,24,31420,1,8,2:0:0:0:
378,7,31495,1,8,2:0:0:0:
360,1,31570,1,0,1:0:0:0:
342,0,31645,1,0,3:0:0:0:
328,0,31720,1,0,3:0:0:0:
319,2,31795,1,0,3:0:0:0:
310,6,31870,6,0,P|288:20|271:39,1,45,6|0,1:2|3:0,2:0:0:0:
217,170,32020,1,10,2:0:0:0:
183,199,32095,1,0,3:0:0:0:
140,209,32170,1,2,1:2:0:0:
97,197,32245,1,0,1:0:0:0:
66,165,32320,1,10,1:2:0:0:
53,122,32395,1,0,3:0:0:0:
63,79,32470,2,0,P|85:58|108:47,1,45,2|0,1:2|3:0,2:0:0:0:
249,91,32620,1,10,2:0:0:0:
291,117,32695,1,0,3:0:0:0:
308,164,32770,2,0,P|305:194|300:217,1,45,2|0,1:2|1:0,2:0:0:0:
263,333,32920,2,0,P|244:320|227:305,1,45,10|0,1:2|3:0,2:0:0:0:
139,209,33070,38,0,P|160:199|181:191,1,45,2|0,1:2|3:0,2:0:0:0:
336,287,33220,1,10,2:0:0:0:
370,316,33295,1,0,3:0:0:0:
413,326,33370,1,0,1:0:0:0:
456,314,33445,1,0,1:0:0:0:
487,282,33520,1,10,1:2:0:0:
500,239,33595,1,0,3:0:0:0:
490,196,33670,2,0,P|468:175|445:164,1,45,2|0,1:2|3:0,2:0:0:0:
303,209,33820,1,10,2:0:0:0:
261,235,33895,1,0,3:0:0:0:
244,282,33970,2,0,P|247:312|252:335,1,45,2|0,1:2|1:0,2:0:0:0:
407,240,34120,2,0,P|404:210|399:187,1,45,10|0,1:2|3:0,2:0:0:0:
217,170,34270,5,2,1:2:0:0:
378,88,34420,1,10,2:0:0:0:
336,287,34570,2,0,L|316:233,1,45,2|0,1:2|1:0,2:0:0:0:
248,94,34720,1,10,1:2:0:0:
172,275,34870,1,2,1:2:0:0:
317,141,35020,1,10,2:0:0:0:
129,131,35170,2,0,L|174:163,1,45,0|0,1:0|1:0,2:0:0:0:
250,214,35320,1,14,1:2:0:0:
37,295,35470,6,0,B|26:271|32:251|32:251|43:228|27:197,1,90,2|10,1:2|2:0,2:0:0:0:
9,36,35770,37,2,1:2:0:0:
46,12,35845,1,2,1:2:0:0:
91,8,35920,1,10,1:2:0:0:
132,24,35995,1,2,3:2:0:0:
162,57,36070,1,2,1:2:0:0:
200,94,36145,1,2,1:2:0:0:
251,108,36220,1,10,1:2:0:0:
303,95,36295,1,2,1:2:0:0:
342,58,36370,6,0,B|377:33|377:33|420:3|379:-34|343:8|400:80|446:89,1,202.5,2|0,1:2|1:0,2:0:0:0:
481,98,36670,6,0,P|485:122|482:150,1,45,4|0,1:2|3:0,2:0:0:0:
399,276,36820,37,10,2:0:0:0:
368,308,36895,1,0,3:0:0:0:
326,321,36970,1,0,1:0:0:0:
283,309,37045,1,0,1:0:0:0:
252,277,37120,1,10,1:2:0:0:
242,234,37195,1,0,3:0:0:0:
256,192,37270,2,0,P|276:169|299:157,1,45,2|0,1:2|3:0,2:0:0:0:
405,121,37420,1,10,2:0:0:0:
383,81,37495,1,0,3:0:0:0:
342,58,37570,2,0,P|315:49|288:49,1,45,2|0,1:2|1:0,2:0:0:0:
326,238,37720,2,0,P|347:219|360:195,1,45,10|0,1:2|3:0,2:0:0:0:
256,102,37870,6,0,P|219:111|196:124,1,45,2|0,1:2|3:0,2:0:0:0:
113,276,38020,1,10,2:0:0:0:
143,308,38095,1,0,3:0:0:0:
185,321,38170,1,0,1:0:0:0:
228,309,38245,1,0,1:0:0:0:
259,277,38320,1,10,1:2:0:0:
269,234,38395,1,0,3:0:0:0:
255,192,38470,2,0,P|236:169|213:157,1,45,2|0,1:2|3:0,2:0:0:0:
107,121,38620,1,10,2:0:0:0:
129,81,38695,1,0,3:0:0:0:
170,58,38770,2,0,P|197:49|224:49,1,45,2|0,1:2|1:0,2:0:0:0:
186,238,38920,2,0,P|164:219|151:195,1,45,10|0,1:2|3:0,2:0:0:0:
256,102,39070,5,2,1:2:0:0:
313,278,39220,1,10,2:0:0:0:
163,169,39370,2,0,L|214:168,1,45,2|0,1:2|1:0,2:0:0:0:
348,168,39520,1,10,1:2:0:0:
199,277,39670,1,2,1:2:0:0:
256,82,39820,1,10,2:0:0:0:
188,301,39970,1,0,1:0:0:0:
374,154,40120,38,0,B|406:207|364:259|364:259|399:284|399:284|360:334|391:390,1,270,14|0,1:2|1:0,2:0:0:0:
464,343,40495,1,0,1:0:0:0:
502,324,40570,5,8,2:0:0:0:
484,282,40645,1,8,2:0:0:0:
451,252,40720,1,8,2:0:0:0:
407,242,40795,1,8,2:0:0:0:
364,254,40870,1,0,1:0:0:0:
346,267,40945,1,0,3:0:0:0:
325,275,41020,1,0,3:0:0:0:
303,275,41095,1,0,3:0:0:0:
280,267,41170,2,0,L|259:340,3,45,0|0|0|0,1:0|3:0|3:0|3:0,2:0:0:0:
308,194,41470,5,4,1:2:0:0:
308,194,41545,1,0,1:0:0:0:
308,194,41620,2,0,P|278:186|242:196,1,45,0|0,1:0|1:0,2:0:0:0:
236,113,41770,1,10,1:2:0:0:
236,113,41845,1,0,1:0:0:0:
236,113,41920,2,0,P|209:128|190:161,1,45,0|0,1:0|1:0,2:0:0:0:
127,106,42070,1,10,1:2:0:0:
127,106,42145,1,0,1:0:0:0:
127,106,42220,2,0,P|119:135|129:172,1,45,0|0,1:0|1:0,2:0:0:0:
44,178,42370,1,10,1:2:0:0:
44,178,42445,1,0,1:0:0:0:
44,178,42520,2,0,P|59:204|92:223,1,45,0|0,1:0|1:0,2:0:0:0:
177,248,42670,37,10,1:2:0:0:
218,263,42745,1,0,1:0:0:0:
263,261,42820,1,0,1:0:0:0:
303,241,42895,1,0,1:0:0:0:
332,206,42970,1,8,1:2:0:0:
358,170,43045,1,0,1:0:0:0:
399,152,43120,1,0,1:0:0:0:
443,154,43195,1,0,1:0:0:0:
481,178,43270,1,8,1:2:0:0:
504,216,43345,1,0,1:0:0:0:
506,260,43420,2,0,L|491:327,3,45,2|0|8|0,1:2|1:0|1:2|1:0,2:0:0:0:
347,372,43720,2,0,L|336:328,1,45,2|0,1:2|1:0,2:0:0:0:
416,238,43870,5,8,1:2:0:0:
416,238,43945,1,0,1:0:0:0:
416,238,44020,2,0,P|430:217|452:205,1,45,0|0,1:0|1:0,2:0:0:0:
332,206,44170,1,10,1:2:0:0:
332,206,44245,1,0,1:0:0:0:
332,206,44320,2,0,P|327:181|334:157,1,45,0|0,1:0|1:0,2:0:0:0:
249,242,44470,1,10,1:2:0:0:
249,242,44545,1,0,1:0:0:0:
249,242,44620,2,0,P|227:228|216:206,1,45,0|0,1:0|1:0,2:0:0:0:
215,326,44770,1,10,1:2:0:0:
215,326,44845,1,0,1:0:0:0:
215,326,44920,2,0,P|190:330|166:323,1,45,0|0,1:0|1:0,3:0:0:0:
347,372,45070,5,10,1:2:0:0:
382,345,45145,1,0,1:0:0:0:
400,304,45220,1,0,1:0:0:0:
395,260,45295,1,0,1:0:0:0:
368,224,45370,1,8,1:2:0:0:
328,205,45445,1,0,1:0:0:0:
287,186,45520,1,0,1:0:0:0:
260,150,45595,1,0,1:0:0:0:
255,106,45670,1,8,1:2:0:0:
273,65,45745,1,0,1:0:0:0:
309,38,45820,2,0,L|320:89,3,45,2|0|8|0,1:2|1:0|1:2|1:0,2:0:0:0:
389,152,46120,2,0,L|399:109,1,45,2|0,1:2|1:0,2:0:0:0:
200,62,46270,37,12,1:2:0:0:
200,62,46345,1,0,1:0:0:0:
200,62,46420,2,0,P|185:86|192:129,1,45,0|0,1:0|1:0,2:0:0:0:
107,119,46570,1,10,1:2:0:0:
107,119,46645,1,0,1:0:0:0:
107,119,46720,2,0,P|114:146|149:172,1,45,0|0,1:0|1:0,2:0:0:0:
81,225,46870,1,10,1:2:0:0:
81,225,46945,1,0,1:0:0:0:
81,225,47020,2,0,P|105:239|148:232,1,45,0|0,1:0|1:0,2:0:0:0:
137,318,47170,1,10,1:2:0:0:
137,318,47245,1,0,1:0:0:0:
137,318,47320,2,0,P|164:310|190:275,1,45,0|0,1:0|1:0,2:0:0:0:
230,201,47470,5,10,1:2:0:0:
244,158,47545,1,0,1:0:0:0:
274,125,47620,1,0,1:0:0:0:
315,107,47695,1,0,1:0:0:0:
360,107,47770,1,8,1:2:0:0:
401,124,47845,1,0,1:0:0:0:
432,156,47920,1,0,1:0:0:0:
447,198,47995,1,0,1:0:0:0:
445,243,48070,2,0,L|429:310,3,45,10|0|0|0,1:2|1:0|1:0|1:0,2:0:0:0:
344,341,48370,2,0,L|327:407,3,45,10|0|0|0,1:2|1:0|1:0|1:0,2:0:0:0:
337,217,48670,5,10,1:2:0:0:
313,178,48745,1,0,1:0:0:0:
275,157,48820,1,0,1:0:0:0:
230,158,48895,1,0,1:0:0:0:
192,180,48970,1,8,1:2:0:0:
153,203,49045,1,0,1:0:0:0:
108,203,49120,1,0,1:0:0:0:
70,180,49195,1,0,1:0:0:0:
50,140,49270,1,8,1:2:0:0:
53,96,49345,1,0,1:0:0:0:
79,60,49420,1,0,1:0:0:0:
120,43,49495,1,0,1:0:0:0:
164,49,49570,2,0,P|202:84|214:132,1,90,14|0,1:2|1:0,2:0:0:0:
77,358,49870,37,10,2:0:0:0:
64,292,49945,1,8,2:0:0:0:
93,233,50020,1,8,2:0:0:0:
153,203,50095,1,8,2:0:0:0:
218,216,50170,1,0,1:0:0:0:
250,224,50245,1,0,3:0:0:0:
277,222,50320,1,0,3:0:0:0:
295,214,50395,1,0,3:0:0:0:
306,207,50470,6,0,L|317:162,3,33.7500000000001,2|0|0|0,1:2|3:0|3:0|3:0,2:0:0:0:
388,154,50770,2,0,L|399:109,3,33.7500000000001,2|0|0|0,1:2|3:0|3:0|3:0,2:0:0:0:
338,53,51070,5,6,1:2:0:0:
384,267,51220,1,10,2:0:0:0:
472,67,51370,2,0,L|432:92,1,45,0|0,1:0|1:0,2:0:0:0:
283,176,51520,1,10,1:2:0:0:
500,199,51670,1,0,1:0:0:0:
261,182,51820,1,10,2:0:0:0:
512,47,51970,1,2,1:2:0:0:
490,21,52045,1,0,1:0:0:0:
454,18,52120,2,0,P|416:28|399:49,1,45,10|0,1:2|3:0,2:0:0:0:
236,191,52270,37,2,1:2:0:0:
428,106,52420,1,10,2:0:0:0:
224,106,52570,2,0,L|276:130,1,45,0|0,1:0|1:0,2:0:0:0:
439,190,52720,1,10,1:2:0:0:
280,32,52870,1,2,1:2:0:0:
383,264,53020,1,10,2:0:0:0:
126,236,53170,1,0,1:0:0:0:
126,236,53245,1,0,1:0:0:0:
126,236,53320,1,10,1:2:0:0:
53,96,53470,37,10,2:0:0:0:
108,58,53545,1,8,2:0:0:0:
174,62,53620,1,8,2:0:0:0:
224,106,53695,1,8,2:0:0:0:
237,171,53770,5,0,1:0:0:0:
234,198,53845,1,0,3:0:0:0:
231,224,53920,1,0,3:0:0:0:
228,250,53995,1,0,3:0:0:0:
190,259,54070,53,0,1:0:0:0:
193,285,54145,1,0,3:0:0:0:
196,311,54220,1,0,3:0:0:0:
199,337,54295,1,0,3:0:0:0:
229,357,54370,5,8,2:0:0:0:
294,347,54445,1,8,2:0:0:0:
341,300,54520,1,8,2:0:0:0:
348,234,54595,1,8,2:0:0:0:
315,177,54670,53,0,1:0:0:0:
306,151,54745,1,0,3:0:0:0:
309,117,54820,1,0,3:0:0:0:
331,83,54895,1,0,3:0:0:0:
372,60,54970,1,0,1:0:0:0:
424,70,55045,1,0,3:0:0:0:
465,115,55120,1,0,3:0:0:0:
455,192,55195,1,0,3:0:0:0:
388,225,55270,6,0,L|321:237,1,63,8|0,2:0|3:0,2:0:0:0:
210,158,55870,53,6,1:2:0:0:
315,358,56020,1,8,2:0:0:0:
390,148,56170,1,0,1:0:0:0:
390,148,56245,1,0,1:0:0:0:
390,148,56320,1,8,1:2:0:0:
228,347,56470,2,0,P|244:315|246:288,1,54,2|0,1:2|3:0,2:0:0:0:
145,111,56620,2,0,P|128:142|126:169,1,54,8|0,2:0|3:0,2:0:0:0:
283,232,56770,1,2,1:2:0:0:
325,236,56845,1,0,1:0:0:0:
365,220,56920,2,0,P|385:191|395:156,1,54,8|0,1:2|3:0,2:0:0:0:
257,24,57070,5,2,1:2:0:0:
457,129,57220,1,8,2:0:0:0:
211,152,57370,2,0,L|268:122,1,54,0|0,1:0|1:0,2:0:0:0:
434,38,57520,1,8,1:2:0:0:
325,236,57670,1,0,1:0:0:0:
340,46,57820,1,8,2:0:0:0:
465,268,57970,1,2,1:2:0:0:
453,309,58045,1,0,1:0:0:0:
424,341,58120,2,0,P|388:356|345:359,1,54,8|0,1:2|3:0,2:0:0:0:
174,319,58270,53,2,1:2:0:0:
332,140,58420,1,8,2:0:0:0:
260,348,58570,5,0,1:0:0:0:
245,110,58720,1,8,1:2:0:0:
123,238,58870,53,2,1:2:0:0:
384,222,59020,1,8,2:0:0:0:
154,143,59170,5,0,1:0:0:0:
351,317,59320,1,8,1:2:0:0:
319,58,59470,53,2,1:2:0:0:
240,271,59620,1,8,2:0:0:0:
430,144,59770,2,0,L|361:140,1,54,0|0,1:0|1:0,2:0:0:0:
198,133,59920,1,8,1:2:0:0:
379,276,60070,1,0,1:0:0:0:
171,112,60220,1,8,2:0:0:0:
466,146,60370,1,2,1:2:0:0:
490,174,60445,1,0,1:0:0:0:
498,210,60520,2,0,P|496:252|485:284,1,54,8|0,1:2|3:0,2:0:0:0:
271,349,60670,5,6,1:2:0:0:
222,326,60745,1,0,1:0:0:0:
194,281,60820,1,8,1:2:0:0:
194,228,60895,1,0,1:0:0:0:
224,184,60970,1,0,1:0:0:0:
254,140,61045,1,0,1:0:0:0:
254,87,61120,1,8,1:2:0:0:
224,44,61195,1,0,1:0:0:0:
174,26,61270,1,0,1:0:0:0:
123,40,61345,1,0,1:0:0:0:
89,82,61420,1,8,1:2:0:0:
86,135,61495,1,0,1:0:0:0:
114,180,61570,53,2,1:2:0:0:
165,170,61645,1,0,1:0:0:0:
206,139,61720,1,8,1:2:0:0:
224,90,61795,1,0,1:0:0:0:
224,44,61870,5,2,1:2:0:0:
224,44,61945,1,0,1:0:0:0:
224,44,62020,2,0,P|207:22|185:5,1,54,8|0,1:2|1:0,2:0:0:0:
351,103,62170,1,2,1:2:0:0:
351,103,62245,1,0,1:0:0:0:
351,103,62320,2,0,P|355:76|353:48,1,54,8|0,1:2|1:0,2:0:0:0:
379,230,62470,1,2,1:2:0:0:
379,230,62545,1,0,1:0:0:0:
379,230,62620,2,0,P|401:214|419:193,1,54,8|0,1:2|1:0,2:0:0:0:
308,339,62770,1,2,1:2:0:0:
308,339,62845,1,0,1:0:0:0:
308,339,62920,2,0,P|334:343|362:341,1,54,8|0,1:2|1:0,2:0:0:0:
223,184,63070,53,2,1:2:0:0:
178,153,63145,1,0,1:0:0:0:
126,143,63220,1,8,1:2:0:0:
74,155,63295,1,0,1:0:0:0:
31,189,63370,1,0,1:0:0:0:
6,236,63445,1,0,1:0:0:0:
2,290,63520,1,8,1:2:0:0:
21,340,63595,1,0,1:0:0:0:
58,378,63670,5,2,1:2:0:0:
118,361,63745,1,0,1:0:0:0:
154,311,63820,1,8,1:2:0:0:
151,249,63895,1,0,1:0:0:0:
111,202,63970,1,0,1:0:0:0:
74,155,64045,1,0,1:0:0:0:
67,93,64120,1,8,1:2:0:0:
103,43,64195,1,0,1:0:0:0:
163,26,64270,54,0,B|200:15|232:34|232:34|248:21|248:21|280:40|330:24,1,157.5,14|8,2:0|2:0,2:0:0:0:
413,7,64495,1,8,2:0:0:0:
441,22,64570,5,8,2:0:0:0:
441,75,64645,1,8,2:0:0:0:
415,121,64720,1,8,2:0:0:0:
368,147,64795,1,8,2:0:0:0:
315,145,64870,53,0,1:0:0:0:
312,177,64945,1,0,3:0:0:0:
309,209,65020,1,0,3:0:0:0:
306,241,65095,1,0,3:0:0:0:
264,247,65170,5,0,1:0:0:0:
266,272,65245,1,0,3:0:0:0:
268,298,65320,1,0,3:0:0:0:
271,323,65395,1,0,3:0:0:0:
298,345,65470,53,6,1:2:0:0:
181,125,65620,1,8,2:0:0:0:
118,361,65770,1,0,1:0:0:0:
118,361,65845,1,0,1:0:0:0:
118,361,65920,1,8,1:2:0:0:
265,201,66070,2,0,P|283:169|290:133,1,54,2|0,1:2|3:0,2:0:0:0:
85,191,66220,2,0,P|67:223|60:259,1,54,8|0,2:0|3:0,2:0:0:0:
266,272,66370,1,0,1:0:0:0:
302,263,66445,1,0,1:0:0:0:
329,237,66520,2,0,P|337:196|324:154,1,54,8|0,1:2|3:0,2:0:0:0:
252,18,66670,5,2,1:2:0:0:
164,254,66820,1,8,2:0:0:0:
371,115,66970,2,0,L|313:113,1,54,0|0,1:0|1:0,2:0:0:0:
121,100,67120,1,8,1:2:0:0:
315,260,67270,1,0,1:0:0:0:
102,85,67420,1,8,2:0:0:0:
398,107,67570,1,2,1:2:0:0:
427,130,67645,1,0,1:0:0:0:
444,163,67720,2,0,P|449:199|441:238,1,54,8|0,1:2|3:0,2:0:0:0:
269,365,67870,53,2,1:2:0:0:
371,198,68020,1,8,2:0:0:0:
131,264,68170,1,0,1:0:0:0:
131,264,68245,1,0,1:0:0:0:
131,264,68320,2,0,P|111:311|120:371,1,108,10|0,1:2|1:0,2:0:0:0:
282,167,68620,1,8,2:0:0:0:
100,184,68770,2,0,L|166:222,1,54,2|0,1:2|1:0,2:0:0:0:
286,282,68920,1,8,1:2:0:0:
25,147,69070,5,2,1:2:0:0:
63,110,69145,1,0,1:0:0:0:
115,103,69220,1,8,1:2:0:0:
162,129,69295,1,0,1:0:0:0:
183,177,69370,1,0,1:0:0:0:
171,229,69445,1,0,1:0:0:0:
131,264,69520,2,0,L|105:202,1,54,10|0,1:2|1:0,2:0:0:0:
83,37,69670,53,2,1:2:0:0:
136,34,69745,1,0,1:0:0:0:
185,55,69820,1,8,1:2:0:0:
224,90,69895,1,0,1:0:0:0:
248,140,69970,2,0,P|254:171|246:205,3,54,0|0|8|0,1:0|1:0|1:2|1:0,2:0:0:0:
352,38,70270,5,6,1:2:0:0:
400,0,70345,1,0,1:0:0:0:
460,9,70420,1,0,1:0:0:0:
494,60,70495,1,0,1:0:0:0:
480,119,70570,1,12,1:2:0:0:
427,150,70645,1,0,1:0:0:0:
370,142,70720,1,2,1:2:0:0:
310,129,70795,1,0,1:0:0:0:
248,140,70870,1,12,1:2:0:0:
198,179,70945,1,0,1:0:0:0:
189,241,71020,1,0,1:0:0:0:
214,298,71095,1,0,1:0:0:0:
268,326,71170,53,14,1:2:0:0:
331,291,71245,1,0,1:0:0:0:
353,222,71320,1,0,1:0:0:0:
315,159,71395,1,0,1:0:0:0:
248,140,71470,5,14,1:2:0:0:
248,140,72670,21,6,1:2:0:0:
441,213,72820,1,10,2:0:0:0:
441,213,72895,1,0,3:0:0:0:
441,213,72970,2,0,L|360:224,1,45,2|0,1:2|1:0,2:0:0:0:
281,343,73120,1,10,1:2:0:0:
281,343,73195,1,0,3:0:0:0:
281,343,73270,2,0,L|311:267,1,45,2|0,1:2|3:0,2:0:0:0:
248,140,73420,2,0,L|217:215,1,45,10|0,2:0|3:0,2:0:0:0:
132,302,73570,5,2,1:2:0:0:
89,313,73645,1,2,1:2:0:0:
46,302,73720,1,10,1:2:0:0:
15,270,73795,1,2,2:0:0:0:
4,227,73870,53,2,1:2:0:0:
110,63,74020,1,10,2:0:0:0:
110,63,74095,1,0,3:0:0:0:
110,63,74170,1,2,1:2:0:0:
89,234,74320,2,0,L|128:182,1,45,10|0,1:2|3:0,2:0:0:0:
188,87,74470,1,2,1:2:0:0:
0,128,74620,1,10,2:0:0:0:
201,177,74770,5,2,1:2:0:0:
224,215,74845,1,2,1:2:0:0:
247,254,74920,1,10,1:2:0:0:
270,292,74995,1,2,2:0:0:0:
294,331,75070,54,0,L|348:351,1,45,2|0,1:2|3:0,2:0:0:0:
399,289,75220,2,0,L|452:308,1,45,10|0,2:0|3:0,2:0:0:0:
512,245,75370,1,2,1:2:0:0:
306,219,75520,6,0,L|252:238,1,45,10|0,1:2|3:0,2:0:0:0:
201,176,75670,2,0,L|147:195,1,45,2|0,1:2|3:0,2:0:0:0:
88,132,75820,1,10,2:0:0:0:
298,47,75970,1,2,1:2:0:0:
298,47,76045,1,2,1:2:0:0:
298,47,76120,1,10,1:2:0:0:
298,47,76195,1,2,2:0:0:0:
298,47,76270,53,2,1:2:0:0:
341,55,76345,1,0,1:0:0:0:
377,81,76420,1,10,1:2:0:0:
398,121,76495,1,0,1:0:0:0:
400,165,76570,1,2,1:2:0:0:
382,206,76645,1,0,1:0:0:0:
349,236,76720,1,10,1:2:0:0:
306,248,76795,1,0,1:0:0:0:
262,240,76870,2,0,L|209:227,1,45,2|0,1:2|1:0,2:0:0:0:
70,199,77020,2,0,L|123:185,1,45,10|0,1:2|1:0,2:0:0:0:
303,145,77170,2,0,L|249:131,1,45,2|2,1:2|1:2,2:0:0:0:
38,101,77320,2,0,L|91:87,1,45,10|2,1:2|1:2,2:0:0:0:
209,29,77470,5,6,1:2:0:0:
253,38,77545,1,0,3:0:0:0:
298,47,77620,1,10,2:0:0:0:
342,55,77695,1,0,3:0:0:0:
386,64,77770,1,2,1:2:0:0:
361,279,77920,2,0,L|341:206,1,45,10|0,1:2|3:0,2:0:0:0:
298,47,78070,1,2,1:2:0:0:
179,226,78220,1,10,2:0:0:0:
209,29,78370,1,2,1:2:0:0:
207,73,78445,1,2,1:2:0:0:
225,114,78520,1,10,1:2:0:0:
259,142,78595,1,2,2:0:0:0:
302,153,78670,54,0,P|332:147|355:133,1,45,2|0,1:2|3:0,2:0:0:0:
471,22,78820,1,10,2:0:0:0:
471,22,78895,1,0,3:0:0:0:
471,22,78970,1,2,1:2:0:0:
403,212,79120,2,0,P|419:186|425:160,1,45,10|0,1:2|3:0,2:0:0:0:
366,14,79270,1,2,1:2:0:0:
502,203,79420,1,10,2:0:0:0:
259,142,79570,1,2,1:2:0:0:
217,158,79645,1,2,1:2:0:0:
191,194,79720,1,10,1:2:0:0:
186,238,79795,1,2,2:0:0:0:
205,278,79870,6,0,P|231:302|268:318,1,45,2|0,1:2|3:0,2:0:0:0:
384,312,80020,1,10,2:0:0:0:
384,312,80095,1,0,3:0:0:0:
384,312,80170,1,2,1:2:0:0:
259,142,80320,54,0,P|233:118|196:102,1,45,10|0,1:2|3:0,2:0:0:0:
80,108,80470,1,2,1:2:0:0:
272,231,80620,1,10,2:0:0:0:
156,59,80770,1,2,1:2:0:0:
120,32,80845,1,2,1:2:0:0:
76,23,80920,1,10,1:2:0:0:
33,35,80995,1,2,2:0:0:0:
0,65,81070,6,0,P|-10:88|-10:120,1,45,2|0,1:2|3:0,2:0:0:0:
198,176,81220,1,10,2:0:0:0:
198,176,81295,1,0,3:0:0:0:
198,176,81370,2,0,P|183:155|155:139,1,45,2|0,1:2|1:0,2:0:0:0:
0,259,81520,2,0,P|24:256|53:240,1,45,10|0,1:2|3:0,2:0:0:0:
156,59,81670,1,2,1:2:0:0:
140,276,81820,1,10,2:0:0:0:
279,92,81970,1,2,1:2:0:0:
303,129,82045,1,2,1:2:0:0:
310,173,82120,1,10,1:2:0:0:
296,215,82195,1,2,2:0:0:0:
263,247,82270,54,0,B|220:282|220:282|141:276,1,135,6|0,1:2|2:0,2:0:0:0:
0,338,82570,5,8,2:0:0:0:
59,365,82645,1,8,2:0:0:0:
119,338,82720,1,8,2:0:0:0:
140,276,82795,1,8,2:0:0:0:
111,217,82870,53,0,1:0:0:0:
107,183,82945,1,0,3:0:0:0:
103,149,83020,1,0,3:0:0:0:
99,115,83095,1,0,3:0:0:0:
132,112,83170,5,0,1:0:0:0:
134,88,83245,1,0,3:0:0:0:
137,64,83320,1,0,3:0:0:0:
140,40,83395,1,0,3:0:0:0:
100,24,83470,53,0,1:0:0:0:
123,11,83545,1,0,3:0:0:0:
156,4,83620,1,0,3:0:0:0:
195,12,83695,1,0,3:0:0:0:
233,41,83770,1,0,1:0:0:0:
255,91,83845,1,0,3:0:0:0:
240,153,83920,1,0,3:0:0:0:
182,193,83995,1,0,3:0:0:0:
108,187,84070,5,0,1:0:0:0:
365,56,84370,1,12,2:0:0:0:
365,56,84670,54,0,L|379:172,1,90,6|2,1:2|1:2,2:0:0:0:
375,291,84970,1,10,1:2:0:0:
375,291,85120,1,0,1:0:0:0:
289,172,85270,1,2,1:2:0:0:
289,172,85420,1,2,1:2:0:0:
427,218,85570,1,10,1:2:0:0:
427,218,85720,1,0,1:0:0:0:
289,262,85870,1,2,1:2:0:0:
289,262,86020,1,0,1:0:0:0:
375,145,86170,6,0,L|365:56,1,90,10|2,1:2|1:2,2:0:0:0:
228,7,86470,1,2,1:2:0:0:
452,170,86620,54,0,L|441:80,1,90,0|10,1:0|1:2,2:0:0:0:
298,33,86920,1,0,1:0:0:0:
195,201,87070,5,2,1:2:0:0:
195,201,87220,1,0,1:0:0:0:
147,55,87370,2,0,L|133:171,1,90,10|2,1:2|1:2,2:0:0:0:
188,297,87670,1,2,1:2:0:0:
267,119,87820,2,0,L|276:192,1,45,0|0,1:0|3:0,2:0:0:0:
282,282,87970,1,10,1:2:0:0:
35,242,88120,54,0,B|70:264|77:308|77:308|104:309|104:309|107:351|150:371,1,180,6|0,1:2|1:0,2:0:0:0:
229,161,88570,1,10,1:2:0:0:
280,380,88720,1,0,1:0:0:0:
111,233,88870,1,2,1:2:0:0:
331,252,89020,1,0,1:0:0:0:
141,366,89170,1,10,1:2:0:0:
229,161,89320,1,0,1:0:0:0:
280,380,89470,6,0,L|375:372,1,90,6|2,1:2|1:2,2:0:0:0:
370,178,89770,1,10,1:2:0:0:
370,178,89920,1,0,1:0:0:0:
448,340,90070,1,2,1:2:0:0:
448,340,90220,1,2,1:2:0:0:
308,243,90370,1,10,1:2:0:0:
308,243,90520,1,0,1:0:0:0:
501,265,90670,1,2,1:2:0:0:
501,265,90820,1,0,1:0:0:0:
334,328,90970,54,0,P|276:323|241:300,1,90,10|2,1:2|1:2,2:0:0:0:
280,146,91270,1,2,1:2:0:0:
457,198,91420,6,0,P|450:140|427:105,1,90,0|10,1:0|1:2,2:0:0:0:
250,111,91720,2,0,L|284:151,1,45,0|0,1:0|3:0,2:0:0:0:
394,266,91870,53,6,1:2:0:0:
118,266,92470,5,6,2:0:0:0:
256,32,92920,54,0,B|200:24|169:60|169:60|130:51|130:51|103:92|46:96,1,234,6|0,2:0|2:0,2:0:0:0:
13,226,93370,5,8,2:0:0:0:
60,259,93445,1,8,2:0:0:0:
118,266,93520,1,8,2:0:0:0:
172,247,93595,1,8,2:0:0:0:
212,206,93670,53,0,1:0:0:0:
216,229,93745,1,0,3:0:0:0:
220,252,93820,1,0,3:0:0:0:
224,275,93895,1,0,3:0:0:0:
256,286,93970,5,0,1:0:0:0:
252,304,94045,1,0,3:0:0:0:
249,322,94120,1,0,3:0:0:0:
246,341,94195,1,0,3:0:0:0:
222,358,94270,54,0,P|193:358|163:344,1,45,4|0,1:2|3:0,2:0:0:0:
106,168,94420,5,10,2:0:0:0:
130,130,94495,1,0,3:0:0:0:
168,106,94570,1,2,1:2:0:0:
212,98,94645,1,0,1:0:0:0:
255,107,94720,1,10,1:2:0:0:
292,133,94795,1,0,3:0:0:0:
315,171,94870,2,0,P|317:204|309:235,1,45,2|0,1:2|3:0,2:0:0:0:
99,384,95020,1,10,2:0:0:0:
84,351,95095,1,0,3:0:0:0:
91,319,95170,2,0,P|110:290|128:276,1,45,2|0,1:2|1:0,2:0:0:0:
222,358,95320,2,0,P|187:356|166:347,1,45,10|0,1:2|3:0,2:0:0:0:
194,215,95470,2,0,P|209:245|212:268,1,45,2|0,1:2|3:0,2:0:0:0:
405,168,95620,53,10,2:0:0:0:
380,130,95695,1,0,3:0:0:0:
343,106,95770,1,0,1:0:0:0:
299,98,95845,1,0,1:0:0:0:
255,107,95920,1,10,1:2:0:0:
219,133,95995,1,0,3:0:0:0:
195,171,96070,2,0,P|192:204|200:235,1,45,2|0,1:2|3:0,2:0:0:0:
413,384,96220,1,10,2:0:0:0:
428,351,96295,1,0,3:0:0:0:
421,319,96370,2,0,P|402:290|384:276,1,45,2|0,1:2|1:0,2:0:0:0:
290,358,96520,2,0,P|324:356|345:347,1,45,10|0,1:2|3:0,2:0:0:0:
318,215,96670,5,2,1:2:0:0:
493,273,96820,1,10,2:0:0:0:
452,108,96970,2,0,L|433:164,1,45,2|0,1:2|1:0,2:0:0:0:
394,283,97120,1,10,1:2:0:0:
332,88,97270,1,2,1:2:0:0:
308,288,97420,1,10,2:0:0:0:
256,140,97570,2,0,L|256:192,1,45,0|0,1:0|1:0,2:0:0:0:
256,360,97720,1,14,1:2:0:0:
131,187,97870,54,0,B|142:159|136:131|136:131|167:128|190:106,1,112.5,2|8,1:2|2:0,2:0:0:0:
41,56,98170,1,2,1:2:0:0:
41,76,98245,1,2,1:2:0:0:
41,91,98320,1,10,1:2:0:0:
41,111,98395,1,2,3:2:0:0:
49,155,98470,1,2,1:2:0:0:
82,197,98545,1,2,1:2:0:0:
131,216,98620,1,10,1:2:0:0:
184,205,98695,1,2,1:2:0:0:
223,169,98770,6,0,B|245:129|287:124|287:124|297:91|297:91|341:81|358:28,1,202.5,2|0,1:2|1:0,2:0:0:0:
425,0,99070,2,0,P|433:50|426:76,1,45,6|0,1:2|3:0,2:0:0:0:
406,168,99220,53,10,2:0:0:0:
382,130,99295,1,0,3:0:0:0:
344,106,99370,1,2,1:2:0:0:
300,98,99445,1,0,1:0:0:0:
257,107,99520,1,10,1:2:0:0:
220,133,99595,1,0,3:0:0:0:
197,171,99670,2,0,P|194:204|202:235,1,45,2|0,1:2|3:0,2:0:0:0:
413,384,99820,1,10,2:0:0:0:
428,351,99895,1,0,3:0:0:0:
421,319,99970,2,0,P|402:290|384:276,1,45,2|0,1:2|1:0,2:0:0:0:
290,358,100120,2,0,P|324:356|345:347,1,45,10|0,1:2|3:0,2:0:0:0:
318,215,100270,6,0,P|302:245|299:268,1,45,2|0,1:2|3:0,2:0:0:0:
107,168,100420,1,10,2:0:0:0:
132,130,100495,1,0,3:0:0:0:
169,106,100570,1,0,1:0:0:0:
213,98,100645,1,0,1:0:0:0:
257,107,100720,1,10,1:2:0:0:
293,133,100795,1,0,3:0:0:0:
317,171,100870,2,0,P|319:204|311:235,1,45,2|0,1:2|3:0,2:0:0:0:
99,384,101020,1,10,2:0:0:0:
84,351,101095,1,0,3:0:0:0:
91,319,101170,2,0,P|110:290|128:276,1,45,2|0,1:2|1:0,2:0:0:0:
222,358,101320,2,0,P|187:356|166:347,1,45,10|0,1:2|3:0,2:0:0:0:
194,215,101470,53,2,1:2:0:0:
19,273,101620,1,10,2:0:0:0:
60,108,101770,2,0,L|79:164,1,45,2|0,1:2|1:0,2:0:0:0:
118,283,101920,1,10,1:2:0:0:
180,88,102070,1,2,1:2:0:0:
204,288,102220,1,10,2:0:0:0:
256,140,102370,2,0,L|256:192,1,45,0|0,1:0|1:0,2:0:0:0:
256,360,102520,6,0,B|321:352|349:292|349:292|391:292|391:292|408:239|467:220,1,270,14|0,1:2|3:0,2:0:0:0:
475,325,102895,1,0,3:0:0:0:
460,336,102970,53,8,2:0:0:0:
416,343,103045,1,8,2:0:0:0:
374,328,103120,1,8,2:0:0:0:
347,292,103195,1,8,2:0:0:0:
342,248,103270,1,0,1:0:0:0:
346,226,103345,1,0,3:0:0:0:
358,207,103420,1,0,3:0:0:0:
375,193,103495,1,0,3:0:0:0:
395,183,103570,2,0,P|435:182|450:185,3,45,0|0|0|0,1:0|3:0|3:0|3:0,2:0:0:0:
301,143,103870,5,4,1:2:0:0:
301,143,103945,1,0,1:0:0:0:
301,143,104020,2,0,P|282:167|274:191,1,45,0|0,1:0|1:0,2:0:0:0:
197,178,104170,1,10,1:2:0:0:
197,178,104245,1,0,1:0:0:0:
197,178,104320,2,0,P|200:208|211:231,1,45,0|0,1:0|1:0,2:0:0:0:
148,276,104470,1,10,1:2:0:0:
148,276,104545,1,0,1:0:0:0:
148,276,104620,2,0,P|172:295|196:303,1,45,0|0,1:0|1:0,2:0:0:0:
182,379,104770,1,10,1:2:0:0:
182,379,104845,1,0,1:0:0:0:
182,379,104920,2,0,P|212:375|235:364,1,45,0|0,1:0|1:0,2:0:0:0:
296,285,105070,53,10,1:2:0:0:
306,241,105145,1,0,1:0:0:0:
297,197,105220,1,0,1:0:0:0:
271,161,105295,1,0,1:0:0:0:
232,139,105370,1,8,1:2:0:0:
188,135,105445,1,0,1:0:0:0:
146,150,105520,1,0,1:0:0:0:
103,163,105595,1,0,1:0:0:0:
59,155,105670,1,8,1:2:0:0:
23,129,105745,1,0,1:0:0:0:
2,89,105820,2,0,L|-8:33,3,45,2|0|8|0,1:2|1:0|1:2|1:0,2:0:0:0:
121,0,106120,2,0,L|112:44,1,45,2|0,1:2|1:0,2:0:0:0:
60,235,106270,5,8,1:2:0:0:
60,235,106345,1,0,1:0:0:0:
60,235,106420,2,0,P|89:269|107:280,1,45,0|0,1:0|1:0,2:0:0:0:
146,150,106570,1,10,1:2:0:0:
146,150,106645,1,0,1:0:0:0:
146,150,106720,2,0,P|142:195|147:216,1,45,0|0,1:0|1:0,2:0:0:0:
266,150,106870,1,10,1:2:0:0:
266,150,106945,1,0,1:0:0:0:
266,150,107020,2,0,P|231:179|220:197,1,45,0|0,1:0|1:0,2:0:0:0:
350,234,107170,1,10,1:2:0:0:
350,234,107245,1,0,1:0:0:0:
350,234,107320,2,0,P|304:230|283:235,1,45,0|0,1:0|1:0,2:0:0:0:
209,313,107470,53,10,1:2:0:0:
175,342,107545,1,0,1:0:0:0:
132,355,107620,1,0,1:0:0:0:
88,349,107695,1,0,1:0:0:0:
50,326,107770,1,8,1:2:0:0:
26,288,107845,1,0,1:0:0:0:
20,244,107920,1,0,1:0:0:0:
32,201,107995,1,0,1:0:0:0:
61,167,108070,1,8,1:2:0:0:
102,149,108145,1,0,1:0:0:0:
146,149,108220,2,0,L|200:160,3,45,2|0|8|0,1:2|1:0|1:2|1:0,2:0:0:0:
239,78,108520,2,0,L|283:69,1,45,2|0,1:2|1:0,2:0:0:0:
403,172,108670,5,12,1:2:0:0:
403,172,108745,1,0,1:0:0:0:
403,172,108820,2,0,P|424:200|435:228,1,45,0|0,1:0|1:0,2:0:0:0:
386,82,108970,1,10,1:2:0:0:
386,82,109045,1,0,1:0:0:0:
386,82,109120,2,0,P|420:86|448:98,1,45,0|0,1:0|1:0,2:0:0:0:
306,28,109270,1,10,1:2:0:0:
306,28,109345,1,0,1:0:0:0:
306,28,109420,2,0,P|334:7|362:-4,1,45,0|0,1:0|1:0,2:0:0:0:
211,46,109570,1,10,1:2:0:0:
211,46,109645,1,0,1:0:0:0:
211,46,109720,2,0,P|215:11|227:-16,1,45,0|0,1:0|1:0,2:0:0:0:
252,165,109870,53,10,1:2:0:0:
247,209,109945,1,0,1:0:0:0:
226,248,110020,1,0,1:0:0:0:
192,277,110095,1,0,1:0:0:0:
149,291,110170,1,8,1:2:0:0:
104,287,110245,1,0,1:0:0:0:
65,267,110320,1,0,1:0:0:0:
35,233,110395,1,0,1:0:0:0:
21,191,110470,2,0,L|9:144,3,45,10|0|0|0,1:2|1:0|1:0|1:0,2:0:0:0:
90,76,110770,2,0,L|102:28,3,45,10|0|0|0,1:2|1:0|1:0|1:0,2:0:0:0:
139,180,111070,5,10,1:2:0:0:
164,216,111145,1,0,1:0:0:0:
206,227,111220,1,0,1:0:0:0:
246,208,111295,1,0,1:0:0:0:
264,168,111370,1,8,1:2:0:0:
282,127,111445,1,0,1:0:0:0:
317,99,111520,1,0,1:0:0:0:
361,91,111595,1,0,1:0:0:0:
403,104,111670,1,8,1:2:0:0:
435,135,111745,1,0,1:0:0:0:
449,178,111820,1,0,1:0:0:0:
441,222,111895,1,0,1:0:0:0:
413,257,111970,2,0,P|368:281|309:268,1,90,14|0,1:2|1:0,2:0:0:0:
190,98,112270,53,10,2:0:0:0:
125,85,112345,1,8,2:0:0:0:
67,116,112420,1,8,2:0:0:0:
42,178,112495,1,8,2:0:0:0:
63,241,112570,1,0,1:0:0:0:
87,263,112645,1,0,3:0:0:0:
119,275,112720,1,0,3:0:0:0:
152,275,112795,1,0,3:0:0:0:
183,263,112870,2,0,P|226:213|230:177,1,90,2|0,1:2|3:0,2:0:0:0:
309,0,113170,2,0,P|294:42|261:71,1,90,2|0,1:2|3:0,2:0:0:0:
71,40,113470,5,6,1:2:0:0:
119,275,113620,1,10,2:0:0:0:
125,85,113770,2,0,L|112:133,1,45,0|0,1:0|1:0,2:0:0:0:
66,331,113920,1,10,1:2:0:0:
190,124,114070,1,0,1:0:0:0:
0,291,114220,1,10,2:0:0:0:
221,193,114370,1,2,1:2:0:0:
256,190,114445,1,0,1:0:0:0:
289,203,114520,2,0,P|315:227|329:250,1,45,10|0,1:2|3:0,2:0:0:0:
278,384,114670,53,2,1:2:0:0:
359,144,114820,1,10,2:0:0:0:
357,345,114970,2,0,L|336:287,1,45,0|0,1:0|1:0,2:0:0:0:
276,105,115120,1,10,1:2:0:0:
428,307,115270,1,2,1:2:0:0:
204,142,115420,1,10,2:0:0:0:
469,228,115570,1,0,1:0:0:0:
469,228,115645,1,0,1:0:0:0:
469,228,115720,1,10,1:2:0:0:
163,221,115870,21,10,2:0:0:0:
122,169,115945,1,8,2:0:0:0:
129,104,116020,1,8,2:0:0:0:
179,61,116095,1,8,2:0:0:0:
245,66,116170,5,0,1:0:0:0:
249,93,116245,1,0,3:0:0:0:
253,119,116320,1,0,3:0:0:0:
257,145,116395,1,0,3:0:0:0:
282,157,116470,53,0,1:0:0:0:
279,184,116545,1,0,3:0:0:0:
275,210,116620,1,0,3:0:0:0:
271,236,116695,1,0,3:0:0:0:
290,262,116770,5,8,2:0:0:0:
232,294,116845,1,8,2:0:0:0:
165,291,116920,1,8,2:0:0:0:
111,252,116995,1,8,2:0:0:0:
86,191,117070,53,0,1:0:0:0:
94,167,117145,1,0,3:0:0:0:
109,145,117220,1,0,3:0:0:0:
133,125,117295,1,0,3:0:0:0:
171,113,117370,1,0,1:0:0:0:
220,117,117445,1,0,3:0:0:0:
276,130,117520,1,0,3:0:0:0:
339,107,117595,1,0,3:0:0:0:
374,39,117670,6,0,L|437:26,1,63,8|0,2:0|3:0,2:0:0:0:
512,0,118270,53,6,1:2:0:0:
437,236,118420,1,8,2:0:0:0:
268,53,118570,1,0,1:0:0:0:
268,53,118645,1,0,1:0:0:0:
268,53,118720,1,8,1:2:0:0:
468,128,118870,2,0,P|494:140|517:164,1,54,2|0,1:2|3:0,2:0:0:0:
235,138,119020,2,0,P|209:126|186:102,1,54,8|0,2:0|3:0,2:0:0:0:
358,301,119170,1,2,1:2:0:0:
386,325,119245,1,0,1:0:0:0:
422,333,119320,2,0,P|458:335|484:320,1,54,8|0,1:2|3:0,2:0:0:0:
350,128,119470,5,2,1:2:0:0:
234,343,119620,1,8,2:0:0:0:
409,200,119770,2,0,L|356:216,1,54,0|0,1:0|1:0,2:0:0:0:
174,270,119920,1,8,1:2:0:0:
399,293,120070,1,0,1:0:0:0:
184,177,120220,1,8,2:0:0:0:
423,111,120370,1,2,1:2:0:0:
454,132,120445,1,0,1:0:0:0:
481,158,120520,2,0,P|488:196|485:224,1,54,8|0,1:2|3:0,2:0:0:0:
323,363,120670,53,2,1:2:0:0:
259,122,120820,1,8,2:0:0:0:
234,343,120970,5,0,1:0:0:0:
170,102,121120,1,8,1:2:0:0:
113,313,121270,53,2,1:2:0:0:
354,249,121420,1,8,2:0:0:0:
133,224,121570,5,0,1:0:0:0:
374,160,121720,1,8,1:2:0:0:
61,132,121870,53,2,1:2:0:0:
302,196,122020,1,8,2:0:0:0:
118,56,122170,6,0,L|146:107,1,54,0|0,1:0|1:0,2:0:0:0:
244,271,122320,1,8,1:2:0:0:
213,43,122470,53,0,1:0:0:0:
149,284,122620,1,8,2:0:0:0:
289,101,122770,5,2,1:2:0:0:
327,102,122845,1,0,1:0:0:0:
361,118,122920,2,0,P|389:145|398:172,1,54,8|0,1:2|3:0,2:0:0:0:
315,326,123070,53,2,1:2:0:0:
271,356,123145,1,0,1:0:0:0:
218,359,123220,1,8,1:2:0:0:
172,332,123295,1,0,1:0:0:0:
149,284,123370,1,0,1:0:0:0:
153,232,123445,1,0,1:0:0:0:
187,190,123520,1,8,1:2:0:0:
220,148,123595,1,0,1:0:0:0:
225,96,123670,1,0,1:0:0:0:
201,48,123745,1,0,1:0:0:0:
155,21,123820,1,8,1:2:0:0:
102,24,123895,1,0,1:0:0:0:
58,55,123970,5,2,1:2:0:0:
82,102,124045,1,0,1:0:0:0:
128,129,124120,1,8,1:2:0:0:
181,126,124195,1,0,1:0:0:0:
225,96,124270,53,2,1:2:0:0:
225,96,124345,1,0,1:0:0:0:
225,96,124420,2,0,P|256:88|286:93,1,54,8|0,1:2|1:0,2:0:0:0:
224,242,124570,1,2,1:2:0:0:
224,242,124645,1,0,1:0:0:0:
224,242,124720,2,0,P|240:214|265:196,1,54,8|0,1:2|1:0,2:0:0:0:
326,345,124870,1,2,1:2:0:0:
326,345,124945,1,0,1:0:0:0:
326,345,125020,2,0,P|317:314|322:284,1,54,8|0,1:2|1:0,2:0:0:0:
470,345,125170,1,2,1:2:0:0:
470,345,125245,1,0,1:0:0:0:
470,345,125320,2,0,P|442:328|424:303,1,54,8|0,1:2|1:0,2:0:0:0:
424,151,125470,5,2,1:2:0:0:
408,100,125545,1,0,1:0:0:0:
367,65,125620,1,8,1:2:0:0:
315,58,125695,1,0,1:0:0:0:
267,83,125770,1,0,1:0:0:0:
218,104,125845,1,0,1:0:0:0:
166,97,125920,1,8,1:2:0:0:
125,62,125995,1,0,1:0:0:0:
110,12,126070,53,2,1:2:0:0:
172,8,126145,1,0,1:0:0:0:
229,33,126220,1,8,1:2:0:0:
267,83,126295,1,0,1:0:0:0:
278,144,126370,1,0,1:0:0:0:
259,203,126445,1,0,1:0:0:0:
215,247,126520,1,8,1:2:0:0:
155,266,126595,1,0,1:0:0:0:
94,254,126670,6,0,B|66:231|68:187|68:187|55:177|55:177|64:141|35:107,1,157.5,14|8,2:0|2:0,2:0:0:0:
39,24,126895,1,8,2:0:0:0:
57,17,126970,53,8,2:0:0:0:
110,12,127045,1,8,2:0:0:0:
155,39,127120,1,8,2:0:0:0:
178,87,127195,1,8,2:0:0:0:
169,140,127270,5,0,1:0:0:0:
170,172,127345,1,0,3:0:0:0:
173,204,127420,1,0,3:0:0:0:
176,236,127495,1,0,3:0:0:0:
140,240,127570,53,0,1:0:0:0:
139,265,127645,1,0,3:0:0:0:
136,291,127720,1,0,3:0:0:0:
134,316,127795,1,0,3:0:0:0:
162,335,127870,5,6,1:2:0:0:
81,99,128020,1,8,2:0:0:0:
228,284,128170,1,0,1:0:0:0:
228,284,128245,1,0,1:0:0:0:
228,284,128320,1,8,1:2:0:0:
178,87,128470,2,0,P|166:54|136:26,1,54,2|0,1:2|3:0,2:0:0:0:
24,195,128620,2,0,P|35:227|65:255,1,54,8|0,2:0|3:0,2:0:0:0:
256,191,128770,1,0,1:0:0:0:
287,170,128845,1,0,1:0:0:0:
306,137,128920,2,0,P|310:105|302:72,1,54,8|0,1:2|3:0,2:0:0:0:
290,328,129070,53,2,1:2:0:0:
446,140,129220,1,8,2:0:0:0:
209,199,129370,2,0,L|282:230,1,54,0|0,1:0|1:0,2:0:0:0:
436,291,129520,1,8,1:2:0:0:
306,83,129670,1,0,1:0:0:0:
467,303,129820,1,8,2:0:0:0:
181,193,129970,1,2,1:2:0:0:
150,214,130045,1,0,1:0:0:0:
131,247,130120,2,0,P|127:279|135:312,1,54,8|0,1:2|3:0,2:0:0:0:
305,384,130270,5,2,1:2:0:0:
239,137,130420,1,8,2:0:0:0:
52,249,130570,1,0,1:0:0:0:
52,249,130645,1,0,1:0:0:0:
52,249,130720,2,0,P|41:193|56:135,1,108,10|0,1:2|1:0,2:0:0:0:
229,280,131020,1,8,2:0:0:0:
127,102,131170,2,0,L|204:90,1,54,2|0,1:2|1:0,2:0:0:0:
354,76,131320,1,8,1:2:0:0:
181,193,131470,53,2,1:2:0:0:
142,229,131545,1,0,1:0:0:0:
127,281,131620,1,8,1:2:0:0:
141,332,131695,1,0,1:0:0:0:
180,369,131770,1,0,1:0:0:0:
232,381,131845,1,0,1:0:0:0:
282,365,131920,2,0,P|311:347|335:324,1,54,10|0,1:2|1:0,2:0:0:0:
354,76,132070,5,2,1:2:0:0:
320,117,132145,1,0,1:0:0:0:
311,169,132220,1,8,1:2:0:0:
329,220,132295,1,0,1:0:0:0:
370,254,132370,2,0,P|402:264|452:268,3,54,0|0|8|0,1:0|1:0|1:2|1:0,2:0:0:0:
229,280,132670,53,6,1:2:0:0:
167,285,132745,1,0,1:0:0:0:
111,256,132820,1,0,1:0:0:0:
80,203,132895,1,0,1:0:0:0:
81,141,132970,1,12,1:2:0:0:
115,89,133045,1,0,1:0:0:0:
172,63,133120,1,2,1:2:0:0:
233,71,133195,1,0,1:0:0:0:
281,110,133270,1,12,1:2:0:0:
325,154,133345,1,0,1:0:0:0:
385,170,133420,1,0,1:0:0:0:
445,154,133495,1,0,1:0:0:0:
488,109,133570,5,14,1:2:0:0:
451,49,133645,1,0,1:0:0:0:
385,26,133720,1,0,1:0:0:0:
318,49,133795,1,0,1:0:0:0:
281,110,133870,53,6,1:2:0:0:
387,353,135070,54,0,P|374:111|291:341,1,675,6|0,2:0|3:0,2:0:0:0:
354,233,136270,37,10,2:2:0:0:
309,227,136345,1,8,2:0:0:0:
266,239,136420,1,8,2:0:0:0:
231,267,136495,1,8,2:0:0:0:
210,306,136570,2,0,P|207:335|206:360,3,45,2|0|0|0,1:2|3:0|3:0|3:0,2:0:0:0:
158,151,136870,5,10,2:2:0:0:
202,156,136945,1,8,2:0:0:0:
245,144,137020,1,8,2:0:0:0:
280,116,137095,1,8,2:0:0:0:
301,77,137170,2,0,P|305:49|306:24,3,45,2|0|0|0,1:2|3:0|3:0|3:0,2:0:0:0:
188,54,137470,21,6,1:2:0:0:
120,58,137545,1,2,2:0:0:0:
74,97,137620,1,10,2:0:0:0:
57,148,137695,1,2,2:0:0:0:
68,193,137770,5,2,1:2:0:0:
114,240,137845,1,2,1:2:0:0:
173,252,137920,1,10,1:2:0:0:
223,231,137995,1,2,2:0:0:0:
251,193,138070,1,2,1:2:0:0:
259,153,138145,1,2,2:0:0:0:
268,120,138220,1,10,2:0:0:0:
283,97,138295,1,2,2:0:0:0:
296,82,138370,1,2,1:2:0:0:
308,75,138445,1,2,1:2:0:0:
319,68,138520,1,10,1:2:0:0:
325,65,138595,1,2,2:0:0:0:
331,63,138670,1,2,1:2:0:0:
344,61,138745,1,2,2:0:0:0:
364,60,138820,1,10,2:0:0:0:
390,65,138895,1,2,2:0:0:0:
421,78,138970,53,2,1:2:0:0:
445,101,139045,1,2,1:2:0:0:
460,131,139120,1,10,1:2:0:0:
464,171,139195,1,2,2:0:0:0:
449,215,139270,1,2,1:2:0:0:
416,249,139345,1,2,2:0:0:0:
370,263,139420,1,10,2:0:0:0:
316,252,139495,1,2,2:0:0:0:
272,209,139570,6,0,B|241:180|192:184|192:184|183:158|183:158|125:162|83:111,1,202.5,2|0,1:2|3:0,2:0:0:0:
57,39,139870,53,2,1:2:0:0:
123,25,139945,1,2,2:0:0:0:
176,53,140020,1,10,2:0:0:0:
205,98,140095,1,2,2:0:0:0:
208,145,140170,1,2,1:2:0:0:
196,183,140245,1,2,1:2:0:0:
174,208,140320,1,10,1:2:0:0:
151,223,140395,1,2,2:0:0:0:
129,229,140470,6,0,P|98:231|62:223,1,58.5,2|2,1:2|2:0,2:0:0:0:
205,98,140620,2,0,P|236:96|272:104,1,58.5,10|2,2:0|2:0,2:0:0:0:
51,95,140770,54,0,P|50:66|55:38,1,58.5,2|2,1:2|1:2,2:0:0:0:
276,219,140920,2,0,P|277:248|271:276,1,58.5,10|2,1:2|2:0,2:0:0:0:
87,314,141070,6,0,L|78:380,1,58.5,2|0,1:2|3:0,2:0:0:0:
191,181,141220,1,10,2:0:0:0:
191,181,141295,2,0,L|200:247,1,58.5,2|0,2:0|1:0,2:0:0:0:
334,285,141445,1,0,1:0:0:0:
334,285,141520,2,0,L|325:351,1,58.5,10|0,1:2|3:0,2:0:0:0:
175,384,141670,54,0,L|167:326,1,58.5,2|0,1:2|3:0,2:0:0:0:
54,249,141820,1,10,2:0:0:0:
54,249,141895,2,0,B|51:212|51:212|68:215|68:215|58:197|58:197|67:199|67:199|66:182|66:182|74:138,1,144,2|0,2:0|1:0,2:0:0:0:
144,59,142120,2,0,L|153:125,1,58.5,10|0,1:2|3:0,2:0:0:0:
276,219,142270,6,0,L|283:161,1,58.5,2|0,1:2|3:0,2:0:0:0:
340,9,142420,1,10,2:0:0:0:
374,15,142495,1,2,2:0:0:0:
402,35,142570,2,0,P|420:76|423:109,1,58.5,0|0,1:0|1:0,2:0:0:0:
250,64,142720,2,0,P|232:23|229:-10,1,58.5,10|0,1:2|3:0,2:0:0:0:
374,180,142870,1,0,1:0:0:0:
395,207,142945,1,2,2:0:0:0:
417,234,143020,2,0,L|459:285,1,58.5,10|0,2:0|3:0,2:0:0:0:
315,384,143170,54,0,B|301:327|301:327|306:317|306:317|288:251,1,135,2|10,1:2|1:2,2:0:0:0:
193,135,143395,1,2,2:0:0:0:
162,117,143470,2,0,B|125:150|133:195|133:195|108:210|108:210|117:260|71:296,1,202.5,2|0,1:2|3:0,2:0:0:0:
161,377,143770,2,0,L|151:298,1,58.5,2|0,1:2|1:0,2:0:0:0:
41,169,143920,2,0,L|32:235,1,58.5,10|0,1:2|3:0,2:0:0:0:
204,233,144070,6,0,P|264:207|290:135,1,135,2|10,1:2|2:0,2:0:0:0:
230,3,144295,2,0,B|224:23|224:23|230:32|230:32|215:30|215:30|226:42|226:42|217:40|217:40|220:48|220:48|205:106,1,135,2|0,2:2|1:0,3:0:0:0:
117,128,144520,2,0,L|135:204,1,67.5,10|0,1:2|3:0,2:0:0:0:
196,314,144670,53,2,1:2:0:0:
255,368,144745,1,2,2:0:0:0:
321,358,144820,1,10,2:0:0:0:
359,320,144895,1,2,2:0:0:0:
369,280,144970,1,2,1:2:0:0:
361,240,145045,1,2,1:2:0:0:
331,203,145120,1,10,1:2:0:0:
272,188,145195,1,2,2:0:0:0:
198,178,145270,5,2,1:2:0:0:
156,116,145345,1,2,2:0:0:0:
167,56,145420,1,10,2:0:0:0:
200,22,145495,1,2,2:0:0:0:
231,10,145570,1,2,1:2:0:0:
251,10,145645,1,2,1:2:0:0:
277,15,145720,1,10,1:2:0:0:
311,36,145795,1,2,2:0:0:0:
340,72,145870,1,2,1:2:0:0:
376,89,145945,1,2,2:0:0:0:
409,88,146020,1,10,2:0:0:0:
434,79,146095,1,2,2:0:0:0:
451,68,146170,53,2,1:2:0:0:
434,119,146245,1,2,1:2:0:0:
445,159,146320,1,10,1:2:0:0:
459,181,146395,1,2,2:0:0:0:
474,191,146470,5,2,1:2:0:0:
416,225,146545,1,2,2:0:0:0:
356,239,146620,1,10,2:0:0:0:
302,239,146695,1,2,2:0:0:0:
256,228,146770,2,0,B|215:248|172:220|172:220|150:236|150:236|110:215|65:237,1,202.5,2|0,1:2|3:0,2:0:0:0:
73,346,147070,53,6,1:2:0:0:
86,346,147145,1,2,2:0:0:0:
106,346,147220,1,10,2:0:0:0:
132,340,147295,1,2,2:0:0:0:
162,325,147370,1,2,1:2:0:0:
188,293,147445,1,2,1:2:0:0:
201,247,147520,1,10,1:2:0:0:
187,194,147595,1,2,2:0:0:0:
153,143,147670,1,2,1:2:0:0:
146,75,147745,1,2,2:0:0:0:
185,20,147820,1,10,2:0:0:0:
257,5,147895,1,2,2:0:0:0:
316,49,147970,2,0,B|334:93|334:93|321:124|321:124|333:161|333:161|330:200|330:200|349:259,1,202.5,2|0,1:2|3:0,2:0:0:0:
385,350,148270,6,0,L|406:286,1,58.5,2|0,1:2|3:0,2:0:0:0:
512,151,148420,1,10,2:0:0:0:
512,151,148495,1,2,2:0:0:0:
512,151,148570,2,0,L|454:162,1,58.5,2|0,1:2|1:0,2:0:0:0:
277,141,148720,1,10,1:2:0:0:
277,141,148795,1,2,2:0:0:0:
277,141,148870,2,0,L|315:184,1,58.5,2|0,1:2|3:0,2:0:0:0:
485,252,149020,1,10,2:0:0:0:
485,252,149095,1,2,2:0:0:0:
485,252,149170,2,0,L|478:320,1,58.5,2|0,1:2|1:0,2:0:0:0:
287,374,149320,2,0,L|293:312,1,58.5,10|0,1:2|3:0,2:0:0:0:
181,113,149470,53,2,1:2:0:0:
175,141,149545,1,2,2:0:0:0:
169,169,149620,1,10,2:0:0:0:
164,197,149695,1,2,2:0:0:0:
131,196,149770,5,2,1:2:0:0:
136,221,149845,1,2,1:2:0:0:
141,246,149920,1,10,1:2:0:0:
146,271,149995,1,2,2:0:0:0:
182,262,150070,53,2,1:2:0:0:
177,284,150145,1,2,2:0:0:0:
173,306,150220,1,10,2:0:0:0:
168,329,150295,1,2,2:0:0:0:
130,324,150370,5,2,1:2:0:0:
134,343,150445,1,2,1:2:0:0:
138,363,150520,1,10,1:2:0:0:
142,384,150595,1,2,2:0:0:0:
180,384,150670,53,2,1:2:0:0:
206,371,150745,1,2,2:0:0:0:
232,358,150820,1,10,2:0:0:0:
258,346,150895,1,2,2:0:0:0:
269,310,150970,5,2,1:2:0:0:
297,295,151045,1,2,1:2:0:0:
326,281,151120,1,10,1:2:0:0:
354,268,151195,1,2,2:0:0:0:
371,230,151270,54,0,B|389:133|312:64|213:91|183:168|183:168|136:136|136:136|81:175|16:137,1,472.5,2|0,1:2|1:2,2:0:0:0:
13,71,151870,5,2,1:2:0:0:
58,35,151945,1,2,2:0:0:0:
115,30,152020,1,10,2:0:0:0:
165,59,152095,1,2,2:0:0:0:
190,111,152170,1,2,1:2:0:0:
182,168,152245,1,2,1:2:0:0:
174,224,152320,1,10,1:2:0:0:
199,276,152395,1,2,2:0:0:0:
249,305,152470,1,2,1:2:0:0:
306,300,152545,1,2,2:0:0:0:
351,265,152620,2,0,P|366:231|368:196,1,58.5,10|2,2:0|2:0,2:0:0:0:
190,111,152770,2,0,P|212:140|241:159,1,58.5,2|2,1:2|1:2,2:0:0:0:
404,47,152920,2,0,P|367:51|336:67,1,58.5,10|2,1:2|2:0,2:0:0:0:
268,219,153070,53,2,1:2:0:0:
228,267,153145,1,2,2:0:0:0:
169,283,153220,1,10,2:0:0:0:
111,261,153295,1,2,2:0:0:0:
76,210,153370,1,2,1:2:0:0:
78,148,153445,1,2,1:2:0:0:
116,99,153520,1,10,1:2:0:0:
175,81,153595,1,2,2:0:0:0:
234,101,153670,1,2,1:2:0:0:
296,124,153745,1,2,2:0:0:0:
362,112,153820,1,10,2:0:0:0:
413,69,153895,1,2,2:0:0:0:
435,6,153970,2,0,L|347:-4,1,67.5,2|2,1:2|1:2,2:0:0:0:
175,186,154120,2,0,L|263:175,1,67.5,10|2,1:2|2:0,2:0:0:0:
477,213,154270,6,0,B|531:280|509:334|480:388|417:396|350:388|329:345|313:297|313:297|255:354|173:303,1,472.5,2|0,1:2|3:0,2:0:0:0:
122,227,154870,53,2,1:2:0:0:
119,253,154945,1,2,2:0:0:0:
116,279,155020,1,10,2:0:0:0:
113,305,155095,1,2,2:0:0:0:
137,311,155170,5,2,1:2:0:0:
139,334,155245,1,2,1:2:0:0:
142,357,155320,1,10,1:2:0:0:
145,381,155395,1,2,2:0:0:0:
109,384,155470,53,10,2:0:0:0:
47,359,155545,1,10,2:0:0:0:
11,303,155620,1,10,2:0:0:0:
15,236,155695,1,10,2:0:0:0:
56,185,155770,6,0,L|67:128,3,58.5,2|2|2|2,1:2|3:2|3:2|3:2,2:0:0:0:
146,24,156070,2,0,L|156:81,3,49.5,2|2|2|2,1:2|3:2|3:2|3:2,2:0:0:0:
228,193,156370,2,0,L|238:135,3,40.5,2|2|2|2,1:2|3:2|3:2|3:2,2:0:0:0:
318,32,156670,5,6,1:2:0:0:
401,273,156820,1,10,2:0:0:0:
191,126,156970,2,0,L|261:126,1,58.5,0|0,1:0|1:0,2:0:0:0:
447,122,157120,1,10,1:2:0:0:
244,277,157270,1,0,1:0:0:0:
478,114,157420,2,0,P|474:53|411:3,1,117,10|0,2:0|1:0,2:0:0:0:
167,123,157720,1,10,1:2:0:0:
416,289,157870,6,0,B|408:228|408:228|372:170,1,117,2|10,1:2|2:0,2:0:0:0:
218,233,158095,2,8,B|273:257|273:257|342:254,1,117,2|0,2:0|1:0,2:0:0:0:
365,88,158320,2,0,L|316:124,1,58.5,10|0,1:2|3:0,2:0:0:0:
230,320,158470,5,2,1:2:0:0:
236,81,158620,1,10,2:0:0:0:
108,255,158770,1,0,1:0:0:0:
108,255,158845,1,0,1:0:0:0:
108,255,158920,1,10,1:2:0:0:
313,189,159070,38,0,B|376:182|376:182|408:123,1,117,2|10,1:2|2:0,2:0:0:0:
236,81,159295,2,0,B|210:139|210:139|245:196,1,117,2|0,2:0|1:0,2:0:0:0:
368,68,159520,2,0,L|330:16,1,58.5,10|0,1:2|3:0,2:0:0:0:
166,52,159670,6,0,B|135:129|135:129|141:170,1,117,2|10,1:2|2:0,2:0:0:0:
212,295,159895,2,0,B|243:218|243:218|237:177,1,117,2|0,2:0|1:0,2:0:0:0:
89,234,160120,2,0,L|156:235,1,58.5,10|0,1:2|3:0,2:0:0:0:
236,81,160270,5,2,1:2:0:0:
306,261,160420,1,10,2:0:0:0:
139,162,160570,1,0,1:0:0:0:
139,162,160645,1,0,1:0:0:0:
139,162,160720,1,10,1:2:0:0:
371,179,160870,37,0,1:0:0:0:
147,234,161020,1,10,2:0:0:0:
364,320,161170,1,0,1:0:0:0:
380,326,161245,1,0,1:0:0:0:
396,332,161320,1,10,1:2:0:0:
412,338,161395,1,0,3:0:0:0:
428,344,161470,37,6,1:2:0:0:
445,307,161545,1,2,1:2:0:0:
438,260,161620,1,10,1:2:0:0:
404,217,161695,1,2,1:2:0:0:
346,197,161770,1,2,1:2:0:0:
278,194,161845,1,2,1:2:0:0:
213,156,161920,1,10,1:2:0:0:
193,84,161995,1,2,1:2:0:0:
237,16,162070,6,0,L|296:12,1,58.5,2|0,1:2|1:0,2:0:0:0:
512,128,162220,1,8,1:2:0:0:
479,149,162295,2,0,L|420:145,1,58.5,2|0,1:2|1:0,2:0:0:0:
239,276,162445,1,0,1:0:0:0:
275,297,162520,2,0,L|334:293,1,58.5,10|0,1:2|1:0,2:0:0:0:
295,102,162670,53,2,1:2:0:0:
251,64,162745,1,0,1:2:0:0:
194,57,162820,1,8,1:2:0:0:
143,84,162895,1,0,1:0:0:0:
116,135,162970,1,0,1:0:0:0:
123,192,163045,1,0,1:0:0:0:
161,235,163120,2,0,P|194:249|241:242,1,58.5,10|0,1:2|1:0,2:0:0:0:
420,145,163270,5,2,1:2:0:0:
415,175,163345,1,0,1:0:0:0:
411,206,163420,1,8,1:2:0:0:
407,237,163495,1,0,1:0:0:0:
367,244,163570,53,2,1:2:0:0:
371,278,163645,1,0,1:0:0:0:
375,311,163720,1,8,1:2:0:0:
379,345,163795,1,0,1:0:0:0:
417,373,163870,6,0,L|475:384,1,58.5,2|0,1:2|1:0,2:0:0:0:
336,168,164020,1,10,1:2:0:0:
274,174,164095,1,0,1:0:0:0:
225,213,164170,1,0,1:0:0:0:
204,271,164245,1,0,1:0:0:0:
191,328,164320,1,8,1:2:0:0:
144,368,164395,1,0,1:0:0:0:
83,371,164470,1,0,1:0:0:0:
32,336,164545,1,0,1:0:0:0:
14,276,164620,1,8,1:2:0:0:
37,219,164695,1,0,1:0:0:0:
90,187,164770,1,0,1:0:0:0:
140,152,164845,1,0,1:0:0:0:
156,92,164920,1,8,1:2:0:0:
130,37,164995,1,0,1:0:0:0:
73,12,165070,53,8,2:0:0:0:
67,30,165145,1,8,2:0:0:0:
61,47,165220,2,0,B|81:88|135:73|135:73|156:95|156:95|194:75|245:114,1,189,10|0,2:0|3:0,2:0:0:0:
252,203,165520,1,2,3:2:0:0:
257,221,165595,1,2,3:2:0:0:
262,238,165670,6,0,L|319:268,1,58.5,2|0,1:2|3:0,2:0:0:0:
110,280,165820,2,0,L|53:250,1,58.5,0|0,3:2|3:0,2:0:0:0:
156,92,165970,1,10,2:0:0:0:
219,84,166045,1,8,2:0:0:0:
283,76,166120,1,8,2:0:0:0:
347,68,166195,1,8,2:0:0:0:
411,60,166270,5,6,1:2:0:0:
378,286,166420,1,10,2:0:0:0:
283,76,166570,2,0,L|274:145,1,58.5,0|0,1:0|1:0,2:0:0:0:
249,301,166720,1,10,1:2:0:0:
156,92,166870,1,0,1:0:0:0:
395,175,167020,2,0,P|401:232|378:286,1,117,10|0,2:0|1:0,2:0:0:0:
180,292,167320,1,10,1:2:0:0:
219,84,167470,6,0,B|257:41|257:41|322:29,1,117,2|10,1:2|2:0,2:0:0:0:
395,175,167695,2,0,B|338:163|338:163|296:112,1,117,2|0,2:0|1:0,2:0:0:0:
383,0,167920,2,0,B|406:66,1,58.5,10|0,1:2|3:0,2:0:0:0:
409,248,168070,6,0,L|333:358,1,117,2|10,1:2|2:0,2:0:0:0:
219,84,168295,2,0,L|352:94,1,117,2|0,2:0|1:0,2:0:0:0:
172,331,168520,2,0,L|130:249,1,58.5,10|0,1:2|3:0,2:0:0:0:
61,110,168670,37,2,1:2:0:0:
271,193,168820,1,10,2:0:0:0:
70,255,168970,1,0,1:0:0:0:
70,255,169045,1,0,1:0:0:0:
70,255,169120,1,10,1:2:0:0:
188,76,169270,1,2,1:2:0:0:
189,291,169420,1,10,2:0:0:0:
183,48,169570,2,0,L|197:139,1,58.5,0|0,1:0|1:0,2:0:0:0:
70,255,169720,2,0,L|78:197,1,58.5,10|0,1:2|3:0,2:0:0:0:
283,95,169870,5,2,1:2:0:0:
271,330,170020,1,10,2:0:0:0:
352,141,170170,2,0,L|308:182,1,58.5,0|0,1:0|1:0,2:0:0:0:
189,291,170320,1,10,1:2:0:0:
378,217,170470,1,2,1:2:0:0:
159,206,170620,1,10,2:0:0:0:
355,299,170770,1,0,1:0:0:0:
355,299,170845,1,0,1:0:0:0:
355,299,170920,1,10,1:2:0:0:
198,125,171070,21,6,1:2:0:0:
170,115,171145,1,2,1:2:0:0:
134,117,171220,1,10,1:2:0:0:
97,135,171295,1,2,1:2:0:0:
70,173,171370,1,2,1:2:0:0:
68,225,171445,1,2,1:2:0:0:
99,274,171520,1,10,1:2:0:0:
160,294,171595,1,2,1:2:0:0:
225,268,171670,1,2,1:2:0:0:
288,226,171745,1,2,1:2:0:0:
363,222,171820,1,10,1:2:0:0:
435,259,171895,1,2,1:2:0:0:
467,333,171970,6,0,B|428:373|371:340|371:340|346:362|346:362|297:339|244:372,1,229.5,2|0,1:2|1:0,2:0:0:0:
115,354,172270,53,2,1:2:0:0:
160,294,172345,1,2,1:2:0:0:
231,265,172420,1,10,1:2:0:0:
305,274,172495,1,2,1:2:0:0:
379,286,172570,1,2,1:2:0:0:
446,252,172645,1,2,1:2:0:0:
482,185,172720,1,10,1:2:0:0:
470,111,172795,1,2,1:2:0:0:
419,57,172870,1,2,1:2:0:0:
344,43,172945,1,2,1:2:0:0:
277,76,173020,1,10,1:2:0:0:
240,141,173095,1,2,1:2:0:0:
196,202,173170,1,2,1:2:0:0:
125,226,173245,1,2,1:2:0:0:
52,206,173320,1,10,1:2:0:0:
5,148,173395,1,2,1:2:0:0:
1,73,173470,5,2,1:2:0:0:
57,58,173545,1,0,1:0:0:0:
114,67,173620,1,8,1:2:0:0:
164,98,173695,1,0,1:0:0:0:
211,131,173770,1,0,1:0:0:0:
269,133,173845,1,0,1:0:0:0:
319,105,173920,1,8,1:2:0:0:
347,55,173995,1,0,1:0:0:0:
344,0,174070,53,2,1:2:0:0:
280,19,174145,1,0,1:0:0:0:
232,66,174220,1,8,1:2:0:0:
211,131,174295,1,0,1:0:0:0:
219,195,174370,1,0,1:0:0:0:
257,250,174445,1,0,1:0:0:0:
315,282,174520,1,8,1:2:0:0:
382,284,174595,1,0,1:0:0:0:
443,256,174670,5,8,2:0:0:0:
480,180,174745,1,8,2:0:0:0:
472,96,174820,1,10,2:0:0:0:
421,29,174895,1,8,2:0:0:0:
344,0,174970,54,0,P|305:23|280:68,1,76.5,0|0,1:0|2:0,2:0:0:0:
116,242,175120,2,0,P|161:246|207:224,1,76.5,2|0,3:2|2:0,2:0:0:0:
444,180,175270,2,0,P|410:150|359:140,1,76.5,2|0,1:2|2:0,2:0:0:0:
141,38,175420,2,0,P|150:82|185:119,1,76.5,0|0,3:0|2:0,2:0:0:0:
304,330,175570,2,0,P|322:288|315:237,1,76.5,2|0,1:2|2:0,2:0:0:0:
344,0,175720,2,0,P|305:23|280:67,1,76.5,0|0,3:0|2:0,2:0:0:0:
104,245,175870,54,0,B|96:303|138:369|226:378|320:298|271:210|217:181|217:181|269:168|269:168|219:117|245:33|286:-23|411:-20|461:63|434:143,1,809.999999999998,6|2,1:2|2:0,2:0:0:0:
376,243,178270,54,4,B|431:214|481:220|481:220|382:334|258:278|258:278|337:206|344:104|344:104|251:109|202:179|202:179|248:171|299:191,1,809.999999999998,6|0,1:2|2:0,2:2:0:0:
184,256,180670,54,0,B|146:276|108:281|-13:259|30:160|147:158|104:274|60:315|60:315|99:287,1,323.999990112305,6|0,1:2|3:0,2:0:0:0:
328,256,181870,22,0,B|365:276|403:281|525:259|481:160|364:158|407:274|451:315|451:315|412:287,1,323.999990112305,6|0,1:2|3:0,2:0:0:0:
176,150,183070,54,0,B|228:151|256:123|256:123|310:82|256:28|201:82|256:123|256:123|283:151|337:151,1,323.999999999999,6|2,1:2|2:0,2:0:0:0:
132,74,184270,53,10,2:0:0:0:
99,104,184345,1,8,2:0:0:0:
85,146,184420,1,8,2:0:0:0:
95,190,184495,1,8,2:0:0:0:
124,223,184570,2,0,L|169:243,3,45,0|0|0|0,1:0|3:0|3:0|3:0,2:0:0:0:
387,223,184870,2,0,L|343:243,3,45,2|0|0|0,1:2|3:0|3:0|3:0,2:0:0:0:
256,80,185170,2,0,L|256:128,3,45,2|0|0|0,1:2|3:0|3:0|3:0,2:0:0:0:
256,304,185470,21,6,1:2:0:0:
382,125,185620,1,10,2:0:0:0:
381,343,185770,2,0,L|346:296,1,45,0|0,1:0|1:0,2:0:0:0:
256,166,185920,1,10,1:2:0:0:
461,235,186070,1,0,1:0:0:0:
336,58,186220,1,10,2:0:0:0:
304,247,186370,1,2,1:2:0:0:
275,259,186445,1,0,1:0:0:0:
243,262,186520,2,0,P|211:249|184:225,1,45,10|0,1:2|3:0,2:0:0:0:
102,62,186670,53,2,1:2:0:0:
139,276,186820,1,10,2:0:0:0:
189,71,186970,2,0,L|161:112,1,45,0|0,1:0|1:0,2:0:0:0:
51,266,187120,1,10,1:2:0:0:
238,148,187270,1,2,1:2:0:0:
2,189,187420,1,10,2:0:0:0:
149,7,187570,1,0,1:0:0:0:
149,7,187645,1,0,1:0:0:0:
149,7,187720,1,10,1:2:0:0:
103,210,187870,53,10,2:0:0:0:
124,249,187945,1,8,2:0:0:0:
159,267,188020,1,8,2:0:0:0:
194,265,188095,1,8,2:0:0:0:
222,252,188170,2,0,L|253:230,3,33.7500000000001,0|0|0|0,1:0|3:0|3:0|3:0,2:0:0:0:
238,148,188470,2,0,L|269:126,3,33.7500000000001,0|0|0|0,1:0|3:0|3:0|3:0,2:0:0:0:
293,37,188770,1,8,2:0:0:0:
327,59,188845,1,8,2:0:0:0:
350,92,188920,1,8,2:0:0:0:
361,131,188995,1,8,2:0:0:0:
357,172,189070,21,0,1:0:0:0:
399,0,189220,1,0,3:0:0:0:
238,148,189370,1,0,1:0:0:0:
502,169,189520,2,0,L|471:202,1,33.7500000000001,0|0,3:0|3:0,2:0:0:0:
331,326,189670,53,8,2:0:0:0:
331,326,190270,21,6,1:2:0:0:
86,212,190420,1,8,2:0:0:0:
293,37,190570,1,0,1:0:0:0:
293,37,190645,1,0,1:0:0:0:
293,37,190720,1,8,1:2:0:0:
242,301,190870,2,0,P|240:341|253:378,1,58.5,2|0,1:2|3:0,2:0:0:0:
124,137,191020,2,0,P|126:97|113:60,1,58.5,8|0,2:0|3:0,2:0:0:0:
305,250,191170,1,2,1:2:0:0:
345,255,191245,1,0,1:0:0:0:
385,249,191320,2,0,P|418:236|445:215,1,58.5,8|0,1:2|3:0,2:0:0:0:
357,0,191470,5,2,1:2:0:0:
208,205,191620,1,8,2:0:0:0:
407,82,191770,54,0,L|347:93,1,58.5,0|0,1:0|1:0,2:0:0:0:
157,122,191920,1,8,1:2:0:0:
385,177,192070,5,0,1:0:0:0:
180,28,192220,1,8,2:0:0:0:
302,227,192370,1,2,1:2:0:0:
325,261,192445,1,0,1:0:0:0:
350,293,192520,2,0,L|421:319,1,58.5,8|0,1:2|3:0,2:0:0:0:
110,310,192670,53,2,1:2:0:0:
284,105,192820,1,8,2:0:0:0:
207,341,192970,5,0,1:0:0:0:
186,73,193120,1,8,1:2:0:0:
63,218,193270,53,2,1:2:0:0:
330,196,193420,1,8,2:0:0:0:
94,120,193570,5,0,1:0:0:0:
299,294,193720,1,8,1:2:0:0:
260,25,193870,53,2,1:2:0:0:
172,281,194020,1,8,2:0:0:0:
392,125,194170,2,0,L|332:124,1,58.5,0|0,1:0|1:0,2:0:0:0:
122,121,194320,1,8,1:2:0:0:
338,283,194470,1,0,1:0:0:0:
259,7,194620,1,8,2:0:0:0:
161,299,194770,1,2,1:2:0:0:
135,331,194845,1,0,1:0:0:0:
96,345,194920,2,0,P|62:347|28:336,1,58.5,8|0,1:2|3:0,2:0:0:0:
13,149,195070,5,6,1:2:0:0:
61,117,195145,1,0,1:0:0:0:
118,108,195220,1,8,1:2:0:0:
174,123,195295,1,0,1:0:0:0:
219,160,195370,1,0,1:0:0:0:
260,200,195445,1,0,1:0:0:0:
316,213,195520,1,8,1:2:0:0:
370,194,195595,1,0,1:0:0:0:
407,149,195670,1,0,1:0:0:0:
414,92,195745,1,0,1:0:0:0:
390,39,195820,1,8,1:2:0:0:
341,7,195895,1,0,1:0:0:0:
284,6,195970,53,2,1:2:0:0:
274,61,196045,1,0,1:0:0:0:
295,115,196120,1,8,1:2:0:0:
341,151,196195,1,0,1:0:0:0:
407,149,196270,5,2,1:2:0:0:
407,149,196345,1,0,1:0:0:0:
407,149,196420,2,0,P|437:153|470:177,1,58.5,8|0,1:2|1:0,2:0:0:0:
370,258,196570,1,2,1:2:0:0:
370,258,196645,1,0,1:0:0:0:
370,258,196720,2,0,P|388:281|394:321,1,58.5,8|0,1:2|1:0,2:0:0:0:
266,308,196870,1,2,1:2:0:0:
266,308,196945,1,0,1:0:0:0:
266,308,197020,2,0,P|262:337|238:370,1,58.5,8|0,1:2|1:0,2:0:0:0:
156,270,197170,1,2,1:2:0:0:
156,270,197245,1,0,1:0:0:0:
156,269,197320,2,0,P|132:287|92:293,1,58.5,8|0,1:2|1:0,3:0:0:0:
105,162,197470,53,2,1:2:0:0:
124,107,197545,1,0,1:0:0:0:
168,70,197620,1,8,1:2:0:0:
225,59,197695,1,0,1:0:0:0:
280,78,197770,1,0,1:0:0:0:
317,123,197845,1,0,1:0:0:0:
357,164,197920,1,8,1:2:0:0:
414,171,197995,1,0,1:0:0:0:
463,143,198070,5,2,1:2:0:0:
448,78,198145,1,0,1:0:0:0:
397,37,198220,1,8,1:2:0:0:
331,36,198295,1,0,1:0:0:0:
280,78,198370,1,0,1:0:0:0:
262,140,198445,1,0,1:0:0:0:
288,201,198520,1,8,1:2:0:0:
347,232,198595,1,0,1:0:0:0:
412,220,198670,54,0,B|444:200|465:143|465:143|403:156|367:143,1,166.5,12|8,2:0|2:0,2:0:0:0:
302,102,198895,1,8,2:0:0:0:
280,78,198970,5,10,2:0:0:0:
224,62,199045,1,8,2:0:0:0:
171,83,199120,1,8,2:0:0:0:
140,131,199195,1,8,2:0:0:0:
145,189,199270,53,0,1:0:0:0:
149,217,199345,1,0,3:0:0:0:
153,245,199420,1,0,3:0:0:0:
156,274,199495,1,0,3:0:0:0:
196,285,199570,5,0,1:0:0:0:
192,308,199645,1,0,3:0:0:0:
190,332,199720,1,0,3:0:0:0:
187,356,199795,1,0,3:0:0:0:
155,375,199870,53,6,1:2:0:0:
72,162,200020,1,8,2:0:0:0:
0,384,200170,1,0,1:0:0:0:
0,384,200245,1,0,1:0:0:0:
0,384,200320,1,8,1:2:0:0:
145,189,200470,2,0,P|150:153|139:107,1,58.5,2|0,1:2|3:0,2:0:0:0:
2,246,200620,2,0,P|-3:282|8:328,1,58.5,8|0,2:0|3:0,2:0:0:0:
229,157,200770,1,0,1:0:0:0:
268,148,200845,1,0,1:0:0:0:
308,152,200920,2,0,P|335:167|358:200,1,58.5,8|0,1:2|3:0,2:0:0:0:
375,382,201070,5,2,1:2:0:0:
402,126,201220,1,8,2:0:0:0:
304,351,201370,2,0,L|353:297,1,58.5,0|0,1:0|1:0,2:0:0:0:
472,156,201520,1,8,1:2:0:0:
264,287,201670,53,0,1:0:0:0:
512,220,201820,1,8,2:0:0:0:
277,216,201970,5,2,1:2:0:0:
236,219,202045,1,0,1:0:0:0:
203,244,202120,2,0,P|192:285|193:314,1,58.5,8|0,1:2|3:0,2:0:0:0:
468,320,202270,53,2,1:2:0:0:
226,360,202420,1,8,2:0:0:0:
327,126,202570,1,0,1:0:0:0:
327,126,202645,1,0,1:0:0:0:
327,126,202720,2,0,P|265:84|212:97,1,117,10|0,1:2|1:0,2:0:0:0:
99,278,203020,1,8,2:0:0:0:
326,247,203170,2,0,L|275:214,1,58.5,2|0,1:2|1:0,2:0:0:0:
106,99,203320,1,8,1:2:0:0:
327,16,203470,5,2,1:2:0:0:
382,33,203545,1,0,1:0:0:0:
421,75,203620,1,8,1:2:0:0:
435,131,203695,1,0,1:0:0:0:
420,187,203770,1,0,1:0:0:0:
380,229,203845,1,0,1:0:0:0:
325,246,203920,2,0,P|296:243|252:221,1,58.5,10|0,1:2|1:0,2:0:0:0:
106,99,204070,1,2,1:2:0:0:
50,114,204145,1,0,1:0:0:0:
14,159,204220,1,8,1:2:0:0:
12,217,204295,1,0,1:0:0:0:
43,265,204370,2,0,P|70:275|100:279,3,58.5,0|0|8|0,1:0|1:0|1:2|1:0,2:0:0:0:
190,166,204670,53,6,1:2:0:0:
229,112,204745,1,0,1:0:0:0:
292,94,204820,1,0,1:0:0:0:
354,119,204895,1,0,1:0:0:0:
386,177,204970,1,12,1:2:0:0:
376,243,205045,1,0,1:0:0:0:
327,288,205120,1,2,1:2:0:0:
261,293,205195,1,0,1:0:0:0:
206,257,205270,1,12,1:2:0:0:
149,222,205345,1,0,1:0:0:0:
82,223,205420,1,0,1:0:0:0:
26,259,205495,1,0,1:0:0:0:
0,320,205570,5,14,1:2:0:0:
53,367,205645,1,0,1:0:0:0:
128,373,205720,1,0,1:0:0:0:
188,330,205795,1,0,1:0:0:0:
206,257,205870,53,14,1:2:0:0:
206,257,207070,21,6,1:2:0:0:
367,140,207220,1,10,2:0:0:0:
367,140,207295,1,0,3:0:0:0:
367,140,207370,2,0,L|294:154,1,45,2|0,1:2|1:0,2:0:0:0:
185,87,207520,1,10,1:2:0:0:
185,87,207595,1,0,3:0:0:0:
185,87,207670,2,0,L|217:134,1,45,2|0,1:2|3:0,2:0:0:0:
346,46,207820,2,0,L|314:-1,1,45,10|0,2:0|3:0,2:0:0:0:
122,15,207970,1,2,1:2:0:0:
97,52,208045,1,2,1:2:0:0:
93,96,208120,1,10,1:2:0:0:
109,138,208195,1,2,2:0:0:0:
142,168,208270,5,2,1:2:0:0:
319,276,208420,1,10,2:0:0:0:
319,276,208495,1,0,3:0:0:0:
319,276,208570,1,2,1:2:0:0:
275,82,208720,2,0,L|262:129,1,45,10|0,1:2|3:0,2:0:0:0:
202,282,208870,1,2,1:2:0:0:
93,96,209020,1,10,2:0:0:0:
256,202,209170,1,2,1:2:0:0:
300,197,209245,1,2,1:2:0:0:
339,175,209320,1,10,1:2:0:0:
365,139,209395,1,2,2:0:0:0:
375,95,209470,70,0,P|379:66|372:32,1,45,2|0,1:2|3:0,2:0:0:0:
412,199,209620,2,0,P|435:181|454:152,1,45,10|0,2:0|3:0,2:0:0:0:
364,298,209770,1,2,1:2:0:0:
275,82,209920,54,0,P|270:53|278:19,1,45,10|0,1:2|3:0,2:0:0:0:
238,186,210070,2,0,P|214:168|195:139,1,45,2|0,1:2|3:0,2:0:0:0:
286,285,210220,1,10,2:0:0:0:
103,86,210370,1,2,1:2:0:0:
101,103,210445,1,2,1:2:0:0:
99,120,210520,1,10,1:2:0:0:
98,137,210595,1,2,2:0:0:0:
96,154,210670,5,2,1:2:0:0:
117,192,210745,1,0,1:0:0:0:
156,213,210820,1,10,1:2:0:0:
201,211,210895,1,0,1:0:0:0:
237,185,210970,1,2,1:2:0:0:
273,159,211045,1,0,1:0:0:0:
318,157,211120,1,10,1:2:0:0:
357,178,211195,1,0,1:0:0:0:
378,216,211270,2,0,L|389:281,1,45,2|0,1:2|1:0,2:0:0:0:
295,384,211420,2,0,L|301:339,1,45,10|0,1:2|1:0,2:0:0:0:
273,159,211570,2,0,L|262:223,1,45,2|2,1:2|1:2,2:0:0:0:
428,384,211720,2,0,L|421:339,1,45,10|2,1:2|1:2,2:0:0:0:
406,104,211870,69,6,1:2:0:0:
357,95,211945,1,0,3:0:0:0:
308,86,212020,1,10,2:0:0:0:
259,77,212095,1,0,3:0:0:0:
211,68,212170,1,2,1:2:0:0:
112,251,212320,2,0,L|163:207,1,49.5,10|0,1:2|3:0,2:0:0:0:
308,86,212470,1,2,1:2:0:0:
324,311,212620,1,10,2:0:0:0:
475,149,212770,1,2,1:2:0:0:
490,102,212845,1,2,1:2:0:0:
476,55,212920,1,10,1:2:0:0:
438,24,212995,1,2,2:0:0:0:
390,20,213070,54,0,L|334:32,1,49.5,2|0,1:2|3:0,2:0:0:0:
154,64,213220,1,10,2:0:0:0:
154,64,213295,1,0,3:0:0:0:
154,64,213370,1,2,1:2:0:0:
376,122,213520,2,0,L|319:133,1,49.5,10|0,1:2|3:0,2:0:0:0:
139,165,213670,1,2,1:2:0:0:
342,243,213820,1,10,2:0:0:0:
113,285,213970,1,2,1:2:0:0:
72,257,214045,1,2,1:2:0:0:
43,217,214120,1,10,1:2:0:0:
29,170,214195,1,2,2:0:0:0:
32,121,214270,6,0,P|54:87|77:66,1,49.5,2|0,1:2|3:0,2:0:0:0:
204,305,214420,1,10,2:0:0:0:
204,305,214495,1,0,3:0:0:0:
204,305,214570,1,2,1:2:0:0:
105,73,214720,2,0,P|144:64|175:65,1,49.5,10|0,1:2|3:0,2:0:0:0:
96,324,214870,1,2,1:2:0:0:
216,83,215020,1,10,2:0:0:0:
316,324,215170,1,2,1:2:0:0:
358,347,215245,1,2,1:2:0:0:
407,348,215320,1,10,1:2:0:0:
451,325,215395,1,2,2:0:0:0:
478,284,215470,70,0,P|479:249|474:227,1,49.5,2|0,1:2|3:0,2:0:0:0:
268,181,215620,1,10,2:0:0:0:
268,181,215695,1,0,3:0:0:0:
268,181,215770,2,0,P|288:194|311:203,1,49.5,2|0,1:2|1:0,2:0:0:0:
461,50,215920,2,0,P|439:60|420:76,1,49.5,10|0,1:2|3:0,2:0:0:0:
391,271,216070,1,2,1:2:0:0:
261,83,216220,1,10,2:0:0:0:
204,305,216370,1,2,1:2:0:0:
161,328,216445,1,2,1:2:0:0:
112,329,216520,1,10,1:2:0:0:
68,306,216595,1,2,2:0:0:0:
41,265,216670,54,0,P|40:229|45:207,1,54,6|0,1:2|3:0,2:0:0:0:
155,64,216820,1,10,2:0:0:0:
155,64,216895,1,0,3:0:0:0:
155,64,216970,2,0,L|170:137,1,54,2|0,1:2|1:0,2:0:0:0:
204,305,217120,2,0,L|214:252,1,54,10|0,1:2|3:0,2:0:0:0:
45,111,217270,1,2,1:2:0:0:
322,131,217420,1,10,2:0:0:0:
129,250,217570,1,2,1:2:0:0:
118,302,217645,1,2,1:2:0:0:
137,351,217720,1,10,1:2:0:0:
181,382,217795,1,2,2:0:0:0:
234,384,217870,6,0,L|287:375,1,54,2|0,1:2|3:0,2:0:0:0:
345,278,218020,2,0,L|398:287,1,54,10|0,2:0|3:0,2:0:0:0:
497,384,218170,1,2,1:2:0:0:
464,156,218320,1,10,1:2:0:0:
464,156,218395,1,0,3:0:0:0:
464,156,218470,2,0,L|411:165,1,54,2|0,1:2|3:0,2:0:0:0:
291,287,218620,2,0,L|344:278,1,54,10|0,2:0|3:0,2:0:0:0:
207,122,218770,1,2,1:2:0:0:
154,113,218845,1,2,1:2:0:0:
104,133,218920,1,10,1:2:0:0:
71,175,218995,1,2,2:0:0:0:
64,228,219070,69,2,1:2:0:0:
231,0,219220,1,10,2:0:0:0:
228,278,219370,1,2,1:2:0:0:
64,53,219520,2,0,L|121:75,1,58.5,10|0,1:2|3:0,2:0:0:0:
334,141,219670,1,2,1:2:0:0:
45,30,219820,1,10,2:0:0:0:
234,294,219970,1,2,1:2:0:0:
241,313,220045,1,2,1:2:0:0:
251,334,220120,1,10,1:2:0:0:
260,356,220195,1,2,2:0:0:0:
268,378,220270,53,2,1:2:0:0:
304,327,220345,1,0,1:0:0:0:
312,264,220420,1,10,1:2:0:0:
276,212,220495,1,0,1:0:0:0:
234,167,220570,1,2,1:2:0:0:
222,100,220645,1,0,1:0:0:0:
251,39,220720,1,10,1:2:0:0:
309,4,220795,1,0,1:0:0:0:
380,13,220870,1,2,1:2:0:0:
436,57,220945,1,0,1:0:0:0:
454,126,221020,1,10,1:2:0:0:
427,192,221095,1,0,1:0:0:0:
402,259,221170,2,0,L|394:362,1,72,2|2,1:2|1:2,2:0:0:0:
145,71,221320,2,0,L|139:0,1,72,10|2,1:2|1:2,2:0:0:0:
160,384,221470,37,6,1:2:0:0:
340,109,221620,1,10,2:0:0:0:
340,109,221695,1,0,3:0:0:0:
340,109,221770,2,0,L|251:122,1,67.5,2|0,1:2|1:0,2:0:0:0:
27,231,221920,2,0,L|116:244,1,67.5,10|0,1:2|3:0,2:0:0:0:
358,208,222070,2,0,L|269:195,1,67.5,2|0,1:2|3:0,2:0:0:0:
78,61,222220,2,0,L|167:74,1,67.5,10|0,2:0|3:0,2:0:0:0:
303,325,222370,5,2,1:2:0:0:
367,338,222445,1,2,1:2:0:0:
430,315,222520,1,10,1:2:0:0:
470,262,222595,1,2,2:0:0:0:
476,196,222670,54,0,P|466:161|442:122,1,72,2|0,1:2|3:0,2:0:0:0:
110,145,222820,1,10,2:0:0:0:
110,145,222895,1,0,3:0:0:0:
110,145,222970,2,0,P|120:180|144:219,1,72,2|0,1:2|1:0,2:0:0:0:
358,208,223120,1,10,1:2:0:0:
148,63,223270,2,0,P|107:55|55:70,1,72,2|0,1:2|3:0,2:0:0:0:
232,322,223420,2,0,P|272:329|324:314,1,72,10|0,2:0|3:0,2:0:0:0:
326,2,223570,5,2,1:2:0:0:
273,48,223645,1,2,1:2:0:0:
260,117,223720,1,10,1:2:0:0:
293,178,223795,1,2,2:0:0:0:
358,208,223870,54,0,L|446:192,1,80.9999999999999,2|0,1:2|3:0,2:0:0:0:
157,45,224020,2,0,L|77:59,1,80.9999999999999,10|0,2:0|3:0,2:0:0:0:
0,223,224170,1,2,1:2:0:0:
384,112,224320,6,0,L|296:96,1,80.9999999999999,10|0,1:2|3:0,2:0:0:0:
182,277,224470,2,0,L|102:291,1,80.9999999999999,2|0,1:2|3:0,2:0:0:0:
1,57,224620,1,10,2:0:0:0:
213,366,224770,53,2,1:2:0:0:
285,366,224845,1,2,1:2:0:0:
348,329,224920,1,10,1:2:0:0:
384,265,224995,1,2,2:0:0:0:
394,192,225070,6,0,L|383:104,1,80.9999975280763,2|0,1:2|3:0,0:0:0:0:
287,183,225220,2,0,L|298:263,1,80.9999975280763,10|0,2:0|3:0,0:0:0:0:
451,314,225370,2,0,L|463:215,1,98.9999999999999,2|0,1:2|1:0,2:0:0:0:
223,92,225520,2,0,L|209:218,1,98.9999999999999,10|0,1:2|3:0,2:0:0:0:
512,111,225670,2,0,L|500:-4,1,112.5,2|0,1:2|3:0,2:0:0:0:
141,273,225820,2,0,L|154:392,1,112.5,10|0,2:0|3:0,2:0:0:0:
508,346,225970,53,2,1:2:0:0:
512,265,226045,1,2,1:2:0:0:
480,189,226120,1,10,1:2:0:0:
419,135,226195,1,2,2:0:0:0:
340,113,226270,22,0,B|288:117|258:155|258:155|229:137|229:137|189:191|138:188,1,236.25,6|0,1:2|3:0,2:0:0:0:
41,174,226570,5,8,2:0:0:0:
60,248,226645,1,8,2:0:0:0:
125,289,226720,1,8,2:0:0:0:
201,276,226795,1,8,2:0:0:0:
248,216,226870,53,0,1:0:0:0:
244,184,226945,1,0,3:0:0:0:
239,152,227020,1,0,3:0:0:0:
235,120,227095,1,0,3:0:0:0:
264,113,227170,5,0,1:0:0:0:
267,86,227245,1,0,3:0:0:0:
271,61,227320,1,0,3:0:0:0:
274,35,227395,1,0,3:0:0:0:
237,9,227470,53,0,1:0:0:0:
197,11,227545,1,0,3:0:0:0:
155,34,227620,1,0,3:0:0:0:
125,80,227695,1,0,3:0:0:0:
129,142,227770,6,0,L|140:230,1,78.7500000000001,0|0,1:0|3:0,2:0:0:0:
368,176,227920,2,0,L|377:97,1,78.7500000000001,0|0,3:0|3:0,2:0:0:0:
288,336,228070,53,8,2:0:0:0:
288,336,228670,5,10,3:2:0:0:
244,53,228820,1,2,3:2:0:0:
114,308,228970,1,2,3:2:0:0:
368,176,229120,1,2,2:0:0:0:
85,133,229270,53,10,2:0:0:0:
452,67,229495,5,2,3:2:0:0:
250,384,229720,53,2,3:2:0:0:
227,0,229870,6,0,P|309:43|185:47,1,315,6|0,1:2|2:0,2:0:0:0:
34,3,230320,1,0,1:0:0:0:
34,3,230395,1,0,1:0:0:0:
34,3,230470,22,0,B|14:52|14:52|44:94|44:94|13:135|13:135|34:183|34:183|18:224|18:224|27:265|27:265|20:307|20:307|21:391,1,396,14|0,1:2|3:0,2:0:0:0:
