osu file format v14

[General]
AudioFilename: audio.mp3
AudioLeadIn: 0
PreviewTime: 53395
Countdown: 0
SampleSet: Soft
StackLeniency: 0.3
Mode: 0
LetterboxInBreaks: 0
WidescreenStoryboard: 1

[Editor]
DistanceSpacing: 1.05
BeatDivisor: 4
GridSize: 16
TimelineZoom: 2.5

[Metadata]
Title:Judgment Day Has Come
TitleUnicode:Judgment Day Has Come
Artist:IOSYS feat. Nanahira
ArtistUnicode:IOSYS feat. ななひら
Creator:-Tynamo
Version:BMD's Expert
Source:東方緋想天 ~ Scarlet Weather Rhapsody.
Tags:Minami 有頂天変 ~ Wonderful Heaven BarkingMadDog bmd Bibbity Bill judgement tenshi hinanawi theme japanese power metal zun 上海アリス幻樂団 Yoshimi Youno 東方極楽湯界─イオシス東方コンピレーション vol.24 夕野ヨシミ Confetto team shanghai alice star stream star_stream touhou project 10.5 th10.5 Catastrophe in Bhavaagra Hisouten rock video game Hakurei Shrine Autumn Reitaisai 3 xidorn 比那名居 天子 東方project イオシス
BeatmapID:2405862
BeatmapSetID:1152650

[Difficulty]
HPDrainRate:5
CircleSize:4.1
OverallDifficulty:9.3
ApproachRate:9.5
SliderMultiplier:1.7
SliderTickRate:1

[Events]
//Background and Video events
0,0,"judgementday.jpg",0,0
//Break Periods
//Storyboard Layer 0 (Background)
//Storyboard Layer 1 (Fail)
//Storyboard Layer 2 (Pass)
//Storyboard Layer 3 (Foreground)
//Storyboard Layer 4 (Overlay)
//Storyboard Sound Samples

[TimingPoints]
670,300,4,2,1,40,1,0
820,-100,4,2,0,60,0,0
970,-100,4,2,1,40,0,0
2020,-100,4,2,0,60,0,0
2170,-100,4,2,1,40,0,0
3220,-100,4,2,0,60,0,0
3370,-100,4,2,1,40,0,0
5620,-100,4,2,0,60,0,0
5770,-100,4,2,1,40,0,0
6595,-100,4,2,0,5,0,0
6670,-100,4,2,1,40,0,0
6820,-100,4,2,0,60,0,0
6970,-100,4,2,1,40,0,0
8020,-100,4,2,0,60,0,0
8170,-100,4,2,1,40,0,0
8995,-100,4,2,0,5,0,0
9070,-200,4,2,1,40,0,0
9295,-200,4,2,0,5,0,0
9370,-200,4,2,1,40,0,0
9595,-200,4,2,0,5,0,0
9670,-200,4,2,1,40,0,0
9745,-200,4,2,0,60,0,0
10270,-200,4,2,1,50,0,0
11320,-74.0740740740741,4,2,1,50,0,0
20470,-74.0740740740741,4,2,2,50,0,0
20695,-74.0740740740741,4,2,1,50,0,0
20770,-74.0740740740741,4,2,3,50,0,0
20845,-74.0740740740741,4,2,2,50,0,0
21070,-74.0740740740741,4,2,4,50,0,0
21145,-74.0740740740741,4,2,3,50,0,0
21370,-74.0740740740741,4,2,5,50,0,0
21445,-74.0740740740741,4,2,4,50,0,0
21670,-74.0740740740741,4,2,1,50,0,0
22270,-74.0740740740741,4,2,1,60,0,0
22420,-86.9565217391304,4,2,2,60,0,0
22570,-86.9565217391304,4,2,1,60,0,0
22720,-86.9565217391304,4,2,6,60,0,0
22870,-86.9565217391304,4,2,1,60,0,0
23020,-86.9565217391304,4,2,2,60,0,0
23170,-86.9565217391304,4,2,6,60,0,0
23470,-86.9565217391304,4,2,1,60,0,0
23620,-86.9565217391304,4,2,3,60,0,0
23770,-86.9565217391304,4,2,7,60,0,0
24220,-86.9565217391304,4,2,3,60,0,0
24370,-86.9565217391304,4,2,6,60,0,0
24670,-86.9565217391304,4,2,1,60,0,0
24820,-86.9565217391304,4,2,3,60,0,0
24970,-86.9565217391304,4,2,1,60,0,0
25120,-86.9565217391304,4,2,7,60,0,0
25270,-86.9565217391304,4,2,1,60,0,0
25420,-86.9565217391304,4,2,3,60,0,0
25570,-86.9565217391304,4,2,7,60,0,0
26020,-86.9565217391304,4,2,3,60,0,0
26170,-86.9565217391304,4,2,6,60,0,0
27220,-86.9565217391304,4,2,2,60,0,0
27370,-86.9565217391304,4,2,1,60,0,0
27520,-86.9565217391304,4,2,6,60,0,0
27670,-86.9565217391304,4,2,1,60,0,0
27820,-86.9565217391304,4,2,2,60,0,0
27970,-86.9565217391304,4,2,6,60,0,0
28270,-86.9565217391304,4,2,1,60,0,0
28420,-86.9565217391304,4,2,3,60,0,0
28570,-86.9565217391304,4,2,7,60,0,0
29020,-86.9565217391304,4,2,3,60,0,0
29170,-86.9565217391304,4,2,6,60,0,0
29470,-86.9565217391304,4,2,1,60,0,0
29620,-86.9565217391304,4,2,3,60,0,0
29770,-86.9565217391304,4,2,1,60,0,0
29920,-86.9565217391304,4,2,7,60,0,0
30070,-86.9565217391304,4,2,1,60,0,0
30220,-86.9565217391304,4,2,3,60,0,0
30370,-86.9565217391304,4,2,7,60,0,0
30820,-86.9565217391304,4,2,3,60,0,0
30970,-86.9565217391304,4,2,6,60,0,0
31270,-86.9565217391304,4,2,2,60,0,0
31645,-86.9565217391304,4,2,1,60,0,0
32020,-86.9565217391304,4,2,2,60,0,0
32095,-86.9565217391304,4,2,0,60,0,0
32170,-86.9565217391304,4,2,1,60,0,0
32320,-86.9565217391304,4,2,6,60,0,0
32470,-80,4,2,1,60,0,0
32620,-80,4,2,2,60,0,0
32695,-80,4,2,0,60,0,0
32770,-80,4,2,6,60,0,0
33070,-80,4,2,1,60,0,0
33220,-80,4,2,3,60,0,0
33295,-80,4,2,0,60,0,0
33370,-80,4,2,7,60,0,0
33820,-80,4,2,3,60,0,0
33895,-80,4,2,0,60,0,0
33970,-80,4,2,6,60,0,0
34270,-80,4,2,1,60,0,0
34420,-80,4,2,3,60,0,0
34570,-80,4,2,1,60,0,0
34720,-80,4,2,7,60,0,0
34870,-80,4,2,1,60,0,0
35020,-80,4,2,3,60,0,0
35170,-80,4,2,1,60,0,0
35245,-80,4,2,4,60,0,0
35320,-80,4,2,7,60,0,0
35620,-80,4,2,3,60,0,0
35770,-80,4,2,6,60,0,0
36595,-80,4,2,6,5,0,0
36670,-80,4,2,6,60,0,0
36820,-80,4,2,2,60,0,0
36895,-80,4,2,0,60,0,0
36970,-80,4,2,6,60,0,0
37270,-80,4,2,1,60,0,0
37420,-80,4,2,3,60,0,0
37495,-80,4,2,0,60,0,0
37570,-80,4,2,6,60,0,0
37870,-80,4,2,1,60,0,0
38020,-80,4,2,3,60,0,0
38095,-80,4,2,0,60,0,0
38170,-80,4,2,7,60,0,0
38620,-80,4,2,3,60,0,0
38695,-80,4,2,0,60,0,0
38770,-80,4,2,6,60,0,0
39070,-80,4,2,1,60,0,0
39220,-80,4,2,3,60,0,0
39370,-80,4,2,1,60,0,0
39520,-80,4,2,6,60,0,0
39670,-80,4,2,1,60,0,0
39820,-80,4,2,3,60,0,0
39970,-80,4,2,7,60,0,0
40120,-60.6060606060606,4,2,7,60,0,0
40345,-60.6060606060606,4,2,7,5,0,0
40420,-60.6060606060606,4,2,7,60,0,0
40495,-60.6060606060606,4,2,7,60,0,0
40570,-80,4,2,7,60,0,0
40645,-80,4,2,2,60,0,0
40945,-80,4,2,1,60,0,0
41170,-80,4,2,3,60,0,0
41245,-80,4,2,2,60,0,0
41470,-80,4,2,1,60,0,0
41770,-100,4,2,1,60,0,0
50170,-100,4,2,2,60,0,0
50245,-100,4,2,1,60,0,0
50470,-100,4,2,8,60,0,0
50545,-100,4,2,2,60,0,0
50770,-100,4,2,4,60,0,0
50845,-100,4,2,3,60,0,0
51070,-68.9655172413793,4,2,1,60,0,0
51220,-68.9655172413793,4,2,3,60,0,0
51370,-68.9655172413793,4,2,6,60,0,0
51820,-68.9655172413793,4,2,3,60,0,0
51970,-68.9655172413793,4,2,1,60,0,0
52120,-68.9655172413793,4,2,6,60,0,0
52270,-68.9655172413793,4,2,1,60,0,0
52420,-68.9655172413793,4,2,3,60,0,0
52570,-68.9655172413793,4,2,6,60,0,0
52870,-68.9655172413793,4,2,1,60,0,0
53020,-68.9655172413793,4,2,3,60,0,0
53170,-68.9655172413793,4,2,6,60,0,0
53470,-68.9655172413793,4,2,1,60,0,0
53770,-68.9655172413793,4,2,2,60,0,0
53845,-68.9655172413793,4,2,1,60,0,0
54070,-68.9655172413793,4,2,3,60,0,0
54145,-68.9655172413793,4,2,2,60,0,0
54670,-68.9655172413793,4,2,4,60,0,0
54745,-68.9655172413793,4,2,3,60,0,0
54970,-68.9655172413793,4,2,5,60,0,0
55045,-68.9655172413793,4,2,4,60,0,0
55270,-400,4,2,1,60,0,0
55795,-400,4,2,0,5,0,0
55870,-66.6666666666667,4,2,1,80,0,1
61570,-74.0740740740741,4,2,1,80,0,1
62020,-66.6666666666667,4,2,1,80,0,1
64270,-66.6666666666667,4,2,1,80,0,0
64870,-74.0740740740741,4,2,2,80,0,0
64945,-74.0740740740741,4,2,1,80,0,0
65170,-74.0740740740741,4,2,3,80,0,0
65245,-74.0740740740741,4,2,2,80,0,0
65470,-66.6666666666667,4,2,1,80,0,1
71470,-66.6666666666667,4,2,1,60,0,0
72670,-66.6666666666667,4,2,1,50,0,0
73720,-74.0740740740741,4,2,1,50,0,0
82870,-74.0740740740741,4,2,2,50,0,0
82945,-74.0740740740741,4,2,1,50,0,0
83170,-74.0740740740741,4,2,3,50,0,0
83245,-74.0740740740741,4,2,2,50,0,0
83470,-74.0740740740741,4,2,4,50,0,0
83545,-74.0740740740741,4,2,3,50,0,0
83770,-74.0740740740741,4,2,5,50,0,0
83845,-74.0740740740741,4,2,4,50,0,0
84070,-74.0740740740741,4,2,1,50,0,0
84670,-74.0740740740741,4,2,6,60,0,0
84820,-74.0740740740741,4,2,1,60,0,0
84970,-86.9565217391304,4,2,7,60,0,0
85420,-86.9565217391304,4,2,1,60,0,0
85570,-86.9565217391304,4,2,6,60,0,0
85870,-86.9565217391304,4,2,7,60,0,0
86170,-86.9565217391304,4,2,6,60,0,0
86320,-86.9565217391304,4,2,1,60,0,0
86470,-86.9565217391304,4,2,6,60,0,0
87070,-86.9565217391304,4,2,7,60,0,0
87520,-86.9565217391304,4,2,1,60,0,0
87670,-86.9565217391304,4,2,7,60,0,0
87970,-86.9565217391304,4,2,6,60,0,0
88120,-74.0740740740741,4,2,1,60,0,0
88570,-74.0740740740741,4,2,6,60,0,0
89620,-74.0740740740741,4,2,1,60,0,0
89770,-86.9565217391304,4,2,7,60,0,0
90220,-86.9565217391304,4,2,1,60,0,0
90370,-86.9565217391304,4,2,6,60,0,0
90670,-86.9565217391304,4,2,7,60,0,0
90970,-86.9565217391304,4,2,6,60,0,0
91120,-86.9565217391304,4,2,1,60,0,0
91270,-86.9565217391304,4,2,6,60,0,0
91870,-86.9565217391304,4,2,7,60,0,0
92470,-86.9565217391304,4,2,1,60,0,0
92920,-60.6060606060606,4,2,1,60,0,0
93670,-60.6060606060606,4,2,2,60,0,0
93745,-60.6060606060606,4,2,1,60,0,0
93970,-60.6060606060606,4,2,3,60,0,0
94045,-60.6060606060606,4,2,2,60,0,0
94270,-60.6060606060606,4,2,1,60,0,0
94420,-60.6060606060606,4,2,2,60,0,0
94495,-60.6060606060606,4,2,0,60,0,0
94570,-60.6060606060606,4,2,1,60,0,0
94720,-60.6060606060606,4,2,6,60,0,0
94870,-80,4,2,1,60,0,0
95020,-80,4,2,2,60,0,0
95095,-80,4,2,0,60,0,0
95170,-80,4,2,6,60,0,0
95470,-80,4,2,1,60,0,0
95620,-80,4,2,3,60,0,0
95695,-80,4,2,0,60,0,0
95770,-80,4,2,7,60,0,0
96220,-80,4,2,3,60,0,0
96295,-80,4,2,0,60,0,0
96370,-80,4,2,6,60,0,0
96670,-80,4,2,1,60,0,0
96820,-80,4,2,3,60,0,0
96970,-80,4,2,1,60,0,0
97120,-80,4,2,7,60,0,0
97270,-80,4,2,1,60,0,0
97420,-80,4,2,3,60,0,0
97570,-80,4,2,7,60,0,0
98020,-80,4,2,3,60,0,0
98170,-80,4,2,7,60,0,0
98320,-80,4,2,6,60,0,0
98995,-80,4,2,6,5,0,0
99070,-80,4,2,6,60,0,0
99220,-80,4,2,2,60,0,0
99295,-80,4,2,0,60,0,0
99370,-80,4,2,1,60,0,0
99520,-80,4,2,6,60,0,0
99670,-80,4,2,1,60,0,0
99820,-80,4,2,2,60,0,0
99895,-80,4,2,0,60,0,0
99970,-80,4,2,6,60,0,0
100270,-80,4,2,1,60,0,0
100420,-80,4,2,3,60,0,0
100495,-80,4,2,0,60,0,0
100570,-80,4,2,7,60,0,0
101020,-80,4,2,3,60,0,0
101095,-80,4,2,0,60,0,0
101170,-80,4,2,6,60,0,0
101470,-80,4,2,1,60,0,0
101620,-80,4,2,3,60,0,0
101770,-80,4,2,1,60,0,0
101920,-80,4,2,7,60,0,0
102070,-80,4,2,1,60,0,0
102220,-80,4,2,3,60,0,0
102370,-80,4,2,7,60,0,0
102520,-60.6060606060606,4,2,7,60,0,0
102745,-60.6060606060606,4,2,7,5,0,0
102820,-60.6060606060606,4,2,7,60,0,0
102895,-60.6060606060606,4,2,7,60,0,0
102970,-80,4,2,2,60,0,0
103345,-80,4,2,1,60,0,0
103570,-80,4,2,3,60,0,0
103645,-80,4,2,2,60,0,0
103870,-80,4,2,1,60,0,0
104170,-100,4,2,1,60,0,0
112570,-100,4,2,2,60,0,0
112645,-100,4,2,1,60,0,0
112870,-100,4,2,8,60,0,0
112945,-100,4,2,3,60,0,0
113020,-100,4,2,2,60,0,0
113170,-100,4,2,4,60,0,0
113320,-100,4,2,3,60,0,0
113470,-68.9655172413793,4,2,1,60,0,0
113620,-68.9655172413793,4,2,3,60,0,0
113770,-68.9655172413793,4,2,6,60,0,0
114220,-68.9655172413793,4,2,3,60,0,0
114370,-68.9655172413793,4,2,1,60,0,0
114520,-68.9655172413793,4,2,6,60,0,0
114670,-68.9655172413793,4,2,1,60,0,0
114820,-68.9655172413793,4,2,3,60,0,0
114970,-68.9655172413793,4,2,6,60,0,0
115270,-68.9655172413793,4,2,1,60,0,0
115420,-68.9655172413793,4,2,3,60,0,0
115570,-68.9655172413793,4,2,6,60,0,0
115870,-68.9655172413793,4,2,1,60,0,0
116170,-68.9655172413793,4,2,2,60,0,0
116245,-68.9655172413793,4,2,1,60,0,0
116470,-68.9655172413793,4,2,3,60,0,0
116545,-68.9655172413793,4,2,2,60,0,0
117070,-68.9655172413793,4,2,4,60,0,0
117145,-68.9655172413793,4,2,3,60,0,0
117370,-68.9655172413793,4,2,5,60,0,0
117445,-68.9655172413793,4,2,4,60,0,0
117670,-400,4,2,1,60,0,0
118195,-400,4,2,0,5,0,0
118270,-66.6666666666667,4,2,1,80,0,1
123970,-74.0740740740741,4,2,1,80,0,1
124420,-66.6666666666667,4,2,1,80,0,1
126670,-66.6666666666667,4,2,1,80,0,0
127270,-74.0740740740741,4,2,2,80,0,0
127345,-74.0740740740741,4,2,1,80,0,0
127570,-74.0740740740741,4,2,3,80,0,0
127645,-74.0740740740741,4,2,2,80,0,0
127870,-66.6666666666667,4,2,1,80,0,1
133870,-66.6666666666667,4,2,1,60,0,0
135070,-133.333333333333,4,2,1,50,0,0
136195,-133.333333333333,4,2,0,5,0,0
136270,-133.333333333333,4,2,1,50,0,0
136570,-100,4,2,12,50,0,0
136645,-100,4,2,1,50,0,0
136870,-66.6666666666667,4,2,1,50,0,0
137170,-100,4,2,13,50,0,0
137245,-100,4,2,2,50,0,0
137470,-74.0740740740741,4,2,1,80,0,0
137620,-74.0740740740741,4,2,2,80,0,0
137695,-74.0740740740741,4,2,1,80,0,0
137920,-74.0740740740741,4,2,7,80,0,0
137995,-74.0740740740741,4,2,1,80,0,0
138220,-74.0740740740741,4,2,2,80,0,0
138295,-74.0740740740741,4,2,1,80,0,0
138520,-74.0740740740741,4,2,7,80,0,0
138595,-74.0740740740741,4,2,1,80,0,0
138820,-74.0740740740741,4,2,2,80,0,0
138895,-74.0740740740741,4,2,1,80,0,0
139120,-74.0740740740741,4,2,7,80,0,0
139195,-74.0740740740741,4,2,1,80,0,0
139420,-74.0740740740741,4,2,2,80,0,0
139495,-74.0740740740741,4,2,1,80,0,0
139570,-66.6666666666667,4,2,1,80,0,0
140020,-66.6666666666667,4,2,2,80,0,0
140095,-66.6666666666667,4,2,1,80,0,0
140320,-66.6666666666667,4,2,7,80,0,0
140395,-66.6666666666667,4,2,1,80,0,0
140620,-66.6666666666667,4,2,2,80,0,0
140695,-66.6666666666667,4,2,1,80,0,0
140920,-66.6666666666667,4,2,7,80,0,0
140995,-66.6666666666667,4,2,1,80,0,0
141520,-66.6666666666667,4,2,7,80,0,0
141670,-57.1428571428571,4,2,1,80,0,0
142120,-57.1428571428571,4,2,7,80,0,0
142270,-66.6666666666667,4,2,1,80,0,0
142570,-57.1428571428571,4,2,1,80,0,0
142720,-50,4,2,7,80,0,0
143020,-50,4,2,3,80,0,0
143095,-50,4,2,0,60,0,0
143170,-57.1428571428571,4,2,1,80,0,0
143320,-57.1428571428571,4,2,6,80,0,0
143395,-57.1428571428571,4,2,1,80,0,0
143920,-66.6666666666667,4,2,7,80,0,0
144070,-66.6666666666667,4,2,1,80,0,0
144220,-80,4,2,2,80,0,0
144295,-80,4,2,0,60,0,0
144520,-80,4,2,7,80,0,0
144670,-80,4,2,1,80,0,0
144820,-80,4,2,2,80,0,0
144895,-80,4,2,1,80,0,0
145120,-80,4,2,7,80,0,0
145195,-80,4,2,1,80,0,0
145420,-80,4,2,2,80,0,0
145495,-80,4,2,1,80,0,0
145720,-80,4,2,7,80,0,0
145795,-80,4,2,1,80,0,0
145870,-74.0740740740741,4,2,1,80,0,0
146020,-74.0740740740741,4,2,2,80,0,0
146095,-74.0740740740741,4,2,1,80,0,0
146320,-74.0740740740741,4,2,7,80,0,0
146395,-74.0740740740741,4,2,1,80,0,0
146620,-74.0740740740741,4,2,2,80,0,0
146695,-74.0740740740741,4,2,1,80,0,0
146770,-66.6666666666667,4,2,1,80,0,0
147220,-66.6666666666667,4,2,2,80,0,0
147295,-66.6666666666667,4,2,1,80,0,0
147520,-66.6666666666667,4,2,7,80,0,0
147595,-66.6666666666667,4,2,1,80,0,0
147820,-66.6666666666667,4,2,2,80,0,0
147895,-66.6666666666667,4,2,1,80,0,0
148420,-66.6666666666667,4,2,2,80,0,0
148495,-66.6666666666667,4,2,1,80,0,0
148720,-66.6666666666667,4,2,7,80,0,0
148795,-66.6666666666667,4,2,1,80,0,0
149020,-66.6666666666667,4,2,2,80,0,0
149095,-66.6666666666667,4,2,1,80,0,0
149320,-66.6666666666667,4,2,7,80,0,0
149470,-66.6666666666667,4,2,1,80,0,0
149620,-66.6666666666667,4,2,2,80,0,0
149695,-66.6666666666667,4,2,1,80,0,0
149920,-66.6666666666667,4,2,7,80,0,0
149995,-66.6666666666667,4,2,1,80,0,0
150220,-66.6666666666667,4,2,2,80,0,0
150295,-66.6666666666667,4,2,1,80,0,0
150520,-66.6666666666667,4,2,7,80,0,0
150595,-66.6666666666667,4,2,1,80,0,0
150820,-66.6666666666667,4,2,2,80,0,0
150895,-66.6666666666667,4,2,1,80,0,0
151120,-66.6666666666667,4,2,7,80,0,0
151195,-66.6666666666667,4,2,1,80,0,0
151720,-66.6666666666667,4,2,6,80,0,0
151870,-66.6666666666667,4,2,1,80,0,0
152020,-66.6666666666667,4,2,2,80,0,0
152095,-66.6666666666667,4,2,1,80,0,0
152320,-66.6666666666667,4,2,7,80,0,0
152395,-66.6666666666667,4,2,1,80,0,0
152620,-66.6666666666667,4,2,2,80,0,0
152695,-66.6666666666667,4,2,1,80,0,0
152920,-66.6666666666667,4,2,7,80,0,0
152995,-66.6666666666667,4,2,1,80,0,0
153220,-66.6666666666667,4,2,2,80,0,0
153295,-66.6666666666667,4,2,1,80,0,0
153520,-66.6666666666667,4,2,7,80,0,0
153595,-66.6666666666667,4,2,1,80,0,0
153820,-66.6666666666667,4,2,2,80,0,0
153895,-66.6666666666667,4,2,1,80,0,0
154120,-66.6666666666667,4,2,7,80,0,0
154195,-66.6666666666667,4,2,1,80,0,0
154570,-74.0740740740741,4,2,1,80,0,0
154795,-74.0740740740741,4,2,0,80,0,0
154870,-74.0740740740741,4,2,1,80,0,0
155020,-66.6666666666667,4,2,2,80,0,0
155095,-66.6666666666667,4,2,1,80,0,0
155320,-66.6666666666667,4,2,7,80,0,0
155395,-66.6666666666667,4,2,1,80,0,0
155770,-66.6666666666667,4,2,9,80,0,0
155845,-66.6666666666667,4,2,1,80,0,0
156070,-66.6666666666667,4,2,8,80,0,0
156145,-66.6666666666667,4,2,5,80,0,0
156370,-66.6666666666667,4,2,4,80,0,0
156445,-66.6666666666667,4,2,8,80,0,0
156670,-66.6666666666667,4,2,1,80,0,0
156820,-66.6666666666667,4,2,3,80,0,0
156970,-66.6666666666667,4,2,6,80,0,0
157420,-66.6666666666667,4,2,2,80,0,0
157570,-66.6666666666667,4,2,7,80,0,0
157870,-66.6666666666667,4,2,1,80,0,0
158320,-66.6666666666667,4,2,7,80,0,0
158470,-66.6666666666667,4,2,1,80,0,0
158620,-66.6666666666667,4,2,3,80,0,0
158770,-66.6666666666667,4,2,6,80,0,0
159070,-57.1428571428571,4,2,1,80,0,0
159520,-57.1428571428571,4,2,7,80,0,0
159670,-66.6666666666667,4,2,1,80,0,0
160120,-66.6666666666667,4,2,7,80,0,0
160270,-66.6666666666667,4,2,1,80,0,0
160420,-66.6666666666667,4,2,3,80,0,0
160570,-66.6666666666667,4,2,7,80,0,0
161020,-66.6666666666667,4,2,3,80,0,0
161170,-66.6666666666667,4,2,6,80,0,0
161470,-66.6666666666667,4,2,1,80,0,0
165070,-80,4,2,1,80,0,0
165670,-80,4,2,13,80,0,0
165820,-80,4,2,2,80,0,0
166270,-66.6666666666667,4,2,1,80,0,0
166420,-66.6666666666667,4,2,3,80,0,0
166570,-66.6666666666667,4,2,6,80,0,0
167020,-66.6666666666667,4,2,2,80,0,0
167170,-66.6666666666667,4,2,7,80,0,0
167470,-66.6666666666667,4,2,1,80,0,0
167920,-66.6666666666667,4,2,7,80,0,0
168070,-66.6666666666667,4,2,1,80,0,0
168220,-66.6666666666667,4,2,3,80,0,0
168295,-66.6666666666667,4,2,1,80,0,0
168520,-66.6666666666667,4,2,7,80,0,0
168595,-66.6666666666667,4,2,7,60,0,0
168670,-66.6666666666667,4,2,1,80,0,0
168820,-66.6666666666667,4,2,3,80,0,0
168970,-66.6666666666667,4,2,7,80,0,0
169270,-66.6666666666667,4,2,11,80,0,0
169420,-66.6666666666667,4,2,3,80,0,0
169570,-66.6666666666667,4,2,7,80,0,0
169870,-66.6666666666667,4,2,1,80,0,0
170020,-66.6666666666667,4,2,3,80,0,0
170170,-66.6666666666667,4,2,7,80,0,0
170320,-66.6666666666667,4,2,11,80,0,0
170620,-66.6666666666667,4,2,3,80,0,0
170770,-66.6666666666667,4,2,6,80,0,0
171070,-66.6666666666667,4,2,1,80,0,0
172270,-66.6666666666667,4,2,1,80,0,0
174670,-80,4,2,1,80,0,0
174970,-80,4,2,2,80,0,0
175120,-80,4,2,1,80,0,0
175270,-66.6666666666667,4,2,13,80,0,0
175420,-66.6666666666667,4,2,2,80,0,0
175570,-80,4,2,4,80,0,0
175720,-100,4,2,3,80,0,0
175870,-100,4,2,1,50,0,0
184270,-100,4,2,1,60,0,0
184570,-100,4,2,2,60,0,0
184645,-100,4,2,1,60,0,0
184870,-100,4,2,8,60,0,0
184945,-100,4,2,2,60,0,0
185170,-100,4,2,4,60,0,0
185245,-100,4,2,3,60,0,0
185470,-74.0740740740741,4,2,1,60,0,0
185620,-74.0740740740741,4,2,3,60,0,0
185770,-74.0740740740741,4,2,6,60,0,0
186220,-74.0740740740741,4,2,3,60,0,0
186370,-74.0740740740741,4,2,1,60,0,0
186520,-74.0740740740741,4,2,6,60,0,0
186670,-74.0740740740741,4,2,1,60,0,0
186820,-74.0740740740741,4,2,3,60,0,0
186970,-74.0740740740741,4,2,6,60,0,0
187270,-74.0740740740741,4,2,1,60,0,0
187420,-74.0740740740741,4,2,3,60,0,0
187570,-74.0740740740741,4,2,6,60,0,0
187870,-74.0740740740741,4,2,1,60,0,0
188170,-74.0740740740741,4,2,2,60,0,0
188245,-74.0740740740741,4,2,1,60,0,0
188470,-74.0740740740741,4,2,3,60,0,0
188545,-74.0740740740741,4,2,2,60,0,0
189070,-86.9565217391304,4,2,4,60,0,0
189145,-86.9565217391304,4,2,4,5,0,0
189220,-74.0740740740741,4,2,3,60,0,0
189295,-74.0740740740741,4,2,3,5,0,0
189370,-64.5161290322581,4,2,5,60,0,0
189445,-64.5161290322581,4,2,5,5,0,0
189520,-57.1428571428571,4,2,4,60,0,0
189670,-57.1428571428571,4,2,1,60,0,0
190270,-66.6666666666667,4,2,1,80,0,1
198670,-66.6666666666667,4,2,1,80,0,0
199270,-66.6666666666667,4,2,2,80,0,0
199345,-66.6666666666667,4,2,1,80,0,0
199570,-66.6666666666667,4,2,3,80,0,0
199645,-66.6666666666667,4,2,2,80,0,0
199870,-66.6666666666667,4,2,1,80,0,1
205870,-66.6666666666667,4,2,1,60,0,0
207070,-66.6666666666667,4,2,1,50,0,0
208120,-74.0740740740741,4,2,1,50,0,0
221470,-74.0740740740741,4,2,1,70,0,0
226270,-74.0740740740741,4,2,1,50,0,0
226870,-74.0740740740741,4,2,2,50,0,0
226945,-74.0740740740741,4,2,1,50,0,0
227170,-74.0740740740741,4,2,3,50,0,0
227245,-74.0740740740741,4,2,2,50,0,0
227470,-74.0740740740741,4,2,4,50,0,0
227545,-74.0740740740741,4,2,3,50,0,0
227770,-74.0740740740741,4,2,5,50,0,0
227845,-74.0740740740741,4,2,4,50,0,0
228070,-74.0740740740741,4,2,1,50,0,0
228670,-74.0740740740741,4,2,1,50,0,0
229270,-66.6666666666667,4,2,1,50,0,0
229420,-66.6666666666667,4,2,1,5,0,0
229495,-66.6666666666667,4,2,5,50,0,0
229645,-66.6666666666667,4,2,5,5,0,0
229720,-66.6666666666667,4,2,5,50,0,0
229795,-66.6666666666667,4,2,5,5,0,0
229870,-66.6666666666667,4,2,1,50,0,0
230470,-100,4,2,1,60,0,0
231070,-100,4,2,0,60,0,0

[Colours]
Combo1 : 255,79,79
Combo2 : 0,213,213
Combo3 : 47,187,240
Combo4 : 74,74,255
Combo5 : 255,106,34

[HitObjects]
43,241,670,5,14,2:0:0:0:
87,313,820,1,0,3:0:0:0:
172,309,970,1,0,1:0:0:0:
211,233,1120,1,2,1:2:0:0:
164,161,1270,1,2,2:0:0:0:
77,164,1420,1,2,1:2:0:0:
43,241,1570,1,2,1:2:0:0:
340,88,1870,5,14,2:0:0:0:
312,151,2020,1,0,3:0:0:0:
240,153,2170,1,0,1:0:0:0:
201,94,2320,1,2,1:2:0:0:
233,32,2470,1,2,2:0:0:0:
303,28,2620,1,2,1:2:0:0:
340,88,2770,1,2,1:2:0:0:
358,384,3070,5,14,2:0:0:0:
402,312,3220,1,0,3:0:0:0:
368,235,3370,1,0,1:0:0:0:
281,232,3520,1,2,1:2:0:0:
234,304,3670,1,2,2:0:0:0:
273,380,3820,1,2,1:2:0:0:
358,384,3970,1,2,1:2:0:0:
46,50,4270,37,14,2:0:0:0:
153,47,4420,1,0,2:0:0:0:
58,234,4570,1,0,2:0:0:0:
4,145,4720,1,2,2:0:0:0:
211,135,4870,1,2,2:0:0:0:
163,229,5020,1,2,2:0:0:0:
46,50,5170,1,2,2:0:0:0:
281,232,5470,5,14,2:0:0:0:
315,309,5620,1,0,3:0:0:0:
402,312,5770,1,0,1:0:0:0:
449,240,5920,1,2,1:2:0:0:
410,164,6070,1,2,2:0:0:0:
325,160,6220,1,2,1:2:0:0:
237,304,6370,6,0,B|155:327|155:327|116:307,1,127.5,14|0,1:2|3:0,2:0:0:0:
117,307,6670,37,14,2:0:0:0:
48,314,6820,1,0,3:0:0:0:
10,252,6970,1,0,1:0:0:0:
42,189,7120,1,2,1:2:0:0:
111,186,7270,1,2,2:0:0:0:
150,244,7420,1,2,1:2:0:0:
117,307,7570,1,2,1:2:0:0:
338,113,7870,5,14,2:0:0:0:
304,36,8020,1,0,3:0:0:0:
217,33,8170,1,0,1:0:0:0:
170,105,8320,1,2,1:2:0:0:
209,181,8470,1,2,2:0:0:0:
294,185,8620,1,2,1:2:0:0:
217,33,8770,6,0,B|179:13|179:13|97:36,1,127.5,14|0,1:2|3:0,2:0:0:0:
97,36,9070,38,0,L|101:108,1,63.75,14|0,2:0|3:0,2:0:0:0:
17,134,9370,6,0,L|13:70,1,63.75,12|0,2:0|3:0,2:0:0:0:
104,29,9670,6,0,L|106:58,7,21.25,14|0|0|0|0|0|0|0,2:0|3:0|3:0|3:0|3:0|3:0|3:0|3:0,2:0:0:0:
116,191,10270,37,6,1:2:0:0:
312,60,10420,1,10,2:0:0:0:
45,155,10570,1,2,1:2:0:0:
45,155,10645,1,0,1:0:0:0:
45,155,10720,1,10,1:2:0:0:
323,219,10870,5,2,1:2:0:0:
106,34,11020,1,10,2:0:0:0:
187,361,11170,1,2,1:2:0:0:
187,361,11245,1,2,1:2:0:0:
187,361,11320,2,0,L|190:302,1,57.375,10|2,1:2|2:0,2:0:0:0:
241,23,11470,5,2,1:2:0:0:
394,256,11620,1,10,2:0:0:0:
116,191,11770,1,2,1:2:0:0:
116,191,11845,1,0,2:0:0:0:
116,191,11920,1,10,1:2:0:0:
383,97,12070,37,2,1:2:0:0:
260,340,12220,1,10,2:0:0:0:
174,13,12370,1,2,1:2:0:0:
174,13,12445,1,2,1:2:0:0:
174,13,12520,2,0,L|177:73,1,57.375,10|2,1:2|2:0,2:0:0:0:
60,333,12670,5,2,1:2:0:0:
53,167,12820,1,10,2:0:0:0:
219,160,12970,1,2,1:2:0:0:
219,160,13045,1,0,2:0:0:0:
219,160,13120,1,10,1:2:0:0:
54,327,13270,5,2,1:2:0:0:
47,161,13420,1,10,2:0:0:0:
213,154,13570,1,2,1:2:0:0:
213,154,13645,1,2,1:2:0:0:
213,154,13720,2,0,L|282:152,1,57.375,10|2,1:2|2:0,2:0:0:0:
220,320,13870,37,2,1:2:0:0:
191,356,13945,1,0,1:0:0:0:
148,372,14020,1,10,1:2:0:0:
102,372,14095,1,0,1:0:0:0:
63,346,14170,1,2,1:2:0:0:
44,304,14245,1,0,1:0:0:0:
46,258,14320,1,10,1:2:0:0:
68,218,14395,1,0,1:0:0:0:
106,193,14470,1,2,1:2:0:0:
144,168,14545,1,0,1:0:0:0:
165,127,14620,1,10,1:2:0:0:
168,81,14695,1,0,1:0:0:0:
146,40,14770,1,2,1:2:0:0:
106,17,14845,1,2,1:2:0:0:
60,14,14920,2,0,P|42:34|31:64,1,57.375,10|2,1:2|1:2,2:0:0:0:
138,275,15070,5,6,1:2:0:0:
226,135,15220,1,10,2:0:0:0:
177,349,15370,1,2,1:2:0:0:
177,349,15445,1,0,1:0:0:0:
177,349,15520,1,10,1:2:0:0:
105,58,15670,5,2,1:2:0:0:
138,275,15820,1,10,2:0:0:0:
188,5,15970,1,2,1:2:0:0:
188,5,16045,1,2,1:2:0:0:
188,5,16120,2,0,L|186:73,1,57.375,10|2,1:2|2:0,2:0:0:0:
177,349,16270,37,2,1:2:0:0:
226,135,16420,1,10,2:0:0:0:
303,283,16570,1,2,1:2:0:0:
303,283,16645,1,0,1:0:0:0:
303,283,16720,1,10,1:2:0:0:
271,65,16870,5,2,1:2:0:0:
258,352,17020,1,10,2:0:0:0:
433,161,17170,1,2,1:2:0:0:
433,161,17245,1,2,1:2:0:0:
433,161,17320,2,0,L|430:224,1,57.375,10|2,1:2|2:0,2:0:0:0:
258,352,17470,5,2,1:2:0:0:
88,357,17620,1,10,2:0:0:0:
83,187,17770,1,2,1:2:0:0:
83,187,17845,1,0,2:0:0:0:
83,187,17920,1,10,1:2:0:0:
251,359,18070,37,2,1:2:0:0:
81,364,18220,1,10,2:0:0:0:
76,194,18370,1,2,1:2:0:0:
76,194,18445,1,2,1:2:0:0:
76,194,18520,2,0,L|74:126,1,57.375,10|2,1:2|2:0,2:0:0:0:
415,84,18670,5,2,1:2:0:0:
407,282,18820,1,10,2:0:0:0:
209,274,18970,1,2,1:2:0:0:
209,274,19045,1,0,2:0:0:0:
209,274,19120,1,10,1:2:0:0:
422,91,19270,5,2,1:2:0:0:
414,289,19420,1,10,2:0:0:0:
216,281,19570,1,2,1:2:0:0:
216,281,19645,1,2,1:2:0:0:
216,281,19720,2,0,L|218:213,1,57.375,10|2,1:2|2:0,2:0:0:0:
165,28,19870,38,0,L|286:32,1,114.75,6|0,1:2|2:0,2:0:0:0:
483,36,20170,1,8,2:0:0:0:
482,47,20245,1,8,2:0:0:0:
482,58,20320,1,8,2:0:0:0:
481,70,20395,1,8,2:0:0:0:
481,81,20470,6,0,B|478:152|478:152|494:176|494:176|490:253,1,172.125,0|0,1:0|3:0,2:0:0:0:
512,332,20770,5,0,1:0:0:0:
512,332,20845,1,0,3:0:0:0:
512,332,20920,2,0,L|454:329,1,57.375,0|0,3:0|3:0,2:0:0:0:
367,327,21070,1,0,1:0:0:0:
367,327,21145,1,0,3:0:0:0:
367,327,21220,2,0,L|309:324,1,57.375,0|0,3:0|3:0,2:0:0:0:
220,375,21370,37,0,1:0:0:0:
219,352,21445,1,0,3:0:0:0:
218,329,21520,1,0,3:0:0:0:
216,306,21595,1,0,3:0:0:0:
215,283,21670,1,8,2:0:0:0:
215,283,22270,5,4,1:2:0:0:
129,230,22420,2,0,L|124:327,1,97.75,10|2,2:0|1:2,2:0:0:0:
124,327,22645,1,0,1:0:0:0:
124,327,22720,1,10,1:2:0:0:
219,185,22870,5,2,1:2:0:0:
41,79,23020,2,0,L|45:176,1,97.75,10|0,2:0|1:0,2:0:0:0:
45,176,23245,1,0,1:0:0:0:
45,176,23320,1,10,1:2:0:0:
137,34,23470,37,2,1:2:0:0:
214,282,23620,2,0,L|218:184,1,97.75,10|0,2:0|1:0,2:0:0:0:
217,184,23845,1,0,1:0:0:0:
217,184,23920,1,10,1:2:0:0:
309,41,24070,5,0,1:0:0:0:
129,230,24220,1,10,2:0:0:0:
305,139,24370,1,0,1:0:0:0:
324,139,24445,1,0,1:0:0:0:
343,141,24520,1,10,1:2:0:0:
362,142,24595,1,0,3:0:0:0:
381,143,24670,5,2,1:2:0:0:
295,275,24820,1,10,2:0:0:0:
345,73,24970,1,2,1:2:0:0:
348,63,25045,1,0,1:0:0:0:
351,53,25120,1,10,1:2:0:0:
443,224,25270,37,2,1:2:0:0:
223,135,25420,1,10,2:0:0:0:
467,11,25570,2,0,L|470:61,1,48.875,0|0,1:0|1:0,2:0:0:0:
295,275,25720,5,14,1:2:0:0:
345,73,25870,1,0,1:0:0:0:
411,350,26020,1,10,2:0:0:0:
258,204,26170,1,0,1:0:0:0:
250,197,26245,1,0,1:0:0:0:
243,190,26320,1,10,1:2:0:0:
89,332,26470,5,0,1:0:0:0:
82,313,26545,1,0,1:0:0:0:
80,293,26620,1,10,1:2:0:0:
82,273,26695,1,0,1:0:0:0:
89,254,26770,1,0,1:0:0:0:
97,236,26845,1,0,1:0:0:0:
102,217,26920,1,10,1:2:0:0:
101,197,26995,1,0,1:0:0:0:
95,178,27070,37,4,1:2:0:0:
45,97,27220,2,0,P|11:131|0:179,1,97.75,10|2,2:0|1:2,2:0:0:0:
0,178,27445,1,0,1:0:0:0:
0,178,27520,1,10,1:2:0:0:
52,258,27670,5,2,1:2:0:0:
191,174,27820,2,0,P|178:127|142:93,1,97.75,10|0,2:0|1:0,2:0:0:0:
143,94,28045,1,0,1:0:0:0:
143,94,28120,1,10,1:2:0:0:
0,17,28270,5,2,1:2:0:0:
52,258,28420,2,0,P|98:270|145:256,1,97.75,10|0,2:0|1:0,2:0:0:0:
144,256,28645,1,0,1:0:0:0:
144,256,28720,1,10,1:2:0:0:
295,113,28870,37,0,1:0:0:0:
344,317,29020,1,10,2:0:0:0:
418,176,29170,1,0,1:0:0:0:
398,177,29245,1,0,1:0:0:0:
378,178,29320,1,10,1:2:0:0:
358,179,29395,1,0,3:0:0:0:
338,180,29470,5,2,1:2:0:0:
412,41,29620,1,10,2:0:0:0:
344,317,29770,1,2,1:2:0:0:
341,326,29845,1,0,1:0:0:0:
338,335,29920,1,10,1:2:0:0:
215,117,30070,5,2,1:2:0:0:
460,243,30220,1,10,2:0:0:0:
267,369,30370,2,0,L|264:318,1,48.875,0|0,1:0|1:0,2:0:0:0:
252,46,30520,37,14,1:2:0:0:
99,191,30670,1,0,1:0:0:0:
300,252,30820,1,10,2:0:0:0:
173,51,30970,1,0,1:0:0:0:
167,42,31045,1,0,1:0:0:0:
161,33,31120,1,10,1:2:0:0:
105,327,31270,5,8,2:0:0:0:
105,327,31345,1,8,2:0:0:0:
105,327,31420,1,8,2:0:0:0:
336,182,31570,1,0,1:0:0:0:
336,182,31645,1,0,3:0:0:0:
336,182,31720,2,0,L|390:185,1,48.875,0|0,3:0|3:0,2:0:0:0:
94,56,31870,5,4,1:2:0:0:
184,322,32020,1,10,2:0:0:0:
188,331,32095,1,0,3:0:0:0:
191,340,32170,1,2,1:2:0:0:
194,349,32245,1,0,1:0:0:0:
198,358,32320,1,10,1:2:0:0:
201,367,32395,1,0,3:0:0:0:
205,376,32470,38,0,L|210:270,1,106.25,2|10,1:2|2:0,2:0:0:0:
313,246,32695,1,0,3:0:0:0:
313,246,32770,2,0,L|288:198,1,53.125,0|0,1:0|1:0,2:0:0:0:
107,238,32920,2,0,L|135:192,1,53.125,10|0,1:2|3:0,2:0:0:0:
217,63,33070,5,2,1:2:0:0:
355,330,33220,1,10,2:0:0:0:
364,333,33295,1,0,3:0:0:0:
374,335,33370,1,0,1:0:0:0:
384,336,33445,1,0,1:0:0:0:
394,335,33520,1,10,1:2:0:0:
404,333,33595,1,0,3:0:0:0:
414,330,33670,6,0,P|452:294|465:242,1,106.25,0|10,1:0|2:0,2:0:0:0:
493,138,33895,1,0,3:0:0:0:
493,138,33970,2,0,P|467:131|438:136,1,53.125,0|0,1:0|1:0,2:0:0:0:
361,60,34120,2,0,P|343:78|333:106,1,53.125,10|0,1:2|3:0,2:0:0:0:
278,292,34270,37,2,1:2:0:0:
67,227,34420,1,10,2:0:0:0:
356,148,34570,1,2,1:2:0:0:
356,148,34645,1,0,1:0:0:0:
356,148,34720,1,10,1:2:0:0:
154,365,34870,5,2,1:2:0:0:
143,85,35020,1,10,2:0:0:0:
278,292,35170,2,0,L|332:295,1,53.125,0|0,1:0|1:0,2:0:0:0:
181,14,35320,5,14,1:2:0:0:
115,297,35470,1,0,1:0:0:0:
181,14,35620,1,10,2:0:0:0:
241,364,35770,37,0,1:0:0:0:
251,365,35845,1,0,1:0:0:0:
261,366,35920,1,10,1:2:0:0:
271,367,35995,1,0,3:0:0:0:
281,368,36070,5,0,1:0:0:0:
284,325,36145,1,0,1:0:0:0:
282,282,36220,1,10,1:2:0:0:
281,239,36295,1,0,1:0:0:0:
280,196,36370,6,0,L|278:142,3,53.125,0|0|10|0,1:0|1:0|1:2|1:0,2:0:0:0:
355,311,36670,37,4,1:2:0:0:
407,28,36820,1,10,2:0:0:0:
396,30,36895,1,0,3:0:0:0:
385,31,36970,1,0,1:0:0:0:
374,32,37045,1,0,1:0:0:0:
363,33,37120,1,10,1:2:0:0:
352,34,37195,1,0,3:0:0:0:
341,35,37270,6,0,L|232:39,1,106.25,2|10,1:2|2:0,2:0:0:0:
22,105,37495,1,0,3:0:0:0:
22,105,37570,2,0,L|20:51,1,53.125,0|0,1:0|1:0,2:0:0:0:
126,17,37720,2,0,L|127:70,1,53.125,10|0,1:2|3:0,2:0:0:0:
134,317,37870,5,2,1:2:0:0:
347,191,38020,1,10,2:0:0:0:
357,192,38095,1,0,3:0:0:0:
367,193,38170,1,0,1:0:0:0:
377,194,38245,1,0,1:0:0:0:
387,195,38320,1,10,1:2:0:0:
397,196,38395,1,0,3:0:0:0:
407,197,38470,38,0,L|410:310,1,106.25,0|10,1:0|2:0,2:0:0:0:
340,384,38695,1,0,3:0:0:0:
340,384,38770,2,0,L|309:335,1,53.125,0|0,1:0|1:0,2:0:0:0:
483,380,38920,2,0,L|510:330,1,53.125,10|0,1:2|3:0,2:0:0:0:
404,88,39070,5,2,1:2:0:0:
270,250,39220,1,10,2:0:0:0:
334,49,39370,1,2,1:2:0:0:
334,49,39445,1,0,1:0:0:0:
334,49,39520,1,10,1:2:0:0:
272,330,39670,5,2,1:2:0:0:
194,50,39820,1,10,2:0:0:0:
339,209,39970,2,0,L|392:207,1,53.125,0|0,1:0|1:0,2:0:0:0:
61,372,40120,38,0,B|57:284|57:284|29:259|29:259|24:170,1,210.375,14|0,1:2|2:0,2:0:0:0:
36,70,40420,5,0,1:0:0:0:
35,55,40495,1,0,1:0:0:0:
34,40,40570,2,0,L|31:93,3,53.125,8|8|8|8,1:2|2:0|2:0|2:0,2:0:0:0:
138,156,40870,5,0,1:0:0:0:
137,145,40945,1,0,3:0:0:0:
136,134,41020,2,0,L|134:80,1,53.125,0|0,3:0|3:0,2:0:0:0:
242,4,41170,1,0,1:0:0:0:
241,25,41245,1,0,3:0:0:0:
239,46,41320,2,0,L|238:100,1,53.125,0|0,3:0|3:0,2:0:0:0:
230,268,41470,37,4,1:2:0:0:
229,284,41545,1,0,1:0:0:0:
228,301,41620,1,0,1:0:0:0:
227,318,41695,1,0,1:0:0:0:
226,334,41770,6,0,L|223:391,3,42.5,10|0|0|0,1:2|1:0|1:0|1:0,2:0:0:0:
311,314,42070,2,0,L|313:356,3,42.5,10|0|0|0,1:2|1:0|1:0|1:0,2:0:0:0:
398,342,42370,2,0,L|395:384,3,42.5,10|0|0|0,1:2|1:0|1:0|1:0,2:0:0:0:
480,313,42670,5,10,1:2:0:0:
498,284,42745,1,0,1:0:0:0:
503,250,42820,1,0,1:0:0:0:
502,216,42895,1,0,1:0:0:0:
488,184,42970,1,8,1:2:0:0:
464,159,43045,1,0,1:0:0:0:
434,141,43120,1,0,1:0:0:0:
400,134,43195,1,0,1:0:0:0:
366,138,43270,38,0,P|345:142|322:139,1,42.5,8|0,1:2|1:0,2:0:0:0:
263,202,43420,1,2,1:2:0:0:
263,202,43495,1,0,1:0:0:0:
263,202,43570,2,0,P|249:185|240:164,1,42.5,8|0,1:2|1:0,2:0:0:0:
158,144,43720,2,0,P|165:123|179:105,1,42.5,2|0,1:2|1:0,2:0:0:0:
343,53,43870,5,8,1:2:0:0:
359,54,43945,1,0,1:0:0:0:
375,55,44020,1,0,1:0:0:0:
391,56,44095,1,0,1:0:0:0:
407,57,44170,6,0,L|453:59,3,42.5,10|0|0|0,1:2|1:0|1:0|1:0,2:0:0:0:
467,144,44470,2,0,L|424:142,3,42.5,10|0|0|0,1:2|1:0|1:0|1:0,2:0:0:0:
397,226,44770,2,0,L|439:227,3,42.5,10|0|0|0,1:2|1:0|1:0|1:0,2:0:0:0:
463,312,45070,37,10,1:2:0:0:
436,325,45145,1,0,1:0:0:0:
406,331,45220,1,0,1:0:0:0:
376,326,45295,1,0,1:0:0:0:
349,311,45370,1,8,1:2:0:0:
322,296,45445,1,0,1:0:0:0:
292,291,45520,1,0,1:0:0:0:
262,297,45595,1,0,1:0:0:0:
235,310,45670,6,0,L|238:363,1,42.5,8|0,1:2|1:0,2:0:0:0:
151,279,45820,1,2,1:2:0:0:
151,279,45895,1,0,1:0:0:0:
151,279,45970,2,0,L|149:322,1,42.5,8|0,1:2|1:0,2:0:0:0:
62,248,46120,2,0,L|65:291,1,42.5,2|0,1:2|1:0,2:0:0:0:
52,80,46270,5,12,1:2:0:0:
51,63,46345,1,0,1:0:0:0:
50,46,46420,1,0,1:0:0:0:
49,29,46495,1,0,1:0:0:0:
48,12,46570,38,0,P|69:18|87:32,3,42.5,10|0|0|0,1:2|1:0|1:0|1:0,2:0:0:0:
171,6,46870,2,0,P|176:28|173:49,3,42.5,10|0|0|0,1:2|1:0|1:0|1:0,2:0:0:0:
238,105,47170,2,0,P|221:120|200:128,3,42.5,10|0|0|0,1:2|1:0|1:0|1:0,2:0:0:0:
147,193,47470,5,10,1:2:0:0:
125,224,47545,1,0,1:0:0:0:
118,261,47620,1,0,1:0:0:0:
124,298,47695,1,0,1:0:0:0:
147,327,47770,1,8,1:2:0:0:
179,346,47845,1,0,1:0:0:0:
216,351,47920,1,0,1:0:0:0:
252,339,47995,1,0,1:0:0:0:
281,314,48070,6,0,L|334:317,3,42.5,10|0|0|0,1:2|1:0|1:0|1:0,2:0:0:0:
428,345,48370,2,0,L|430:302,3,42.5,10|0|0|0,1:2|1:0|1:0|1:0,2:0:0:0:
437,173,48670,37,10,1:2:0:0:
400,136,48745,1,0,1:0:0:0:
350,125,48820,1,0,1:0:0:0:
300,137,48895,1,0,1:0:0:0:
264,173,48970,1,8,1:2:0:0:
245,220,49045,1,0,1:0:0:0:
214,260,49120,1,0,1:0:0:0:
165,276,49195,1,0,1:0:0:0:
114,276,49270,1,8,1:2:0:0:
68,252,49345,1,0,1:0:0:0:
34,213,49420,1,0,1:0:0:0:
24,162,49495,1,0,1:0:0:0:
35,112,49570,6,0,L|37:59,3,42.5,14|0|0|0,1:2|2:0|1:0|2:0,2:0:0:0:
133,256,49870,5,10,2:0:0:0:
135,239,49945,1,8,2:0:0:0:
136,223,50020,2,0,L|137:180,1,42.5,8|8,2:0|2:0,2:0:0:0:
196,101,50170,37,0,1:0:0:0:
183,101,50245,1,0,3:0:0:0:
169,99,50320,2,0,L|126:97,1,42.5,0|0,3:0|3:0,2:0:0:0:
38,51,50470,5,2,1:2:0:0:
37,60,50545,1,0,3:0:0:0:
36,69,50620,2,0,L|35:112,1,42.5,0|0,3:0|3:0,2:0:0:0:
11,195,50770,5,2,1:2:0:0:
11,195,50845,1,0,3:0:0:0:
11,195,50920,2,0,L|53:196,1,42.5,0|0,3:0|3:0,2:0:0:0:
270,312,51070,38,0,L|266:188,1,123.25,6|10,1:2|2:0,2:0:0:0:
366,50,51370,1,0,1:0:0:0:
368,86,51445,1,0,1:0:0:0:
370,122,51520,1,10,1:2:0:0:
165,377,51670,6,0,L|161:253,1,123.25,0|10,1:0|2:0,2:0:0:0:
482,108,51970,1,2,1:2:0:0:
480,144,52045,1,0,1:0:0:0:
478,180,52120,1,10,1:2:0:0:
270,312,52270,5,2,1:2:0:0:
344,55,52420,1,10,2:0:0:0:
461,355,52570,1,0,1:0:0:0:
461,355,52645,1,0,1:0:0:0:
461,355,52720,1,10,1:2:0:0:
152,87,52870,37,2,1:2:0:0:
465,207,53020,1,10,2:0:0:0:
205,347,53170,1,0,1:0:0:0:
205,347,53245,1,0,1:0:0:0:
205,347,53320,1,10,1:2:0:0:
281,16,53470,37,10,2:0:0:0:
341,6,53545,1,8,2:0:0:0:
397,30,53620,1,8,2:0:0:0:
427,83,53695,1,8,2:0:0:0:
425,144,53770,2,0,P|417:172|396:196,1,61.625,0|0,1:0|3:0,2:0:0:0:
214,308,53920,5,0,3:0:0:0:
175,261,53995,1,0,3:0:0:0:
168,200,54070,1,0,1:0:0:0:
199,148,54145,1,0,3:0:0:0:
252,119,54220,2,0,P|281:110|311:116,1,61.625,0|0,3:0|3:0,2:0:0:0:
504,210,54370,53,8,2:0:0:0:
482,267,54445,1,8,2:0:0:0:
433,303,54520,1,8,2:0:0:0:
372,302,54595,1,8,2:0:0:0:
321,271,54670,2,0,P|299:249|289:220,1,61.625,0|0,1:0|3:0,2:0:0:0:
281,16,54820,5,0,3:0:0:0:
341,6,54895,1,0,3:0:0:0:
397,30,54970,1,0,1:0:0:0:
427,83,55045,1,0,3:0:0:0:
425,144,55120,2,0,P|417:172|396:196,1,61.625,0|0,3:0|3:0,2:0:0:0:
180,206,55270,54,0,L|102:209,1,74.375,8|0,2:0|3:0,2:0:0:0:
101,204,55870,6,0,L|97:341,1,127.5,6|8,1:2|2:0,2:0:0:0:
155,79,56170,1,0,1:0:0:0:
105,78,56245,1,0,1:0:0:0:
55,75,56320,1,8,1:2:0:0:
299,147,56470,54,0,L|303:10,1,127.5,2|8,1:2|2:0,2:0:0:0:
244,268,56770,1,2,1:2:0:0:
294,271,56845,1,0,1:0:0:0:
344,272,56920,1,8,1:2:0:0:
101,204,57070,5,2,1:2:0:0:
183,376,57220,1,8,2:0:0:0:
344,272,57370,1,0,1:0:0:0:
344,272,57445,1,0,1:0:0:0:
344,272,57520,1,8,1:2:0:0:
72,322,57670,53,0,1:0:0:0:
305,384,57820,1,8,2:0:0:0:
367,151,57970,1,2,1:2:0:0:
367,151,58045,1,0,1:0:0:0:
367,151,58120,1,8,1:2:0:0:
134,88,58270,6,0,B|75:67|75:67|13:94,1,127.5,2|8,1:2|2:0,2:0:0:0:
267,150,58570,1,0,1:0:0:0:
266,99,58645,1,0,2:0:0:0:
263,48,58720,1,8,1:2:0:0:
222,300,58870,54,0,B|281:321|281:321|343:294,1,127.5,2|8,1:2|2:0,2:0:0:0:
83,257,59170,1,0,1:0:0:0:
84,308,59245,1,0,2:0:0:0:
87,358,59320,1,8,1:2:0:0:
353,85,59470,5,2,1:2:0:0:
160,80,59620,1,8,2:0:0:0:
154,276,59770,1,0,1:0:0:0:
154,276,59845,1,0,1:0:0:0:
154,276,59920,1,8,1:2:0:0:
284,13,60070,53,0,1:0:0:0:
32,73,60220,1,8,2:0:0:0:
93,323,60370,1,2,1:2:0:0:
93,323,60445,1,0,1:0:0:0:
93,323,60520,1,8,1:2:0:0:
344,260,60670,5,6,1:2:0:0:
356,261,60745,1,0,1:0:0:0:
368,262,60820,1,8,1:2:0:0:
380,263,60895,1,0,1:0:0:0:
392,264,60970,1,0,1:0:0:0:
404,265,61045,1,0,1:0:0:0:
416,266,61120,53,8,1:2:0:0:
365,271,61195,1,0,1:0:0:0:
314,273,61270,1,0,1:0:0:0:
263,274,61345,1,0,1:0:0:0:
212,275,61420,1,8,1:2:0:0:
161,278,61495,1,0,1:0:0:0:
109,281,61570,6,0,L|48:283,3,57.375,2|0|8|0,1:2|1:0|1:2|1:0,2:0:0:0:
150,384,61870,53,2,1:2:0:0:
150,384,61945,1,0,1:0:0:0:
150,384,62020,2,0,P|178:373|202:351,1,63.75,8|0,1:2|1:0,2:0:0:0:
312,375,62170,1,2,1:2:0:0:
312,375,62245,1,0,1:0:0:0:
312,375,62320,2,0,P|317:345|310:313,1,63.75,8|0,1:2|1:0,2:0:0:0:
130,169,62470,5,2,1:2:0:0:
130,169,62545,1,0,1:0:0:0:
130,169,62620,2,0,P|123:138|128:107,1,63.75,8|0,1:2|1:0,2:0:0:0:
108,280,62770,1,2,1:2:0:0:
108,280,62845,1,0,1:0:0:0:
108,280,62920,2,0,P|78:270|54:251,1,63.75,8|0,1:2|1:0,2:0:0:0:
237,132,63070,53,2,1:2:0:0:
281,107,63145,1,0,1:0:0:0:
331,102,63220,1,8,1:2:0:0:
376,125,63295,1,0,1:0:0:0:
406,165,63370,1,0,1:0:0:0:
414,215,63445,1,0,1:0:0:0:
401,264,63520,1,8,1:2:0:0:
361,296,63595,1,0,1:0:0:0:
309,312,63670,5,2,1:2:0:0:
265,265,63745,1,0,1:0:0:0:
246,204,63820,1,8,1:2:0:0:
262,142,63895,1,0,1:0:0:0:
301,92,63970,1,0,1:0:0:0:
360,69,64045,1,0,1:0:0:0:
423,74,64120,1,8,1:2:0:0:
477,106,64195,1,0,1:0:0:0:
508,161,64270,54,0,L|504:288,1,127.5,14|8,2:0|2:0,2:0:0:0:
388,220,64570,1,8,2:0:0:0:
388,220,64645,1,8,2:0:0:0:
388,220,64720,2,0,L|325:223,1,63.75,8|8,2:0|2:0,2:0:0:0:
297,313,64870,6,0,L|368:309,3,57.375,0|0|0|0,1:0|3:0|3:0|3:0,2:0:0:0:
202,317,65170,1,0,1:0:0:0:
189,317,65245,1,0,3:0:0:0:
176,318,65320,1,0,3:0:0:0:
163,319,65395,1,0,3:0:0:0:
150,320,65470,54,0,L|14:325,1,127.5,6|8,1:2|2:0,2:0:0:0:
271,263,65770,1,0,1:0:0:0:
273,313,65845,1,0,1:0:0:0:
275,363,65920,1,8,1:2:0:0:
202,117,66070,6,0,L|338:112,1,127.5,2|8,1:2|2:0,2:0:0:0:
81,174,66370,1,0,1:0:0:0:
79,124,66445,1,0,1:0:0:0:
77,74,66520,1,8,1:2:0:0:
329,293,66670,53,2,1:2:0:0:
134,287,66820,1,8,2:0:0:0:
140,92,66970,1,0,1:0:0:0:
140,92,67045,1,0,1:0:0:0:
140,92,67120,1,8,1:2:0:0:
256,353,67270,5,0,1:0:0:0:
4,274,67420,1,8,2:0:0:0:
83,22,67570,1,2,1:2:0:0:
83,22,67645,1,0,1:0:0:0:
83,22,67720,1,8,1:2:0:0:
335,101,67870,54,0,B|361:160|361:160|338:219,1,127.5,2|8,1:2|2:0,2:0:0:0:
37,331,68170,1,0,1:0:0:0:
37,331,68245,1,0,1:0:0:0:
37,331,68320,2,0,B|10:272|10:272|34:212,1,127.5,10|0,1:2|1:0,2:0:0:0:
129,33,68620,1,8,2:0:0:0:
137,269,68770,1,2,1:2:0:0:
137,269,68845,1,0,1:0:0:0:
137,269,68920,1,8,1:2:0:0:
29,95,69070,5,2,1:2:0:0:
74,117,69145,1,0,1:0:0:0:
124,114,69220,1,8,1:2:0:0:
167,86,69295,1,0,1:0:0:0:
207,54,69370,1,0,1:0:0:0:
257,51,69445,1,0,1:0:0:0:
303,71,69520,2,0,P|323:95|333:125,1,63.75,10|0,1:2|1:0,2:0:0:0:
284,281,69670,53,2,1:2:0:0:
260,326,69745,1,0,1:0:0:0:
217,354,69820,1,8,1:2:0:0:
166,353,69895,1,0,1:0:0:0:
122,325,69970,1,0,1:0:0:0:
101,278,70045,1,0,1:0:0:0:
109,227,70120,1,8,1:2:0:0:
142,188,70195,1,0,1:0:0:0:
190,172,70270,5,6,1:2:0:0:
166,231,70345,1,0,1:0:0:0:
107,256,70420,1,0,1:0:0:0:
46,237,70495,1,0,1:0:0:0:
10,183,70570,1,12,1:2:0:0:
19,120,70645,1,0,1:0:0:0:
67,78,70720,53,2,1:2:0:0:
122,108,70795,1,0,1:0:0:0:
156,161,70870,1,12,1:2:0:0:
157,224,70945,1,0,1:0:0:0:
127,280,71020,1,0,1:0:0:0:
72,313,71095,1,0,1:0:0:0:
8,315,71170,5,14,1:2:0:0:
40,245,71245,1,0,1:0:0:0:
104,204,71320,1,0,1:0:0:0:
180,204,71395,1,0,1:0:0:0:
246,241,71470,53,14,1:2:0:0:
266,143,72670,37,6,1:2:0:0:
368,343,72820,1,10,2:0:0:0:
384,85,72970,1,2,1:2:0:0:
384,85,73045,1,0,1:0:0:0:
384,85,73120,1,10,1:2:0:0:
224,205,73270,5,2,1:2:0:0:
485,287,73420,1,10,2:0:0:0:
311,21,73570,1,2,1:2:0:0:
311,21,73645,1,2,1:2:0:0:
311,21,73720,2,0,L|308:86,1,57.375,10|2,1:2|2:0,2:0:0:0:
293,337,73870,53,2,1:2:0:0:
75,194,74020,1,10,2:0:0:0:
342,147,74170,1,2,1:2:0:0:
342,147,74245,1,0,2:0:0:0:
342,147,74320,1,10,1:2:0:0:
142,329,74470,5,2,1:2:0:0:
82,65,74620,1,10,2:0:0:0:
260,271,74770,1,2,1:2:0:0:
260,271,74845,1,2,1:2:0:0:
260,271,74920,2,0,L|326:274,1,57.375,10|2,1:2|2:0,2:0:0:0:
202,10,75070,53,2,1:2:0:0:
198,180,75220,1,10,2:0:0:0:
368,184,75370,1,2,1:2:0:0:
368,184,75445,1,0,2:0:0:0:
368,184,75520,1,10,1:2:0:0:
192,2,75670,5,2,1:2:0:0:
188,172,75820,1,10,2:0:0:0:
358,176,75970,1,2,1:2:0:0:
358,176,76045,1,2,1:2:0:0:
358,176,76120,2,0,L|432:179,1,57.375,10|2,1:2|2:0,2:0:0:0:
143,85,76270,53,2,1:2:0:0:
98,75,76345,1,0,1:0:0:0:
53,86,76420,1,10,1:2:0:0:
22,119,76495,1,0,1:0:0:0:
7,162,76570,1,2,1:2:0:0:
18,206,76645,1,0,1:0:0:0:
48,240,76720,1,10,1:2:0:0:
90,256,76795,1,0,1:0:0:0:
135,249,76870,1,2,1:2:0:0:
172,223,76945,1,0,1:0:0:0:
217,217,77020,1,10,1:2:0:0:
259,234,77095,1,0,1:0:0:0:
288,269,77170,1,2,1:2:0:0:
294,314,77245,1,2,1:2:0:0:
279,357,77320,2,0,P|252:364|217:359,1,57.375,10|2,1:2|1:2,2:0:0:0:
98,165,77470,5,6,1:2:0:0:
250,17,77620,1,10,2:0:0:0:
142,233,77770,1,2,1:2:0:0:
142,233,77845,1,0,2:0:0:0:
142,233,77920,1,10,1:2:0:0:
89,25,78070,53,2,1:2:0:0:
186,301,78220,1,10,2:0:0:0:
353,82,78370,1,2,1:2:0:0:
353,82,78445,1,2,1:2:0:0:
353,82,78520,2,0,L|296:85,1,57.375,10|2,1:2|2:0,2:0:0:0:
59,237,78670,5,2,1:2:0:0:
349,292,78820,1,10,2:0:0:0:
72,379,78970,1,2,1:2:0:0:
72,379,79045,1,0,2:0:0:0:
72,379,79120,1,10,1:2:0:0:
302,223,79270,53,2,1:2:0:0:
15,169,79420,1,10,2:0:0:0:
267,352,79570,1,2,1:2:0:0:
267,352,79645,1,2,1:2:0:0:
267,352,79720,2,0,L|264:294,1,57.375,10|2,1:2|2:0,2:0:0:0:
170,22,79870,5,2,1:2:0:0:
163,195,80020,1,10,2:0:0:0:
336,202,80170,1,2,1:2:0:0:
336,202,80245,1,0,2:0:0:0:
336,202,80320,1,10,1:2:0:0:
162,30,80470,53,2,1:2:0:0:
155,203,80620,1,10,2:0:0:0:
328,210,80770,1,2,1:2:0:0:
328,210,80845,1,2,1:2:0:0:
328,210,80920,2,0,L|388:213,1,57.375,10|2,1:2|2:0,2:0:0:0:
227,81,81070,5,2,1:2:0:0:
235,313,81220,1,10,2:0:0:0:
3,321,81370,1,2,1:2:0:0:
3,321,81445,1,0,1:0:0:0:
3,321,81520,1,10,1:2:0:0:
238,91,81670,53,2,1:2:0:0:
246,323,81820,1,10,2:0:0:0:
14,331,81970,1,2,1:2:0:0:
14,331,82045,1,2,1:2:0:0:
14,331,82120,2,0,L|11:268,1,57.375,10|2,1:2|2:0,2:0:0:0:
0,39,82270,6,0,L|5:155,1,114.75,6|0,1:2|2:0,2:0:0:0:
113,326,82570,1,8,2:0:0:0:
124,327,82645,1,8,2:0:0:0:
135,328,82720,1,8,2:0:0:0:
146,329,82795,1,8,2:0:0:0:
157,330,82870,54,0,L|154:270,1,57.375,0|0,1:0|3:0,2:0:0:0:
248,238,83020,2,0,L|250:295,1,57.375,0|0,3:0|3:0,2:0:0:0:
345,333,83170,1,0,1:0:0:0:
345,333,83245,1,0,3:0:0:0:
345,333,83320,2,0,L|347:275,1,57.375,0|0,3:0|3:0,2:0:0:0:
444,308,83470,5,0,1:0:0:0:
444,308,83545,1,0,3:0:0:0:
444,308,83620,2,0,L|446:250,1,57.375,0|0,3:0|3:0,2:0:0:0:
452,147,83770,1,0,1:0:0:0:
453,124,83845,1,0,3:0:0:0:
454,101,83920,1,0,3:0:0:0:
455,78,83995,1,0,3:0:0:0:
456,55,84070,53,0,1:0:0:0:
37,193,84370,1,12,2:0:0:0:
167,273,84670,5,6,1:2:0:0:
167,273,84820,1,2,1:2:0:0:
250,323,84970,2,0,L|348:327,1,97.75,10|0,1:2|1:0,2:0:0:0:
453,273,85270,1,2,1:2:0:0:
456,370,85420,2,0,L|452:272,1,97.75,2|10,1:2|1:2,2:0:0:0:
448,172,85720,1,0,1:0:0:0:
364,121,85870,2,0,L|360:219,1,97.75,2|0,1:2|1:0,2:0:0:0:
366,21,86170,53,10,1:2:0:0:
451,74,86320,2,0,L|447:172,1,97.75,2|2,1:2|1:2,2:0:0:0:
366,21,86620,5,0,1:0:0:0:
364,121,86770,1,10,1:2:0:0:
280,73,86920,1,0,1:0:0:0:
196,121,87070,2,0,L|90:117,1,97.75,2|0,1:2|1:0,2:0:0:0:
45,199,87370,53,10,1:2:0:0:
196,121,87520,1,2,1:2:0:0:
52,30,87670,5,2,1:2:0:0:
143,203,87820,2,0,L|240:206,1,97.75,0|10,1:0|1:2,2:0:0:0:
460,86,88120,54,0,B|337:118|371:9|245:38,1,229.5,6|0,1:2|1:0,2:0:0:0:
240,206,88570,5,10,1:2:0:0:
196,121,88720,1,0,1:0:0:0:
284,291,88870,53,2,1:2:0:0:
188,286,89020,1,0,1:0:0:0:
380,296,89170,5,10,1:2:0:0:
327,376,89320,1,0,1:0:0:0:
337,211,89470,53,6,1:2:0:0:
337,211,89620,1,2,1:2:0:0:
382,125,89770,2,0,L|284:129,1,97.75,10|0,1:2|1:0,2:0:0:0:
186,130,90070,1,2,1:2:0:0:
182,32,90220,2,0,L|186:130,1,97.75,2|10,1:2|1:2,2:0:0:0:
191,232,90520,1,0,1:0:0:0:
139,317,90670,2,0,L|237:321,1,97.75,2|0,1:2|1:0,2:0:0:0:
39,313,90970,5,10,1:2:0:0:
93,229,91120,2,0,L|191:233,1,97.75,2|2,1:2|1:2,2:0:0:0:
39,313,91420,53,0,1:0:0:0:
93,229,91570,1,10,1:2:0:0:
47,142,91720,1,0,1:0:0:0:
298,64,91870,5,6,1:2:0:0:
39,313,92470,1,6,2:0:0:0:
512,240,92920,54,0,B|475:252|475:252|440:242|440:242|406:243|406:243|361:195|361:195|245:200,1,280.5,6|0,2:0|2:0,2:0:0:0:
1,211,93370,5,8,2:0:0:0:
15,210,93445,1,8,2:0:0:0:
29,209,93520,1,8,2:0:0:0:
43,208,93595,1,8,2:0:0:0:
56,207,93670,54,0,L|127:204,1,70.125,0|0,1:0|3:0,2:0:0:0:
121,59,93820,2,0,L|183:91,1,70.125,0|0,3:0|3:0,2:0:0:0:
133,348,93970,1,0,1:0:0:0:
133,348,94045,1,0,3:0:0:0:
133,348,94120,2,0,L|192:309,1,70.125,0|0,3:0|3:0,2:0:0:0:
379,193,94270,5,4,1:2:0:0:
126,204,94420,1,10,2:0:0:0:
115,205,94495,1,0,3:0:0:0:
104,206,94570,1,2,1:2:0:0:
93,206,94645,1,0,1:0:0:0:
82,207,94720,1,10,1:2:0:0:
71,208,94795,1,0,3:0:0:0:
60,209,94870,54,0,B|36:162|36:162|53:109,1,106.25,2|10,1:2|2:0,2:0:0:0:
150,71,95095,1,0,3:0:0:0:
150,71,95170,2,0,L|153:124,1,53.125,0|0,1:0|1:0,2:0:0:0:
256,157,95320,2,0,L|259:104,1,53.125,10|0,1:2|3:0,2:0:0:0:
264,0,95470,5,2,1:2:0:0:
252,258,95620,1,10,2:0:0:0:
251,268,95695,1,0,3:0:0:0:
251,278,95770,1,0,1:0:0:0:
250,288,95845,1,0,1:0:0:0:
249,298,95920,1,10,1:2:0:0:
249,308,95995,1,0,3:0:0:0:
248,318,96070,54,0,L|355:314,1,106.25,0|10,1:0|2:0,2:0:0:0:
458,334,96295,1,0,3:0:0:0:
458,334,96370,2,0,L|455:275,1,53.125,0|0,1:0|1:0,2:0:0:0:
352,367,96520,2,0,L|353:313,1,53.125,10|0,1:2|3:0,2:0:0:0:
360,77,96670,5,2,1:2:0:0:
220,232,96820,1,10,2:0:0:0:
427,118,96970,1,2,1:2:0:0:
427,118,97045,1,0,1:0:0:0:
427,118,97120,1,10,1:2:0:0:
156,33,97270,53,2,1:2:0:0:
358,156,97420,1,10,2:0:0:0:
39,72,97570,2,0,L|92:73,1,53.125,0|0,1:0|1:0,2:0:0:0:
360,77,97720,5,14,1:2:0:0:
83,229,97870,1,0,1:0:0:0:
360,77,98020,1,8,2:0:0:0:
156,33,98170,53,0,1:0:0:0:
145,31,98245,1,0,1:0:0:0:
134,29,98320,1,10,1:2:0:0:
123,27,98395,1,0,3:0:0:0:
112,24,98470,5,0,1:0:0:0:
89,60,98545,1,0,1:0:0:0:
69,97,98620,1,10,1:2:0:0:
88,134,98695,1,0,1:0:0:0:
113,168,98770,54,0,L|115:231,3,53.125,0|0|10|0,1:0|1:0|1:2|1:0,2:0:0:0:
120,375,99070,5,4,1:2:0:0:
244,137,99220,1,10,2:0:0:0:
254,134,99295,1,0,3:0:0:0:
264,133,99370,1,2,1:2:0:0:
274,132,99445,1,0,1:0:0:0:
284,133,99520,1,10,1:2:0:0:
294,135,99595,1,0,3:0:0:0:
304,138,99670,54,0,P|341:171|357:223,1,106.25,2|10,1:2|2:0,2:0:0:0:
282,358,99895,1,0,3:0:0:0:
282,358,99970,2,0,P|289:334|308:310,1,53.125,0|0,1:0|1:0,2:0:0:0:
468,308,100120,2,0,P|444:312|414:309,1,53.125,10|0,1:2|3:0,2:0:0:0:
249,226,100270,5,2,1:2:0:0:
375,22,100420,1,10,2:0:0:0:
375,32,100495,1,0,3:0:0:0:
375,43,100570,1,0,1:0:0:0:
375,53,100645,1,0,1:0:0:0:
376,64,100720,1,10,1:2:0:0:
376,75,100795,1,0,3:0:0:0:
376,85,100870,54,0,L|380:201,1,106.25,0|10,1:0|2:0,2:0:0:0:
279,230,101095,1,0,3:0:0:0:
279,230,101170,2,0,L|276:174,1,53.125,0|0,1:0|1:0,2:0:0:0:
172,153,101320,2,0,L|174:206,1,53.125,10|0,1:2|3:0,2:0:0:0:
181,359,101470,5,2,1:2:0:0:
236,89,101620,1,10,2:0:0:0:
44,287,101770,1,2,1:2:0:0:
44,287,101845,1,0,1:0:0:0:
44,287,101920,1,10,1:2:0:0:
307,202,102070,53,2,1:2:0:0:
34,59,102220,1,10,2:0:0:0:
110,377,102370,2,0,L|112:324,1,53.125,0|0,1:0|1:0,2:0:0:0:
167,53,102520,6,0,B|278:23|254:123|370:90,1,210.375,14|0,1:2|2:0,2:0:0:0:
471,84,102820,53,0,3:0:0:0:
467,97,102895,1,0,3:0:0:0:
462,109,102970,2,0,P|453:136|432:160,3,53.125,8|8|8|8,2:0|2:0|2:0|2:0,2:0:0:0:
488,252,103270,5,0,1:0:0:0:
477,256,103345,1,0,3:0:0:0:
466,257,103420,2,0,P|437:262|407:257,1,53.125,0|0,3:0|3:0,2:0:0:0:
376,355,103570,1,0,1:0:0:0:
355,349,103645,1,0,3:0:0:0:
339,336,103720,2,0,P|319:314|309:284,1,53.125,0|0,3:0|3:0,2:0:0:0:
363,91,103870,53,4,1:2:0:0:
363,74,103945,1,0,1:0:0:0:
364,57,104020,1,0,1:0:0:0:
364,40,104095,1,0,1:0:0:0:
365,23,104170,6,0,L|407:21,3,42.5,10|0|0|0,1:2|1:0|1:0|1:0,2:0:0:0:
447,122,104470,2,0,L|404:123,3,42.5,10|0|0|0,1:2|1:0|1:0|1:0,2:0:0:0:
391,229,104770,2,0,L|433:227,3,42.5,10|0|0|0,1:2|1:0|1:0|1:0,2:0:0:0:
462,330,105070,53,10,1:2:0:0:
433,348,105145,1,0,1:0:0:0:
399,353,105220,1,0,1:0:0:0:
365,347,105295,1,0,1:0:0:0:
337,326,105370,1,8,1:2:0:0:
308,308,105445,1,0,1:0:0:0:
274,302,105520,1,0,1:0:0:0:
240,307,105595,1,0,1:0:0:0:
212,326,105670,6,0,L|162:328,1,42.5,8|0,1:2|1:0,2:0:0:0:
70,355,105820,1,2,1:2:0:0:
70,355,105895,1,0,1:0:0:0:
70,355,105970,2,0,L|68:312,1,42.5,8|0,1:2|1:0,2:0:0:0:
45,213,106120,2,0,L|87:211,1,42.5,2|0,1:2|1:0,2:0:0:0:
195,125,106270,53,8,1:2:0:0:
194,141,106345,1,0,1:0:0:0:
193,157,106420,1,0,1:0:0:0:
192,173,106495,1,0,1:0:0:0:
192,189,106570,6,0,L|190:231,3,42.5,10|0|0|0,1:2|1:0|1:0|1:0,2:0:0:0:
295,214,106870,2,0,L|314:251,3,42.5,10|0|0|0,1:2|1:0|1:0|1:0,2:0:0:0:
87,204,107170,2,0,L|64:239,3,42.5,10|0|0|0,1:2|1:0|1:0|1:0,2:0:0:0:
197,77,107470,53,10,1:2:0:0:
226,59,107545,1,0,1:0:0:0:
259,54,107620,1,0,1:0:0:0:
292,62,107695,1,0,1:0:0:0:
320,80,107770,1,8,1:2:0:0:
348,98,107845,1,0,1:0:0:0:
380,106,107920,1,0,1:0:0:0:
413,100,107995,1,0,1:0:0:0:
443,84,108070,6,0,P|463:79|485:82,1,42.5,8|0,1:2|1:0,2:0:0:0:
472,201,108220,1,2,1:2:0:0:
472,201,108295,1,0,1:0:0:0:
472,201,108370,2,0,P|485:217|494:237,1,42.5,8|0,1:2|1:0,2:0:0:0:
390,292,108520,2,0,P|382:312|369:329,1,42.5,2|0,1:2|1:0,2:0:0:0:
242,163,108670,53,12,1:2:0:0:
225,164,108745,1,0,1:0:0:0:
208,164,108820,1,0,1:0:0:0:
191,165,108895,1,0,1:0:0:0:
174,166,108970,6,0,L|122:168,3,42.5,10|0|0|0,1:2|1:0|1:0|1:0,2:0:0:0:
100,269,109270,2,0,L|142:270,3,42.5,10|0|0|0,1:2|1:0|1:0|1:0,2:0:0:0:
172,374,109570,2,0,L|129:375,3,42.5,10|0|0|0,1:2|1:0|1:0|1:0,2:0:0:0:
304,368,109870,53,10,1:2:0:0:
336,378,109945,1,0,1:0:0:0:
369,374,110020,1,0,1:0:0:0:
400,360,110095,1,0,1:0:0:0:
422,334,110170,1,8,1:2:0:0:
436,303,110245,1,0,1:0:0:0:
434,269,110320,1,0,1:0:0:0:
419,238,110395,1,0,1:0:0:0:
396,212,110470,6,0,L|394:165,3,42.5,10|0|0|0,1:2|1:0|1:0|1:0,2:0:0:0:
406,64,110770,2,0,L|359:66,3,42.5,10|0|0|0,1:2|1:0|1:0|1:0,2:0:0:0:
233,72,111070,53,10,1:2:0:0:
194,38,111145,1,0,1:0:0:0:
143,31,111220,1,0,1:0:0:0:
96,52,111295,1,0,1:0:0:0:
68,95,111370,1,8,1:2:0:0:
67,145,111445,1,0,1:0:0:0:
93,188,111520,1,0,1:0:0:0:
138,210,111595,1,0,1:0:0:0:
169,249,111670,1,8,1:2:0:0:
171,299,111745,1,0,1:0:0:0:
147,344,111820,1,0,1:0:0:0:
101,367,111895,1,0,1:0:0:0:
50,365,111970,6,0,L|3:367,3,42.5,14|0|0|0,1:2|2:0|1:0|2:0,2:0:0:0:
106,281,112270,53,10,2:0:0:0:
93,280,112345,1,8,2:0:0:0:
80,279,112420,2,0,L|37:277,1,42.5,8|8,2:0|2:0,2:0:0:0:
0,188,112570,5,0,1:0:0:0:
8,188,112645,1,0,3:0:0:0:
17,189,112720,2,0,L|60:191,1,42.5,0|0,3:0|3:0,2:0:0:0:
90,107,112870,53,2,1:2:0:0:
90,107,112945,1,0,3:0:0:0:
90,107,113020,2,0,L|47:105,1,42.5,0|0,1:0|3:0,2:0:0:0:
202,47,113170,2,0,L|224:11,1,42.5,2|0,1:2|3:0,2:0:0:0:
197,176,113320,2,0,L|216:213,1,42.5,0|0,1:0|3:0,2:0:0:0:
435,118,113470,6,0,L|312:115,1,123.25,6|10,1:2|2:0,2:0:0:0:
108,326,113770,1,0,1:0:0:0:
145,324,113845,1,0,1:0:0:0:
182,323,113920,1,10,1:2:0:0:
370,6,114070,54,0,L|246:9,1,123.25,0|10,1:0|2:0,2:0:0:0:
52,218,114370,1,2,1:2:0:0:
89,220,114445,1,0,1:0:0:0:
126,223,114520,1,10,1:2:0:0:
370,229,114670,5,2,1:2:0:0:
241,68,114820,1,10,2:0:0:0:
298,342,114970,1,0,1:0:0:0:
298,342,115045,1,0,1:0:0:0:
298,342,115120,1,10,1:2:0:0:
510,76,115270,53,2,1:2:0:0:
169,183,115420,1,10,2:0:0:0:
435,270,115570,1,0,1:0:0:0:
435,270,115645,1,0,1:0:0:0:
435,270,115720,1,10,1:2:0:0:
89,38,115870,21,10,2:0:0:0:
46,82,115945,1,8,2:0:0:0:
8,130,116020,1,8,2:0:0:0:
40,182,116095,1,8,2:0:0:0:
79,229,116170,2,0,B|108:237|108:237|138:229,1,61.625,0|0,1:0|3:0,2:0:0:0:
353,189,116320,5,0,3:0:0:0:
336,129,116395,1,0,3:0:0:0:
313,72,116470,1,0,1:0:0:0:
252,74,116545,1,0,3:0:0:0:
192,84,116620,2,0,B|169:104|169:104|161:134,1,61.625,0|0,3:0|3:0,2:0:0:0:
99,345,116770,53,8,2:0:0:0:
159,360,116845,1,8,2:0:0:0:
220,368,116920,1,8,2:0:0:0:
249,315,116995,1,8,2:0:0:0:
270,257,117070,2,0,B|263:227|263:227|241:205,1,61.625,0|0,1:0|3:0,2:0:0:0:
89,38,117220,5,0,3:0:0:0:
46,82,117295,1,0,3:0:0:0:
8,130,117370,1,0,1:0:0:0:
40,182,117445,1,0,3:0:0:0:
79,229,117520,2,0,B|108:237|108:237|138:229,1,61.625,0|0,3:0|3:0,2:0:0:0:
343,182,117670,54,0,L|418:179,1,74.375,8|0,2:0|3:0,2:0:0:0:
423,174,118270,6,0,L|428:318,1,127.5,6|8,1:2|2:0,2:0:0:0:
367,52,118570,1,0,1:0:0:0:
417,49,118645,1,0,1:0:0:0:
467,48,118720,1,8,1:2:0:0:
230,127,118870,54,0,L|225:-17,1,127.5,2|8,1:2|2:0,2:0:0:0:
282,253,119170,1,2,1:2:0:0:
232,256,119245,1,0,1:0:0:0:
182,257,119320,1,8,1:2:0:0:
423,174,119470,5,2,1:2:0:0:
345,350,119620,1,8,2:0:0:0:
182,257,119770,1,0,1:0:0:0:
182,257,119845,1,0,1:0:0:0:
182,257,119920,1,8,1:2:0:0:
470,301,120070,53,0,1:0:0:0:
218,384,120220,1,8,2:0:0:0:
135,132,120370,1,2,1:2:0:0:
135,132,120445,1,0,1:0:0:0:
135,132,120520,1,8,1:2:0:0:
387,49,120670,6,0,P|445:33|509:55,1,127.5,2|8,1:2|2:0,2:0:0:0:
252,99,120970,1,0,1:0:0:0:
236,50,121045,1,0,2:0:0:0:
251,1,121120,1,8,1:2:0:0:
311,246,121270,54,0,P|253:262|189:240,1,127.5,2|8,1:2|2:0,2:0:0:0:
448,197,121570,1,0,1:0:0:0:
464,246,121645,1,0,2:0:0:0:
449,295,121720,1,8,1:2:0:0:
192,78,121870,5,2,1:2:0:0:
387,49,122020,1,8,2:0:0:0:
416,244,122170,1,0,1:0:0:0:
416,244,122245,1,0,1:0:0:0:
416,244,122320,1,8,1:2:0:0:
244,4,122470,53,0,1:0:0:0:
470,114,122620,1,8,2:0:0:0:
360,339,122770,1,2,1:2:0:0:
360,339,122845,1,0,1:0:0:0:
360,339,122920,1,8,1:2:0:0:
135,229,123070,5,2,1:2:0:0:
122,229,123145,1,0,1:0:0:0:
109,230,123220,1,8,1:2:0:0:
96,230,123295,1,0,1:0:0:0:
83,231,123370,1,0,1:0:0:0:
70,232,123445,1,0,1:0:0:0:
57,232,123520,53,8,1:2:0:0:
93,267,123595,1,0,1:0:0:0:
143,275,123670,1,0,1:0:0:0:
190,257,123745,1,0,1:0:0:0:
224,219,123820,1,8,1:2:0:0:
274,209,123895,1,0,1:0:0:0:
320,229,123970,6,0,L|323:288,3,57.375,2|0|8|0,1:2|1:0|1:2|1:0,2:0:0:0:
465,204,124270,53,2,1:2:0:0:
465,204,124345,1,0,1:0:0:0:
465,204,124420,2,0,L|408:174,1,63.75,8|0,1:2|1:0,2:0:0:0:
173,216,124570,1,2,1:2:0:0:
173,216,124645,1,0,1:0:0:0:
173,216,124720,2,0,L|226:181,1,63.75,8|0,1:2|1:0,2:0:0:0:
311,60,124870,5,2,1:2:0:0:
311,60,124945,1,0,1:0:0:0:
311,60,125020,2,0,L|313:123,1,63.75,8|0,1:2|1:0,2:0:0:0:
322,292,125170,1,2,1:2:0:0:
322,292,125245,1,0,1:0:0:0:
322,292,125320,2,0,L|319:228,1,63.75,8|0,1:2|1:0,2:0:0:0:
224,91,125470,53,2,1:2:0:0:
195,57,125545,1,0,1:0:0:0:
154,39,125620,1,8,1:2:0:0:
109,36,125695,1,0,1:0:0:0:
69,56,125770,1,0,1:0:0:0:
37,88,125845,1,0,1:0:0:0:
26,131,125920,1,8,1:2:0:0:
32,175,125995,1,0,1:0:0:0:
52,214,126070,5,2,1:2:0:0:
104,177,126145,1,0,1:0:0:0:
167,169,126220,1,8,1:2:0:0:
223,198,126295,1,0,1:0:0:0:
258,250,126370,1,0,1:0:0:0:
290,304,126445,1,0,1:0:0:0:
344,336,126520,1,8,1:2:0:0:
407,337,126595,1,0,1:0:0:0:
462,310,126670,54,0,B|491:254|491:254|469:192,1,127.5,14|8,2:0|2:0,2:0:0:0:
492,62,126970,1,8,2:0:0:0:
492,62,127045,1,8,2:0:0:0:
492,62,127120,2,0,L|425:64,1,63.75,8|8,2:0|2:0,2:0:0:0:
307,32,127270,6,0,L|309:95,3,57.375,0|0|0|0,1:0|3:0|3:0|3:0,2:0:0:0:
314,192,127570,1,0,1:0:0:0:
315,204,127645,1,0,3:0:0:0:
315,216,127720,1,0,3:0:0:0:
316,228,127795,1,0,3:0:0:0:
317,240,127870,54,0,L|322:369,1,127.5,6|8,1:2|2:0,2:0:0:0:
260,114,128170,1,0,1:0:0:0:
310,111,128245,1,0,1:0:0:0:
360,109,128320,1,8,1:2:0:0:
111,175,128470,6,0,L|106:46,1,127.5,2|8,1:2|2:0,2:0:0:0:
168,301,128770,1,0,1:0:0:0:
118,304,128845,1,0,1:0:0:0:
68,306,128920,1,8,1:2:0:0:
283,79,129070,53,2,1:2:0:0:
273,266,129220,1,8,2:0:0:0:
86,256,129370,1,0,1:0:0:0:
86,256,129445,1,0,1:0:0:0:
86,256,129520,1,8,1:2:0:0:
386,187,129670,5,0,1:0:0:0:
199,361,129820,1,8,2:0:0:0:
25,174,129970,1,2,1:2:0:0:
25,174,130045,1,0,1:0:0:0:
25,174,130120,1,8,1:2:0:0:
212,0,130270,54,0,P|235:59|221:122,1,127.5,2|8,1:2|2:0,2:0:0:0:
0,351,130570,1,0,1:0:0:0:
0,351,130645,1,0,1:0:0:0:
0,351,130720,2,0,P|39:301|101:282,1,127.5,10|0,1:2|1:0,2:0:0:0:
300,307,131020,1,8,2:0:0:0:
116,167,131170,1,2,1:2:0:0:
116,167,131245,1,0,1:0:0:0:
116,167,131320,1,8,1:2:0:0:
380,382,131470,5,2,1:2:0:0:
403,337,131545,1,0,1:0:0:0:
406,287,131620,1,8,1:2:0:0:
382,243,131695,1,0,1:0:0:0:
353,202,131770,1,0,1:0:0:0:
349,152,131845,1,0,1:0:0:0:
371,106,131920,2,0,P|396:83|429:73,1,63.75,10|0,1:2|1:0,2:0:0:0:
300,307,132070,53,2,1:2:0:0:
257,335,132145,1,0,1:0:0:0:
206,341,132220,1,8,1:2:0:0:
157,326,132295,1,0,1:0:0:0:
125,285,132370,1,0,1:0:0:0:
116,234,132445,1,0,1:0:0:0:
130,185,132520,1,8,1:2:0:0:
164,147,132595,1,0,1:0:0:0:
212,132,132670,5,6,1:2:0:0:
251,181,132745,1,0,1:0:0:0:
313,191,132820,1,0,1:0:0:0:
373,171,132895,1,0,1:0:0:0:
408,118,132970,1,12,1:2:0:0:
411,54,133045,1,0,1:0:0:0:
374,1,133120,53,2,1:2:0:0:
314,23,133195,1,0,1:0:0:0:
278,76,133270,1,12,1:2:0:0:
275,139,133345,1,0,1:0:0:0:
313,191,133420,1,0,1:0:0:0:
373,209,133495,1,0,1:0:0:0:
435,198,133570,5,14,1:2:0:0:
410,125,133645,1,0,1:0:0:0:
342,88,133720,1,0,1:0:0:0:
266,99,133795,1,0,1:0:0:0:
211,153,133870,53,6,1:2:0:0:
269,64,135070,54,0,B|225:86|180:61|180:61|145:7|71:3|71:3|-9:59|41:156|41:156|48:114|93:95,1,478.125000000001,6|0,2:0|3:0,2:0:0:0:
130,179,136270,37,8,2:0:0:0:
129,187,136345,1,8,2:0:0:0:
128,195,136420,1,8,2:0:0:0:
127,203,136495,1,8,2:0:0:0:
126,211,136570,2,0,L|123:259,3,42.5,2|0|0|0,1:2|3:0|3:0|3:0,2:0:0:0:
222,307,136870,6,0,L|229:173,1,127.5,10|8,2:2|2:0,2:0:0:0:
51,343,137170,2,0,L|-1:338,2,42.5,2|0|0,1:2|3:0|3:0,2:0:0:0:
390,304,137470,22,0,L|392:243,3,57.375,6|2|10|2,1:2|2:0|2:0|2:0,2:0:0:0:
456,127,137770,1,2,1:2:0:0:
428,154,137845,1,2,1:2:0:0:
391,163,137920,1,10,1:2:0:0:
352,162,137995,1,2,2:0:0:0:
317,145,138070,1,2,1:2:0:0:
291,116,138145,1,2,2:0:0:0:
267,85,138220,1,10,2:0:0:0:
239,58,138295,1,2,2:0:0:0:
204,42,138370,1,2,1:2:0:0:
166,37,138445,1,2,1:2:0:0:
128,44,138520,1,10,1:2:0:0:
94,63,138595,1,2,2:0:0:0:
72,94,138670,5,2,1:2:0:0:
82,117,138745,1,2,2:0:0:0:
86,142,138820,1,10,2:0:0:0:
83,167,138895,1,2,2:0:0:0:
73,190,138970,53,2,1:2:0:0:
64,214,139045,1,2,1:2:0:0:
60,239,139120,1,10,1:2:0:0:
62,264,139195,1,2,2:0:0:0:
70,288,139270,5,2,1:2:0:0:
122,251,139345,1,2,2:0:0:0:
185,251,139420,1,10,2:0:0:0:
237,286,139495,1,2,2:0:0:0:
258,345,139570,54,0,P|313:362|381:347,1,127.5,2|8,1:2|2:0,2:0:0:0:
470,69,139870,5,2,1:2:0:0:
429,20,139945,1,2,2:0:0:0:
367,2,140020,1,10,2:0:0:0:
306,23,140095,1,2,2:0:0:0:
270,75,140170,1,2,1:2:0:0:
270,138,140245,1,2,1:2:0:0:
307,189,140320,1,10,1:2:0:0:
365,213,140395,1,2,2:0:0:0:
427,198,140470,54,0,L|424:130,1,63.75,2|2,1:2|2:0,2:0:0:0:
302,95,140620,2,0,L|299:163,1,63.75,10|2,2:0|2:0,2:0:0:0:
290,321,140770,5,2,1:2:0:0:
240,307,140845,1,2,1:2:0:0:
193,327,140920,1,10,1:2:0:0:
146,347,140995,1,2,2:0:0:0:
97,332,141070,54,0,B|64:209|64:209|104:153,2,191.25,2|2|10,1:2|2:0|1:2,2:0:0:0:
62,70,141670,6,0,B|182:38|151:146|275:109,2,223.125,2|2|10,1:2|2:0|1:2,2:0:0:0:
475,14,142270,54,0,B|471:98|471:98|474:105|474:105|470:217,1,191.25,2|2,1:2|2:0,2:0:0:0:
345,239,142570,6,0,B|331:206|331:206|345:170,1,74.375,0|0,1:0|1:0,2:0:0:0:
489,382,142720,54,0,B|451:369|434:338|434:338|378:329|343:358,1,170,10|0,1:2|1:0,2:0:0:0:
133,384,143020,5,10,2:0:0:0:
133,384,143095,1,0,3:0:0:0:
133,384,143170,2,0,B|119:351|119:351|133:315,1,74.375,2|0,1:2|2:0,2:0:0:0:
345,170,143320,2,0,B|359:203|359:203|345:239,1,74.375,10|0,1:2|2:0,2:0:0:0:
256,360,143470,53,2,1:2:0:0:
140,81,143620,1,8,2:0:0:0:
345,238,143770,5,2,1:2:0:0:
60,164,143920,2,0,B|111:167|111:167|131:179|131:179|192:183,1,127.5,10|2,1:2|1:2,2:0:0:0:
142,27,144220,54,0,L|138:103,1,53.125,10|0,2:0|3:0,2:0:0:0:
127,291,144370,1,0,3:2:0:0:
301,60,144520,1,10,1:2:0:0:
422,263,144670,5,2,1:2:0:0:
392,319,144745,1,2,2:0:0:0:
333,345,144820,1,10,2:0:0:0:
271,329,144895,1,2,2:0:0:0:
225,284,144970,1,2,1:2:0:0:
178,239,145045,1,2,1:2:0:0:
115,227,145120,1,10,1:2:0:0:
54,247,145195,1,2,2:0:0:0:
17,299,145270,53,2,1:2:0:0:
45,341,145345,1,2,2:0:0:0:
87,368,145420,1,10,2:0:0:0:
137,369,145495,1,2,2:0:0:0:
184,351,145570,1,2,1:2:0:0:
214,310,145645,1,2,1:2:0:0:
223,259,145720,1,10,1:2:0:0:
206,210,145795,1,2,2:0:0:0:
170,172,145870,6,0,L|95:178,3,57.375,2|2|10|2,1:2|2:0|2:0|2:0,2:0:0:0:
262,51,146170,1,2,1:2:0:0:
244,43,146245,1,2,1:2:0:0:
224,43,146320,1,10,1:2:0:0:
205,48,146395,1,2,2:0:0:0:
191,58,146470,53,2,1:2:0:0:
249,82,146545,1,2,2:0:0:0:
308,59,146620,1,10,2:0:0:0:
369,41,146695,1,2,2:0:0:0:
425,70,146770,6,0,B|451:127|451:127|427:189,1,127.5,2|8,1:2|2:0,2:0:0:0:
229,361,147070,53,6,1:2:0:0:
242,362,147145,1,2,2:0:0:0:
255,363,147220,1,10,2:0:0:0:
268,364,147295,1,2,2:0:0:0:
281,365,147370,1,2,1:2:0:0:
294,366,147445,1,2,1:2:0:0:
307,367,147520,1,10,1:2:0:0:
320,368,147595,1,2,2:0:0:0:
348,342,147670,5,2,1:2:0:0:
309,338,147745,1,2,2:0:0:0:
270,335,147820,1,10,2:0:0:0:
231,331,147895,1,2,2:0:0:0:
193,324,147970,2,0,L|56:314,1,127.5,2|0,1:2|2:0,2:0:0:0:
0,68,148270,54,0,P|36:20|103:11,1,127.5,2|10,1:2|2:0,2:0:0:0:
227,63,148495,1,2,2:0:0:0:
221,70,148570,2,0,P|247:128|214:195,1,127.5,2|10,1:2|1:2,2:0:0:0:
114,254,148795,1,2,2:0:0:0:
121,244,148870,2,0,P|55:241|8:188,1,127.5,2|10,1:2|2:0,2:0:0:0:
6,190,149095,1,2,2:0:0:0:
0,181,149170,1,2,1:2:0:0:
100,10,149320,1,10,1:2:0:0:
268,277,149470,5,2,1:2:0:0:
259,314,149545,1,2,2:0:0:0:
236,344,149620,1,10,2:0:0:0:
204,365,149695,1,2,2:0:0:0:
165,366,149770,1,2,1:2:0:0:
128,355,149845,1,2,1:2:0:0:
99,329,149920,1,10,1:2:0:0:
84,293,149995,1,2,2:0:0:0:
86,254,150070,1,2,1:2:0:0:
104,220,150145,1,2,2:0:0:0:
134,196,150220,1,10,2:0:0:0:
170,184,150295,1,2,2:0:0:0:
201,162,150370,1,2,1:2:0:0:
218,127,150445,1,2,1:2:0:0:
220,88,150520,1,10,1:2:0:0:
202,54,150595,1,2,2:0:0:0:
175,26,150670,1,2,1:2:0:0:
138,13,150745,1,2,2:0:0:0:
100,20,150820,1,10,2:0:0:0:
66,38,150895,1,2,2:0:0:0:
43,68,150970,1,2,1:2:0:0:
33,104,151045,1,2,1:2:0:0:
43,140,151120,1,10,1:2:0:0:
63,172,151195,1,2,2:0:0:0:
97,189,151270,54,0,L|229:185,1,127.5,2|8,1:2|2:0,2:0:0:0:
301,8,151570,2,0,L|169:4,1,127.5,0|10,2:0|1:2,2:0:0:0:
223,319,151870,5,2,1:2:0:0:
241,353,151945,1,2,2:0:0:0:
273,372,152020,1,10,2:0:0:0:
310,380,152095,1,2,2:0:0:0:
347,372,152170,1,2,1:2:0:0:
377,349,152245,1,2,1:2:0:0:
396,315,152320,1,10,1:2:0:0:
401,277,152395,1,2,2:0:0:0:
388,240,152470,1,2,1:2:0:0:
349,243,152545,1,2,2:0:0:0:
310,244,152620,1,10,2:0:0:0:
272,249,152695,1,2,2:0:0:0:
233,252,152770,1,2,1:2:0:0:
194,253,152845,1,2,1:2:0:0:
155,255,152920,1,10,1:2:0:0:
116,259,152995,1,2,2:0:0:0:
77,259,153070,1,2,1:2:0:0:
39,263,153145,1,2,2:0:0:0:
2,264,153220,54,0,L|-3:198,1,63.75,10|2,2:0|2:0,2:0:0:0:
164,22,153370,1,2,1:2:0:0:
201,12,153445,1,2,1:2:0:0:
238,19,153520,1,10,1:2:0:0:
270,39,153595,1,2,2:0:0:0:
288,72,153670,1,2,1:2:0:0:
295,109,153745,1,2,2:0:0:0:
290,146,153820,1,10,2:0:0:0:
269,178,153895,1,2,2:0:0:0:
237,199,153970,6,0,P|207:208|173:203,1,63.75,2|2,1:2|1:2,2:0:0:0:
42,298,154120,2,0,P|63:278|77:243,1,63.75,10|2,1:2|2:0,2:0:0:0:
113,22,154270,54,0,P|57:52|81:110,1,127.5,2|8,1:2|2:0,2:0:0:0:
172,307,154570,2,0,L|241:304,3,57.375,0|0|8|0,2:0|2:0|2:0|3:0,2:0:0:0:
328,384,154870,5,2,1:2:0:0:
328,384,154945,1,2,2:0:0:0:
328,384,155020,2,0,P|350:358|357:325,1,63.75,10|2,2:0|2:0,2:0:0:0:
481,297,155170,1,2,1:2:0:0:
481,297,155245,1,2,1:2:0:0:
481,297,155320,2,0,P|471:265|442:242,1,63.75,10|2,1:2|2:0,2:0:0:0:
299,48,155470,53,10,2:0:0:0:
261,82,155545,1,10,2:0:0:0:
245,130,155620,1,10,2:0:0:0:
264,177,155695,1,10,2:0:0:0:
302,210,155770,5,2,1:2:0:0:
306,172,155845,1,2,3:2:0:0:
284,140,155920,1,2,3:2:0:0:
245,130,155995,1,2,3:2:0:0:
207,138,156070,53,2,1:2:0:0:
187,121,156145,1,2,3:2:0:0:
183,95,156220,1,2,3:2:0:0:
192,71,156295,1,2,3:2:0:0:
210,53,156370,5,2,1:2:0:0:
197,56,156445,1,2,3:2:0:0:
184,55,156520,1,2,3:2:0:0:
171,52,156595,1,2,3:2:0:0:
139,12,156670,6,0,P|95:50|79:116,1,127.5,6|10,1:2|2:0,2:0:0:0:
85,347,156970,1,0,1:0:0:0:
85,347,157045,1,0,1:0:0:0:
85,347,157120,1,10,1:2:0:0:
281,151,157270,5,0,1:0:0:0:
15,232,157420,2,0,L|148:228,1,127.5,10|0,2:0|1:0,2:0:0:0:
142,228,157645,1,0,1:0:0:0:
142,228,157720,1,10,1:2:0:0:
402,348,157870,6,0,B|342:347|342:347|308:358|308:358|280:344|280:344|216:342,2,191.25,2|2|10,1:2|2:0|1:2,2:0:0:0:
320,144,158470,2,0,B|290:198|290:198|313:259,1,127.5,2|10,1:2|2:0,2:0:0:0:
435,208,158770,1,0,1:0:0:0:
435,208,158845,1,0,1:0:0:0:
435,208,158920,1,10,1:2:0:0:
355,41,159070,38,0,B|236:5|267:113|147:81,2,223.125,2|2|10,1:2|2:0|1:2,2:0:0:0:
63,181,159670,6,0,B|30:58|30:58|70:2,2,191.25,2|2|10,1:2|2:0|1:2,2:0:0:0:
134,286,160270,6,0,L|6:289,1,127.5,2|10,1:2|2:0,2:0:0:0:
63,181,160570,1,0,1:0:0:0:
63,181,160645,1,0,1:0:0:0:
63,181,160720,1,10,1:2:0:0:
202,381,160870,2,0,L|329:384,1,127.5,0|10,1:0|2:0,2:0:0:0:
269,272,161170,1,0,1:0:0:0:
269,272,161245,1,0,1:0:0:0:
269,272,161320,1,10,1:2:0:0:
467,133,161470,5,6,1:2:0:0:
425,102,161545,1,2,1:2:0:0:
374,94,161620,1,10,1:2:0:0:
325,109,161695,1,2,1:2:0:0:
293,148,161770,1,2,1:2:0:0:
261,187,161845,1,2,1:2:0:0:
213,206,161920,1,10,1:2:0:0:
162,202,161995,1,2,1:2:0:0:
121,171,162070,6,0,L|124:103,2,63.75,2|0|8,1:2|1:0|1:2,2:0:0:0:
221,9,162295,2,0,L|164:39,2,63.75,2|0|0,1:2|1:0|1:0,2:0:0:0:
34,3,162520,2,0,L|88:36,1,63.75,10|0,1:2|1:0,2:0:0:0:
286,169,162670,53,2,1:2:0:0:
317,205,162745,1,0,1:2:0:0:
332,252,162820,1,8,1:2:0:0:
327,303,162895,1,0,1:0:0:0:
301,348,162970,1,0,1:0:0:0:
258,375,163045,1,0,1:0:0:0:
207,383,163120,1,10,1:2:0:0:
160,367,163195,1,0,1:0:0:0:
125,336,163270,6,0,B|128:267,3,63.75,2|0|8|0,1:2|1:0|1:2|1:0,2:0:0:0:
44,177,163570,2,0,B|105:145,3,63.75,2|0|8|0,1:2|1:0|1:2|1:0,2:0:0:0:
137,24,163870,53,2,1:2:0:0:
182,0,163945,1,0,1:0:0:0:
233,0,164020,1,10,1:2:0:0:
277,24,164095,1,0,1:0:0:0:
307,64,164170,1,0,1:0:0:0:
307,114,164245,1,0,1:0:0:0:
294,163,164320,1,8,1:2:0:0:
254,195,164395,1,0,1:0:0:0:
226,237,164470,1,0,1:0:0:0:
226,287,164545,1,0,1:0:0:0:
248,332,164620,1,8,1:2:0:0:
287,364,164695,1,0,1:0:0:0:
337,372,164770,1,0,1:0:0:0:
386,359,164845,1,0,1:0:0:0:
421,321,164920,1,8,1:2:0:0:
437,272,164995,1,0,1:0:0:0:
428,221,165070,6,0,L|423:113,2,106.25,8|10|0,2:0|2:0|2:0,2:0:0:0:
436,375,165520,1,2,3:2:0:0:
436,375,165595,1,2,3:2:0:0:
436,375,165670,1,2,1:2:0:0:
290,149,165820,1,0,3:2:0:0:
160,307,165970,1,10,2:0:0:0:
140,316,166045,1,8,2:0:0:0:
119,319,166120,1,8,2:0:0:0:
97,317,166195,1,8,2:0:0:0:
74,305,166270,6,0,P|66:238|46:167,1,127.5,6|10,1:2|2:0,2:0:0:0:
9,73,166570,1,0,1:0:0:0:
9,73,166645,1,0,1:0:0:0:
9,73,166720,1,10,1:2:0:0:
182,237,166870,5,0,1:0:0:0:
341,40,167020,2,0,P|402:31|452:69,1,127.5,10|0,2:0|1:0,2:0:0:0:
458,81,167245,1,0,1:0:0:0:
458,81,167320,1,10,1:2:0:0:
210,347,167470,6,0,P|225:248|252:132,2,191.25,2|2|10,1:2|2:0|1:2,2:0:0:0:
435,181,168070,38,0,P|382:171|344:234,1,127.5,2|10,1:2|2:0,2:0:0:0:
314,337,168295,2,0,P|365:311|443:292,1,127.5,2|0,2:0|1:0,2:0:0:0:
509,158,168520,2,0,P|478:167|435:171,1,63.75,10|0,1:2|3:0,2:0:0:0:
192,263,168670,6,0,P|159:208|177:140,2,127.5,2|10|0,1:2|2:0|1:0,2:0:0:0:
200,274,169045,1,0,1:0:0:0:
206,280,169120,5,10,1:2:0:0:
295,110,169270,2,0,P|346:67|418:75,2,127.5,2|10|0,1:2|2:0|1:0,2:0:0:0:
290,121,169645,1,0,1:0:0:0:
285,129,169720,37,10,1:2:0:0:
159,371,169870,2,0,P|90:352|119:286,1,127.5,2|10,1:2|2:0,2:0:0:0:
176,124,170170,1,0,1:0:0:0:
176,124,170245,1,0,1:0:0:0:
176,124,170320,5,10,1:2:0:0:
16,235,170470,2,0,P|79:226|141:214,1,127.5,2|10,1:2|2:0,2:0:0:0:
265,179,170770,1,0,1:0:0:0:
265,179,170845,1,0,1:0:0:0:
265,179,170920,1,10,1:2:0:0:
309,337,171070,21,6,1:2:0:0:
353,362,171145,1,2,1:2:0:0:
403,363,171220,1,10,1:2:0:0:
447,337,171295,1,2,1:2:0:0:
465,289,171370,1,2,1:2:0:0:
462,238,171445,1,2,1:2:0:0:
428,199,171520,1,10,1:2:0:0:
382,176,171595,1,2,1:2:0:0:
358,130,171670,1,2,1:2:0:0:
357,79,171745,1,2,1:2:0:0:
386,37,171820,1,10,1:2:0:0:
433,18,171895,1,2,1:2:0:0:
483,23,171970,6,0,L|487:92,3,63.75,2|0|8|0,1:2|1:0|2:0|1:0,2:0:0:0:
302,213,172270,53,2,1:2:0:0:
246,246,172345,1,2,1:2:0:0:
182,241,172420,1,10,1:2:0:0:
126,207,172495,1,2,1:2:0:0:
107,146,172570,5,2,1:2:0:0:
170,150,172645,1,2,1:2:0:0:
222,186,172720,1,10,1:2:0:0:
246,246,172795,1,2,1:2:0:0:
230,307,172870,53,2,1:2:0:0:
176,272,172945,1,2,1:2:0:0:
154,211,173020,1,10,1:2:0:0:
170,150,173095,1,2,1:2:0:0:
223,114,173170,5,2,1:2:0:0:
242,174,173245,1,2,1:2:0:0:
227,236,173320,1,10,1:2:0:0:
176,272,173395,1,2,1:2:0:0:
111,275,173470,53,2,1:2:0:0:
110,250,173545,1,0,1:0:0:0:
109,224,173620,1,8,1:2:0:0:
108,198,173695,1,0,1:0:0:0:
107,172,173770,1,0,1:0:0:0:
106,146,173845,1,0,1:0:0:0:
105,120,173920,1,8,1:2:0:0:
103,94,173995,1,0,1:0:0:0:
102,68,174070,5,2,1:2:0:0:
134,88,174145,1,0,1:0:0:0:
171,93,174220,1,8,1:2:0:0:
209,89,174295,1,0,1:0:0:0:
239,66,174370,1,0,1:0:0:0:
269,42,174445,1,0,1:0:0:0:
304,27,174520,1,8,1:2:0:0:
342,30,174595,1,0,1:0:0:0:
376,46,174670,54,0,L|379:105,3,53.125,8|8|10|8,2:0|2:0|2:2|2:0,2:0:0:0:
383,205,174970,2,0,L|385:259,3,53.125,0|0|2|0,1:0|3:0|3:2|3:0,2:0:0:0:
345,328,175270,6,0,L|312:388,1,63.75,2|0,1:2|3:0,2:0:0:0:
431,324,175420,2,0,L|469:381,1,63.75,0|0,3:0|3:0,2:0:0:0:
307,258,175570,54,0,L|248:260,1,53.125,2|0,1:2|3:0,2:0:0:0:
463,251,175720,2,0,L|520:248,1,42.5,0|0,3:0|3:0,2:0:0:0:
378,119,175870,53,6,1:2:0:0:
82,221,178270,1,6,1:2:0:0:
455,158,180670,53,6,1:2:0:0:
147,2,181870,1,6,1:2:0:0:
234,300,183070,1,6,1:2:0:0:
295,81,184270,53,10,2:0:0:0:
295,81,184345,1,8,2:0:0:0:
295,81,184420,2,0,L|345:84,1,42.5,8|8,2:0|2:0,2:0:0:0:
401,27,184570,21,0,1:0:0:0:
401,27,184645,1,0,3:0:0:0:
401,27,184720,2,0,L|423:71,1,42.5,0|0,3:0|3:0,2:0:0:0:
500,92,184870,53,2,1:2:0:0:
500,92,184945,1,0,3:0:0:0:
500,92,185020,2,0,L|472:133,1,42.5,0|0,3:0|3:0,2:0:0:0:
493,210,185170,53,2,1:2:0:0:
493,210,185245,1,0,3:0:0:0:
493,210,185320,2,0,L|443:207,1,42.5,0|0,3:0|3:0,2:0:0:0:
335,203,185470,22,0,L|339:317,1,114.75,6|10,1:2|2:0,2:0:0:0:
232,358,185770,1,0,1:0:0:0:
230,323,185845,1,0,1:0:0:0:
229,288,185920,1,10,1:2:0:0:
339,88,186070,54,0,L|334:202,1,114.75,0|10,1:0|2:0,2:0:0:0:
134,319,186370,1,2,1:2:0:0:
136,284,186445,1,0,1:0:0:0:
137,249,186520,1,10,1:2:0:0:
146,27,186670,53,2,1:2:0:0:
272,107,186820,1,10,2:0:0:0:
75,135,186970,1,0,1:0:0:0:
75,135,187045,1,0,1:0:0:0:
75,135,187120,1,10,1:2:0:0:
276,31,187270,21,2,1:2:0:0:
201,218,187420,1,10,2:0:0:0:
12,97,187570,1,0,1:0:0:0:
12,97,187645,1,0,1:0:0:0:
12,97,187720,1,10,1:2:0:0:
339,72,187870,53,10,2:0:0:0:
350,71,187945,1,8,2:0:0:0:
361,70,188020,1,8,2:0:0:0:
372,69,188095,1,8,2:0:0:0:
383,68,188170,54,0,L|386:129,3,57.375,0|0|0|0,1:0|3:0|3:0|3:0,2:0:0:0:
391,212,188470,2,0,L|394:273,3,57.375,0|0|0|0,1:0|3:0|3:0|3:0,2:0:0:0:
397,365,188770,21,8,2:0:0:0:
353,378,188845,1,8,2:0:0:0:
308,368,188920,1,8,2:0:0:0:
263,357,188995,1,8,2:0:0:0:
220,374,189070,54,0,L|166:376,1,48.875,0|0,1:0|2:0,2:0:0:0:
108,275,189220,54,0,L|165:272,1,57.375,0|0,3:0|2:0,2:0:0:0:
288,166,189370,22,0,L|215:169,1,65.875,0|0,1:0|2:0,2:0:0:0:
52,84,189520,54,0,L|126:81,1,74.375,0|0,3:0|3:0,2:0:0:0:
427,70,189670,53,8,2:0:0:0:
427,70,190270,38,0,B|454:124|454:124|430:192,1,127.5,6|8,1:2|2:0,2:0:0:0:
185,139,190570,1,0,1:0:0:0:
235,138,190645,1,0,1:0:0:0:
286,138,190720,1,8,1:2:0:0:
250,384,190870,6,0,B|223:330|223:330|247:262,1,127.5,2|8,1:2|2:0,2:0:0:0:
487,322,191170,1,2,1:2:0:0:
437,323,191245,1,0,1:0:0:0:
386,323,191320,1,8,1:2:0:0:
434,49,191470,53,2,1:2:0:0:
436,242,191620,1,8,2:0:0:0:
251,248,191770,1,0,1:0:0:0:
251,248,191845,1,0,1:0:0:0:
251,248,191920,1,8,1:2:0:0:
501,103,192070,5,0,1:0:0:0:
410,335,192220,1,8,2:0:0:0:
178,244,192370,1,2,1:2:0:0:
178,244,192445,1,0,1:0:0:0:
178,244,192520,1,8,1:2:0:0:
269,12,192670,54,0,L|274:143,1,127.5,2|8,1:2|2:0,2:0:0:0:
512,71,192970,1,0,1:0:0:0:
461,71,193045,1,0,2:0:0:0:
410,72,193120,1,8,1:2:0:0:
473,319,193270,6,0,L|468:188,1,127.5,2|8,1:2|2:0,2:0:0:0:
223,265,193570,1,0,1:0:0:0:
274,265,193645,1,0,2:0:0:0:
325,264,193720,1,8,1:2:0:0:
59,153,193870,53,2,1:2:0:0:
59,338,194020,1,8,2:0:0:0:
251,334,194170,1,0,1:0:0:0:
251,334,194245,1,0,1:0:0:0:
251,334,194320,1,8,1:2:0:0:
11,95,194470,5,0,1:0:0:0:
91,336,194620,1,8,2:0:0:0:
333,256,194770,1,2,1:2:0:0:
333,256,194845,1,0,1:0:0:0:
333,256,194920,1,8,1:2:0:0:
253,15,195070,53,6,1:2:0:0:
252,27,195145,1,0,1:0:0:0:
251,39,195220,1,8,1:2:0:0:
250,51,195295,1,0,1:0:0:0:
249,63,195370,1,0,1:0:0:0:
247,75,195445,1,0,1:0:0:0:
246,87,195520,5,8,1:2:0:0:
226,134,195595,1,0,1:0:0:0:
181,158,195670,1,0,1:0:0:0:
130,160,195745,1,0,1:0:0:0:
83,138,195820,1,8,1:2:0:0:
57,93,195895,1,0,1:0:0:0:
56,38,195970,54,0,P|85:46|111:68,3,63.75,2|0|8|0,1:2|1:0|1:2|1:0,2:0:0:0:
35,205,196270,5,2,1:2:0:0:
35,205,196345,1,0,1:0:0:0:
35,205,196420,2,0,P|27:174|33:142,1,63.75,8|0,1:2|1:0,2:0:0:0:
194,142,196570,1,2,1:2:0:0:
194,142,196645,1,0,1:0:0:0:
194,142,196720,2,0,P|170:163|140:174,1,63.75,8|0,1:2|1:0,2:0:0:0:
56,38,196870,53,2,1:2:0:0:
56,38,196945,1,0,1:0:0:0:
56,38,197020,2,0,P|85:46|111:68,1,63.75,8|0,1:2|1:0,2:0:0:0:
170,295,197170,1,2,1:2:0:0:
170,295,197245,1,0,1:0:0:0:
170,295,197320,2,0,P|140:286|114:264,1,63.75,8|0,1:2|1:0,3:0:0:0:
203,47,197470,5,2,1:2:0:0:
248,24,197545,1,0,1:0:0:0:
298,27,197620,1,8,1:2:0:0:
340,55,197695,1,0,1:0:0:0:
359,101,197770,1,0,1:0:0:0:
354,151,197845,1,0,1:0:0:0:
320,189,197920,1,8,1:2:0:0:
271,205,197995,1,0,1:0:0:0:
221,191,198070,53,2,1:2:0:0:
248,133,198145,1,0,1:0:0:0:
303,100,198220,1,8,1:2:0:0:
366,97,198295,1,0,1:0:0:0:
425,120,198370,1,0,1:0:0:0:
466,168,198445,1,0,1:0:0:0:
480,230,198520,1,8,1:2:0:0:
465,292,198595,1,0,1:0:0:0:
418,335,198670,6,0,P|363:355|297:339,1,127.5,12|8,2:0|2:0,2:0:0:0:
175,291,198970,1,10,2:0:0:0:
175,291,199045,1,8,2:0:0:0:
175,291,199120,2,0,L|173:355,1,63.75,8|8,2:0|2:0,2:0:0:0:
47,384,199270,54,0,L|49:320,3,63.75,0|0|0|0,1:0|3:0|3:0|3:0,2:0:0:0:
55,226,199570,1,0,1:0:0:0:
56,213,199645,1,0,3:0:0:0:
57,200,199720,1,0,3:0:0:0:
58,187,199795,1,0,3:0:0:0:
59,174,199870,6,0,L|63:42,1,127.5,6|8,1:2|2:0,2:0:0:0:
102,300,200170,1,0,1:0:0:0:
51,298,200245,1,0,1:0:0:0:
0,296,200320,1,8,1:2:0:0:
254,249,200470,54,0,L|250:376,1,127.5,2|8,1:2|2:0,2:0:0:0:
205,108,200770,1,0,1:0:0:0:
256,110,200845,1,0,1:0:0:0:
307,112,200920,1,8,1:2:0:0:
51,298,201070,5,2,1:2:0:0:
58,105,201220,1,8,2:0:0:0:
256,110,201370,1,0,1:0:0:0:
256,110,201445,1,0,1:0:0:0:
256,110,201520,1,8,1:2:0:0:
0,174,201670,53,0,1:0:0:0:
208,37,201820,1,8,2:0:0:0:
345,244,201970,1,2,1:2:0:0:
345,244,202045,1,0,1:0:0:0:
345,244,202120,1,8,1:2:0:0:
138,381,202270,6,0,B|108:325|108:325|128:264,1,127.5,2|8,1:2|2:0,2:0:0:0:
352,42,202570,1,0,1:0:0:0:
352,42,202645,1,0,1:0:0:0:
352,42,202720,2,0,B|318:95|318:95|255:109,1,127.5,10|0,1:2|1:0,2:0:0:0:
57,75,203020,1,8,2:0:0:0:
127,264,203170,1,2,1:2:0:0:
127,264,203245,1,0,1:0:0:0:
127,264,203320,1,8,1:2:0:0:
173,11,203470,53,2,1:2:0:0:
211,44,203545,1,0,1:0:0:0:
261,50,203620,1,8,1:2:0:0:
306,27,203695,1,0,1:0:0:0:
353,8,203770,1,0,1:0:0:0:
403,16,203845,1,0,1:0:0:0:
443,47,203920,2,0,P|451:76|446:114,1,63.75,10|0,1:2|1:0,2:0:0:0:
386,250,204070,5,2,1:2:0:0:
356,291,204145,1,0,1:0:0:0:
309,312,204220,1,8,1:2:0:0:
258,304,204295,1,0,1:0:0:0:
221,267,204370,1,0,1:0:0:0:
207,217,204445,1,0,1:0:0:0:
222,168,204520,1,8,1:2:0:0:
262,136,204595,1,0,1:0:0:0:
312,128,204670,53,6,1:2:0:0:
296,189,204745,1,0,1:0:0:0:
246,229,204820,1,0,1:0:0:0:
182,237,204895,1,0,1:0:0:0:
119,227,204970,1,12,1:2:0:0:
68,187,205045,1,0,1:0:0:0:
48,126,205120,5,2,1:2:0:0:
108,104,205195,1,0,1:0:0:0:
169,119,205270,1,12,1:2:0:0:
207,170,205345,1,0,1:0:0:0:
210,233,205420,1,0,1:0:0:0:
176,287,205495,1,0,1:0:0:0:
118,314,205570,53,14,1:2:0:0:
120,237,205645,1,0,1:0:0:0:
122,160,205720,1,0,1:0:0:0:
125,83,205795,1,0,1:0:0:0:
128,6,205870,5,14,1:2:0:0:
186,200,207070,5,6,1:2:0:0:
324,54,207220,1,10,2:0:0:0:
123,159,207370,1,2,1:2:0:0:
123,159,207445,1,0,1:0:0:0:
123,159,207520,1,10,1:2:0:0:
316,205,207670,5,2,1:2:0:0:
131,11,207820,1,10,2:0:0:0:
246,295,207970,1,2,1:2:0:0:
246,295,208045,1,2,1:2:0:0:
246,295,208120,2,0,L|249:237,1,57.375,10|2,1:2|2:0,2:0:0:0:
257,87,208270,69,2,1:2:0:0:
446,214,208420,1,10,2:0:0:0:
189,120,208570,1,2,1:2:0:0:
189,120,208645,1,0,2:0:0:0:
189,120,208720,1,10,1:2:0:0:
456,64,208870,53,2,1:2:0:0:
372,322,209020,1,10,2:0:0:0:
322,0,209170,1,2,1:2:0:0:
322,0,209245,1,2,1:2:0:0:
322,0,209320,2,0,L|323:57,1,57.375,10|2,1:2|2:0,2:0:0:0:
248,237,209470,5,2,1:2:0:0:
72,230,209620,1,10,2:0:0:0:
79,54,209770,1,2,1:2:0:0:
79,54,209845,1,0,2:0:0:0:
79,54,209920,1,10,1:2:0:0:
240,245,210070,69,2,1:2:0:0:
64,238,210220,1,10,2:0:0:0:
71,62,210370,1,2,1:2:0:0:
71,62,210445,1,2,1:2:0:0:
71,62,210520,2,0,L|73:-6,1,57.375,10|2,1:2|2:0,2:0:0:0:
158,169,210670,53,2,1:2:0:0:
193,198,210745,1,0,1:0:0:0:
238,206,210820,1,10,1:2:0:0:
281,193,210895,1,0,1:0:0:0:
314,162,210970,1,2,1:2:0:0:
350,134,211045,1,0,1:0:0:0:
394,124,211120,1,10,1:2:0:0:
437,139,211195,1,0,1:0:0:0:
472,168,211270,1,2,1:2:0:0:
490,210,211345,1,0,1:0:0:0:
490,255,211420,1,10,1:2:0:0:
472,297,211495,1,0,1:0:0:0:
436,325,211570,1,2,1:2:0:0:
391,336,211645,1,2,1:2:0:0:
345,327,211720,2,0,L|342:263,1,57.375,10|2,1:2|1:2,2:0:0:0:
330,56,211870,5,6,1:2:0:0:
133,187,212020,1,10,2:0:0:0:
400,100,212170,1,2,1:2:0:0:
400,100,212245,1,0,2:0:0:0:
400,100,212320,1,10,1:2:0:0:
66,153,212470,69,2,1:2:0:0:
340,216,212620,1,10,2:0:0:0:
126,53,212770,1,2,1:2:0:0:
126,53,212845,1,2,1:2:0:0:
126,53,212920,2,0,L|129:117,1,57.375,10|2,1:2|2:0,2:0:0:0:
141,337,213070,53,2,1:2:0:0:
257,105,213220,1,10,2:0:0:0:
221,373,213370,1,2,1:2:0:0:
221,373,213445,1,0,2:0:0:0:
221,373,213520,1,10,1:2:0:0:
128,110,213670,5,2,1:2:0:0:
216,298,213820,1,10,2:0:0:0:
309,27,213970,1,2,1:2:0:0:
309,27,214045,1,2,1:2:0:0:
309,27,214120,2,0,L|252:30,1,57.375,10|2,1:2|2:0,2:0:0:0:
13,282,214270,69,2,1:2:0:0:
194,277,214420,1,10,2:0:0:0:
189,96,214570,1,2,1:2:0:0:
189,96,214645,1,0,2:0:0:0:
189,96,214720,1,10,1:2:0:0:
25,293,214870,53,2,1:2:0:0:
206,288,215020,1,10,2:0:0:0:
201,107,215170,1,2,1:2:0:0:
201,107,215245,1,2,1:2:0:0:
201,107,215320,2,0,L|199:42,1,57.375,10|2,1:2|2:0,2:0:0:0:
324,363,215470,5,2,1:2:0:0:
98,355,215620,1,10,2:0:0:0:
106,129,215770,1,2,1:2:0:0:
106,129,215845,1,0,1:0:0:0:
106,129,215920,1,10,1:2:0:0:
315,375,216070,69,2,1:2:0:0:
89,367,216220,1,10,2:0:0:0:
97,141,216370,1,2,1:2:0:0:
97,141,216445,1,2,1:2:0:0:
97,141,216520,2,0,L|98:80,1,57.375,10|2,1:2|2:0,2:0:0:0:
318,297,216670,53,6,1:2:0:0:
458,144,216820,1,10,2:0:0:0:
252,256,216970,1,2,1:2:0:0:
252,256,217045,1,0,1:0:0:0:
252,256,217120,1,10,1:2:0:0:
455,221,217270,5,2,1:2:0:0:
258,102,217420,1,10,2:0:0:0:
316,354,217570,1,2,1:2:0:0:
316,354,217645,1,2,1:2:0:0:
316,354,217720,2,0,L|318:295,1,57.375,10|2,1:2|2:0,2:0:0:0:
327,67,217870,69,2,1:2:0:0:
252,256,218020,1,10,2:0:0:0:
263,25,218170,1,2,1:2:0:0:
263,25,218245,1,0,2:0:0:0:
263,25,218320,1,10,1:2:0:0:
182,290,218470,53,2,1:2:0:0:
130,93,218620,1,10,2:0:0:0:
114,381,218770,1,2,1:2:0:0:
114,381,218845,1,2,1:2:0:0:
114,381,218920,2,0,L|111:317,1,57.375,10|2,1:2|2:0,2:0:0:0:
66,50,219070,5,2,1:2:0:0:
59,226,219220,1,10,2:0:0:0:
235,233,219370,1,2,1:2:0:0:
235,233,219445,1,0,2:0:0:0:
235,233,219520,1,10,1:2:0:0:
55,40,219670,69,2,1:2:0:0:
48,216,219820,1,10,2:0:0:0:
224,223,219970,1,2,1:2:0:0:
224,223,220045,1,2,1:2:0:0:
224,223,220120,2,0,L|297:225,1,57.375,10|2,1:2|2:0,2:0:0:0:
473,48,220270,53,2,1:2:0:0:
434,22,220345,1,0,1:0:0:0:
388,19,220420,1,10,1:2:0:0:
346,37,220495,1,0,1:0:0:0:
318,73,220570,1,2,1:2:0:0:
311,118,220645,1,0,1:0:0:0:
327,160,220720,1,10,1:2:0:0:
362,189,220795,1,0,1:0:0:0:
406,201,220870,1,2,1:2:0:0:
440,231,220945,1,0,1:0:0:0:
454,274,221020,1,10,1:2:0:0:
444,318,221095,1,0,1:0:0:0:
415,354,221170,1,2,1:2:0:0:
372,370,221245,1,2,1:2:0:0:
326,364,221320,1,10,1:2:0:0:
290,335,221395,1,2,1:2:0:0:
270,293,221470,37,6,1:2:0:0:
403,72,221620,1,10,2:0:0:0:
336,258,221770,1,2,1:2:0:0:
336,258,221845,1,0,1:0:0:0:
336,258,221920,1,10,1:2:0:0:
152,67,222070,5,2,1:2:0:0:
400,146,222220,1,10,2:0:0:0:
141,286,222370,1,2,1:2:0:0:
141,286,222445,1,2,1:2:0:0:
141,286,222520,1,10,1:2:0:0:
141,286,222595,1,2,2:0:0:0:
141,286,222670,53,2,1:2:0:0:
341,33,222820,1,10,2:0:0:0:
398,297,222970,1,2,1:2:0:0:
398,297,223045,1,0,1:0:0:0:
398,297,223120,1,10,1:2:0:0:
84,173,223270,5,2,1:2:0:0:
403,73,223420,1,10,2:0:0:0:
203,326,223570,1,2,1:2:0:0:
203,326,223645,1,2,1:2:0:0:
203,326,223720,1,10,1:2:0:0:
203,326,223795,1,2,2:0:0:0:
203,326,223870,53,2,1:2:0:0:
199,150,224020,1,10,2:0:0:0:
375,146,224170,1,2,1:2:0:0:
375,146,224245,1,0,2:0:0:0:
375,146,224320,1,10,1:2:0:0:
95,244,224470,5,2,1:2:0:0:
146,18,224620,1,10,2:0:0:0:
371,69,224770,1,2,1:2:0:0:
371,69,224845,1,2,1:2:0:0:
371,69,224920,1,10,1:2:0:0:
371,69,224995,1,2,2:0:0:0:
371,69,225070,53,2,1:2:0:0:
184,346,225220,1,10,2:0:0:0:
108,82,225370,1,2,1:2:0:0:
108,82,225445,1,0,1:0:0:0:
108,82,225520,1,10,1:2:0:0:
441,180,225670,5,2,1:2:0:0:
30,284,225820,1,10,2:0:0:0:
238,2,225970,1,2,1:2:0:0:
238,2,226045,1,2,1:2:0:0:
238,2,226120,1,10,1:2:0:0:
238,2,226195,1,2,2:0:0:0:
238,2,226270,6,0,L|235:122,1,114.75,6|0,1:2|2:0,2:0:0:0:
403,297,226570,1,8,2:0:0:0:
397,286,226645,1,8,2:0:0:0:
391,275,226720,1,8,2:0:0:0:
386,265,226795,1,8,2:0:0:0:
380,255,226870,6,0,L|345:189,1,57.375,0|0,1:0|3:0,2:0:0:0:
345,77,227020,2,0,L|314:125,1,57.375,0|0,3:0|3:0,2:0:0:0:
207,196,227170,1,0,1:0:0:0:
207,196,227245,1,0,3:0:0:0:
207,196,227320,2,0,L|264:198,1,57.375,0|0,3:0|3:0,2:0:0:0:
463,141,227470,53,0,1:0:0:0:
463,141,227545,1,0,3:0:0:0:
463,141,227620,2,0,L|405:138,1,57.375,0|0,3:0|3:0,2:0:0:0:
299,283,227770,1,0,1:0:0:0:
276,284,227845,1,0,3:0:0:0:
253,285,227920,1,0,3:0:0:0:
230,286,227995,1,0,3:0:0:0:
207,287,228070,5,8,2:0:0:0:
207,287,228670,53,10,3:2:0:0:
130,98,228820,1,2,3:2:0:0:
10,339,228970,5,2,3:2:0:0:
67,142,229120,1,2,2:0:0:0:
304,350,229270,54,0,L|299:217,1,127.5,10|0,2:0|2:0,2:0:0:0:
391,156,229495,2,0,L|395:283,1,127.5,2|0,3:2|2:0,2:0:0:0:
490,316,229720,2,0,L|487:240,1,63.75,2|0,3:2|2:0,2:0:0:0:
437,8,229870,6,0,B|346:26|346:26|299:79|299:79|179:105,1,255,6|0,1:2|2:0,2:0:0:0:
0,227,230320,53,0,1:0:0:0:
0,227,230395,1,0,1:0:0:0:
0,227,230470,38,0,B|98:249|98:249|160:359|160:359|271:377,1,340,14|0,1:2|3:0,2:0:0:0:
