osu file format v14

[General]
AudioFilename: tohoedm.mp3
AudioLeadIn: 1500
PreviewTime: 223795
Countdown: 0
SampleSet: Soft
StackLeniency: 0.4
Mode: 0
LetterboxInBreaks: 0
WidescreenStoryboard: 1

[Editor]
Bookmarks: 22776,44807,66876,88945,111014,133083,144147,157949,181854,203923,225992,248061
DistanceSpacing: 1.8
BeatDivisor: 8
GridSize: 4
TimelineZoom: 5.800002

[Metadata]
Title:Third Eye ya!
TitleUnicode:サードアイや!
Artist:IOSYS
ArtistUnicode:IOSYS
Creator:Kyubey
Version:tetetete den den den den
Source:東方Project
Tags:camellia touhou bonfire knife party satori komeiji seikatu lunarblossom reya ryuu 少女さとり 〜 3rd eye nothing but the toho edm ココ Innocent Key 七条レタス かめりあ maiden Lettuce Shichijou D.watt Eyer! 東方地霊殿 ~ Subterranean Animism アレンジ かめりあ
BeatmapID:553854
BeatmapSetID:239584

[Difficulty]
HPDrainRate:7
CircleSize:4
OverallDifficulty:8
ApproachRate:9
SliderMultiplier:3.59999990463257
SliderTickRate:2

[Events]
//Background and Video events
0,0,"bg.jpg",0,0
//Break Periods
2,152631,157351
//Storyboard Layer 0 (Background)
Sprite,Background,Centre,"satori.png",320,240 M,0,22432,,0,340 F,0,22432,22777,0,1 S,0,22432,22777,1,0.625 F,0,44846,45191,1,0 S,0,44846,45191,0.625,1
Sprite,Background,Centre,"kyubey.png",320,240 M,0,22432,,110,360 F,0,22432,22777,0,1 S,0,22432,22777,0.2,0.625 R,0,22432,22777,6,-0.2 F,0,44156,44501,1,0.7 S,1,44156,44501,0.625,0.8 F,0,44501,44846,0.7,0 S,2,44501,44846,0.8,0
Sprite,Background,Centre,"koishi.png",320,240 M,0,44501,,640,120 F,0,44501,44846,0,1 S,0,44501,44846,1,0.625 F,0,66915,67260,1,0 S,0,66915,67260,0.625,1
Sprite,Background,Centre,"seikatu.png",320,240 M,0,44501,,520,120 F,0,44501,44846,0,1 S,0,44501,44846,0.2,0.625 R,0,44501,44846,-6,0.2 F,0,66225,66570,1,0.7 S,1,66225,66570,0.625,0.8 F,0,66570,66915,0.7,0 S,2,66570,66915,0.8,0
Sprite,Background,Centre,"satori.png",320,240 M,0,66570,,0,340 F,0,66570,66915,0,1 S,0,66570,66915,1,0.625 F,0,88984,89329,1,0 S,0,88984,89329,0.625,1
Sprite,Background,Centre,"kyubey.png",320,240 M,0,66570,,110,360 F,0,66570,66915,0,1 S,0,66570,66915,0.2,0.625 R,0,66570,66915,6,-0.2 F,0,88294,88639,1,0.7 S,1,88294,88639,0.625,0.8 F,0,88639,88984,0.7,0 S,2,88639,88984,0.8,0
Sprite,Background,Centre,"koishi.png",320,240 M,0,88639,,640,120 F,0,88639,88984,0,1 S,0,88639,88984,1,0.625 F,0,111053,111398,1,0 S,0,111053,111398,0.625,1
Sprite,Background,Centre,"seikatu.png",320,240 M,0,88639,,520,120 F,0,88639,88984,0,1 S,0,88639,88984,0.2,0.625 R,0,88639,88984,-6,0.2 F,0,110363,110708,1,0.7 S,1,110363,110708,0.625,0.8 F,0,110708,111053,0.7,0 S,2,110708,111053,0.8,0
Sprite,Background,Centre,"satori.png",320,240 M,0,110708,,0,340 F,0,110708,111053,0,1 S,0,110708,111053,1,0.625 F,0,133122,133467,1,0 S,0,133122,133467,0.625,1
Sprite,Background,Centre,"kyubey.png",320,240 M,0,110708,,110,360 F,0,110708,111053,0,1 S,0,110708,111053,0.2,0.625 R,0,110708,111053,6,-0.2 F,0,132432,132777,1,0.7 S,1,132432,132777,0.625,0.8 F,0,132777,133122,0.7,0 S,2,132777,133122,0.8,0
Sprite,Background,Centre,"koishi.png",320,240 M,0,132777,,640,120 F,0,132777,133122,0,1 S,0,132777,133122,1,0.625 F,0,144156,144501,1,0 S,0,144156,144501,0.625,1
Sprite,Background,Centre,"seikatu.png",320,240 M,0,132777,,520,120 F,0,132777,133122,0,1 S,0,132777,133122,0.2,0.625 R,0,132777,133122,-6,0.2 F,0,143466,143811,1,0.7 S,1,143466,143811,0.625,0.8 F,0,143811,144156,0.7,0 S,2,143811,144156,0.8,0
Sprite,Background,Centre,"satori.png",320,240 M,0,143811,,0,340 F,0,143811,144156,0,1 S,0,143811,144156,1,0.625 F,0,152432,152777,1,0 S,0,152432,152777,0.625,1
Sprite,Background,Centre,"kyubey.png",320,240 M,0,143811,,110,360 F,0,143811,144156,0,1 S,0,143811,144156,0.2,0.625 R,0,143811,144156,6,-0.2 F,0,151742,152087,1,0.7 S,1,151742,152087,0.625,0.8 F,0,152087,152432,0.7,0 S,2,152087,152432,0.8,0
Sprite,Background,Centre,"satori.png",320,240 M,0,159481,,0,340 F,0,159481,159826,0,1 S,0,159481,159826,1,0.625 F,0,181899,182244,1,0 S,0,181899,182244,0.625,1
Sprite,Background,Centre,"kyubey.png",320,240 M,0,159481,,110,360 F,0,159481,159826,0,1 S,0,159481,159826,0.2,0.625 R,0,159481,159826,6,-0.2 F,0,181209,181554,1,0.7 S,1,181209,181554,0.625,0.8 F,0,181554,181899,0.7,0 S,2,181554,181899,0.8,0
Sprite,Background,Centre,"koishi.png",320,240 M,0,181554,,640,120 F,0,181554,181899,0,1 S,0,181554,181899,1,0.625 F,0,203968,204313,1,0 S,0,203968,204313,0.625,1
Sprite,Background,Centre,"seikatu.png",320,240 M,0,181554,,520,120 F,0,181554,181899,0,1 S,0,181554,181899,0.2,0.625 R,0,181554,181899,-6,0.2 F,0,203278,203623,1,0.7 S,1,203278,203623,0.625,0.8 F,0,203623,203968,0.7,0 S,2,203623,203968,0.8,0
Sprite,Background,Centre,"satori.png",320,240 M,0,203623,,0,340 F,0,203623,203968,0,1 S,0,203623,203968,1,0.625 F,0,226037,226382,1,0 S,0,226037,226382,0.625,1
Sprite,Background,Centre,"kyubey.png",320,240 M,0,203623,,110,360 F,0,203623,203968,0,1 S,0,203623,203968,0.2,0.625 R,0,203623,203968,6,-0.2 F,0,225347,225692,1,0.7 S,1,225347,225692,0.625,0.8 F,0,225692,226037,0.7,0 S,2,225692,226037,0.8,0
Sprite,Background,Centre,"koishi.png",320,240 M,0,225692,,640,120 F,0,225692,226037,0,1 S,0,225692,226037,1,0.625 F,0,248106,248451,1,0 S,0,248106,248451,0.625,1
Sprite,Background,Centre,"seikatu.png",320,240 M,0,225692,,520,120 F,0,225692,226037,0,1 S,0,225692,226037,0.2,0.625 R,0,225692,226037,-6,0.2 F,0,247416,247761,1,0.7 S,1,247416,247761,0.625,0.8 F,0,247761,248106,0.7,0 S,2,247761,248106,0.8,0
Sprite,Background,Centre,"satori.png",320,240 M,0,247761,,0,340 F,0,247761,248106,0,1 S,0,247761,248106,1,0.625 F,0,270175,270520,1,0 S,0,270175,270520,0.625,1
Sprite,Background,Centre,"kyubey.png",320,240 M,0,247761,,110,360 F,0,247761,248106,0,1 S,0,247761,248106,0.2,0.625 R,0,247761,248106,6,-0.2 F,0,269485,269830,1,0.7 S,1,269485,269830,0.625,0.8 F,0,269830,270175,0.7,0 S,2,269830,270175,0.8,0
//Storyboard Layer 1 (Fail)
//Storyboard Layer 2 (Pass)
//Storyboard Layer 3 (Foreground)
//Storyboard Sound Samples

[TimingPoints]
708,689.655172413793,4,2,1,50,1,0
22776,-125,4,2,1,50,0,0
44845,-125,4,2,2,40,0,0
55880,-125,4,2,2,50,0,0
61397,-125,4,1,2,50,0,0
66570,-125,4,1,1,50,0,0
66914,-100,4,2,1,60,0,1
69673,-133.333333333333,4,2,1,60,0,1
71052,-100,4,2,1,60,0,1
75190,-100,4,2,2,60,0,0
77949,-100,4,2,1,60,0,1
80708,-133.333333333333,4,2,1,60,0,1
82087,-100,4,2,1,60,0,1
86225,-100,4,2,2,60,0,0
88983,-100,4,2,1,60,0,0
91052,-133.333333333333,4,2,1,60,0,0
94156,-80,4,2,1,60,0,0
94501,-133.333333333333,4,2,1,60,0,0
100018,-80,4,2,1,60,0,0
100363,-100,4,2,1,60,0,0
105190,-80,4,2,1,60,0,0
105535,-100,4,2,1,60,0,0
108294,-100,4,2,2,50,0,0
111052,-100,4,2,1,60,0,1
113811,-133.333333333333,4,2,1,60,0,1
115190,-100,4,2,1,60,0,1
119328,-100,4,2,2,60,0,0
122087,-100,4,2,1,60,0,1
124845,-133.333333333333,4,2,1,60,0,1
126225,-100,4,2,1,60,0,1
130363,-100,4,2,2,60,0,0
133121,-100,4,2,2,40,0,0
144156,-200,4,2,2,30,0,0
157951,468.75,4,2,1,40,1,0
159824,689.655172413793,4,2,2,40,1,0
166720,-100,4,2,2,45,0,0
168099,-100,4,2,2,50,0,0
169479,-100,4,2,2,55,0,0
170858,-100,4,2,2,60,0,0
176375,-100,4,1,2,60,0,0
181548,-100,4,1,1,60,0,0
181892,-133.333333333333,4,2,1,60,0,1
183272,-100,4,2,1,60,0,1
184651,-200,4,2,1,60,0,1
186030,-100,4,2,1,60,0,1
186720,-200,4,2,1,60,0,1
187410,-100,4,2,1,60,0,1
190168,-100,4,2,2,60,0,0
192237,-133.333333333333,4,2,2,60,0,0
192927,-133.333333333333,4,2,1,60,0,1
194306,-100,4,2,1,60,0,1
195686,-200,4,2,1,60,0,1
197065,-100,4,2,1,60,0,1
197755,-200,4,2,1,60,0,1
198444,-100,4,2,1,60,0,1
201203,-100,4,2,2,60,0,0
203272,-200,4,2,1,60,0,0
203961,-100,4,2,1,60,0,0
206030,-133.333333333333,4,2,1,60,0,0
206720,-100,4,2,1,60,0,0
208789,-133.333333333333,4,2,1,60,0,0
209134,-79.9999999999999,4,2,1,60,0,0
209479,-100,4,2,1,60,0,0
211548,-133.333333333333,4,2,1,60,0,0
212237,-100,4,2,1,60,0,0
214306,-133.333333333333,4,2,1,60,0,0
214996,-79.9999999999999,4,2,1,60,0,0
215341,-100,4,2,1,60,0,0
215513,-100,4,2,1,60,0,0
217065,-133.333333333333,4,2,1,60,0,0
217755,-100,4,2,1,60,0,0
219824,-133.333333333333,4,2,1,60,0,0
220168,-79.9999999999999,4,2,1,60,0,0
220513,-100,4,2,1,60,0,0
222582,-133.333333333333,4,2,1,60,0,0
223272,-100,4,2,2,50,0,0
226030,-133.333333333333,4,2,1,60,0,1
227410,-100,4,2,1,60,0,1
228789,-200,4,2,1,60,0,1
230168,-100,4,2,1,60,0,1
230858,-200,4,2,1,60,0,1
231548,-100,4,2,1,60,0,1
234306,-100,4,2,2,60,0,0
237065,-133.333333333333,4,2,1,60,0,1
238444,-100,4,2,1,60,0,1
239824,-200,4,2,1,60,0,1
241203,-100,4,2,1,60,0,1
241892,-200,4,2,1,60,0,1
242582,-100,4,2,1,60,0,1
245341,-100,4,2,2,60,0,0
247410,-200,4,2,1,60,0,0
248099,-100,4,2,1,60,0,0
250168,-133.333333333333,4,2,1,60,0,0
250858,-100,4,2,1,60,0,0
252927,-133.333333333333,4,2,1,60,0,0
253272,-79.9999999999999,4,2,1,60,0,0
253617,-100,4,2,1,60,0,0
255686,-133.333333333333,4,2,1,60,0,0
256375,-100,4,2,1,60,0,0
258444,-133.333333333333,4,2,1,60,0,0
259134,-79.9999999999999,4,2,1,60,0,0
259479,-100,4,2,1,60,0,0
261203,-133.333333333333,4,2,1,60,0,0
261892,-100,4,2,1,60,0,0
263961,-133.333333333333,4,2,1,60,0,0
264306,-79.9999999999999,4,2,1,60,0,0
264651,-100,4,2,1,60,0,0

[Colours]
Combo1 : 17,254,176
Combo2 : 173,255,95
Combo3 : 255,88,100
Combo4 : 255,94,55

[HitObjects]
192,56,22087,5,8,2:0:0:0:
256,192,22259,1,0,3:0:0:0:
256,192,22345,1,0,3:0:0:0:
256,192,22432,1,8,3:0:0:0:
328,136,22604,1,0,0:0:0:0:
152,156,22776,6,0,L|48:172,1,71.9999980926514,4|0,1:0|0:0,0:0:0:0:
180,256,23121,1,2,0:0:0:0:
256,192,23294,1,0,0:0:0:0:
228,88,23466,2,0,L|188:12,1,71.9999980926514,8|0,0:0|0:0,0:0:0:0:
152,156,23811,1,2,0:0:0:0:
180,256,23983,1,2,0:0:0:0:
352,240,24156,6,0,P|404:229|464:228,1,107.999997138977,0|0,1:0|0:0,0:0:0:0:
484,240,24501,1,2,0:0:0:0:
404,336,24673,1,2,0:0:0:0:
408,184,24845,2,0,P|408:108|412:36,1,143.999996185303,8|2,0:0|0:0,0:0:0:0:
411,40,25535,5,0,1:0:0:0:
336,96,25707,1,0,0:0:0:0:
244,96,25880,1,2,0:0:0:0:
168,40,26052,1,0,0:0:0:0:
120,152,26225,2,0,P|117:194|120:248,1,71.9999980926514,8|0,0:0|0:0,0:0:0:0:
232,288,26570,2,0,P|234:245|232:192,1,71.9999980926514,2|2,0:0|0:0,0:0:0:0:
144,296,26914,5,0,1:0:0:0:
316,320,27087,1,0,0:0:0:0:
224,340,27259,1,2,0:0:0:0:
404,296,27432,1,2,0:0:0:0:
344,196,27604,2,0,P|328:120|348:44,1,143.999996185303,8|2,0:0|0:0,0:0:0:0:
404,296,28294,5,0,1:0:0:0:
320,252,28466,1,0,0:0:0:0:
312,220,28552,1,0,0:0:0:0:
316,188,28639,1,2,0:0:0:0:
328,344,28811,1,0,0:0:0:0:
216,320,28983,2,0,L|120:304,1,71.9999980926514,8|0,0:0|0:0,0:0:0:0:
16,244,29328,2,0,L|112:228,1,71.9999980926514,2|2,0:0|0:0,0:0:0:0:
220,189,29673,5,0,1:0:0:0:
87,145,29845,1,0,0:0:0:0:
170,259,30018,1,2,0:0:0:0:
170,119,30190,1,2,0:0:0:0:
296,196,30363,2,0,P|364:208|440:192,1,143.999996185303,8|2,0:0|0:0,0:0:0:0:
436,193,31052,5,0,1:0:0:0:
436,193,31397,1,2,0:0:0:0:
384,288,31570,1,0,0:0:0:0:
384,288,31656,1,0,0:0:0:0:
384,288,31742,1,10,0:0:0:0:
356,144,31914,1,2,0:0:0:0:
464,272,32087,1,2,0:0:0:0:
368,216,32259,1,2,0:0:0:0:
436,100,32432,5,0,1:0:0:0:
384,288,32604,1,0,0:0:0:0:
296,192,32776,1,2,0:0:0:0:
232,280,32949,1,2,0:0:0:0:
160,192,33121,2,0,B|64:208|28:128|-24:180|-4:252|92:220,1,251.99999332428,8|0,0:0|0:0,0:0:0:0:
104,156,33811,6,0,P|112:108|108:60,1,71.9999980926514,4|0,1:0|0:0,0:0:0:0:
32,104,34156,1,2,0:0:0:0:
184,128,34328,1,0,0:0:0:0:
304,60,34501,2,0,P|264:52|208:60,1,71.9999980926514,8|0,0:0|0:0,0:0:0:0:
288,168,34845,2,0,P|328:176|384:168,1,71.9999980926514,2|2,0:0|0:0,0:0:0:0:
484,120,35190,5,0,1:0:0:0:
396,84,35363,1,0,0:0:0:0:
358,174,35535,1,2,0:0:0:0:
446,210,35707,1,2,0:0:0:0:
472,312,35880,2,0,P|416:304|320:320,1,143.999996185303,8|2,0:0|0:0,0:0:0:0:
32,308,36570,6,0,L|20:224,1,71.9999980926514,4|0,1:0|0:0,0:0:0:0:
136,148,36914,1,2,0:0:0:0:
112,244,37087,1,0,0:0:0:0:
84,112,37259,2,0,L|155:101,1,71.9999980926514,8|0,0:0|0:0,0:0:0:0:
212,211,37604,2,0,L|283:200,1,71.9999980926514,2|2,0:0|0:0,0:0:0:0:
392,128,37949,6,0,P|354:124|296:132,1,71.9999980926514,0|0,1:0|0:0,0:0:0:0:
320,272,38294,1,2,0:0:0:0:
436,216,38466,1,2,0:0:0:0:
284,200,38639,2,0,P|216:204|128:192,1,143.999996185303,8|2,0:0|0:0,0:0:0:0:
140,194,39328,5,4,1:0:0:0:
278,293,39501,1,0,0:0:0:0:
284,200,39673,1,2,0:0:0:0:
147,289,39845,1,0,0:0:0:0:
252,368,40018,2,0,P|286:369|336:356,1,71.9999980926514,8|0,0:0|0:0,0:0:0:0:
440,272,40363,2,0,P|476:272|520:288,1,71.9999980926514,2|2,0:0|0:0,0:0:0:0:
404,324,40707,6,0,L|396:228,1,71.9999980926514,0|0,1:0|0:0,0:0:0:0:
380,104,41052,2,0,P|366:137|332:176,1,71.9999980926514,2|2,0:0|0:0,0:0:0:0:
216,140,41397,2,0,P|133:135|68:148,1,143.999996185303,8|2,0:0|0:0,0:0:0:0:
73,146,42087,5,0,1:0:0:0:
73,146,42432,1,2,0:0:0:0:
136,228,42604,1,0,0:0:0:0:
168,236,42690,1,0,0:0:0:0:
200,228,42776,1,10,0:0:0:0:
168,152,42949,1,2,0:0:0:0:
96,296,43121,1,2,0:0:0:0:
242,292,43294,1,2,0:0:0:0:
328,160,43466,5,0,1:0:0:0:
256,72,43639,1,0,0:0:0:0:
256,208,43811,1,2,0:0:0:0:
400,120,43983,1,2,0:0:0:0:
416,240,44156,2,0,P|416:296|274:270,1,251.99999332428,8|0,0:0|0:0,0:0:0:0:
292,228,44845,5,4,1:0:0:0:
334,16,45190,1,8,0:0:0:0:
261,242,45535,5,0,1:0:0:0:
303,30,45880,1,8,0:0:0:0:
230,256,46225,5,0,1:0:0:0:
272,44,46570,1,8,0:0:0:0:
251,150,46742,1,8,0:0:0:0:
199,270,46914,5,0,1:0:0:0:
220,164,47087,1,4,0:1:0:0:
241,58,47259,1,8,0:0:0:0:
322,129,47432,1,0,1:0:0:0:
139,92,47604,5,4,1:0:0:0:
346,152,47949,1,8,0:0:0:0:
163,115,48294,5,0,1:0:0:0:
370,175,48639,1,8,0:0:0:0:
187,138,48983,5,0,1:0:0:0:
394,198,49328,1,8,0:0:0:0:
302,180,49501,1,8,0:0:0:0:
211,161,49673,5,0,1:0:0:0:
418,221,50018,1,8,0:0:0:0:
235,184,50363,5,4,1:0:0:0:
66,319,50708,1,8,0:0:0:0:
211,161,51052,5,0,1:0:0:0:
42,296,51397,1,8,0:0:0:0:
187,138,51742,5,0,1:0:0:0:
18,273,52087,1,8,0:0:0:0:
90,194,52259,1,8,0:0:0:0:
163,115,52432,5,0,1:0:0:0:
66,171,52604,1,4,0:1:0:0:
187,138,52776,1,8,0:0:0:0:
42,148,52949,1,0,1:0:0:0:
211,161,53121,5,4,1:0:0:0:
18,125,53466,1,8,0:0:0:0:
234,142,53811,5,0,1:0:0:0:
41,106,54156,1,8,0:0:0:0:
257,123,54501,5,0,1:0:0:0:
64,87,54846,1,8,0:0:0:0:
172,96,55018,1,8,0:0:0:0:
280,104,55190,5,0,1:0:0:0:
87,68,55535,1,8,0:0:0:0:
303,85,55880,6,0,L|381:78,1,71.9999980926514,4|0,1:0|0:0,0:0:0:0:
490,166,56225,2,0,L|412:159,1,71.9999980926514,8|0,1:2|0:0,0:0:0:0:
462,72,56570,5,0,1:0:0:0:
446,253,56742,1,0,1:0:0:0:
490,60,56914,5,8,0:0:0:0:
417,237,57087,1,0,1:0:0:0:
335,119,57259,6,0,L|257:112,1,71.9999980926514,4|0,1:0|0:0,0:0:0:0:
141,36,57604,2,0,L|219:29,1,71.9999980926514,8|0,1:2|0:0,0:0:0:0:
306,21,57949,5,0,1:0:0:0:
169,120,58121,1,0,1:0:0:0:
333,35,58294,5,8,1:2:0:0:
142,106,58466,1,0,1:0:0:0:
252,200,58639,6,0,L|260:272,1,71.9999980926514,4|0,1:0|0:0,0:0:0:0:
402,248,58983,2,0,L|394:320,1,71.9999980926514,8|0,1:2|0:0,0:0:0:0:
306,352,59328,5,0,1:0:0:0:
482,287,59501,1,0,1:0:0:0:
279,334,59673,5,8,1:2:0:0:
487,318,59845,1,0,1:0:0:0:
444,172,60018,2,0,P|448:133|463:102,1,71.9999980926514,4|0,1:0|0:0,0:0:0:0:
340,22,60363,2,0,P|351:59|349:94,1,71.9999980926514,8|0,1:2|0:0,0:0:0:0:
259,68,60707,5,0,1:0:0:0:
360,186,60880,1,0,1:0:0:0:
226,66,61052,5,8,1:2:0:0:
315,256,61225,1,0,1:0:0:0:
193,64,61397,5,4,0:0:0:0:
233,273,61570,1,8,0:2:0:0:
233,273,61656,1,0,0:0:0:0:
233,273,61742,1,0,0:0:0:0:
213,168,61914,1,8,0:2:0:0:
399,260,62087,2,0,P|390:297|368:326,1,71.9999980926514,0|8,0:0|0:2,0:0:0:0:
313,203,62432,2,0,L|319:130,1,71.9999980926514,0|8,0:0|0:2,0:0:0:0:
414,186,62776,5,4,0:0:0:0:
213,168,62949,1,8,0:2:0:0:
213,168,63035,1,0,0:0:0:0:
213,168,63121,1,0,0:0:0:0:
436,164,63294,1,8,0:2:0:0:
191,190,63466,2,0,L|196:263,1,71.9999980926514,0|8,0:0|0:2,0:0:0:0:
382,277,63811,2,0,P|394:243|390:203,1,71.9999980926514,0|8,0:0|0:2,0:0:0:0:
275,51,64156,5,4,0:0:0:0:
275,68,64242,1,0,0:0:0:0:
277,85,64328,1,0,0:0:0:0:
281,102,64414,1,0,0:0:0:0:
289,117,64501,2,0,L|331:115,1,35.9999990463257
425,155,64673,2,0,L|467:153,1,35.9999990463257,0|0,0:0|0:0,0:0:0:0:
432,257,64845,6,0,L|394:254,1,35.9999990463257,0|0,0:0|0:0,0:0:0:0:
295,295,65018,2,0,L|257:292,1,35.9999990463257,0|0,0:0|0:0,0:0:0:0:
193,207,65190,1,0,0:0:0:0:
193,189,65276,1,0,0:0:0:0:
197,171,65363,1,0,0:0:0:0:
203,154,65449,1,0,0:0:0:0:
212,138,65535,1,0,0:0:0:0:
212,138,66570,1,8,0:0:0:0:
372,20,66914,6,0,B|412:132|412:132|396:220|396:220|444:348,1,314.99999165535,4|0,1:0|0:0,0:0:0:0:
433,319,67604,1,8,0:1:0:0:
220,220,67776,1,2,0:1:0:0:
252,360,67949,1,2,0:1:0:0:
308,136,68121,1,2,0:1:0:0:
156,52,68294,6,0,L|67:68,1,89.9999976158143,0|0,1:0|0:0,0:0:0:0:
131,236,68639,2,0,L|220:220,1,89.9999976158143,2|0,0:0|0:0,0:0:0:0:
308,136,68983,2,0,L|291:47,1,89.9999976158143,8|0,0:1|0:0,0:0:0:0:
220,220,69328,2,0,L|236:308,1,89.9999976158143,4|0,0:0|0:0,0:0:0:0:
372,304,69673,6,0,B|308:264|236:308|236:308|192:276|124:304,1,236.250002753735,0|0,1:0|0:0,0:0:0:0:
148,295,70363,1,8,0:1:0:0:
308,376,70535,1,2,0:1:0:0:
272,152,70708,1,2,0:1:0:0:
236,308,70880,1,2,0:1:0:0:
372,304,71052,6,0,P|412:288|480:280,1,89.9999976158143,0|0,1:0|0:0,0:0:0:0:
328,368,71397,1,2,0:0:0:0:
392,176,71570,1,2,0:0:0:0:
270,218,71742,2,0,P|206:238|210:94,1,269.999992847443,8|0,0:1|0:0,0:0:0:0:
204,96,72345,1,0,0:0:0:0:
204,96,72432,5,0,1:3:0:0:
344,64,72604,1,2,0:3:0:0:
196,112,72776,1,2,0:3:0:0:
356,72,72949,1,2,0:3:0:0:
240,16,73121,5,10,0:1:0:0:
172,248,73294,1,2,0:1:0:0:
168,48,73466,1,2,0:1:0:0:
248,276,73639,1,2,0:1:0:0:
136,168,73811,6,0,P|104:196|88:268,1,89.9999976158143,0|2,1:0|0:1,0:0:0:0:
184,324,74156,1,0,0:0:0:0:
136,168,74328,1,2,0:1:0:0:
97,329,74501,2,0,P|141:337|197:313,1,89.9999976158143,8|0,0:1|0:0,0:0:0:0:
377,268,74845,2,0,P|305:256|229:288,1,134.999996423721,2|0,0:3|0:0,0:0:0:0:
247,275,75190,5,0,1:0:0:0:
363,356,75363,1,0,0:0:0:0:
363,356,75449,1,0,0:0:0:0:
363,356,75535,2,0,L|379:252,1,89.9999976158143,0|0,1:0|0:0,0:0:0:0:
280,44,75880,5,8,0:0:0:0:
280,44,75966,1,0,0:0:0:0:
280,44,76052,1,0,0:0:0:0:
320,160,76225,1,0,0:0:0:0:
192,256,76397,5,8,0:0:0:0:
192,256,76483,1,0,0:0:0:0:
192,256,76569,1,0,0:0:0:0:
228,144,76742,1,0,0:0:0:0:
104,72,76914,6,0,P|98:124|144:184,1,89.9999976158143,8|0,0:0|0:0,0:0:0:0:
344,156,77259,2,0,B|272:176|228:144|228:144|212:180|176:192,1,179.999995231629,0|8,0:0|0:0,0:0:0:0:
440,332,77949,6,0,B|368:312|304:352|304:352|272:328|272:328|196:360|116:320,1,314.99999165535,4|0,1:0|0:0,0:0:0:0:
142,331,78639,1,8,0:1:0:0:
80,124,78811,1,2,0:1:0:0:
184,248,78983,1,2,0:1:0:0:
28,296,79156,1,2,0:1:0:0:
184,140,79328,6,0,P|228:152|276:192,1,89.9999976158143,0|0,1:0|0:0,0:0:0:0:
436,244,79673,2,0,P|448:196|436:136,1,89.9999976158143,2|0,0:0|0:0,0:0:0:0:
332,260,80018,2,0,P|320:308|332:368,1,89.9999976158143,8|0,0:1|0:0,0:0:0:0:
443,156,80363,2,0,L|319:120,1,89.9999976158143,4|0,0:0|0:0,0:0:0:0:
195,190,80708,6,0,B|251:198|296:186|296:186|331:220|379:210|379:210|411:258,1,236.250002753735,0|0,1:0|0:0,0:0:0:0:
403,246,81397,1,8,0:1:0:0:
208,352,81570,1,2,0:1:0:0:
294,190,81742,1,2,0:1:0:0:
320,376,81914,1,2,0:1:0:0:
195,190,82087,6,0,L|187:82,1,89.9999976158143,0|0,1:0|0:0,0:0:0:0:
294,190,82432,1,2,0:0:0:0:
195,190,82604,1,2,0:0:0:0:
336,104,82776,2,0,P|388:172|276:288,1,269.999992847443,8|0,0:1|0:0,0:0:0:0:
283,288,83380,1,0,0:0:0:0:
283,288,83466,5,0,1:0:0:0:
220,120,83639,1,2,0:3:0:0:
272,312,83811,1,2,0:3:0:0:
232,100,83983,1,2,0:3:0:0:
336,196,84156,5,10,0:1:0:0:
144,196,84328,1,2,0:1:0:0:
368,280,84501,1,2,0:1:0:0:
136,176,84673,1,2,0:1:0:0:
328,348,84845,6,0,P|372:360|432:320,1,89.9999976158143,0|2,1:0|0:1,0:0:0:0:
280,240,85190,1,0,0:1:0:0:
232,356,85363,1,2,0:1:0:0:
364,244,85535,2,0,L|340:144,1,89.9999976158143,8|0,0:1|0:0,0:0:0:0:
228,44,85880,2,0,P|220:112|292:179,1,134.999996423721,2|0,0:3|0:0,0:0:0:0:
256,163,86225,5,0,1:0:0:0:
316,29,86397,1,0,0:0:0:0:
316,29,86483,1,0,0:0:0:0:
316,29,86570,2,0,L|228:44,1,89.9999976158143,0|0,1:0|0:0,0:0:0:0:
88,132,86914,5,8,0:0:0:0:
88,132,87001,1,0,0:0:0:0:
88,132,87087,1,0,0:0:0:0:
144,32,87259,1,0,0:0:0:0:
248,236,87432,5,8,0:0:0:0:
248,236,87519,1,0,0:0:0:0:
248,236,87605,1,0,0:0:0:0:
192,136,87776,1,0,0:0:0:0:
88,332,87949,6,0,P|128:292|136:244,1,89.9999976158143,8|0,0:0|0:0,0:0:0:0:
8,352,88294,2,0,B|48:328|88:332|88:332|156:368|208:312,1,179.999995231629,0|8,0:0|0:3,0:0:0:0:
264,244,88811,1,8,0:3:0:0:
49,250,88983,5,4,1:0:0:0:
108,80,89156,2,0,L|103:171,2,89.9999976158143,0|2|0,0:0|0:0|0:0,0:0:0:0:
232,134,89673,1,8,0:1:0:0:
148,256,89845,1,0,0:0:0:0:
313,172,90018,1,2,0:0:0:0:
164,264,90190,1,2,0:0:0:0:
370,240,90363,5,0,1:0:0:0:
274,363,90535,1,0,0:0:0:0:
240,218,90708,1,2,0:0:0:0:
373,340,90880,1,2,0:0:0:0:
488,202,91052,6,0,L|472:65,1,135.000001573563,8|2,0:1|0:0,0:0:0:0:
472,67,91742,5,0,1:0:0:0:
444,271,91914,1,0,0:0:0:0:
444,271,92087,1,2,0:0:0:0:
281,144,92259,1,0,0:0:0:0:
402,154,92432,1,8,0:1:0:0:
323,261,92604,1,0,0:0:0:0:
418,162,92776,1,2,0:0:0:0:
307,253,92949,1,2,0:0:0:0:
170,235,93121,5,0,1:0:0:0:
262,58,93294,1,0,0:0:0:0:
281,144,93466,1,2,0:0:0:0:
165,121,93639,1,2,0:0:0:0:
378,81,93811,6,0,L|370:183,1,101.250001180172,8|0,0:1|0:0,0:0:0:0:
385,206,94156,6,0,P|434:180|444:262,1,168.749995529652,4|0,1:0|0:0,0:0:0:0:
458,287,94501,5,4,1:0:0:0:
300,345,94673,1,0,0:0:0:0:
316,348,94759,1,0,0:0:0:0:
332,351,94845,1,2,0:0:0:0:
472,311,95018,1,0,0:0:0:0:
307,253,95190,1,8,0:1:0:0:
490,172,95363,1,0,0:0:0:0:
389,284,95535,1,2,0:0:0:0:
378,81,95708,1,2,0:0:0:0:
398,258,95880,5,0,1:0:0:0:
292,106,96052,1,0,0:0:0:0:
407,232,96225,1,2,0:0:0:0:
224,165,96397,1,2,0:0:0:0:
304,334,96570,6,0,L|316:199,1,135.000001573563,8|2,0:1|0:0,0:0:0:0:
315,199,97259,5,0,1:0:0:0:
315,199,97604,1,2,0:0:0:0:
396,71,97776,1,0,0:0:0:0:
392,87,97863,1,0,0:0:0:0:
389,103,97949,1,8,0:1:0:0:
269,87,98121,1,2,0:0:0:0:
406,186,98294,1,2,0:0:0:0:
224,212,98466,1,2,0:0:0:0:
361,311,98639,5,0,1:0:0:0:
273,289,98811,1,0,0:0:0:0:
217,361,98983,1,2,0:0:0:0:
329,217,99156,1,2,0:0:0:0:
204,120,99328,6,0,L|210:222,1,101.250001180172,8|0,0:1|0:0,0:0:0:0:
194,230,99673,1,0,1:0:0:0:
270,61,99845,1,0,1:0:0:0:
91,8,100018,6,0,L|101:178,1,168.750001966953,4|0,1:0|0:0,0:0:0:0:
114,194,100363,6,0,L|24:190,1,89.9999976158143,2|0,0:0|0:0,0:0:0:0:
194,230,100708,1,8,0:1:0:0:
194,230,100880,1,0,0:0:0:0:
266,175,101052,1,2,0:0:0:0:
123,286,101225,1,2,0:0:0:0:
185,138,101397,1,0,1:0:0:0:
275,267,101570,1,0,0:0:0:0:
182,115,101742,1,2,0:0:0:0:
111,266,101914,1,2,0:0:0:0:
179,92,102087,6,0,L|359:102,1,179.999995231629,8|2,0:1|0:0,0:0:0:0:
358,101,102776,5,4,1:0:0:0:
266,175,102949,1,0,0:0:0:0:
270,63,103121,1,2,0:0:0:0:
354,213,103294,1,0,0:0:0:0:
175,204,103466,1,8,0:1:0:0:
359,244,103639,1,0,0:0:0:0:
173,193,103811,1,2,0:0:0:0:
364,275,103983,1,2,0:0:0:0:
266,175,104156,5,0,1:0:0:0:
246,331,104328,1,0,0:0:0:0:
364,275,104501,1,2,0:0:0:0:
148,231,104673,1,2,0:0:0:0:
263,319,104845,6,0,L|246:183,1,134.999996423721,8|0,0:1|0:0,0:0:0:0:
266,175,105190,6,0,P|333:176|306:103,1,168.749995529652,4|0,1:0|0:0,0:0:0:0:
308,103,105535,5,4,1:0:0:0:
148,231,105708,1,0,0:0:0:0:
225,102,105880,1,2,0:0:0:0:
263,319,106052,1,0,0:0:0:0:
349,176,106225,1,8,0:1:0:0:
149,146,106397,1,0,0:0:0:0:
230,244,106570,1,2,0:0:0:0:
269,23,106742,1,2,0:0:0:0:
137,130,106914,5,0,1:0:0:0:
308,103,107087,1,0,0:0:0:0:
125,114,107259,1,2,0:0:0:0:
329,141,107432,1,2,0:0:0:0:
113,98,107604,2,0,L|203:88,1,89.9999976158143,8|0,0:1|0:0,0:0:0:0:
349,178,107949,2,0,L|259:188,1,89.9999976158143,2|0,0:0|0:0,0:0:0:0:
125,204,108294,5,0,1:0:0:0:
232,343,108466,1,0,0:0:0:0:
232,343,108552,1,0,0:0:0:0:
232,343,108639,1,0,1:0:0:0:
389,252,108811,1,0,0:0:0:0:
389,252,108897,1,0,0:0:0:0:
389,252,108983,5,10,0:0:0:0:
251,221,109156,1,2,0:0:0:0:
247,198,109242,1,0,0:0:0:0:
243,175,109328,1,2,0:0:0:0:
239,152,109414,1,0,0:0:0:0:
235,129,109501,1,10,0:0:0:0:
352,24,109673,5,0,0:0:0:0:
349,46,109759,1,0,0:0:0:0:
346,68,109845,1,0,0:0:0:0:
343,90,109932,1,0,0:0:0:0:
340,112,110018,1,10,0:0:0:0:
219,41,110190,2,0,L|171:46,2,44.9999988079071,2|0|0,0:0|0:0|0:0,0:0:0:0:
323,200,110535,2,0,L|375:208,1,44.9999988079071,2|0,0:0|0:0,0:0:0:0:
483,173,110708,2,0,L|387:182,1,89.9999976158143,8|8,0:3|0:3,0:0:0:0:
196,236,111052,6,0,B|200:256|223:280|223:280|268:272|304:296|304:296|340:272|340:272|414:308|468:257,1,314.99999165535,4|0,1:0|0:0,0:0:0:0:
465,259,111742,1,8,0:1:0:0:
336,48,111914,1,2,0:1:0:0:
396,192,112087,1,2,0:1:0:0:
328,20,112259,1,2,0:1:0:0:
220,144,112432,6,0,P|172:151|100:144,1,89.9999976158143,0|0,1:0|0:0,0:0:0:0:
12,252,112776,2,0,P|59:244|132:252,1,89.9999976158143,2|0,0:0|0:0,0:0:0:0:
284,264,113121,2,0,L|252:364,1,89.9999976158143,8|0,0:1|0:0,0:0:0:0:
220,144,113466,2,0,L|247:58,1,89.9999976158143,4|0,0:0|0:0,0:0:0:0:
388,0,113811,6,0,B|417:66|376:120|376:120|410:173|380:232,1,236.250002753735,0|0,1:0|0:0,0:0:0:0:
385,221,114501,1,8,0:1:0:0:
247,58,114673,1,2,0:1:0:0:
388,0,114845,1,2,0:1:0:0:
308,176,115018,1,2,0:1:0:0:
160,144,115190,6,0,P|117:138|52:148,1,89.9999976158143,0|0,1:0|0:0,0:0:0:0:
80,304,115535,1,2,0:0:0:0:
132,216,115708,1,2,0:0:0:0:
24,240,115880,2,0,B|40:284|80:304|80:304|148:280|220:328|220:328|176:356,1,269.999992847443,8|0,0:1|0:0,0:0:0:0:
190,346,116483,1,0,0:0:0:0:
190,346,116570,5,0,1:3:0:0:
368,312,116742,1,2,0:3:0:0:
188,260,116914,1,2,0:3:0:0:
368,312,117087,1,2,0:3:0:0:
380,152,117259,5,10,0:1:0:0:
188,260,117432,1,2,0:1:0:0:
251,54,117604,1,2,0:1:0:0:
299,233,117777,1,2,0:1:0:0:
120,296,117949,6,0,P|108:256|120:204,1,89.9999976158143,0|2,1:0|0:1,0:0:0:0:
320,248,118294,1,0,0:0:0:0:
188,252,118466,1,2,0:1:0:0:
388,204,118639,2,0,P|400:244|388:296,1,89.9999976158143,8|0,0:1|0:0,0:0:0:0:
256,320,118983,2,0,L|256:148,1,134.999996423721,2|0,0:3|0:0,0:0:0:0:
256,185,119328,5,0,1:0:0:0:
144,104,119501,1,0,0:0:0:0:
144,104,119587,1,0,0:0:0:0:
144,104,119673,2,0,L|124:200,1,89.9999976158143,0|0,1:0|0:0,0:0:0:0:
284,289,120018,5,8,0:0:0:0:
284,289,120104,1,0,0:0:0:0:
284,289,120190,1,0,0:0:0:0:
256,185,120363,1,0,0:0:0:0:
388,112,120535,5,8,0:0:0:0:
388,112,120621,1,0,0:0:0:0:
388,112,120707,1,0,0:0:0:0:
360,216,120880,1,0,0:0:0:0:
288,104,121052,6,0,P|276:58|280:8,1,89.9999976158143,8|0,0:0|0:0,0:0:0:0:
388,112,121397,2,0,B|392:172|360:216|360:216|272:196,1,179.999995231629,0|8,0:0|0:0,0:0:0:0:
412,336,122087,6,0,B|292:324|292:324|224:344|224:344|68:328,1,314.99999165535,4|0,1:0|0:0,0:0:0:0:
101,331,122776,1,8,0:1:0:0:
96,148,122949,1,2,0:1:0:0:
288,140,123121,1,2,0:1:0:0:
294,324,123294,1,2,0:1:0:0:
216,180,123466,6,0,L|200:48,1,89.9999976158143,0|0,1:0|0:0,0:0:0:0:
372,124,123811,2,0,L|382:34,1,89.9999976158143,2|0,0:0|0:0,0:0:0:0:
464,216,124156,2,0,L|474:305,1,89.9999976158143,8|0,0:1|0:0,0:0:0:0:
294,324,124501,2,0,L|304:234,1,89.9999976158143,4|0,0:0|0:0,0:0:0:0:
396,344,124845,6,0,B|336:356|296:324|296:324|260:332|260:332|224:300|152:300,1,236.250002753735,0|0,1:0|0:0,0:0:0:0:
173,300,125535,1,8,0:1:0:0:
40,336,125707,1,2,0:1:0:0:
216,172,125880,1,2,0:1:0:0:
82,207,126052,1,2,0:1:0:0:
173,300,126225,6,0,P|221:297|273:288,1,89.9999976158143,0|0,1:0|0:0,0:0:0:0:
436,144,126570,1,2,0:0:0:0:
424,284,126742,1,2,0:0:0:0:
330,204,126914,2,0,P|244:120|333:38,1,269.999992847443,8|0,0:1|0:0,0:0:0:0:
333,38,127518,1,0,0:0:0:0:
333,38,127604,5,0,1:0:0:0:
436,144,127776,1,2,0:3:0:0:
272,216,127949,1,2,0:3:0:0:
332,124,128121,1,2,0:3:0:0:
392,240,128294,5,10,0:1:0:0:
192,264,128466,1,2,0:1:0:0:
320,280,128639,1,2,0:1:0:0:
108,256,128811,1,2,0:1:0:0:
148,100,128983,6,0,P|164:144|148:200,1,89.9999976158143,0|2,1:0|0:1,0:0:0:0:
108,336,129328,1,0,0:1:0:0:
192,264,129501,1,2,0:1:0:0:
292,352,129673,2,0,P|244:360|172:352,1,89.9999976158143,8|0,0:1|0:0,0:0:0:0:
156,185,130018,2,0,B|196:172|228:185|228:185|268:165|328:181,1,134.999996423721,2|0,0:3|0:0,0:0:0:0:
287,174,130363,5,0,1:0:0:0:
172,272,130535,1,0,0:0:0:0:
172,272,130621,1,0,0:0:0:0:
172,272,130707,2,0,L|156:184,1,89.9999976158143,0|0,1:0|0:0,0:0:0:0:
288,76,131052,5,8,0:0:0:0:
288,76,131139,1,0,0:0:0:0:
288,76,131225,1,0,0:0:0:0:
192,96,131397,1,0,0:0:0:0:
60,164,131570,5,8,0:0:0:0:
60,164,131657,1,0,0:0:0:0:
60,164,131743,1,0,0:0:0:0:
156,184,131915,1,0,0:0:0:0:
268,252,132087,6,0,L|168:272,1,89.9999976158143,8|0,0:0|0:0,0:0:0:0:
264,152,132432,2,0,B|288:196|268:252|268:252|284:300|340:328,1,179.999995231629,0|8,0:0|0:3,0:0:0:0:
313,312,133121,5,4,1:0:0:0:
357,82,133466,1,8,0:0:0:0:
339,299,133811,5,0,1:0:0:0:
383,69,134156,1,8,0:0:0:0:
365,286,134501,5,0,1:0:0:0:
409,56,134846,1,8,0:0:0:0:
387,171,135018,1,8,0:0:0:0:
365,286,135190,5,0,1:0:0:0:
413,158,135363,1,0,0:1:0:0:
291,216,135535,1,8,0:0:0:0:
487,228,135707,1,0,1:0:0:0:
284,233,135880,5,0,1:0:0:0:
494,211,136225,1,8,0:0:0:0:
277,250,136570,5,0,1:0:0:0:
501,194,136914,1,8,0:0:0:0:
270,267,137259,5,0,1:0:0:0:
508,177,137604,1,8,0:0:0:0:
390,223,137776,1,8,0:0:0:0:
270,267,137949,5,0,1:0:0:0:
508,177,138294,1,8,0:0:0:0:
369,349,138639,5,4,1:0:0:0:
291,141,138983,1,8,0:0:0:0:
373,336,139328,5,0,1:0:0:0:
295,128,139673,1,8,0:0:0:0:
377,323,140018,5,0,1:0:0:0:
299,115,140363,1,8,0:0:0:0:
372,211,140535,1,8,0:0:0:0:
184,173,140707,5,0,1:0:0:0:
359,217,140880,1,0,0:1:0:0:
197,167,141052,1,8,0:0:0:0:
346,223,141225,1,0,1:0:0:0:
210,161,141397,5,0,1:0:0:0:
172,350,141742,1,8,0:0:0:0:
223,155,142087,5,0,1:0:0:0:
103,290,142432,1,8,0:0:0:0:
236,149,142776,5,0,1:0:0:0:
96,198,143121,1,8,0:0:0:0:
222,248,143294,1,8,0:0:0:0:
250,50,143466,5,0,1:0:0:0:
222,248,143811,1,8,0:0:0:0:
250,50,144156,5,4,1:0:0:0:
250,50,144501,1,0,0:0:0:0:
276,128,144673,1,0,1:0:0:0:
332,188,144845,2,0,L|428:172,1,89.9999976158143,0|0,1:0|0:0,0:0:0:0:
312,292,145535,2,0,L|216:276,1,89.9999976158143,0|0,0:0|1:0,0:0:0:0:
136,284,146052,1,0,1:0:0:0:
216,296,146225,2,0,L|204:196,1,89.9999976158143,0|0,1:0|0:0,0:0:0:0:
280,64,146914,5,0,1:0:0:0:
120,36,147259,1,0,0:0:0:0:
100,116,147432,1,0,1:0:0:0:
128,192,147604,2,0,L|228:184,1,89.9999976158143,0|0,1:0|0:0,0:0:0:0:
336,296,148294,2,0,L|384:300,1,44.9999988079071,0|0,0:0|0:0,0:0:0:0:
448,256,148639,2,0,L|452:208,1,44.9999988079071,0|0,1:0|1:0,0:0:0:0:
388,160,148983,2,0,P|368:112|396:68,1,89.9999976158143,0|0,1:0|0:0,0:0:0:0:
500,192,149673,5,0,1:0:0:0:
484,272,149845,2,0,L|472:376,1,89.9999976158143,0|0,0:0|1:0,0:0:0:0:
396,336,150363,2,0,P|369:329|344:332,1,44.9999988079071,0|0,1:0|0:0,0:0:0:0:
336,252,150707,2,0,P|355:232|365:208,1,44.9999988079071,0|0,0:0|0:0,0:0:0:0:
438,242,151052,2,0,P|445:268|460:289,1,44.9999988079071,0|0,0:0|0:0,0:0:0:0:
396,336,151397,1,0,1:0:0:0:
320,304,151570,1,0,1:0:0:0:
248,344,151742,2,0,L|232:352,16,11.2499997019768,0|0|0|0|0|0|0|0|0|0|0|0|0|0|0|0|4,1:0|0:0|0:0|0:0|0:0|0:0|0:0|0:0|0:0|0:0|0:0|0:0|0:0|0:0|0:0|0:0|0:1,0:0:0:0:
256,192,157951,5,0,1:0:0:0:
256,192,158419,1,0,1:0:0:0:
256,192,158888,1,0,1:0:0:0:
256,192,159357,1,0,1:0:0:0:
352,136,159591,1,0,0:0:0:0:
308,276,159824,5,4,1:0:0:0:
160,252,160168,1,8,0:0:0:0:
324,256,160513,5,0,1:0:0:0:
140,276,160858,1,8,0:0:0:0:
344,232,161203,5,0,1:0:0:0:
124,296,161547,1,8,0:0:0:0:
256,204,161720,1,8,0:0:0:0:
92,216,161892,5,0,1:0:0:0:
184,360,162065,1,0,0:1:0:0:
176,192,162237,2,0,P|148:148|84:124,1,89.9999976158143,8|0,0:0|1:0,0:0:0:0:
204,24,162582,5,0,1:0:0:0:
176,192,162927,1,8,0:0:0:0:
248,16,163272,5,0,1:0:0:0:
220,184,163617,1,8,0:0:0:0:
292,8,163961,5,0,1:0:0:0:
264,176,164306,1,8,0:0:0:0:
400,136,164479,1,8,0:0:0:0:
332,0,164651,5,0,1:0:0:0:
304,168,164824,1,0,0:0:0:0:
396,56,164996,1,8,0:0:0:0:
416,224,165168,1,0,0:0:0:0:
276,272,165341,5,4,1:0:0:0:
120,208,165686,1,8,0:0:0:0:
262,294,166030,5,0,1:0:0:0:
133,185,166203,1,0,1:0:0:0:
242,311,166375,1,8,0:0:0:0:
153,168,166548,1,0,1:0:0:0:
272,56,166720,5,0,1:0:0:0:
428,120,167065,1,8,0:0:0:0:
286,34,167409,5,0,1:0:0:0:
415,143,167582,1,0,1:1:0:0:
306,17,167755,1,8,0:0:0:0:
395,160,167927,1,0,1:0:0:0:
216,268,168099,5,0,1:0:0:0:
280,112,168444,1,8,0:0:0:0:
194,255,168788,5,0,1:0:0:0:
303,126,168961,1,0,1:0:0:0:
177,235,169134,1,8,0:0:0:0:
320,146,169306,1,0,1:0:0:0:
284,304,169479,5,0,1:0:0:0:
228,80,169824,1,8,0:0:0:0:
198,298,170168,5,0,1:0:0:0:
350,139,170341,1,0,1:0:0:0:
134,178,170513,1,8,0:0:0:0:
331,274,170686,1,0,1:0:0:0:
228,80,170858,6,0,L|128:56,1,89.9999976158143,4|0,1:0|0:0,0:0:0:0:
46,199,171203,2,0,L|146:175,1,89.9999976158143,8|2,1:2|0:0,0:0:0:0:
296,172,171548,1,0,1:0:0:0:
133,177,171720,1,0,1:0:0:0:
228,80,171892,1,8,0:0:0:0:
201,269,172064,1,2,1:2:0:0:
356,284,172237,6,0,L|456:288,1,89.9999976158143,4|0,1:0|0:0,0:0:0:0:
392,140,172582,2,0,L|472:212,1,89.9999976158143,8|2,1:2|0:0,0:0:0:0:
356,284,172927,1,0,1:0:0:0:
312,96,173099,1,0,1:0:0:0:
280,240,173272,1,8,1:2:0:0:
236,52,173444,1,2,1:2:0:0:
140,128,173617,6,0,L|108:24,1,89.9999976158143,4|0,1:0|0:0,0:0:0:0:
204,184,173961,2,0,L|177:270,1,89.9999976158143,8|2,1:2|0:0,0:0:0:0:
88,192,174306,1,0,1:0:0:0:
220,96,174479,1,0,1:0:0:0:
177,270,174651,1,8,1:2:0:0:
140,128,174824,1,2,1:2:0:0:
284,168,174996,6,0,L|372:150,1,89.9999976158143,4|0,1:0|0:0,0:0:0:0:
432,276,175341,2,0,L|343:258,1,89.9999976158143,8|2,1:2|0:0,0:0:0:0:
284,168,175686,1,0,1:0:0:0:
328,28,175858,1,0,1:0:0:0:
372,150,176030,1,8,1:2:0:0:
220,68,176202,1,2,1:2:0:0:
24,124,176375,5,4,0:0:0:0:
136,44,176548,1,8,0:2:0:0:
136,44,176634,1,0,0:0:0:0:
136,44,176720,1,0,0:0:0:0:
92,168,176892,1,8,0:2:0:0:
136,264,177065,1,0,0:0:0:0:
244,240,177237,1,8,0:2:0:0:
128,280,177410,1,0,0:0:0:0:
252,224,177582,1,8,0:2:0:0:
256,28,177755,5,4,0:0:0:0:
344,136,177927,1,8,0:2:0:0:
344,136,178013,1,0,0:0:0:0:
344,136,178099,1,0,0:0:0:0:
220,96,178272,1,8,0:2:0:0:
336,40,178444,1,0,0:0:0:0:
344,136,178617,1,8,0:2:0:0:
260,288,178789,1,0,0:0:0:0:
252,192,178962,1,8,0:2:0:0:
409,99,179134,5,4,0:0:0:0:
421,139,179220,1,0,0:0:0:0:
413,179,179306,1,0,0:0:0:0:
381,207,179392,1,0,0:0:0:0:
341,211,179479,1,0,0:0:0:0:
300,212,179565,1,0,0:0:0:0:
264,228,179651,1,0,0:0:0:0:
244,264,179737,1,0,0:0:0:0:
244,304,179824,6,0,P|250:331|260:356,1,44.9999988079071,0|0,0:0|0:0,0:0:0:0:
368,320,179996,2,0,L|312:284,1,44.9999988079071,0|0,0:0|0:0,0:0:0:0:
208,184,180168,2,0,P|202:156|204:128,1,44.9999988079071,0|0,0:0|0:0,0:0:0:0:
336,84,180341,2,0,L|292:136,1,44.9999988079071,0|0,0:0|0:0,0:0:0:0:
116,80,180513,1,0,0:0:0:0:
256,192,180599,12,8,181548,0:0:0:0:
123,262,181892,6,0,B|152:271|184:257|184:257|219:284|219:284|264:244|352:272,1,236.250002753735,4|0,1:0|0:0,0:0:0:0:
342,269,182582,1,8,0:1:0:0:
156,355,182755,1,2,0:1:0:0:
247,185,182927,1,2,0:1:0:0:
283,384,183099,1,2,0:1:0:0:
113,233,183272,6,0,P|105:173|138:109,1,134.999996423721,0|0,1:0|0:0,0:0:0:0:
101,26,183617,2,0,P|109:86|76:150,1,134.999996423721,2|0,0:0|0:0,0:0:0:0:
206,187,183961,2,0,L|306:181,1,89.9999976158143,8|0,0:1|0:0,0:0:0:0:
426,57,184306,2,0,L|326:51,1,89.9999976158143,4|0,0:0|0:0,0:0:0:0:
343,281,184651,6,0,P|392:235|399:147,1,157.499995827675,0|0,1:0|0:0,0:0:0:0:
399,148,185341,1,8,0:1:0:0:
234,46,185513,1,2,0:1:0:0:
295,181,185686,1,2,0:1:0:0:
453,41,185858,1,2,0:1:0:0:
511,244,186030,6,0,P|467:257|422:250,1,89.9999976158143,0|0,1:0|0:0,0:0:0:0:
304,353,186375,2,0,B|348:344|348:344|390:358,1,89.9999976158143,2|2,0:0|0:0,0:0:0:0:
315,240,186720,2,0,B|297:198|297:198|319:112,1,134.999996423721,8|0,0:1|0:0,0:0:0:0:
342,35,187324,1,0,0:0:0:0:
361,46,187410,6,0,L|452:40,1,89.9999976158143,0|2,1:3|0:3,0:0:0:0:
484,199,187755,2,0,L|394:193,1,89.9999976158143,2|2,0:3|0:3,0:0:0:0:
218,263,188099,1,10,0:1:0:0:
394,193,188272,1,2,0:1:0:0:
319,111,188444,1,2,0:1:0:0:
293,345,188617,1,2,0:1:0:0:
469,275,188789,5,0,1:0:0:0:
230,230,188961,1,2,0:1:0:0:
478,184,189134,1,0,0:0:0:0:
242,197,189306,1,2,0:1:0:0:
399,35,189479,2,0,B|418:120|418:120|392:163,1,134.999996423721,8|0,0:1|0:0,0:0:0:0:
450,267,189824,2,0,P|400:229|394:157,1,134.999996423721,2|0,0:3|0:0,0:0:0:0:
478,184,190168,5,0,1:0:0:0:
422,350,190341,1,0,0:0:0:0:
399,348,190427,1,0,0:0:0:0:
376,346,190513,1,0,1:0:0:0:
241,264,190686,1,0,0:0:0:0:
263,260,190772,1,0,0:0:0:0:
285,256,190858,6,0,L|289:210,1,44.9999988079071,8|0,0:0|0:0,0:0:0:0:
304,64,191030,1,0,0:0:0:0:
153,16,191203,2,0,L|158:66,1,44.9999988079071,0|0,0:0|0:0,0:0:0:0:
110,179,191375,2,0,L|105:134,1,44.9999988079071,8|0,0:0|0:0,0:0:0:0:
132,98,191548,5,0,0:0:0:0:
241,264,191720,1,0,0:0:0:0:
235,285,191806,1,0,0:0:0:0:
230,306,191892,1,8,0:0:0:0:
227,151,192065,1,0,0:0:0:0:
227,151,192151,1,0,0:0:0:0:
227,151,192237,6,0,L|301:147,1,67.5000007867814,0|0,0:0|0:0,0:0:0:0:
438,99,192582,2,0,P|396:81|340:87,1,101.250001180172,8|0,0:0|0:0,0:0:0:0:
294,147,192927,6,0,B|309:321|309:321|337:266,1,236.250002753735,4|0,1:0|0:0,0:0:0:0:
346,251,193617,1,8,0:1:0:0:
181,217,193789,1,2,0:1:0:0:
362,222,193961,1,2,0:1:0:0:
165,246,194134,1,2,0:1:0:0:
378,193,194306,6,0,B|397:155|397:155|370:63,1,134.999996423721,0|0,1:0|0:0,0:0:0:0:
460,112,194651,2,0,B|441:150|441:150|468:242,1,134.999996423721,2|0,0:0|0:0,0:0:0:0:
398,341,194996,2,0,P|382:297|348:274,1,89.9999976158143,8|0,0:1|0:0,0:0:0:0:
203,165,195341,2,0,P|249:173|286:155,1,89.9999976158143,4|0,0:0|0:0,0:0:0:0:
457,95,195686,6,0,P|426:130|501:160,1,157.499995827675,0|0,1:0|0:0,0:0:0:0:
499,161,196375,1,8,0:1:0:0:
412,30,196548,1,2,0:1:0:0:
286,154,196720,1,2,0:1:0:0:
407,178,196892,1,2,0:1:0:0:
283,29,197065,6,0,L|194:21,1,89.9999976158143,0|0,1:0|0:0,0:0:0:0:
14,116,197410,2,0,L|103:108,1,89.9999976158143,2|2,0:0|0:0,0:0:0:0:
286,154,197755,2,0,B|270:126|270:126|211:109|175:151,1,134.999996423721,8|0,0:1|0:0,0:0:0:0:
132,215,198358,1,0,0:0:0:0:
150,228,198444,6,0,P|193:235|236:210,1,89.9999976158143,0|2,1:0|0:3,0:0:0:0:
396,214,198789,2,0,P|356:192|310:197,1,89.9999976158143,2|2,0:3|0:3,0:0:0:0:
210,330,199134,1,10,0:1:0:0:
431,369,199306,1,2,0:1:0:0:
342,275,199479,1,2,0:1:0:0:
383,109,199651,1,2,0:1:0:0:
471,190,199824,5,0,1:0:0:0:
238,219,199996,1,2,0:1:0:0:
482,220,200168,1,0,0:1:0:0:
253,188,200340,1,2,0:1:0:0:
342,275,200513,6,0,P|369:231|369:149,1,134.999996423721,8|0,0:1|0:0,0:0:0:0:
357,42,200858,2,0,B|323:103|323:103|369:149,1,134.999996423721,2|0,0:3|0:0,0:0:0:0:
431,89,201203,5,0,1:0:0:0:
238,116,201375,1,0,0:0:0:0:
238,116,201461,1,0,0:0:0:0:
238,116,201548,1,0,1:0:0:0:
369,274,201720,1,0,0:0:0:0:
385,245,201806,1,0,0:0:0:0:
391,211,201892,1,8,0:0:0:0:
385,179,201978,1,0,0:0:0:0:
369,149,202065,1,0,0:0:0:0:
260,208,202238,6,0,L|250:255,1,44.9999988079071
268,280,202410,2,0,L|258:327,1,44.9999988079071,8|0,0:0|0:0,0:0:0:0:
276,353,202583,1,0,0:0:0:0:
142,226,202755,1,0,0:0:0:0:
152,205,202841,1,0,0:0:0:0:
157,183,202927,1,8,0:0:0:0:
122,37,203099,1,0,0:0:0:0:
135,56,203185,1,0,0:0:0:0:
151,71,203272,6,0,P|204:90|277:69,1,134.999996423721,0|8,0:0|0:3,0:0:0:0:
352,16,203961,5,4,1:0:0:0:
424,184,204134,1,0,0:0:0:0:
465,102,204306,2,0,P|430:91|373:110,1,89.9999976158143,2|0,0:0|0:0,0:0:0:0:
379,105,204565,1,0,0:0:0:0:
379,105,204651,1,8,0:1:0:0:
296,244,204824,1,0,0:0:0:0:
224,180,204996,1,2,0:0:0:0:
424,184,205168,1,2,0:0:0:0:
308,160,205341,6,0,P|292:120|296:68,1,89.9999976158143,0|0,1:0|0:0,0:0:0:0:
124,56,205686,1,2,0:0:0:0:
204,108,205858,1,2,0:0:0:0:
132,260,206030,6,0,P|96:220|120:148,1,135.000001573563,8|0,0:1|0:0,0:0:0:0:
118,148,206720,5,0,1:0:0:0:
118,148,207065,1,2,0:0:0:0:
200,224,207237,1,0,0:0:0:0:
220,232,207324,1,0,0:0:0:0:
240,240,207410,1,8,0:1:0:0:
352,204,207582,1,0,0:0:0:0:
248,96,207755,1,2,0:0:0:0:
260,248,207927,1,2,0:0:0:0:
440,176,208099,6,0,L|456:76,1,89.9999976158143,0|0,1:0|0:0,0:0:0:0:
352,204,208444,2,0,L|366:292,1,89.9999976158143,2|2,0:0|0:0,0:0:0:0:
284,344,208789,6,0,P|232:328|176:356,1,101.250001180172,8|0,0:1|0:0,0:0:0:0:
180,352,209134,6,0,P|120:320|192:268,1,168.749995529652,4|0,1:0|0:0,0:0:0:0:
184,268,209479,5,0,1:0:0:0:
280,216,209651,1,0,0:0:0:0:
196,112,209824,2,0,P|184:148|200:196,1,89.9999976158143,2|0,0:0|0:0,0:0:0:0:
199,195,210082,1,0,0:0:0:0:
199,195,210168,1,8,0:1:0:0:
296,80,210341,1,0,0:0:0:0:
280,160,210513,1,2,0:0:0:0:
400,44,210686,1,2,0:0:0:0:
356,156,210858,6,0,P|352:188|372:252,1,89.9999976158143,0|0,1:0|0:0,0:0:0:0:
456,336,211203,1,2,0:0:0:0:
352,320,211375,1,2,0:0:0:0:
248,352,211548,6,0,P|180:340|100:360,1,135.000001573563,8|0,0:1|0:0,0:0:0:0:
116,352,212237,5,0,1:0:0:0:
116,352,212582,1,2,0:0:0:0:
84,256,212755,1,0,0:0:0:0:
78,234,212841,1,0,0:0:0:0:
72,212,212927,1,8,0:1:0:0:
144,128,213099,1,2,0:0:0:0:
260,168,213272,1,2,0:0:0:0:
360,68,213444,1,2,0:0:0:0:
240,76,213617,6,0,P|233:114|248:164,1,89.9999976158143,0|0,1:0|0:0,0:0:0:0:
344,216,213961,2,0,P|350:254|336:304,1,89.9999976158143,2|2,0:0|0:0,0:0:0:0:
212,352,214306,6,0,P|196:296|220:248,1,101.250001180172,8|0,0:1|0:0,0:0:0:0:
224,248,214651,1,0,1:0:0:0:
396,172,214824,1,0,1:0:0:0:
252,24,214996,6,0,L|276:208,1,168.749995529652,4|0,1:0|0:0,0:0:0:0:
288,200,215341,1,2,0:0:0:0:
308,320,215513,1,0,0:0:0:0:
284,324,215599,1,0,0:0:0:0:
260,320,215686,1,8,0:1:0:0:
400,236,215858,1,0,0:0:0:0:
396,320,216030,1,2,0:0:0:0:
404,152,216203,1,2,0:0:0:0:
256,148,216375,6,0,P|212:148|164:140,1,89.9999976158143,0|0,1:0|0:0,0:0:0:0:
224,264,216720,1,2,0:0:0:0:
128,208,216892,1,2,0:0:0:0:
104,96,217065,6,0,P|128:32|196:16,1,135.000001573563,8|0,0:1|0:0,0:0:0:0:
187,14,217755,5,4,1:0:0:0:
187,14,218099,1,2,0:0:0:0:
280,84,218272,1,0,0:0:0:0:
277,106,218358,1,0,0:0:0:0:
274,128,218444,1,8,0:1:0:0:
384,52,218617,1,0,0:0:0:0:
364,160,218789,1,2,0:0:0:0:
344,268,218961,1,2,0:0:0:0:
388,376,219134,6,0,L|480:364,1,89.9999976158143,0|0,1:0|0:0,0:0:0:0:
344,268,219479,1,2,0:0:0:0:
224,224,219651,1,2,0:0:0:0:
132,292,219824,6,0,P|176:312|232:300,1,101.250001180172,8|0,0:1|0:0,0:0:0:0:
236,292,220168,6,0,P|308:280|288:352,1,168.749995529652,4|0,1:0|0:0,0:0:0:0:
280,352,220513,5,4,1:0:0:0:
200,208,220686,1,0,0:0:0:0:
312,168,220858,2,0,P|357:176|408:176,1,89.9999976158143,2|0,0:0|0:0,0:0:0:0:
401,176,221117,1,0,0:0:0:0:
401,176,221203,1,8,0:1:0:0:
368,8,221375,1,0,0:0:0:0:
364,92,221548,1,2,0:0:0:0:
436,56,221720,1,2,0:0:0:0:
240,40,221892,6,0,P|232:84|256:144,1,89.9999976158143,0|0,1:0|0:0,0:0:0:0:
272,304,222237,1,2,0:0:0:0:
316,232,222410,1,2,0:0:0:0:
172,200,222582,6,0,P|116:212|24:192,1,135.000001573563,8|0,0:1|0:0,0:0:0:0:
40,199,223272,5,0,1:0:0:0:
88,88,223444,1,0,0:0:0:0:
88,88,223530,1,0,0:0:0:0:
88,88,223617,1,0,1:0:0:0:
152,244,223789,1,0,0:0:0:0:
152,244,223875,1,0,0:0:0:0:
152,244,223961,5,10,0:0:0:0:
296,144,224134,1,2,0:0:0:0:
274,136,224220,1,0,0:0:0:0:
252,132,224306,1,2,0:0:0:0:
230,132,224392,1,0,0:0:0:0:
208,137,224478,1,10,0:0:0:0:
256,336,224651,5,0,0:0:0:0:
260,313,224737,1,0,0:0:0:0:
265,291,224823,1,0,0:0:0:0:
270,269,224909,1,0,0:0:0:0:
274,247,224995,1,10,0:0:0:0:
380,272,225168,2,0,L|388:320,2,44.9999988079071,2|0|0,0:0|0:0|0:0,0:0:0:0:
352,152,225513,2,0,L|340:84,1,44.9999988079071,2|0,0:0|0:0,0:0:0:0:
352,0,225686,2,0,P|372:40|368:88,1,89.9999976158143,8|8,0:3|0:3,0:0:0:0:
271,155,226030,6,0,B|151:179|151:179|111:156|111:156|179:141,1,236.250002753735,4|0,1:0|0:0,0:0:0:0:
177,141,226720,1,8,0:1:0:0:
230,255,226892,1,2,0:1:0:0:
88,234,227065,1,2,0:1:0:0:
225,78,227237,1,2,0:1:0:0:
309,235,227410,6,0,P|300:304|250:339,1,134.999996423721,0|0,1:0|0:0,0:0:0:0:
151,275,227755,2,0,P|160:206|210:171,1,134.999996423721,2|0,0:0|0:0,0:0:0:0:
229,316,228099,2,0,L|140:308,1,89.9999976158143,8|0,0:1|0:0,0:0:0:0:
231,194,228444,2,0,L|320:202,1,89.9999976158143,4|0,0:0|0:0,0:0:0:0:
479,310,228789,6,0,L|322:295,1,157.499995827675,0|0,1:0|0:0,0:0:0:0:
322,295,229479,1,8,0:1:0:0:
386,137,229651,1,2,0:1:0:0:
284,44,229824,1,2,0:1:0:0:
320,202,229996,1,2,0:1:0:0:
162,168,230168,6,0,P|198:144|254:145,1,89.9999976158143,0|0,1:0|0:0,0:0:0:0:
295,296,230513,2,0,P|257:276|229:227,1,89.9999976158143,2|2,0:0|0:0,0:0:0:0:
325,78,230858,2,0,P|345:145|320:201,1,134.999996423721,8|0,0:1|0:0,0:0:0:0:
254,158,231461,1,0,0:0:0:0:
244,142,231548,6,0,L|149:134,1,89.9999976158143,0|2,1:3|0:3,0:0:0:0:
27,261,231892,2,0,L|122:253,1,89.9999976158143,2|2,0:3|0:3,0:0:0:0:
64,126,232237,1,10,0:1:0:0:
207,248,232410,1,2,0:1:0:0:
210,52,232582,1,2,0:1:0:0:
92,241,232755,1,2,0:1:0:0:
301,160,232927,5,0,1:0:0:0:
64,126,233099,1,2,0:1:0:0:
229,268,233272,1,0,0:0:0:0:
211,88,233444,1,2,0:1:0:0:
167,318,233617,6,0,L|304:306,1,134.999996423721,8|0,0:1|0:0,0:0:0:0:
398,337,233961,2,0,P|372:291|299:309,1,134.999996423721,2|0,0:3|0:0,0:0:0:0:
285,384,234306,5,0,1:0:0:0:
386,207,234479,1,0,0:0:0:0:
386,207,234565,1,0,0:0:0:0:
386,207,234651,1,0,1:0:0:0:
263,86,234824,1,0,0:0:0:0:
256,107,234910,1,0,0:0:0:0:
254,129,234996,1,8,0:0:0:0:
256,151,235082,1,0,0:0:0:0:
264,173,235168,1,0,0:0:0:0:
447,155,235341,6,0,L|451:111,1,44.9999988079071,0|0,0:0|0:0,0:0:0:0:
435,87,235513,2,0,L|439:43,1,44.9999988079071,8|0,0:0|0:0,0:0:0:0:
423,19,235686,1,0,0:0:0:0:
334,125,235858,1,0,0:0:0:0:
334,125,235944,1,0,0:0:0:0:
334,125,236030,1,8,0:0:0:0:
405,266,236203,1,0,0:0:0:0:
405,266,236289,1,0,0:0:0:0:
405,266,236375,6,0,L|494:261,1,89.9999976158143,0|0,0:0|0:0,0:0:0:0:
320,217,236720,2,0,L|186:225,1,134.999996423721,8|0,0:0|0:0,0:0:0:0:
119,186,237065,6,0,P|188:224|162:124,1,236.250002753735,4|0,1:0|0:0,0:0:0:0:
167,123,237755,1,8,0:1:0:0:
70,248,237927,1,2,0:1:0:0:
17,63,238099,1,2,0:1:0:0:
119,186,238272,1,2,0:1:0:0:
216,61,238444,6,0,L|354:55,1,134.999996423721,0|0,1:0|0:0,0:0:0:0:
400,115,238789,2,0,P|340:137|281:96,1,134.999996423721,2|0,0:0|0:0,0:0:0:0:
437,29,239134,2,0,L|430:119,1,89.9999976158143,8|0,0:1|0:0,0:0:0:0:
331,260,239479,2,0,L|338:170,1,89.9999976158143,4|0,0:0|0:0,0:0:0:0:
485,218,239824,6,0,L|473:380,1,157.499995827675,0|0,1:0|0:0,0:0:0:0:
473,375,240513,1,8,0:1:0:0:
324,349,240686,1,2,0:1:0:0:
445,291,240858,1,2,0:1:0:0:
250,299,241030,1,2,0:1:0:0:
461,194,241203,6,0,P|469:150|399:113,1,134.999996423721,0|0,1:0|0:0,0:0:0:0:
285,88,241548,2,0,L|377:91,1,89.9999976158143,2|2,0:0|0:0,0:0:0:0:
322,215,241892,2,0,L|186:211,1,134.999996423721,8|0,0:1|0:0,0:0:0:0:
125,161,242496,1,0,0:0:0:0:
125,161,242582,6,0,P|149:197|154:242,1,89.9999976158143,0|2,1:0|0:3,0:0:0:0:
26,384,242927,2,0,L|32:293,1,89.9999976158143,2|2,0:3|0:3,0:0:0:0:
41,125,243272,1,10,0:1:0:0:
115,324,243444,1,2,0:1:0:0:
209,128,243617,1,2,0:1:0:0:
73,227,243789,1,2,0:1:0:0:
287,295,243961,5,0,1:0:0:0:
238,107,244134,1,2,0:1:0:0:
372,44,244306,1,0,0:1:0:0:
293,263,244479,1,2,0:1:0:0:
479,185,244651,6,0,L|344:198,1,134.999996423721,8|0,0:1|0:0,0:0:0:0:
356,316,244996,2,0,P|377:272|344:197,1,134.999996423721,2|0,0:3|0:0,0:0:0:0:
293,263,245341,5,0,1:0:0:0:
421,371,245513,1,0,0:0:0:0:
437,356,245599,1,0,0:0:0:0:
448,336,245686,1,0,1:0:0:0:
279,345,245858,1,0,0:0:0:0:
262,329,245944,1,0,0:0:0:0:
243,318,246030,1,8,0:0:0:0:
221,312,246116,1,0,0:0:0:0:
199,310,246202,1,0,0:0:0:0:
283,178,246375,6,0,L|288:133,1,44.9999988079071,0|0,0:0|0:0,0:0:0:0:
242,55,246548,1,8,0:0:0:0:
242,55,246634,1,0,0:0:0:0:
242,55,246720,1,0,0:0:0:0:
150,189,246892,1,0,0:0:0:0:
167,202,246978,1,0,0:0:0:0:
188,211,247064,1,8,0:0:0:0:
379,183,247237,1,0,0:0:0:0:
379,183,247324,1,0,0:0:0:0:
379,183,247410,6,0,P|422:163|447:234,1,134.999996423721,0|8,0:0|0:3,0:0:0:0:
420,328,248099,5,4,1:0:0:0:
308,288,248272,2,0,L|292:180,2,89.9999976158143,0|2|0,0:0|0:0|0:0,0:0:0:0:
420,328,248789,1,8,0:1:0:0:
376,176,248961,1,0,0:0:0:0:
294,198,249134,1,2,0:0:0:0:
456,152,249306,1,2,0:0:0:0:
272,276,249479,6,0,P|228:244|212:196,1,89.9999976158143,0|0,1:0|0:0,0:0:0:0:
324,64,249824,1,2,0:0:0:0:
176,120,249996,1,2,0:0:0:0:
272,4,250168,6,0,L|284:148,1,135.000001573563,8|2,0:1|0:0,0:0:0:0:
283,138,250858,5,0,1:0:0:0:
156,96,251030,1,0,0:0:0:0:
224,232,251203,1,2,0:0:0:0:
224,232,251375,1,0,0:0:0:0:
144,316,251548,2,0,P|136:264|152:224,1,89.9999976158143,8|0,0:1|0:0,0:0:0:0:
252,312,251892,1,2,0:0:0:0:
340,248,252065,1,2,0:0:0:0:
304,380,252237,5,0,1:0:0:0:
444,348,252410,1,0,0:0:0:0:
344,236,252582,1,2,0:0:0:0:
452,132,252755,1,2,0:0:0:0:
392,292,252927,6,0,L|264:280,1,101.250001180172,8|0,0:1|0:0,0:0:0:0:
272,268,253272,6,0,P|296:228|208:240,1,168.749995529652,4|0,1:0|0:0,0:0:0:0:
192,200,253617,5,4,1:0:0:0:
132,108,253789,1,0,0:0:0:0:
124,88,253875,1,0,0:0:0:0:
116,68,253961,1,2,0:0:0:0:
224,16,254134,1,0,0:0:0:0:
140,128,254306,1,8,0:1:0:0:
4,64,254479,1,0,0:0:0:0:
148,148,254651,1,2,0:0:0:0:
0,144,254824,1,2,0:0:0:0:
156,172,254996,6,0,P|204:172|260:192,1,89.9999976158143,0|0,1:0|0:0,0:0:0:0:
344,276,255341,1,2,0:0:0:0:
448,188,255513,1,2,0:0:0:0:
348,56,255686,6,0,L|364:200,1,135.000001573563,8|2,0:1|0:0,0:0:0:0:
362,190,256375,5,0,1:0:0:0:
362,190,256720,1,2,0:0:0:0:
264,312,256892,1,0,0:0:0:0:
284,304,256979,1,0,0:0:0:0:
304,296,257065,1,8,0:1:0:0:
436,272,257237,1,2,0:0:0:0:
360,368,257410,1,2,0:0:0:0:
284,200,257582,1,2,0:0:0:0:
424,120,257755,6,0,P|379:123|324:112,1,89.9999976158143,0|0,1:0|0:0,0:0:0:0:
204,176,258099,1,2,0:0:0:0:
164,72,258272,1,2,0:0:0:0:
248,0,258444,6,0,P|300:0|352:24,1,101.250001180172,8|0,0:1|0:0,0:0:0:0:
356,36,258789,1,0,1:0:0:0:
164,72,258961,1,0,1:0:0:0:
308,260,259134,6,0,L|280:76,1,168.749995529652,4|0,1:0|0:0,0:0:0:0:
292,80,259479,6,0,L|392:88,1,89.9999976158143,2|0,0:0|0:0,0:0:0:0:
456,172,259824,1,8,0:1:0:0:
472,48,259996,1,0,0:0:0:0:
360,168,260168,1,2,0:0:0:0:
432,268,260341,1,2,0:0:0:0:
340,332,260513,6,0,L|248:324,1,89.9999976158143,0|0,1:0|0:0,0:0:0:0:
176,200,260858,1,2,0:0:0:0:
296,200,261030,1,2,0:0:0:0:
136,268,261203,6,0,L|116:108,1,135.000001573563,8|2,0:1|0:0,0:0:0:0:
119,134,261892,5,4,1:0:0:0:
240,172,262065,1,0,0:0:0:0:
204,40,262237,1,2,0:0:0:0:
204,40,262410,1,0,0:0:0:0:
192,220,262582,2,0,L|296:208,1,89.9999976158143,8|0,0:1|0:0,0:0:0:0:
392,288,262927,1,2,0:0:0:0:
292,220,263099,1,2,0:0:0:0:
432,144,263272,5,0,1:0:0:0:
384,272,263444,1,0,0:0:0:0:
308,104,263617,1,2,0:0:0:0:
444,148,263789,1,2,0:0:0:0:
308,124,263961,6,0,L|292:4,1,101.250001180172,8|0,0:1|0:0,0:0:0:0:
276,40,264306,6,0,P|228:88|188:4,1,168.749995529652,4|0,1:0|0:0,0:0:0:0:
164,12,264651,5,4,1:0:0:0:
64,124,264824,1,0,0:0:0:0:
64,16,264996,1,2,0:0:0:0:
148,180,265168,1,0,0:0:0:0:
256,104,265341,1,8,0:1:0:0:
256,104,265513,1,0,0:0:0:0:
228,268,265686,1,2,0:0:0:0:
228,268,265858,1,2,0:0:0:0:
368,200,266030,6,0,P|320:192|264:200,1,89.9999976158143,0|0,1:0|0:0,0:0:0:0:
360,280,266375,1,2,0:0:0:0:
388,116,266548,1,2,0:0:0:0:
232,100,266720,2,0,L|142:88,1,89.9999976158143,8|0,0:1|0:0,0:0:0:0:
2,180,267065,2,0,L|92:192,1,89.9999976158143,2|0,0:0|0:0,0:0:0:0:
196,296,267410,5,0,1:0:0:0:
196,296,267755,1,0,0:0:0:0:
312,204,267927,1,0,0:0:0:0:
304,224,268013,1,0,0:0:0:0:
296,244,268099,1,8,0:1:0:0:
432,216,268272,1,2,0:0:0:0:
288,264,268444,1,2,0:0:0:0:
440,196,268617,1,2,0:0:0:0:
280,284,268789,6,0,L|252:184,1,89.9999976158143,0|0,1:0|0:0,0:0:0:0:
384,60,269134,2,0,P|396:108|376:160,1,89.9999976158143,2|2,0:0|0:0,0:0:0:0:
488,152,269479,2,0,B|440:168|386:146|386:146|348:164|292:148,1,179.999995231629,8|0,0:1|1:3,0:0:0:0:
224,48,269996,1,0,1:3:0:0:
188,232,270168,5,4,1:0:0:0:
