osu file format v14

[General]
AudioFilename: tohoedm.mp3
AudioLeadIn: 1500
PreviewTime: 223795
Countdown: 0
SampleSet: Soft
StackLeniency: 0.4
Mode: 0
LetterboxInBreaks: 0
WidescreenStoryboard: 0

[Editor]
Bookmarks: 22776
DistanceSpacing: 1.3
BeatDivisor: 12
GridSize: 4
TimelineZoom: 2.5

[Metadata]
Title:Third Eye ya!
TitleUnicode:サードアイや!
Artist:IOSYS
ArtistUnicode:IOSYS
Creator:Kyubey
Version:Advanced
Source:東方Project
Tags:camellia touhou bonfire knife party satori komeiji seikatu lunarblossom reya ryuu 少女さとり 〜 3rd eye nothing but the toho edm ココ Innocent Key 七条レタス かめりあ maiden Lettuce Shichijou D.watt Eyer! 東方地霊殿 ~ Subterranean Animism アレンジ かめりあ
BeatmapID:966513
BeatmapSetID:239584

[Difficulty]
HPDrainRate:4
CircleSize:3.7
OverallDifficulty:5
ApproachRate:6
SliderMultiplier:2.39999990463257
SliderTickRate:2

[Events]
//Background and Video events
0,0,"bg.jpg",0,0
//Break Periods
2,133321,143106
2,152631,156901
//Storyboard Layer 0 (Background)
//Storyboard Layer 1 (Fail)
//Storyboard Layer 2 (Pass)
//Storyboard Layer 3 (Foreground)
//Storyboard Sound Samples

[TimingPoints]
708,689.655172413793,4,2,1,50,1,0
44845,-100,4,2,2,40,0,0
55880,-100,4,2,2,50,0,0
61397,-100,4,1,2,50,0,0
66570,-100,4,1,1,50,0,0
66914,-90.9090909090909,4,2,1,60,0,1
69673,-111.111111111111,4,2,1,60,0,1
70363,-90.9090909090909,4,2,1,60,0,1
75190,-100,4,2,2,60,0,0
77949,-90.9090909090909,4,2,1,60,0,1
80708,-111.111111111111,4,2,1,60,0,1
81397,-90.9090909090909,4,2,1,60,0,1
86225,-100,4,2,2,60,0,0
88983,-100,4,2,1,60,0,0
108294,-100,4,2,2,50,0,0
111052,-90.9090909090909,4,2,1,60,0,1
113811,-111.111111111111,4,2,1,60,0,1
114501,-90.9090909090909,4,2,1,60,0,1
119328,-100,4,2,2,60,0,0
122087,-90.9090909090909,4,2,1,60,0,1
124845,-111.111111111111,4,2,1,60,0,1
125535,-90.9090909090909,4,2,1,60,0,1
130363,-100,4,2,2,60,0,0
133121,-100,4,2,2,40,0,0
144156,-142.857142857143,4,2,2,30,0,0
157951,468.75,4,2,1,40,1,0
157951,-153.846153846153,4,2,1,40,0,0
159824,689.655172413793,4,2,2,40,1,0
166720,-100,4,2,2,45,0,0
168099,-100,4,2,2,50,0,0
169479,-100,4,2,2,55,0,0
170858,-100,4,2,2,60,0,0
176375,-100,4,1,2,60,0,0
181548,-100,4,1,1,60,0,0
181892,-90.9090909090909,4,2,1,60,0,1
184651,-111.111111111111,4,2,1,60,0,1
185341,-90.9090909090909,4,2,1,60,0,1
190168,-100,4,2,2,60,0,0
192927,-90.9090909090909,4,2,1,60,0,1
195686,-111.111111111111,4,2,1,60,0,1
196375,-90.9090909090909,4,2,1,60,0,1
201203,-100,4,2,2,60,0,0
203272,-100,4,2,1,60,0,0
223272,-100,4,2,2,50,0,0
226030,-90.9090909090909,4,2,1,60,0,1
228789,-111.111111111111,4,2,1,60,0,1
229479,-90.9090909090909,4,2,1,60,0,1
234306,-100,4,2,2,60,0,0
237065,-90.9090909090909,4,2,1,60,0,1
239824,-111.111111111111,4,2,1,60,0,1
240513,-90.9090909090909,4,2,1,60,0,1
245341,-100,4,2,2,60,0,0
247410,-100,4,2,1,60,0,0

[Colours]
Combo1 : 17,254,176
Combo2 : 173,255,95
Combo3 : 255,88,100
Combo4 : 255,94,55

[HitObjects]
196,92,22087,6,0,P|220:212|228:208,1,179.999992847443,8|0,2:0|0:0,0:0:0:0:
244,256,22776,6,0,P|288:244|376:252,1,119.999995231629,4|2,1:0|0:0,0:0:0:0:
436,224,23294,1,0,0:0:0:0:
408,152,23466,2,0,L|400:40,1,59.9999976158143,8|0,0:0|0:0,0:0:0:0:
384,16,23811,2,0,L|272:24,1,59.9999976158143,2|2,0:0|0:0,0:0:0:0:
251,54,24156,2,0,P|279:102|239:174,1,119.999995231629,0|2,1:0|0:0,0:0:0:0:
184,140,24673,1,2,0:0:0:0:
108,120,24845,2,0,P|88:174|116:225,1,119.999995231629,8|2,0:0|0:0,0:0:0:0:
48,364,25535,6,0,L|172:352,1,119.999995231629,0|2,1:0|0:0,0:0:0:0:
244,364,26052,1,0,0:0:0:0:
316,336,26225,2,0,P|319:301|320:264,1,59.9999976158143,8|0,0:0|0:0,0:0:0:0:
392,248,26570,2,0,P|389:213|382:176,1,59.9999976158143,2|2,0:0|0:0,0:0:0:0:
440,132,26914,1,0,1:0:0:0:
328,24,27259,2,0,L|316:120,1,59.9999976158143,2|2,0:0|0:0,0:0:0:0:
312,160,27604,2,0,P|252:152|188:164,1,119.999995231629,8|2,0:0|0:0,0:0:0:0:
84,272,28294,5,0,1:0:0:0:
16,232,28466,2,0,L|4:196,2,29.9999988079071,0|0|2,0:0|0:0|0:0,0:0:0:0:
16,312,28811,1,0,0:0:0:0:
84,352,28983,2,0,L|160:348,1,59.9999976158143,8|0,0:0|0:0,0:0:0:0:
216,376,29328,2,0,L|292:372,1,59.9999976158143,2|2,0:0|0:0,0:0:0:0:
352,380,29673,2,0,P|372:324|324:244,1,119.999995231629,0|2,1:0|0:0,0:0:0:0:
296,216,30190,1,2,0:0:0:0:
352,160,30363,2,0,P|370:104|350:48,1,119.999995231629,8|2,0:0|0:0,0:0:0:0:
196,20,31052,5,0,1:0:0:0:
196,20,31397,2,0,L|208:112,1,59.9999976158143,2|0,0:0|0:0,0:0:0:0:
244,144,31742,2,0,P|184:128|108:156,1,119.999995231629,10|2,0:0|0:0,0:0:0:0:
80,204,32259,1,2,0:0:0:0:
76,284,32432,2,0,P|79:322|96:372,1,59.9999976158143,0|0,1:0|0:0,0:0:0:0:
160,364,32776,1,2,0:0:0:0:
232,336,32949,1,2,0:0:0:0:
308,352,33121,2,0,P|376:320|480:356,1,179.999992847443,8|0,0:0|0:0,0:0:0:0:
444,276,33811,6,0,P|428:232|444:144,1,119.999995231629,4|2,1:0|0:0,0:0:0:0:
476,92,34328,1,0,0:0:0:0:
396,96,34501,2,0,L|312:108,1,59.9999976158143,8|0,0:0|0:0,0:0:0:0:
264,72,34845,2,0,L|180:84,1,59.9999976158143,2|2,0:0|0:0,0:0:0:0:
136,44,35190,2,0,P|116:92|160:176,1,119.999995231629,0|2,1:0|0:0,0:0:0:0:
208,188,35707,1,2,0:0:0:0:
280,224,35880,2,0,P|299:279|278:334,1,119.999995231629,8|2,0:0|0:0,0:0:0:0:
124,364,36570,6,0,L|88:220,1,119.999995231629,4|2,1:0|0:0,0:0:0:0:
56,180,37087,1,0,0:0:0:0:
44,104,37259,2,0,P|47:68|44:28,1,59.9999976158143,8|0,0:0|0:0,0:0:0:0:
120,12,37604,2,0,P|124:47|137:86,1,59.9999976158143,2|2,0:0|0:0,0:0:0:0:
204,100,37949,1,0,1:0:0:0:
324,196,38294,2,0,L|248:188,1,59.9999976158143,2|2,0:0|0:0,0:0:0:0:
284,116,38639,2,0,P|344:109|396:144,1,119.999995231629,8|2,0:0|0:0,0:0:0:0:
444,288,39328,6,0,L|352:276,1,59.9999976158143,4|0,1:0|0:0,0:0:0:0:
328,332,39673,2,0,L|268:339,1,59.9999976158143,2|0,0:0|0:0,0:0:0:0:
192,324,40018,2,0,L|176:248,1,59.9999976158143,8|0,0:0|0:0,0:0:0:0:
248,228,40363,2,0,L|264:152,1,59.9999976158143,2|2,0:0|0:0,0:0:0:0:
324,124,40707,2,0,P|264:136|184:124,1,119.999995231629,0|2,1:0|0:0,0:0:0:0:
144,80,41225,1,2,0:0:0:0:
136,156,41397,2,0,L|156:304,1,119.999995231629,8|2,0:0|0:0,0:0:0:0:
300,324,42087,5,0,1:0:0:0:
300,324,42432,2,0,L|380:328,1,59.9999976158143,2|0,0:0|0:0,0:0:0:0:
428,364,42776,2,0,P|416:308|432:232,1,119.999995231629,10|2,0:0|0:0,0:0:0:0:
480,188,43294,1,2,0:0:0:0:
484,112,43466,2,0,P|480:72|464:32,1,59.9999976158143,0|0,1:0|0:0,0:0:0:0:
404,92,43811,1,2,0:0:0:0:
328,92,43983,1,2,0:0:0:0:
260,52,44156,2,0,P|204:16|112:96,1,179.999992847443,8|0,0:0|0:0,0:0:0:0:
96,144,44845,5,4,1:0:0:0:
96,144,45190,1,8,0:0:0:0:
40,288,45535,1,0,1:0:0:0:
40,288,45880,1,8,0:0:0:0:
180,360,46225,1,0,1:0:0:0:
180,360,46570,2,0,L|264:340,1,59.9999976158143,8|8,0:0|0:0,0:0:0:0:
300,296,46914,2,0,L|358:309,2,59.9999976158143,0|4|8,1:0|0:1|0:0,0:0:0:0:
268,224,47432,1,0,1:0:0:0:
300,152,47604,5,4,1:0:0:0:
300,152,47949,1,8,0:0:0:0:
452,184,48294,1,0,1:0:0:0:
452,184,48639,1,8,0:0:0:0:
472,28,48983,1,0,1:0:0:0:
472,28,49328,1,8,0:0:0:0:
404,64,49501,1,8,0:0:0:0:
332,40,49673,1,0,1:0:0:0:
200,120,50018,1,8,0:0:0:0:
76,24,50363,5,4,1:0:0:0:
76,24,50707,1,8,0:0:0:0:
20,172,51052,1,0,1:0:0:0:
20,172,51397,1,8,0:0:0:0:
76,320,51742,1,0,1:0:0:0:
76,320,52087,2,0,L|176:308,1,59.9999976158143,8|8,0:0|0:0,0:0:0:0:
188,256,52432,2,0,L|168:168,2,59.9999976158143,0|4|8,1:0|0:1|0:0,0:0:0:0:
208,332,52949,1,0,1:0:0:0:
284,356,53121,5,4,1:0:0:0:
284,356,53466,1,8,0:0:0:0:
312,204,53811,1,0,1:0:0:0:
312,204,54156,1,8,0:0:0:0:
416,320,54501,1,0,1:0:0:0:
416,320,54845,1,8,0:0:0:0:
448,248,55018,1,8,0:0:0:0:
436,172,55190,1,0,1:0:0:0:
492,28,55535,1,8,0:0:0:0:
344,76,55880,6,0,L|256:88,1,59.9999976158143,4|0,1:0|0:0,0:0:0:0:
264,160,56225,2,0,L|176:172,1,59.9999976158143,8|0,1:2|0:0,0:0:0:0:
140,124,56570,1,0,1:0:0:0:
140,124,56742,1,0,1:0:0:0:
132,48,56914,1,8,0:0:0:0:
132,48,57087,1,0,1:0:0:0:
56,48,57259,6,0,P|60:75|56:124,1,59.9999976158143,4|0,1:0|0:0,0:0:0:0:
20,176,57604,2,0,P|15:203|20:252,1,59.9999976158143,8|0,1:2|0:0,0:0:0:0:
60,300,57949,1,0,1:0:0:0:
136,300,58121,1,0,1:0:0:0:
208,332,58294,2,0,P|240:328|308:340,1,59.9999976158143,8|0,1:2|1:0,0:0:0:0:
344,344,58639,6,0,L|364:268,1,59.9999976158143,4|0,1:0|0:0,0:0:0:0:
432,260,58983,2,0,L|452:184,1,59.9999976158143,8|0,1:2|0:0,0:0:0:0:
372,176,59328,1,0,1:0:0:0:
372,176,59501,1,0,1:0:0:0:
296,192,59673,1,8,1:2:0:0:
296,192,59845,1,0,1:0:0:0:
220,212,60018,6,0,P|206:182|196:144,1,59.9999976158143,4|0,1:0|0:0,0:0:0:0:
124,136,60363,2,0,P|95:150|56:162,1,59.9999976158143,8|0,1:2|0:0,0:0:0:0:
12,104,60707,1,0,1:0:0:0:
32,28,60880,1,0,1:0:0:0:
108,8,61052,2,0,L|188:16,1,59.9999976158143,8|0,1:2|1:0,0:0:0:0:
232,56,61397,5,4,0:0:0:0:
308,36,61570,2,0,L|344:28,2,29.9999988079071,8|0|0,0:2|0:0|0:0,0:0:0:0:
288,112,61914,1,8,0:2:0:0:
344,168,62087,2,0,L|336:256,1,59.9999976158143,0|8,0:0|0:2,0:0:0:0:
412,252,62432,2,0,L|404:340,1,59.9999976158143,0|8,0:0|0:2,0:0:0:0:
348,364,62776,5,4,0:0:0:0:
268,364,62949,2,0,L|236:368,2,29.9999988079071,8|0|0,0:2|0:0|0:0,0:0:0:0:
308,296,63294,1,8,0:2:0:0:
264,232,63466,2,0,L|180:246,1,59.9999976158143,0|8,0:0|0:2,0:0:0:0:
156,180,63811,2,0,L|72:194,1,59.9999976158143,0|8,0:0|0:2,0:0:0:0:
256,192,64156,12,0,65535,0:0:0:0:
280,20,66570,5,8,0:0:0:0:
400,64,66914,6,0,B|380:148|380:148|320:196|320:196|294:293,1,263.999997566223,4|8,1:0|0:1,0:0:0:0:
356,356,67776,1,2,0:1:0:0:
272,376,67949,2,0,L|204:364,1,65.9999993915558,2|2,0:1|0:1,0:0:0:0:
120,364,68294,2,0,P|144:288|104:212,1,131.999998783112,0|2,1:0|0:0,0:0:0:0:
32,96,68983,2,0,P|8:172|48:248,1,131.999998783112,8|4,0:1|0:0,0:0:0:0:
192,196,69673,6,0,P|296:168|408:200,1,215.999984825135,0|8,1:0|0:1,0:0:0:0:
476,156,70535,1,2,0:1:0:0:
496,240,70708,2,0,L|480:320,1,65.9999993915558,2|2,0:1|0:1,0:0:0:0:
420,360,71052,2,0,P|356:348|280:360,1,131.999998783112,0|2,1:0|0:0,0:0:0:0:
204,372,71570,1,2,0:0:0:0:
236,292,71742,2,0,P|312:308|352:212,1,197.999998174667,8|0,0:1|0:0,0:0:0:0:
292,152,72432,6,0,P|288:116|296:64,1,65.9999993915558,0|2,1:3|0:3,0:0:0:0:
368,48,72776,2,0,P|372:84|364:136,1,65.9999993915558,2|2,0:3|0:3,0:0:0:0:
292,152,73121,1,10,0:1:0:0:
212,124,73294,1,2,0:1:0:0:
132,152,73466,2,0,L|64:168,1,65.9999993915558,2|2,0:1|0:1,0:0:0:0:
16,236,73811,1,0,1:0:0:0:
56,312,73983,2,0,L|36:384,2,65.9999993915558,2|0|2,0:1|0:0|0:1,0:0:0:0:
140,284,74501,2,0,P|204:296|280:280,1,131.999998783112,8|2,0:1|0:3,0:0:0:0:
400,196,75190,5,0,1:0:0:0:
400,196,75535,1,0,1:0:0:0:
504,312,75880,2,0,P|448:304|384:316,1,119.999995231629,8|0,0:0|0:0,0:0:0:0:
320,356,76397,2,0,P|264:364|200:352,1,119.999995231629,8|0,0:0|0:0,0:0:0:0:
148,296,76914,1,8,0:0:0:0:
240,172,77259,1,0,0:0:0:0:
144,48,77604,1,8,0:0:0:0:
28,176,77949,6,0,B|92:204|144:168|144:168|168:192|168:192|224:152|284:184,1,263.999997566223,4|8,1:0|0:1,0:0:0:0:
328,240,78811,1,2,0:1:0:0:
400,192,78983,2,0,P|404:156|400:100,1,65.9999993915558,2|2,0:1|0:1,0:0:0:0:
468,68,79328,2,0,L|328:96,1,131.999998783112,0|2,1:0|0:0,0:0:0:0:
188,176,80018,2,0,L|328:204,1,131.999998783112,8|4,0:1|0:0,0:0:0:0:
432,288,80708,6,0,L|219:328,1,215.999984825135,0|8,1:0|0:1,0:0:0:0:
140,364,81570,1,2,0:1:0:0:
72,312,81742,2,0,L|52:224,1,65.9999993915558,2|2,0:1|0:1,0:0:0:0:
96,172,82087,2,0,P|160:192|244:152,1,131.999998783112,0|2,1:0|0:0,0:0:0:0:
280,112,82604,1,2,0:0:0:0:
364,116,82776,2,0,P|308:160|412:200,1,197.999998174667,8|0,0:1|0:0,0:0:0:0:
464,192,83466,6,0,L|448:292,1,65.9999993915558,0|2,1:0|0:3,0:0:0:0:
384,304,83811,2,0,L|368:404,1,65.9999993915558,2|2,0:3|0:3,0:0:0:0:
288,356,84156,1,10,0:1:0:0:
204,332,84328,1,2,0:1:0:0:
124,304,84501,2,0,P|117:267|128:224,1,65.9999993915558,2|2,0:1|0:1,0:0:0:0:
176,176,84845,1,0,1:0:0:0:
168,92,85018,2,0,L|160:16,2,65.9999993915558,2|0|2,0:1|0:1|0:1,0:0:0:0:
248,119,85535,2,0,P|267:185|215:257,1,131.999998783112,8|2,0:1|0:3,0:0:0:0:
128,348,86225,5,0,1:0:0:0:
128,348,86570,1,0,1:0:0:0:
284,352,86914,2,0,P|352:360|432:336,1,119.999995231629,8|0,0:0|0:0,0:0:0:0:
480,356,87432,2,0,P|468:296|480:216,1,119.999995231629,8|0,0:0|0:0,0:0:0:0:
500,164,87949,1,8,0:0:0:0:
396,48,88294,1,0,0:0:0:0:
352,196,88639,1,8,0:3:0:0:
408,340,88983,6,0,P|349:342|272:356,1,119.999995231629,4|2,1:0|0:0,0:0:0:0:
212,376,89501,1,0,0:0:0:0:
148,328,89673,2,0,L|128:264,1,59.9999976158143,8|0,0:1|0:0,0:0:0:0:
60,236,90018,2,0,L|77:178,1,59.9999976158143,2|2,0:0|0:0,0:0:0:0:
140,132,90363,2,0,P|71:136|0:116,1,119.999995231629,0|2,1:0|0:0,0:0:0:0:
32,48,90880,1,2,0:0:0:0:
108,32,91052,2,0,P|166:43|226:38,1,119.999995231629,8|2,0:1|0:0,0:0:0:0:
380,16,91742,5,0,1:0:0:0:
488,128,92087,1,2,0:0:0:0:
500,204,92259,1,0,0:0:0:0:
484,280,92432,2,0,L|408:268,1,59.9999976158143,8|0,0:1|0:0,0:0:0:0:
364,320,92776,2,0,L|304:329,1,59.9999976158143,2|2,0:0|0:0,0:0:0:0:
232,360,93121,2,0,P|248:304|208:236,1,119.999995231629,0|2,1:0|0:0,0:0:0:0:
148,240,93639,1,2,0:0:0:0:
120,168,93811,1,8,0:1:0:0:
228,56,94156,2,0,L|152:48,1,59.9999976158143,4|0,1:0|0:0,0:0:0:0:
92,32,94501,5,4,1:0:0:0:
36,84,94673,2,0,L|-8:92,2,29.9999988079071,0|0|2,0:0|0:0|0:0,0:0:0:0:
112,108,95018,1,0,0:0:0:0:
132,184,95190,2,0,P|127:210|116:252,1,59.9999976158143,8|0,0:1|0:0,0:0:0:0:
196,264,95535,2,0,P|181:286|154:320,1,59.9999976158143,2|2,0:0|0:0,0:0:0:0:
216,368,95880,2,0,P|268:359|360:364,1,119.999995231629,0|2,1:0|0:0,0:0:0:0:
404,320,96397,1,2,0:0:0:0:
484,328,96570,2,0,P|492:264|476:192,1,119.999995231629,8|2,0:1|0:0,0:0:0:0:
492,52,97259,5,0,1:0:0:0:
492,52,97604,2,0,L|384:64,1,59.9999976158143,2|0,0:0|0:0,0:0:0:0:
392,128,97949,2,0,L|224:108,1,119.999995231629,8|2,0:1|0:0,0:0:0:0:
208,68,98466,1,2,0:0:0:0:
204,148,98639,2,0,P|210:178|208:228,1,59.9999976158143,0|0,1:0|0:0,0:0:0:0:
256,272,98983,2,0,L|340:292,1,59.9999976158143,2|2,0:0|0:0,0:0:0:0:
292,360,99328,2,0,P|231:364|171:320,1,119.999995231629,8|0,0:1|1:0,0:0:0:0:
108,316,99845,1,0,1:0:0:0:
36,348,100018,6,0,L|20:196,1,119.999995231629,4|2,1:0|0:0,0:0:0:0:
68,164,100535,1,0,0:0:0:0:
140,136,100708,2,0,L|148:76,1,59.9999976158143,8|0,0:1|0:0,0:0:0:0:
216,36,101052,2,0,L|224:96,1,59.9999976158143,2|2,0:0|0:0,0:0:0:0:
216,172,101397,2,0,P|272:168|340:172,1,119.999995231629,0|2,1:0|0:0,0:0:0:0:
408,144,101914,1,2,0:0:0:0:
480,172,102087,2,0,P|472:233|496:320,1,119.999995231629,8|2,0:1|0:0,0:0:0:0:
344,360,102776,6,0,L|240:352,1,59.9999976158143,4|0,1:0|0:0,0:0:0:0:
224,304,103121,2,0,L|164:308,1,59.9999976158143,2|0,0:0|0:0,0:0:0:0:
96,348,103466,2,0,P|113:284|88:200,1,119.999995231629,8|2,0:1|0:0,0:0:0:0:
72,160,103983,1,2,0:0:0:0:
136,112,104156,2,0,L|216:120,1,59.9999976158143,0|0,1:0|0:0,0:0:0:0:
228,188,104501,2,0,L|287:182,1,59.9999976158143,2|2,0:0|0:0,0:0:0:0:
360,156,104845,1,8,0:1:0:0:
496,228,105190,2,0,L|504:300,1,59.9999976158143,4|0,1:0|0:0,0:0:0:0:
492,364,105535,6,0,P|446:353|348:364,1,119.999995231629,4|2,1:0|0:0,0:0:0:0:
296,368,106052,1,0,0:0:0:0:
224,332,106225,2,0,L|216:264,1,59.9999976158143,8|0,0:1|0:0,0:0:0:0:
140,280,106570,2,0,L|148:212,1,59.9999976158143,2|2,0:0|0:0,0:0:0:0:
76,192,106914,2,0,L|116:136,1,59.9999976158143,0|0,1:0|0:0,0:0:0:0:
184,112,107259,1,2,0:0:0:0:
260,128,107432,1,2,0:0:0:0:
336,108,107604,2,0,P|356:52|304:16,1,119.999995231629,8|2,0:1|0:0,0:0:0:0:
160,36,108294,5,0,1:0:0:0:
12,88,108639,1,0,1:0:0:0:
160,36,108983,2,0,L|152:104,1,59.9999976158143,10|2,0:0|0:0,0:0:0:0:
200,156,109328,2,0,L|192:224,1,59.9999976158143,2|10,0:0|0:0,0:0:0:0:
148,280,109673,1,0,0:0:0:0:
304,288,110018,2,0,P|334:284|392:288,1,59.9999976158143,10|2,0:0|0:0,0:0:0:0:
440,308,110363,2,0,P|468:244|400:136,1,179.999992847443,0|8,0:0|0:3,0:0:0:0:
348,108,111052,6,0,B|296:136|244:100|244:100|206:111|188:128|188:128|186:75|136:48,1,263.999997566223,4|8,1:0|0:1,0:0:0:0:
60,52,111914,1,2,0:1:0:0:
0,116,112087,2,0,P|8:156|44:196,1,65.9999993915558,2|2,0:1|0:1,0:0:0:0:
40,260,112432,2,0,P|103:252|204:264,1,131.999998783112,0|2,1:0|0:0,0:0:0:0:
316,348,113121,2,0,P|252:340|152:352,1,131.999998783112,8|4,0:1|0:0,0:0:0:0:
304,248,113811,6,0,P|372:192|276:152,1,215.999984825135,0|8,1:0|0:1,0:0:0:0:
228,200,114673,1,2,0:1:0:0:
164,144,114845,2,0,L|148:60,1,65.9999993915558,2|2,0:1|0:1,0:0:0:0:
84,24,115190,2,0,P|108:68|76:144,1,131.999998783112,0|2,1:0|0:0,0:0:0:0:
32,212,115708,1,2,0:0:0:0:
76,288,115880,2,0,P|144:256|264:284,1,197.999998174667,8|0,0:1|0:0,0:0:0:0:
328,336,116570,6,0,P|345:309|356:252,1,65.9999993915558,0|2,1:3|0:3,0:0:0:0:
428,232,116914,2,0,P|428:200|405:146,1,65.9999993915558,2|2,0:3|0:3,0:0:0:0:
352,116,117259,1,10,0:1:0:0:
268,132,117432,1,2,0:1:0:0:
184,116,117604,2,0,P|174:84|176:40,1,65.9999993915558,2|2,0:1|0:1,0:0:0:0:
104,4,117949,1,0,1:0:0:0:
28,44,118121,2,0,L|12:140,2,65.9999993915558,2|0|2,0:1|0:0|0:1,0:0:0:0:
96,96,118639,2,0,L|132:264,1,131.999998783112,8|2,0:1|0:3,0:0:0:0:
276,192,119328,5,0,1:0:0:0:
276,192,119673,1,0,1:0:0:0:
348,52,120018,2,0,P|288:68|216:60,1,119.999995231629,8|0,0:0|0:0,0:0:0:0:
200,136,120535,2,0,P|140:132|82:148,1,119.999995231629,8|0,0:0|0:0,0:0:0:0:
28,92,121052,1,8,0:0:0:0:
44,248,121397,1,0,0:0:0:0:
199,236,121742,1,8,0:0:0:0:
356,256,122087,6,0,B|344:168|344:168|404:112|404:112|387:-4,1,263.999997566223,4|8,1:0|0:1,0:0:0:0:
308,48,122949,1,2,0:1:0:0:
224,60,123121,2,0,P|188:61|140:56,1,65.9999993915558,2|2,0:1|0:1,0:0:0:0:
76,28,123466,2,0,L|104:200,1,131.999998783112,0|2,1:0|0:0,0:0:0:0:
168,316,124156,2,0,L|196:144,1,131.999998783112,8|4,0:1|0:0,0:0:0:0:
272,44,124845,6,0,P|320:112|280:272,1,215.999984825135,0|8,1:0|0:1,0:0:0:0:
256,308,125707,1,2,0:1:0:0:
340,316,125880,2,0,L|412:300,1,65.9999993915558,2|2,0:1|0:1,0:0:0:0:
484,332,126225,2,0,P|501:262|444:176,1,131.999998783112,0|2,1:0|0:0,0:0:0:0:
396,204,126742,1,2,0:0:0:0:
444,132,126914,2,0,B|369:125|369:125|341:104|341:104|229:96,1,197.999998174667,8|0,0:1|0:0,0:0:0:0:
244,184,127604,6,0,L|158:177,1,65.9999993915558,0|2,1:0|0:3,0:0:0:0:
160,264,127949,2,0,L|74:257,1,65.9999993915558,2|2,0:3|0:3,0:0:0:0:
48,188,128294,1,10,0:1:0:0:
36,104,128466,1,2,0:1:0:0:
24,20,128639,2,0,L|89:25,1,65.9999993915558,2|2,0:1|0:1,0:0:0:0:
160,72,128983,1,0,1:0:0:0:
220,136,129156,2,0,P|212:172|216:212,2,65.9999993915558,2|0|2,0:1|0:1|0:1,0:0:0:0:
292,88,129673,2,0,P|328:140|260:224,1,131.999998783112,8|2,0:1|0:3,0:0:0:0:
340,356,130363,5,0,1:0:0:0:
340,356,130707,1,0,1:0:0:0:
184,352,131052,2,0,P|118:347|52:360,1,119.999995231629,8|0,0:0|0:0,0:0:0:0:
32,284,131570,2,0,L|72:144,1,119.999995231629,8|0,0:0|0:0,0:0:0:0:
144,156,132087,1,8,0:0:0:0:
296,196,132432,1,0,0:0:0:0:
444,148,132776,1,8,0:3:0:0:
356,20,133121,5,4,1:0:0:0:
396,128,144156,6,0,P|316:108|224:144,1,167.999988197327,4|0,1:0|1:0,0:0:0:0:
200,236,145190,1,0,0:0:0:0:
100,188,145535,2,0,L|84:104,1,83.9999940986636,0|0,0:0|1:0,0:0:0:0:
16,188,146225,2,0,L|0:272,1,83.9999940986636,0|0,1:0|0:0,0:0:0:0:
64,360,146914,6,0,P|140:336|224:360,1,167.999988197327,0|0,1:0|1:0,0:0:0:0:
312,296,147949,1,0,0:0:0:0:
280,192,148294,2,0,L|184:208,1,83.9999940986636,0|0,0:0|1:0,0:0:0:0:
120,128,148983,2,0,L|202:114,1,83.9999940986636,0|0,1:0|0:0,0:0:0:0:
308,84,149673,6,0,P|384:104|468:64,1,167.999988197327,0|0,1:0|1:0,0:0:0:0:
496,172,150707,1,0,0:0:0:0:
416,244,151052,2,0,L|311:224,1,83.9999940986636,0|0,0:0|1:0,0:0:0:0:
248,300,151742,2,0,B|180:288|180:288|156:304|156:304|81:294,1,167.999988197327,0|4,1:0|0:1,0:0:0:0:
396,48,157951,5,0,1:0:0:0:
200,4,158419,1,0,1:0:0:0:
316,168,158888,1,0,1:0:0:0:
120,124,159357,2,0,P|80:124|28:144,1,77.9999933300022,0|0,1:0|0:0,0:0:0:0:
76,216,159824,5,4,1:0:0:0:
76,216,160168,1,8,0:0:0:0:
212,292,160513,1,0,1:0:0:0:
212,292,160857,1,8,0:0:0:0:
360,240,161203,1,0,1:0:0:0:
360,240,161548,2,0,L|372:172,1,59.9999976158143,8|8,0:0|0:0,0:0:0:0:
448,176,161892,2,0,P|432:116|452:40,1,119.999995231629,0|8,1:0|0:0,0:0:0:0:
381,9,162410,1,0,1:0:0:0:
316,52,162582,5,0,1:0:0:0:
316,52,162927,1,8,0:0:0:0:
160,28,163272,1,0,1:0:0:0:
160,28,163617,1,8,0:0:0:0:
144,184,163961,1,0,1:0:0:0:
144,184,164306,2,0,L|133:264,1,59.9999976158143,8|8,0:0|0:0,0:0:0:0:
76,296,164651,2,0,L|16:287,2,59.9999976158143,0|0|8,1:0|0:0|0:0,0:0:0:0:
152,320,165168,1,0,0:0:0:0:
228,304,165341,5,4,1:0:0:0:
228,304,165686,1,8,0:0:0:0:
372,360,166030,2,0,L|444:344,1,59.9999976158143,0|0,1:0|1:0,0:0:0:0:
412,272,166375,2,0,L|484:256,1,59.9999976158143,8|0,0:0|1:0,0:0:0:0:
492,184,166720,1,0,1:0:0:0:
492,184,167065,1,8,0:0:0:0:
416,48,167410,2,0,L|396:152,1,59.9999976158143,0|0,1:0|1:1,0:0:0:0:
328,88,167755,2,0,L|308:192,1,59.9999976158143,8|0,0:0|1:0,0:0:0:0:
240,156,168099,5,0,1:0:0:0:
240,156,168444,1,8,0:0:0:0:
92,208,168789,2,0,L|76:136,1,59.9999976158143,0|0,1:0|1:0,0:0:0:0:
136,96,169134,2,0,L|152:24,1,59.9999976158143,8|0,0:0|1:0,0:0:0:0:
72,36,169479,1,0,1:0:0:0:
72,36,169824,1,8,0:0:0:0:
152,168,170168,2,0,L|236:152,1,59.9999976158143,0|0,1:0|1:0,0:0:0:0:
276,116,170513,1,8,0:0:0:0:
352,140,170686,1,0,1:0:0:0:
364,216,170858,6,0,L|348:296,1,59.9999976158143,4|0,1:0|0:0,0:0:0:0:
280,248,171203,2,0,L|264:328,1,59.9999976158143,8|2,1:2|0:0,0:0:0:0:
196,336,171548,1,0,1:0:0:0:
196,336,171720,1,0,1:0:0:0:
124,308,171892,1,8,0:0:0:0:
124,308,172065,1,2,1:2:0:0:
52,336,172237,6,0,L|32:264,1,59.9999976158143,4|0,1:0|0:0,0:0:0:0:
92,224,172582,2,0,L|112:152,1,59.9999976158143,8|2,1:2|0:0,0:0:0:0:
68,100,172927,1,0,1:0:0:0:
68,100,173099,1,0,1:0:0:0:
140,72,173272,1,8,1:2:0:0:
140,72,173444,1,2,1:2:0:0:
216,48,173617,6,0,L|284:60,1,59.9999976158143,4|0,1:0|0:0,0:0:0:0:
296,132,173961,2,0,L|364:144,1,59.9999976158143,8|2,1:2|0:0,0:0:0:0:
432,144,174306,1,0,1:0:0:0:
432,144,174479,1,0,1:0:0:0:
392,212,174651,1,8,1:2:0:0:
392,212,174824,1,2,1:2:0:0:
432,280,174996,6,0,L|348:296,1,59.9999976158143,4|0,1:0|0:0,0:0:0:0:
324,352,175341,2,0,L|240:336,1,59.9999976158143,8|2,1:2|0:0,0:0:0:0:
192,312,175686,1,0,1:0:0:0:
180,236,175858,1,0,1:0:0:0:
220,168,176030,2,0,P|252:165|328:172,1,59.9999976158143,8|2,1:2|1:2,0:0:0:0:
356,188,176375,5,4,0:0:0:0:
336,112,176548,2,0,L|328:80,2,29.9999988079071,8|0|0,0:2|0:0|0:0,0:0:0:0:
412,136,176892,1,8,0:2:0:0:
476,184,177065,2,0,L|497:254,1,59.9999976158143,0|8,0:0|0:2,0:0:0:0:
432,288,177410,2,0,L|453:358,1,59.9999976158143,0|8,0:0|0:2,0:0:0:0:
372,340,177755,5,4,0:0:0:0:
296,356,177927,2,0,L|264:372,2,29.9999988079071,8|0|0,0:2|0:0|0:0,0:0:0:0:
316,280,178272,1,8,0:2:0:0:
288,212,178444,2,0,L|204:248,1,59.9999976158143,0|8,0:0|0:2,0:0:0:0:
156,228,178789,2,0,L|72:264,1,59.9999976158143,0|8,0:0|0:2,0:0:0:0:
256,192,179134,12,0,180513,0:0:0:0:
424,248,181548,5,8,0:0:0:0:
320,340,181892,6,0,B|271:358|271:358|196:306|123:352|123:352|75:327,1,263.999997566223,4|8,1:0|0:1,0:0:0:0:
128,256,182755,1,2,0:1:0:0:
128,172,182927,2,0,P|129:137|120:88,1,65.9999993915558,2|2,0:1|0:1,0:0:0:0:
80,32,183272,2,0,P|144:52|236:48,1,131.999998783112,0|2,1:0|0:0,0:0:0:0:
332,172,183961,2,0,P|268:152|176:156,1,131.999998783112,8|4,0:1|0:0,0:0:0:0:
284,272,184651,6,0,P|392:288|474:215,1,215.999984825135,0|8,1:0|0:1,0:0:0:0:
412,152,185513,1,2,0:1:0:0:
476,96,185686,2,0,L|492:16,1,65.9999993915558,2|2,0:1|0:1,0:0:0:0:
404,28,186030,2,0,P|352:64|244:48,1,131.999998783112,0|2,1:0|0:0,0:0:0:0:
204,40,186548,1,2,0:0:0:0:
124,72,186720,2,0,P|84:132|176:200,1,197.999998174667,8|0,0:1|0:0,0:0:0:0:
248,180,187410,6,0,L|228:296,1,65.9999993915558,0|2,1:3|0:3,0:0:0:0:
316,276,187755,2,0,L|296:392,1,65.9999993915558,2|2,0:3|0:3,0:0:0:0:
220,352,188099,1,10,0:1:0:0:
136,360,188272,1,2,0:1:0:0:
52,368,188444,2,0,P|44:336|44:296,1,65.9999993915558,2|2,0:1|0:1,0:0:0:0:
120,268,188789,1,0,1:0:0:0:
108,184,188961,2,0,L|96:104,2,65.9999993915558,2|0|2,0:1|0:0|0:1,0:0:0:0:
184,140,189479,2,0,P|252:150|315:113,1,131.999998783112,8|2,0:1|0:3,0:0:0:0:
456,72,190168,5,0,1:0:0:0:
456,72,190513,1,0,1:0:0:0:
372,204,190858,2,0,P|356:260|384:336,1,119.999995231629,8|0,0:0|0:0,0:0:0:0:
432,368,191375,2,0,L|288:360,1,119.999995231629,8|0,0:0|0:0,0:0:0:0:
256,304,191892,1,8,0:0:0:0:
112,360,192237,1,0,0:0:0:0:
32,228,192582,1,8,0:0:0:0:
120,80,192927,6,0,B|136:128|120:172|120:172|160:188|160:188|152:260|220:308,1,263.999997566223,4|8,1:0|0:1,0:0:0:0:
292,276,193789,1,2,0:1:0:0:
344,344,193961,2,0,L|432:332,1,65.9999993915558,2|2,0:1|0:1,0:0:0:0:
492,356,194306,2,0,P|476:292|468:212,1,131.999998783112,0|2,1:0|0:0,0:0:0:0:
380,76,194996,2,0,P|364:140|356:220,1,131.999998783112,8|4,0:1|0:0,0:0:0:0:
272,348,195686,6,0,P|248:248|276:112,1,215.999984825135,0|8,1:0|0:1,0:0:0:0:
268,52,196548,1,2,0:1:0:0:
184,32,196720,2,0,L|112:52,1,65.9999993915558,2|2,0:1|0:1,0:0:0:0:
52,104,197065,2,0,P|108:136|184:108,1,131.999998783112,0|2,1:0|0:0,0:0:0:0:
204,200,197582,1,2,0:0:0:0:
204,288,197755,2,0,P|128:268|12:312,1,197.999998174667,8|0,0:1|0:0,0:0:0:0:
8,220,198444,6,0,L|4:136,1,65.9999993915558,0|2,1:0|0:3,0:0:0:0:
88,128,198789,2,0,L|84:44,1,65.9999993915558,2|2,0:3|0:3,0:0:0:0:
168,80,199134,1,10,0:1:0:0:
252,72,199306,1,2,0:1:0:0:
320,20,199479,2,0,L|400:28,1,65.9999993915558,2|2,0:1|0:1,0:0:0:0:
452,80,199824,1,0,1:0:0:0:
432,164,199996,2,0,P|400:149|376:120,2,65.9999993915558,2|0|2,0:1|0:1|0:1,0:0:0:0:
480,236,200513,2,0,P|453:294|477:354,1,131.999998783112,8|2,0:1|0:3,0:0:0:0:
320,360,201203,5,0,1:0:0:0:
320,360,201548,1,0,1:0:0:0:
164,372,201892,2,0,L|140:248,1,119.999995231629,8|0,0:0|0:0,0:0:0:0:
64,272,202410,2,0,P|59:205|40:148,1,119.999995231629,8|0,0:0|0:0,0:0:0:0:
88,92,202927,1,8,0:0:0:0:
232,152,203272,1,0,0:0:0:0:
372,80,203617,1,0,0:0:0:0:
476,196,203961,6,0,P|460:252|488:324,1,119.999995231629,4|2,1:0|0:0,0:0:0:0:
420,364,204479,1,0,0:0:0:0:
344,352,204651,2,0,P|306:350|264:352,1,59.9999976158143,8|0,0:1|0:0,0:0:0:0:
240,284,204996,2,0,P|206:302|171:325,1,59.9999976158143,2|2,0:0|0:0,0:0:0:0:
128,360,205341,2,0,P|132:300|100:232,1,119.999995231629,0|2,1:0|0:0,0:0:0:0:
20,120,206030,2,0,L|172:132,1,119.999995231629,8|0,0:1|0:0,0:0:0:0:
292,92,206720,5,0,1:0:0:0:
440,40,207065,1,2,0:0:0:0:
464,112,207237,1,0,0:0:0:0:
444,188,207410,2,0,L|376:184,1,59.9999976158143,8|0,0:1|0:0,0:0:0:0:
360,260,207755,2,0,L|292:266,1,59.9999976158143,2|2,0:0|0:0,0:0:0:0:
280,340,208099,2,0,P|220:328|128:364,1,119.999995231629,0|2,1:0|0:0,0:0:0:0:
84,336,208617,1,2,0:0:0:0:
48,268,208789,1,8,0:1:0:0:
40,112,209134,2,0,L|144:104,1,59.9999976158143,4|0,1:0|0:0,0:0:0:0:
156,52,209479,6,0,P|212:60|308:44,1,119.999995231629,0|2,1:0|0:0,0:0:0:0:
316,120,209996,1,0,0:0:0:0:
392,108,210168,2,0,L|480:80,1,59.9999976158143,8|0,0:1|0:0,0:0:0:0:
496,152,210513,2,0,P|492:188|496:236,1,59.9999976158143,2|2,0:0|0:0,0:0:0:0:
492,288,210858,2,0,P|432:272|344:284,1,119.999995231629,0|2,1:0|0:0,0:0:0:0:
232,344,211548,2,0,P|160:344|88:324,1,119.999995231629,8|0,0:1|0:0,0:0:0:0:
60,188,212237,5,0,1:0:0:0:
144,56,212582,2,0,L|152:128,1,59.9999976158143,2|0,0:0|0:0,0:0:0:0:
164,192,212927,2,0,P|224:168|316:192,1,119.999995231629,8|2,0:1|0:0,0:0:0:0:
352,192,213444,1,2,0:0:0:0:
404,132,213617,2,0,P|404:92|388:48,1,59.9999976158143,0|0,1:0|0:0,0:0:0:0:
336,24,213961,2,0,P|297:15|250:20,1,59.9999976158143,2|2,0:0|0:0,0:0:0:0:
224,72,214306,2,0,P|168:100|100:48,1,119.999995231629,8|0,0:1|1:0,0:0:0:0:
44,56,214824,1,0,1:0:0:0:
16,128,214996,6,0,L|32:280,1,119.999995231629,4|2,1:0|0:0,0:0:0:0:
20,324,215513,1,0,0:0:0:0:
84,368,215686,2,0,L|196:348,1,59.9999976158143,8|0,0:1|0:0,0:0:0:0:
220,372,216030,2,0,L|332:352,1,59.9999976158143,2|2,0:0|0:0,0:0:0:0:
356,364,216375,2,0,P|365:300|336:224,1,119.999995231629,0|2,1:0|0:0,0:0:0:0:
228,152,217065,2,0,P|218:215|248:292,1,119.999995231629,8|0,0:1|0:0,0:0:0:0:
356,172,217755,5,4,1:0:0:0:
440,40,218099,1,2,0:0:0:0:
364,60,218272,1,0,0:0:0:0:
292,28,218444,2,0,P|259:23|216:12,1,59.9999976158143,8|0,0:1|0:0,0:0:0:0:
184,80,218789,2,0,P|150:77|112:76,1,59.9999976158143,2|2,0:0|0:0,0:0:0:0:
52,108,219134,2,0,P|72:164|44:252,1,119.999995231629,0|2,1:0|0:0,0:0:0:0:
80,300,219651,1,2,0:0:0:0:
140,348,219824,1,8,0:1:0:0:
296,348,220168,2,0,L|396:332,1,59.9999976158143,4|0,1:0|0:0,0:0:0:0:
408,280,220513,6,0,P|420:212|384:136,1,119.999995231629,4|2,1:0|0:0,0:0:0:0:
396,88,221030,1,0,0:0:0:0:
336,136,221203,2,0,L|272:160,1,59.9999976158143,8|0,0:1|0:0,0:0:0:0:
212,120,221548,2,0,L|148:144,1,59.9999976158143,2|2,0:0|0:0,0:0:0:0:
100,192,221892,2,0,P|152:196|220:244,1,119.999995231629,0|2,1:0|0:0,0:0:0:0:
300,360,222582,2,0,L|440:336,1,119.999995231629,8|0,0:1|0:0,0:0:0:0:
484,196,223272,5,0,1:0:0:0:
448,44,223617,1,0,1:0:0:0:
484,196,223961,2,0,L|396:184,1,59.9999976158143,10|2,0:0|0:0,0:0:0:0:
352,216,224306,2,0,L|264:204,1,59.9999976158143,2|10,0:0|0:0,0:0:0:0:
228,164,224651,1,0,0:0:0:0:
112,60,224996,2,0,L|120:136,1,59.9999976158143,10|2,0:0|0:0,0:0:0:0:
76,188,225341,2,0,P|60:248|148:320,1,179.999992847443,0|8,0:0|0:3,0:0:0:0:
220,296,226030,6,0,B|276:283|320:300|320:300|344:288|344:288|408:320|488:288,1,263.999997566223,4|8,1:0|0:1,0:0:0:0:
460,208,226892,1,2,0:1:0:0:
468,124,227065,2,0,P|471:89|488:60,1,65.9999993915558,2|2,0:1|0:1,0:0:0:0:
408,28,227410,2,0,P|352:64|256:56,1,131.999998783112,0|2,1:0|0:0,0:0:0:0:
120,108,228099,2,0,P|176:144|272:136,1,131.999998783112,8|4,0:1|0:0,0:0:0:0:
360,252,228789,6,0,P|272:236|168:304,1,215.999984825135,0|8,1:0|0:1,0:0:0:0:
108,360,229651,1,2,0:1:0:0:
24,348,229824,2,0,P|15:314|16:272,1,65.9999993915558,2|2,0:1|0:1,0:0:0:0:
76,224,230168,2,0,P|80:156|48:92,1,131.999998783112,0|2,1:0|0:0,0:0:0:0:
72,16,230686,1,2,0:0:0:0:
156,32,230858,2,0,P|224:48|352:20,1,197.999998174667,8|0,0:1|0:0,0:0:0:0:
424,64,231548,6,0,L|408:152,1,65.9999993915558,0|2,1:3|0:3,0:0:0:0:
476,184,231892,2,0,L|460:272,1,65.9999993915558,2|2,0:3|0:3,0:0:0:0:
384,276,232237,1,10,0:1:0:0:
304,240,232410,1,2,0:1:0:0:
224,268,232582,2,0,L|148:284,1,65.9999993915558,2|2,0:1|0:1,0:0:0:0:
80,308,232927,1,0,1:0:0:0:
36,236,233099,2,0,P|33:200|40:160,2,65.9999993915558,2|0|2,0:1|0:0|0:1,0:0:0:0:
112,196,233617,2,0,P|107:131|51:90,1,131.999998783112,8|2,0:1|0:3,0:0:0:0:
208,44,234306,5,0,1:0:0:0:
208,44,234651,1,0,1:0:0:0:
364,56,234996,2,0,L|340:192,1,119.999995231629,8|0,0:0|0:0,0:0:0:0:
380,244,235513,2,0,P|320:232|256:252,1,119.999995231629,8|0,0:0|0:0,0:0:0:0:
192,272,236030,1,8,0:0:0:0:
72,176,236375,1,0,0:0:0:0:
144,36,236720,1,8,0:0:0:0:
288,132,237065,6,0,B|348:156|408:132|408:132|364:188|380:308,1,263.999997566223,4|8,1:0|0:1,0:0:0:0:
424,336,237927,1,2,0:1:0:0:
344,368,238099,2,0,L|272:384,1,65.9999993915558,2|2,0:1|0:1,0:0:0:0:
212,328,238444,2,0,L|64:312,1,131.999998783112,0|2,1:0|0:0,0:0:0:0:
16,156,239134,2,0,L|147:170,1,131.999998783112,8|4,0:1|0:0,0:0:0:0:
272,72,239824,6,0,P|208:24|108:100,1,215.999984825135,0|8,1:0|0:1,0:0:0:0:
194,108,240686,1,2,0:1:0:0:
260,160,240858,2,0,P|257:206|244:264,1,65.9999993915558,2|2,0:1|0:1,0:0:0:0:
192,284,241203,2,0,P|257:273|348:280,1,131.999998783112,0|2,1:0|0:0,0:0:0:0:
400,312,241720,1,2,0:0:0:0:
472,264,241892,2,0,P|500:184|416:128,1,197.999998174667,8|0,0:1|0:0,0:0:0:0:
340,164,242582,6,0,L|252:152,1,65.9999993915558,0|2,1:0|0:3,0:0:0:0:
192,180,242927,2,0,L|104:168,1,65.9999993915558,2|2,0:3|0:3,0:0:0:0:
48,132,243272,1,10,0:1:0:0:
56,216,243444,1,2,0:1:0:0:
72,300,243617,2,0,P|107:297|172:308,1,65.9999993915558,2|2,0:1|0:1,0:0:0:0:
192,364,243961,1,0,1:0:0:0:
276,368,244134,2,0,L|360:356,2,65.9999993915558,2|0|2,0:1|0:1|0:1,0:0:0:0:
304,288,244651,2,0,P|324:216|268:128,1,131.999998783112,8|2,0:1|0:3,0:0:0:0:
428,64,245341,5,0,1:0:0:0:
428,64,245686,1,0,1:0:0:0:
276,96,246030,2,0,P|211:100|144:96,1,119.999995231629,8|0,0:0|0:0,0:0:0:0:
148,176,246548,2,0,P|84:171|24:176,1,119.999995231629,8|0,0:0|0:0,0:0:0:0:
40,252,247065,1,8,0:0:0:0:
192,288,247410,1,0,0:0:0:0:
344,324,247755,1,0,0:0:0:0:
380,172,248099,6,0,P|320:184|228:168,1,119.999995231629,4|2,1:0|0:0,0:0:0:0:
192,140,248617,1,0,0:0:0:0:
136,192,248789,2,0,P|103:193|60:188,1,59.9999976158143,8|0,0:1|0:0,0:0:0:0:
24,132,249134,2,0,P|22:99|28:56,1,59.9999976158143,2|2,0:0|0:0,0:0:0:0:
88,24,249479,2,0,P|144:28|228:44,1,119.999995231629,0|2,1:0|0:0,0:0:0:0:
284,52,249996,1,2,0:0:0:0:
304,128,250168,2,0,P|248:132|164:148,1,119.999995231629,8|2,0:1|0:0,0:0:0:0:
32,172,250858,5,0,1:0:0:0:
88,316,251203,1,2,0:0:0:0:
160,348,251375,1,0,0:0:0:0:
240,348,251548,2,0,P|269:345|324:344,1,59.9999976158143,8|0,0:1|0:0,0:0:0:0:
336,276,251892,2,0,P|365:280|418:290,1,59.9999976158143,2|2,0:0|0:0,0:0:0:0:
452,340,252237,2,0,P|440:280|480:184,1,119.999995231629,0|2,1:0|0:0,0:0:0:0:
476,148,252755,1,2,0:0:0:0:
448,76,252927,1,8,0:1:0:0:
300,32,253272,2,0,L|220:40,1,59.9999976158143,4|0,1:0|0:0,0:0:0:0:
164,28,253617,5,4,1:0:0:0:
112,88,253789,2,0,L|64:56,2,29.9999988079071,0|0|2,0:0|0:0|0:0,0:0:0:0:
136,164,254134,1,0,0:0:0:0:
212,184,254306,2,0,L|316:176,1,59.9999976158143,8|0,0:1|0:0,0:0:0:0:
260,256,254651,2,0,L|319:260,1,59.9999976158143,2|2,0:0|0:0,0:0:0:0:
388,300,254996,2,0,P|416:240|372:152,1,119.999995231629,0|2,1:0|0:0,0:0:0:0:
392,112,255513,1,2,0:0:0:0:
448,60,255686,2,0,P|388:72|288:68,1,119.999995231629,8|2,0:1|0:0,0:0:0:0:
180,28,256375,5,0,1:0:0:0:
180,28,256720,2,0,L|188:104,1,59.9999976158143,2|0,0:0|0:0,0:0:0:0:
128,140,257065,2,0,L|112:284,1,119.999995231629,8|2,0:1|0:0,0:0:0:0:
152,328,257582,1,2,0:0:0:0:
228,340,257755,2,0,P|255:332|304:312,1,59.9999976158143,0|0,1:0|0:0,0:0:0:0:
360,336,258099,2,0,L|376:260,1,59.9999976158143,2|2,0:0|0:0,0:0:0:0:
448,260,258444,2,0,P|448:192|384:136,1,119.999995231629,8|0,0:1|1:0,0:0:0:0:
340,160,258961,1,0,1:0:0:0:
264,144,259134,6,0,P|232:88|284:32,1,119.999995231629,4|2,1:0|0:0,0:0:0:0:
332,40,259651,1,0,0:0:0:0:
408,28,259824,2,0,L|404:100,1,59.9999976158143,8|0,0:1|0:0,0:0:0:0:
480,100,260168,2,0,L|476:172,1,59.9999976158143,2|2,0:0|0:0,0:0:0:0:
488,236,260513,2,0,P|434:228|352:260,1,119.999995231629,0|2,1:0|0:0,0:0:0:0:
308,292,261030,1,2,0:0:0:0:
240,332,261203,2,0,P|184:320|108:336,1,119.999995231629,8|2,0:1|0:0,0:0:0:0:
40,196,261892,6,0,L|28:120,1,59.9999976158143,4|0,1:0|0:0,0:0:0:0:
108,132,262237,2,0,L|120:56,1,59.9999976158143,2|0,0:0|0:0,0:0:0:0:
192,48,262582,2,0,P|252:56|320:48,1,119.999995231629,8|2,0:1|0:0,0:0:0:0:
372,100,263099,1,2,0:0:0:0:
356,176,263272,2,0,L|272:172,1,59.9999976158143,0|0,1:0|0:0,0:0:0:0:
260,244,263617,2,0,L|176:240,1,59.9999976158143,2|2,0:0|0:0,0:0:0:0:
132,280,263961,2,0,P|100:220|128:160,1,119.999995231629,8|4,0:1|1:0,0:0:0:0:
52,32,264651,6,0,L|196:44,1,119.999995231629,4|2,1:0|0:0,0:0:0:0:
216,104,265168,1,0,0:0:0:0:
284,140,265341,2,0,L|360:128,1,59.9999976158143,8|0,0:1|0:0,0:0:0:0:
400,184,265686,2,0,L|476:172,1,59.9999976158143,2|2,0:0|0:0,0:0:0:0:
500,244,266030,2,0,L|480:320,1,59.9999976158143,0|0,1:0|0:0,0:0:0:0:
416,344,266375,1,2,0:0:0:0:
344,320,266548,1,2,0:0:0:0:
268,336,266720,2,0,P|224:336|136:388,1,119.999995231629,8|2,0:1|0:0,0:0:0:0:
64,240,267410,5,0,1:0:0:0:
64,240,267755,2,0,L|56:156,1,59.9999976158143,0|0,0:0|0:0,0:0:0:0:
92,112,268099,2,0,P|124:116|184:120,1,59.9999976158143,8|2,0:1|0:0,0:0:0:0:
164,196,268444,2,0,P|196:191|254:178,1,59.9999976158143,2|2,0:0|0:0,0:0:0:0:
256,256,268789,1,0,1:0:0:0:
392,332,269134,2,0,P|388:296|392:256,1,59.9999976158143,2|2,0:0|0:0,0:0:0:0:
456,232,269479,2,0,P|397:229|348:112,1,179.999992847443,8|0,0:1|1:3,0:0:0:0:
380,64,270168,5,4,1:0:0:0:
