osu file format v14

[General]
AudioFilename: audio.mp3
AudioLeadIn: 0
PreviewTime: 328895
Countdown: 0
SampleSet: Normal
StackLeniency: 0.7
Mode: 0
LetterboxInBreaks: 0
WidescreenStoryboard: 0

[Editor]
Bookmarks: 15863,56942,96270,164164,256620,329274,360757,415177,507638,561730
DistanceSpacing: 2
BeatDivisor: 4
GridSize: 8
TimelineZoom: 0.9000001

[Metadata]
Title:Song Compilation
TitleUnicode:Song Compilation
Artist:IOSYS
ArtistUnicode:IOSYS
Creator:mmi-
Version:Stolen
Source:
Tags:Endless Tewi ma Park Miracle Hinacle Marisa wa Taihen na Mono wo Nusunde Ikimashita Utage wa Eien ni SHD Cirno's Perfect Math Class Chirumiru Chanteikku Sanyousei no Itazura Daisensou Kyuukyoku Yakiniku Restaurant Orin Jigokutei Usatei 2011 Kanbu de Tomatte Sugu Tokeru Kyouki Udongein Border of Extacy
BeatmapID:1706434
BeatmapSetID:813695

[Difficulty]
HPDrainRate:4
CircleSize:5
OverallDifficulty:8
ApproachRate:8
SliderMultiplier:2
SliderTickRate:1

[Events]
//Background and Video events
0,0,"24326176_p0.jpg",0,0
//Break Periods
2,45594,62181
2,86756,97631
2,135993,146337
2,158140,169061
2,246246,255870
2,291791,302146
2,324430,328524
2,355419,362601
2,409259,416953
2,458324,467479
2,498745,511688
2,551030,570391
//Storyboard Layer 0 (Background)
//Storyboard Layer 1 (Fail)
//Storyboard Layer 2 (Pass)
//Storyboard Layer 3 (Foreground)
//Storyboard Sound Samples

[TimingPoints]
15863,468.75,4,1,0,80,1,0
15863,-90.9090909090909,4,1,0,80,0,0
56936,375,4,1,0,80,1,0
57049,-104.166666666667,4,1,0,80,0,0
96264,352.941176470588,4,1,0,80,1,0
96398,-133.333333333333,4,1,0,80,0,0
164160,352.941176470588,4,1,0,80,1,0
164208,-125,4,1,0,80,0,0
206270,-62.5,4,1,0,80,0,0
207593,-125,4,1,0,80,0,0
256616,342.857142857143,4,1,0,80,1,0
256738,-142.857142857143,4,1,0,80,0,0
280534,-71.4285714285714,4,1,0,80,0,0
281238,-142.857142857143,4,1,0,80,0,0
298898,333.333333333333,4,1,0,80,1,0
302848,-142.857142857143,4,1,0,80,0,0
329274,324.324324324324,4,1,0,80,1,0
329274,-125,4,1,0,80,0,0
360757,324.324324324324,4,1,0,80,1,0
360857,-47.6190476190476,4,1,0,80,0,0
363351,-94.9667616334283,4,1,0,80,0,0
373068,2594.59459459459,4,1,0,80,1,0
373708,324.324324324324,4,1,0,80,1,0
393167,2594.59459459459,4,1,0,80,1,0
393528,324.324324324324,4,1,0,80,1,0
396024,-47.6190476190476,4,1,0,80,0,0
396510,-95.2380952380952,4,1,0,80,0,0
398618,-47.6190476190476,4,1,0,80,0,0
399105,-95.2380952380952,4,1,0,80,0,0
401213,-47.6190476190476,4,1,0,80,0,0
401700,-95.2380952380952,4,1,0,80,0,0
403808,-47.6190476190476,4,1,0,80,0,0
404274,-95.2380952380952,4,1,0,80,0,0
408572,2594.59459459459,4,1,0,80,1,0
409004,324.324324324324,4,1,0,80,1,0
415170,315.789473684211,4,1,0,80,1,0
415207,-90.9090909090909,4,1,0,80,0,0
455600,-60.6060606060606,4,1,0,80,0,0
457968,-90.9090909090909,4,1,0,80,0,0
507638,300,4,1,0,80,1,0
507682,-133.333333333333,4,1,0,80,0,0
561720,294.117647058824,4,1,0,80,1,0
561730,-133.333333333333,4,1,0,80,0,0
587832,-66.6666666666667,4,1,0,80,0,0
590038,-133.333333333333,4,1,0,80,0,0

[HitObjects]
160,128,15863,6,0,B|216:96|268:128,1,115,0|2,0:0|0:0,0:0:0:0:
304,164,16214,1,0,0:0:0:0:
332,208,16331,1,8,0:0:0:0:
436,208,16566,1,2,0:0:0:0:
416,308,16800,1,0,0:0:0:0:
364,320,16917,1,0,0:0:0:0:
312,328,17034,1,2,0:0:0:0:
260,320,17152,1,0,0:0:0:0:
212,308,17269,1,8,0:0:0:0:
116,272,17503,1,2,0:0:0:0:
116,272,17620,1,0,0:0:0:0:
116,272,17738,5,0,0:0:0:0:
72,180,17972,1,2,0:0:0:0:
80,128,18089,1,0,0:0:0:0:
104,84,18206,1,8,0:0:0:0:
144,56,18323,1,0,0:0:0:0:
196,44,18441,1,2,0:0:0:0:
248,56,18558,1,0,0:0:0:0:
296,72,18675,2,0,B|348:112|404:84,2,115,0|0|8,0:0|0:0|0:0,0:0:0:0:
216,144,19378,1,2,0:0:0:0:
268,144,19495,1,0,0:0:0:0:
320,144,19613,1,0,0:0:0:0:
320,244,19847,5,2,0:0:0:0:
416,232,20081,1,8,0:0:0:0:
448,192,20198,1,0,0:0:0:0:
456,140,20316,1,2,0:0:0:0:
448,88,20433,1,0,0:0:0:0:
412,52,20550,1,0,0:0:0:0:
312,48,20784,2,0,B|252:48,2,57.5,2|0|8,0:0|0:0|0:0,0:0:0:0:
328,152,21253,6,0,B|352:204,1,57.5,2|0,0:0|0:0,0:0:0:0:
360,256,21488,2,0,B|332:308,1,57.5
288,328,21722,2,0,B|232:328,1,57.5,2|0,0:0|0:0,0:0:0:0:
180,312,21956,2,0,B|155:261,1,57.5,8|0,0:0|0:0,0:0:0:0:
156,212,22191,2,0,B|182:161,1,57.5,2|0,0:0|0:0,0:0:0:0:
224,132,22425,2,0,B|272:80|224:28,2,115,0|0|12,0:0|0:0|0:0,0:0:0:0:
432,348,23363,5,0,0:0:0:0:
444,296,23480,1,0,0:0:0:0:
456,244,23597,1,2,0:0:0:0:
444,192,23714,1,0,0:0:0:0:
428,144,23831,1,8,0:0:0:0:
360,68,24066,2,0,B|400:28,2,57.5,2|0|0,0:0|0:0|0:0,0:0:0:0:
320,100,24417,1,0,0:0:0:0:
292,144,24534,1,2,0:0:0:0:
288,196,24652,1,0,0:0:0:0:
288,248,24769,1,8,0:0:0:0:
252,344,25003,5,2,0:0:0:0:
200,356,25120,1,0,0:0:0:0:
148,344,25238,1,0,0:0:0:0:
48,320,25472,1,2,0:0:0:0:
36,272,25589,1,0,0:0:0:0:
28,220,25706,1,8,0:0:0:0:
28,168,25823,1,0,0:0:0:0:
40,116,25941,1,2,0:0:0:0:
60,72,26058,1,0,0:0:0:0:
100,40,26175,2,0,B|152:8|212:40,2,115,0|0|8,0:0|0:0|0:0,0:0:0:0:
116,164,26878,5,2,0:0:0:0:
156,196,26995,1,0,0:0:0:0:
204,212,27113,1,0,0:0:0:0:
252,224,27230,1,0,0:0:0:0:
304,228,27347,1,2,0:0:0:0:
356,228,27464,1,0,0:0:0:0:
408,216,27581,2,0,B|460:176|440:112,1,115,8|2,0:0|0:0,0:0:0:0:
400,80,27933,1,0,0:0:0:0:
348,72,28050,2,0,B|292:32|236:72,1,115,0|2,0:0|0:0,0:0:0:0:
300,152,28519,2,0,B|244:184|192:152,1,115,8|2,0:0|0:0,0:0:0:0:
164,104,28870,1,0,0:0:0:0:
120,76,28988,6,0,B|64:96,1,57.5
48,140,29222,2,0,B|48:200,1,57.5,2|0,0:0|0:0,0:0:0:0:
68,244,29456,2,0,B|116:276,1,57.5,8|0,0:0|0:0,0:0:0:0:
164,276,29691,2,0,B|220:276,1,57.5,2|0,0:0|0:0,0:0:0:0:
272,272,29925,2,0,B|324:224|376:272,2,115,0|0|12,0:0|0:0|0:0,0:0:0:0:
456,344,30863,5,4,0:0:0:0:
456,240,31097,1,2,0:0:0:0:
472,192,31214,1,0,0:0:0:0:
456,144,31331,1,8,0:0:0:0:
452,40,31566,1,2,0:0:0:0:
352,40,31800,1,0,0:0:0:0:
340,92,31917,1,0,0:0:0:0:
332,144,32034,1,2,0:0:0:0:
340,196,32152,1,0,0:0:0:0:
352,244,32269,1,8,0:0:0:0:
300,336,32503,5,2,0:0:0:0:
248,344,32620,1,0,0:0:0:0:
200,336,32738,1,0,0:0:0:0:
136,256,32972,1,2,0:0:0:0:
32,248,33206,1,8,0:0:0:0:
20,196,33323,1,0,0:0:0:0:
16,144,33441,1,2,0:0:0:0:
28,92,33558,1,0,0:0:0:0:
56,48,33675,2,0,B|112:12|164:48,1,115,0|2,0:0|0:0,0:0:0:0:
200,84,34027,1,0,0:0:0:0:
236,120,34144,2,0,B|284:168,2,57.5,8|0|2,0:0|0:0|0:0,0:0:0:0:
204,232,34613,6,0,B|232:280,1,57.5
280,272,34847,2,0,B|340:272,1,57.5,2|0,0:0|0:0,0:0:0:0:
316,224,35081,2,0,B|368:200,1,57.5,8|0,0:0|0:0,0:0:0:0:
328,168,35316,2,0,B|352:116,1,57.5,2|0,0:0|0:0,0:0:0:0:
304,128,35550,2,0,B|304:72,1,57.5
256,92,35784,2,0,B|216:52,2,57.5,2|0|8,0:0|0:0|0:0,0:0:0:0:
72,32,36253,6,0,B|129:32,1,57.5,2|0,0:0|0:0,0:0:0:0:
72,80,36488,2,0,B|14:80,1,57.5
76,128,36722,2,0,B|133:128,1,57.5,2|0,0:0|0:0,0:0:0:0:
76,176,36956,2,0,B|18:176,1,57.5,8|0,0:0|0:0,0:0:0:0:
80,224,37191,2,0,B|137:224,1,57.5,2|4,0:0|0:0,0:0:0:0:
188,224,37425,1,0,0:0:0:0:
292,224,37659,1,2,0:0:0:0:
396,224,37894,1,12,0:0:0:0:
292,44,38363,6,0,B|236:12|180:44,1,115,0|2,0:0|0:0,0:0:0:0:
132,56,38714,1,0,0:0:0:0:
84,76,38831,1,8,0:0:0:0:
52,116,38948,1,0,0:0:0:0:
48,168,39066,1,2,0:0:0:0:
60,216,39183,1,0,0:0:0:0:
100,248,39300,1,0,0:0:0:0:
152,252,39417,1,0,0:0:0:0:
204,248,39534,2,0,B|244:208|244:288|316:240,1,115,2|8,0:0|0:0,0:0:0:0:
440,288,40003,5,2,0:0:0:0:
400,320,40120,1,0,0:0:0:0:
352,336,40238,1,0,0:0:0:0:
248,336,40472,1,2,0:0:0:0:
220,292,40589,1,0,0:0:0:0:
172,268,40706,1,8,0:0:0:0:
124,256,40823,1,0,0:0:0:0:
80,228,40941,1,2,0:0:0:0:
68,176,41058,1,0,0:0:0:0:
72,124,41175,2,0,B|84:60|144:40,2,115,0|0|8,0:0|0:0|0:0,0:0:0:0:
168,180,41878,6,0,B|212:216,2,57.5,2|0|0,0:0|0:0|0:0,0:0:0:0:
196,136,42230,1,0,0:0:0:0:
248,132,42347,2,0,B|296:92,2,57.5,2|2|8,0:0|0:0|0:0,0:0:0:0:
360,160,42816,1,2,0:0:0:0:
388,204,42933,1,0,0:0:0:0:
392,252,43050,2,0,B|400:320|348:352,2,115,0|2|8,0:0|0:0|0:0,0:0:0:0:
480,196,43753,5,2,0:0:0:0:
448,156,43870,1,0,0:0:0:0:
404,124,43988,1,0,0:0:0:0:
356,108,44105,1,0,0:0:0:0:
304,100,44222,1,2,0:0:0:0:
252,96,44339,1,0,0:0:0:0:
200,100,44456,1,8,0:0:0:0:
148,112,44573,1,0,0:0:0:0:
100,132,44691,1,2,0:0:0:0:
52,156,44808,1,0,0:0:0:0:
20,196,44925,5,4,0:0:0:0:
252,196,45159,1,2,0:0:0:0:
480,196,45394,1,12,0:0:0:0:
80,272,62931,6,0,L|80:112|112:80,1,192,2|8,0:0|0:0,0:0:0:0:
208,48,63493,1,0,0:0:0:0:
320,48,63681,2,0,L|464:48,2,144
256,144,64431,5,0,0:0:0:0:
368,144,64618,1,0,0:0:0:0:
480,144,64806,2,0,L|480:256,1,96,8|0,0:0|0:0,0:0:0:0:
480,336,65181,1,0,0:0:0:0:
368,336,65368,1,0,0:0:0:0:
256,336,65556,1,8,0:0:0:0:
256,336,65649,1,0,0:0:0:0:
256,336,65743,1,0,0:0:0:0:
144,336,65931,6,0,B|16:336|32:176,1,192,0|8,0:0|0:0,0:0:0:0:
32,96,66493,1,0,0:0:0:0:
144,64,66681,5,0,0:0:0:0:
144,192,66962,1,0,0:0:0:0:
144,320,67243,1,0,0:0:0:0:
144,320,67431,6,0,L|240:320|256:336|368:336,1,192,0|8,0:0|0:0,0:0:0:0:
288,272,67993,2,0,L|400:272,1,96
448,208,68368,2,0,L|336:208,1,96,0|8,0:0|0:0,0:0:0:0:
336,208,68649,1,0,0:0:0:0:
320,208,68743,1,0,0:0:0:0:
304,208,68837,1,0,0:0:0:0:
288,208,68931,6,0,L|80:208,2,192,4|8|0,0:0|0:0|0:0,0:0:0:0:
208,144,69868,1,0,0:0:0:0:
288,96,70056,1,8,0:0:0:0:
368,48,70243,1,0,0:0:0:0:
432,48,70431,6,0,L|432:160,1,96
496,128,70806,2,0,L|496:240,1,96,8|0,0:0|0:0,0:0:0:0:
432,208,71181,2,0,L|432:336,1,96
496,336,71556,1,8,0:0:0:0:
432,368,71743,1,0,0:0:0:0:
368,336,71931,2,0,L|288:280|210:340,2,192,0|8|0,0:0|0:0|0:0,0:0:0:0:
288,368,72868,5,0,0:0:0:0:
213,337,73056,1,8,0:0:0:0:
144,368,73243,1,0,0:0:0:0:
256,192,73337,12,0,74556,0:0:0:0:
48,352,74931,6,0,L|112:320|256:320,1,192,4|8,0:0|0:0,0:0:0:0:
304,320,75493,1,0,0:0:0:0:
376,320,75681,5,0,0:0:0:0:
488,256,75962,1,0,0:0:0:0:
376,192,76243,1,0,0:0:0:0:
376,192,76431,2,0,L|240:192|192:159,1,192,0|8,0:0|0:0,0:0:0:0:
128,160,76993,1,0,0:0:0:0:
64,160,77181,1,0,0:0:0:0:
32,96,77368,1,0,0:0:0:0:
96,96,77556,1,8,0:0:0:0:
160,96,77743,1,0,0:0:0:0:
128,32,77931,6,0,L|240:32|320:64,1,192,0|8,0:0|0:0,0:0:0:0:
384,96,78493,1,0,0:0:0:0:
448,128,78681,5,0,0:0:0:0:
448,240,78962,1,0,0:0:0:0:
448,352,79243,1,0,0:0:0:0:
384,336,79431,6,0,L|320:336|304:352|176:352,1,192,0|8,0:0|0:0,0:0:0:0:
256,288,79993,2,0,L|144:288,1,96
336,224,80368,2,0,L|432:224,1,96,0|8,0:0|0:0,0:0:0:0:
256,160,80743,1,0,0:0:0:0:
176,160,80931,6,0,L|90:132|90:15,1,192,4|8,0:0|0:0,0:0:0:0:
176,32,81493,1,0,0:0:0:0:
256,32,81681,2,0,L|448:32,1,192,0|8,0:0|0:0,0:0:0:0:
512,32,82243,1,0,0:0:0:0:
416,112,82431,5,0,0:0:0:0:
512,192,82618,1,0,0:0:0:0:
416,272,82806,1,8,0:0:0:0:
512,352,82993,1,0,0:0:0:0:
512,272,83181,6,0,L|416:272|320:304,1,192,0|8,0:0|0:0,0:0:0:0:
256,320,83743,1,0,0:0:0:0:
176,320,83931,6,0,L|80:320|0:240,2,192,0|8|0,0:0|0:0|0:0,0:0:0:0:
256,240,84868,1,0,0:0:0:0:
256,144,85056,1,8,0:0:0:0:
336,64,85243,2,0,L|432:64|512:144,2,192
256,32,86181,1,0,0:0:0:0:
256,32,86274,1,0,0:0:0:0:
256,32,86368,1,0,0:0:0:0:
176,64,86556,1,0,0:0:0:0:
288,352,98381,5,2,0:0:0:0:
352,352,98646,1,2,0:0:0:0:
416,352,98911,1,2,0:0:0:0:
480,352,99087,2,0,L|480:192,1,150
480,128,99793,1,2,0:0:0:0:
480,64,100058,1,2,0:0:0:0:
416,64,100322,1,0,0:0:0:0:
416,64,100411,1,0,0:0:0:0:
416,64,100499,2,0,L|256:64,1,150
192,64,101205,2,0,L|32:64,1,150
64,192,101911,5,0,0:0:0:0:
192,192,102264,1,2,0:0:0:0:
320,192,102617,1,0,0:0:0:0:
320,192,102793,1,0,0:0:0:0:
448,192,103146,1,2,0:0:0:0:
448,320,103499,5,0,0:0:0:0:
384,320,103675,1,0,0:0:0:0:
256,320,104028,1,2,0:0:0:0:
160,320,104293,1,2,0:0:0:0:
64,320,104558,2,0,L|64:32,1,262.5
64,57,105264,2,0,L|320:64,1,225
352,64,106146,2,0,L|352:320,2,225
416,64,107558,2,0,L|416:224,1,150
416,288,108087,2,0,L|160:288,1,225
256,192,108969,5,0,0:0:0:0:
256,192,109058,1,0,0:0:0:0:
256,192,109146,1,0,0:0:0:0:
256,192,109234,1,0,0:0:0:0:
256,192,109322,1,0,0:0:0:0:
256,192,109411,1,0,0:0:0:0:
256,192,109499,1,0,0:0:0:0:
256,192,109587,1,0,0:0:0:0:
256,192,109675,1,0,0:0:0:0:
256,192,109764,1,0,0:0:0:0:
256,192,109852,1,0,0:0:0:0:
256,192,109940,1,0,0:0:0:0:
256,192,110028,1,0,0:0:0:0:
256,192,110117,1,0,0:0:0:0:
256,192,110205,1,0,0:0:0:0:
256,192,110293,1,0,0:0:0:0:
256,192,110381,5,4,0:0:0:0:
320,160,110734,1,2,0:0:0:0:
384,128,111087,1,0,0:0:0:0:
448,96,111264,1,0,0:0:0:0:
448,160,111617,1,2,0:0:0:0:
448,224,111793,5,0,0:0:0:0:
384,192,111969,2,0,L|384:160,10,37.5
320,160,113028,1,2,0:0:0:0:
256,192,113205,5,0,0:0:0:0:
320,224,113558,1,2,0:0:0:0:
384,256,113911,1,0,0:0:0:0:
448,288,114175,1,0,0:0:0:0:
448,224,114440,1,2,0:0:0:0:
448,160,114616,6,0,L|448:192,2,37.5
384,192,114969,2,0,L|384:224,11,37.5
384,192,116028,5,0,0:0:0:0:
320,224,116381,1,2,0:0:0:0:
256,192,116734,1,0,0:0:0:0:
256,192,116999,1,0,0:0:0:0:
256,192,117264,1,2,0:0:0:0:
192,192,117617,2,0,L|32:192,1,150
42,192,118146,2,0,L|192:192,1,150
256,192,118852,2,0,L|416:192,2,150
256,192,119822,1,2,0:0:0:0:
256,192,120087,1,2,0:0:0:0:
256,128,120264,5,0,0:0:0:0:
256,256,120617,1,2,0:0:0:0:
256,128,120969,1,0,0:0:0:0:
256,256,121322,1,2,0:0:0:0:
256,192,121675,5,4,0:0:0:0:
192,160,122028,1,2,0:0:0:0:
128,128,122381,1,0,0:0:0:0:
64,96,122558,1,0,0:0:0:0:
64,160,122911,1,2,0:0:0:0:
64,224,123087,5,0,0:0:0:0:
128,192,123264,2,0,L|128:160,10,37.5
192,160,124322,1,2,0:0:0:0:
256,192,124499,5,0,0:0:0:0:
192,224,124852,1,2,0:0:0:0:
128,256,125205,1,0,0:0:0:0:
64,288,125469,1,0,0:0:0:0:
64,224,125734,1,2,0:0:0:0:
64,160,125911,6,0,L|64:192,2,37.5
128,192,126264,2,0,L|128:224,11,37.5
128,192,127322,5,0,0:0:0:0:
192,224,127675,1,2,0:0:0:0:
256,192,128028,1,0,0:0:0:0:
256,192,128293,1,0,0:0:0:0:
256,192,128558,1,2,0:0:0:0:
320,192,128911,2,0,L|480:192,1,150
470,192,129440,2,0,L|320:192,1,150
256,192,130146,2,0,L|32:32,1,262.5
42,39,130852,2,0,L|32:224,1,150
32,192,131558,2,0,L|32:352,1,150
32,342,132087,2,0,L|128:288,1,75
128,288,132528,1,0,0:0:0:0:
192,256,132793,1,0,0:0:0:0:
256,224,132969,1,0,0:0:0:0:
352,192,133146,5,2,0:0:0:0:
256,96,133499,1,2,0:0:0:0:
160,192,133852,1,2,0:0:0:0:
256,288,134205,1,2,0:0:0:0:
256,192,134558,5,2,0:0:0:0:
256,192,134646,1,0,0:0:0:0:
256,192,134734,1,0,0:0:0:0:
256,192,134911,1,2,0:0:0:0:
256,192,134999,1,0,0:0:0:0:
256,192,135087,1,0,0:0:0:0:
256,192,135264,1,2,0:0:0:0:
256,192,135352,1,0,0:0:0:0:
256,192,135440,1,0,0:0:0:0:
256,192,135617,1,2,0:0:0:0:
256,192,135705,1,0,0:0:0:0:
256,192,135793,1,4,0:0:0:0:
32,192,147087,5,0,0:0:0:0:
40,192,147175,1,0,0:0:0:0:
48,192,147264,1,0,0:0:0:0:
56,192,147352,1,0,0:0:0:0:
64,192,147440,1,0,0:0:0:0:
72,192,147528,1,0,0:0:0:0:
80,192,147617,1,0,0:0:0:0:
88,192,147705,1,0,0:0:0:0:
96,192,147793,1,0,0:0:0:0:
104,192,147881,1,0,0:0:0:0:
112,192,147970,1,0,0:0:0:0:
120,192,148058,1,0,0:0:0:0:
128,192,148146,1,0,0:0:0:0:
136,192,148234,1,0,0:0:0:0:
144,192,148323,1,0,0:0:0:0:
152,192,148411,1,0,0:0:0:0:
160,192,148499,5,0,0:0:0:0:
168,192,148587,1,0,0:0:0:0:
176,192,148676,1,0,0:0:0:0:
184,192,148764,1,0,0:0:0:0:
192,192,148852,1,0,0:0:0:0:
200,192,148940,1,0,0:0:0:0:
208,192,149029,1,0,0:0:0:0:
216,192,149117,1,0,0:0:0:0:
224,192,149205,1,0,0:0:0:0:
232,192,149293,1,0,0:0:0:0:
240,192,149382,1,0,0:0:0:0:
248,192,149470,1,0,0:0:0:0:
256,192,149558,1,0,0:0:0:0:
264,192,149646,1,0,0:0:0:0:
272,192,149735,1,0,0:0:0:0:
280,192,149823,1,0,0:0:0:0:
288,192,149911,5,0,0:0:0:0:
296,192,149999,1,0,0:0:0:0:
304,192,150088,1,0,0:0:0:0:
312,192,150176,1,0,0:0:0:0:
320,192,150264,1,0,0:0:0:0:
328,192,150352,1,0,0:0:0:0:
336,192,150441,1,0,0:0:0:0:
344,192,150529,1,0,0:0:0:0:
352,192,150617,1,0,0:0:0:0:
360,192,150705,1,0,0:0:0:0:
368,192,150794,1,0,0:0:0:0:
376,192,150882,1,0,0:0:0:0:
384,192,150970,1,0,0:0:0:0:
392,192,151058,1,0,0:0:0:0:
400,192,151147,1,0,0:0:0:0:
408,192,151235,1,0,0:0:0:0:
416,192,151322,5,0,0:0:0:0:
424,192,151410,1,0,0:0:0:0:
432,192,151499,1,0,0:0:0:0:
440,192,151587,1,0,0:0:0:0:
448,192,151675,1,0,0:0:0:0:
456,192,151763,1,0,0:0:0:0:
464,192,151852,1,0,0:0:0:0:
472,192,151940,1,0,0:0:0:0:
480,192,152028,1,0,0:0:0:0:
472,192,152116,1,0,0:0:0:0:
464,192,152205,1,0,0:0:0:0:
456,192,152293,1,0,0:0:0:0:
448,192,152381,1,0,0:0:0:0:
440,192,152469,1,0,0:0:0:0:
432,192,152558,1,0,0:0:0:0:
424,192,152646,1,0,0:0:0:0:
416,192,152734,5,0,0:0:0:0:
408,192,152822,1,0,0:0:0:0:
400,192,152911,1,0,0:0:0:0:
392,192,152999,1,0,0:0:0:0:
384,192,153087,1,0,0:0:0:0:
376,192,153175,1,0,0:0:0:0:
368,192,153264,1,0,0:0:0:0:
360,192,153352,1,0,0:0:0:0:
352,192,153440,1,0,0:0:0:0:
344,192,153528,1,0,0:0:0:0:
336,192,153617,1,0,0:0:0:0:
328,192,153705,1,0,0:0:0:0:
320,192,153793,1,0,0:0:0:0:
312,192,153881,1,0,0:0:0:0:
304,192,153970,1,0,0:0:0:0:
296,192,154058,1,0,0:0:0:0:
288,192,154146,5,0,0:0:0:0:
280,192,154234,1,0,0:0:0:0:
272,192,154323,1,0,0:0:0:0:
264,192,154411,1,0,0:0:0:0:
256,192,154499,1,0,0:0:0:0:
248,192,154587,1,0,0:0:0:0:
240,192,154676,1,0,0:0:0:0:
232,192,154764,1,0,0:0:0:0:
224,192,154852,1,0,0:0:0:0:
216,192,154940,1,0,0:0:0:0:
208,192,155029,1,0,0:0:0:0:
200,192,155117,1,0,0:0:0:0:
192,192,155205,1,0,0:0:0:0:
184,192,155293,1,0,0:0:0:0:
176,192,155382,1,0,0:0:0:0:
168,192,155470,1,0,0:0:0:0:
160,192,155558,6,0,L|128:192,3,37.5
160,192,155911,2,0,L|192:192,3,37.5
160,192,156264,2,0,L|160:160,3,37.5
160,192,156616,2,0,L|160:224,3,37.5
152,192,156969,5,0,0:0:0:0:
152,192,157058,1,0,0:0:0:0:
144,192,157146,1,0,0:0:0:0:
136,192,157234,1,0,0:0:0:0:
128,192,157322,2,0,L|96:192,1,37.5
128,192,157499,2,0,L|160:192,1,37.5
128,192,157675,2,0,L|128:160,1,37.5
128,192,157852,2,0,L|128:256,1,37.5
480,32,169811,5,4,0:0:0:0:
480,32,169899,1,0,0:0:0:0:
480,32,169987,1,0,0:0:0:0:
416,96,170164,2,0,C|384:71|384:32,1,80
320,96,170517,2,0,C|352:122|352:160,1,80
288,224,170870,2,0,C|250:224|224:192,1,80
160,256,171223,1,0,0:0:0:0:
160,256,171311,1,0,0:0:0:0:
160,256,171399,1,0,0:0:0:0:
96,192,171576,2,0,C|96:153|128:128,1,80
192,192,171928,2,0,C|224:166|224:128,1,80
160,64,172281,2,0,C|134:32|96:32,1,80
32,96,172634,5,0,0:0:0:0:
32,96,172723,1,0,0:0:0:0:
32,96,172811,1,0,0:0:0:0:
96,160,172987,2,0,C|71:192|32:192,1,80
96,256,173340,2,0,C|96:294|128:320,1,80
192,256,173693,2,0,C|192:218|224:192,1,80
288,256,174046,1,0,0:0:0:0:
288,256,174134,1,0,0:0:0:0:
288,256,174223,1,0,0:0:0:0:
352,320,174399,1,0,0:0:0:0:
352,320,174487,1,0,0:0:0:0:
352,320,174576,1,0,0:0:0:0:
416,256,174752,1,0,0:0:0:0:
424,240,174840,1,0,0:0:0:0:
432,224,174928,1,0,0:0:0:0:
424,208,175017,1,0,0:0:0:0:
416,192,175105,1,0,0:0:0:0:
424,176,175193,1,0,0:0:0:0:
432,160,175281,1,0,0:0:0:0:
424,144,175370,1,0,0:0:0:0:
416,128,175458,5,4,0:0:0:0:
416,128,175546,1,0,0:0:0:0:
416,128,175634,1,0,0:0:0:0:
352,64,175811,2,0,C|314:64|288:32,1,80
224,96,176164,2,0,C|224:134|256:160,1,80
320,224,176517,2,0,C|294:256|256:256,1,80
192,320,176870,1,0,0:0:0:0:
192,320,176958,1,0,0:0:0:0:
192,320,177046,1,0,0:0:0:0:
128,256,177223,2,0,C|154:224|192:224,1,80
128,160,177576,2,0,C|102:128|64:128,1,80
128,64,177928,2,0,C|154:32|192:32,1,80
256,96,178281,5,0,0:0:0:0:
256,96,178370,1,0,0:0:0:0:
256,96,178458,1,0,0:0:0:0:
192,160,178634,2,0,C|166:192|128:192,1,80
64,128,178987,2,0,C|32:153|32:192,1,80
96,256,179340,1,0,0:0:0:0:
160,320,179517,1,0,0:0:0:0:
224,256,179693,1,0,0:0:0:0:
240,264,179781,1,0,0:0:0:0:
256,272,179870,1,0,0:0:0:0:
272,264,179958,1,0,0:0:0:0:
288,256,180046,1,0,0:0:0:0:
304,264,180134,1,0,0:0:0:0:
320,272,180223,1,0,0:0:0:0:
336,264,180311,1,0,0:0:0:0:
352,256,180399,1,0,0:0:0:0:
368,264,180487,1,0,0:0:0:0:
384,272,180576,1,0,0:0:0:0:
400,264,180664,1,0,0:0:0:0:
416,256,180752,1,0,0:0:0:0:
432,264,180840,1,0,0:0:0:0:
448,272,180928,1,0,0:0:0:0:
464,264,181017,1,0,0:0:0:0:
480,256,181105,6,0,C|503:225|480:192,1,80,4|0,0:0|0:0,0:0:0:0:
416,128,181458,2,0,C|384:105|352:128,1,80
288,192,181811,2,0,C|264:223|288:256,1,80
224,320,182164,2,0,C|192:343|160:320,1,80
96,256,182517,2,0,C|32:192|96:133|160:192|128:224,1,320
192,320,183487,1,2,0:0:0:0:
192,320,183576,1,0,0:0:0:0:
256,256,183752,1,2,0:0:0:0:
320,192,183928,6,0,C|344:160|320:128,1,80
256,64,184281,2,0,C|224:41|192:64,1,80
128,128,184634,2,0,C|104:160|128:192,1,80
64,256,184987,2,0,C|41:287|64:320,1,80
128,256,185340,2,0,C|160:352|224:257|256:352,1,320
320,288,186311,1,2,0:0:0:0:
320,288,186399,1,0,0:0:0:0:
384,352,186576,1,2,0:0:0:0:
448,288,186752,5,4,0:0:0:0:
384,96,187105,1,0,0:0:0:0:
192,32,187458,1,0,0:0:0:0:
128,224,187811,1,0,0:0:0:0:
320,160,188164,1,4,0:0:0:0:
384,352,188517,1,0,0:0:0:0:
192,288,188870,1,0,0:0:0:0:
0,224,189223,1,0,0:0:0:0:
64,32,189576,5,4,0:0:0:0:
256,96,189928,1,4,0:0:0:0:
448,160,190281,1,4,0:0:0:0:
512,224,190458,1,4,0:0:0:0:
448,288,190634,1,4,0:0:0:0:
384,352,190811,1,4,0:0:0:0:
288,320,190987,1,0,0:0:0:0:
272,312,191076,1,0,0:0:0:0:
256,304,191164,1,0,0:0:0:0:
240,296,191252,1,0,0:0:0:0:
224,288,191340,1,0,0:0:0:0:
240,280,191428,1,0,0:0:0:0:
256,272,191517,1,0,0:0:0:0:
272,264,191605,1,0,0:0:0:0:
288,256,191693,1,0,0:0:0:0:
272,248,191781,1,0,0:0:0:0:
256,240,191870,1,0,0:0:0:0:
240,232,191958,1,0,0:0:0:0:
224,224,192046,1,0,0:0:0:0:
240,216,192134,1,0,0:0:0:0:
256,208,192223,1,0,0:0:0:0:
272,200,192311,1,0,0:0:0:0:
288,192,192399,1,0,0:0:0:0:
272,184,192487,1,0,0:0:0:0:
256,176,192576,1,0,0:0:0:0:
240,168,192664,1,0,0:0:0:0:
224,160,192752,1,0,0:0:0:0:
240,152,192840,1,0,0:0:0:0:
256,144,192928,1,0,0:0:0:0:
272,136,193017,1,0,0:0:0:0:
288,128,193105,1,0,0:0:0:0:
272,120,193193,1,0,0:0:0:0:
256,112,193281,1,0,0:0:0:0:
240,104,193370,1,0,0:0:0:0:
224,96,193458,1,0,0:0:0:0:
240,88,193546,1,0,0:0:0:0:
256,80,193634,1,0,0:0:0:0:
272,72,193723,1,0,0:0:0:0:
288,64,193811,1,4,0:0:0:0:
480,32,195046,6,0,C|448:57|448:96,1,80,4|0,0:0|0:0,0:0:0:0:
480,160,195399,1,0,0:0:0:0:
448,224,195576,1,0,0:0:0:0:
320,160,195928,1,0,0:0:0:0:
304,128,196017,1,0,0:0:0:0:
288,96,196105,1,0,0:0:0:0:
224,64,196281,1,0,0:0:0:0:
192,128,196458,1,0,0:0:0:0:
160,64,196634,1,0,0:0:0:0:
96,32,196811,1,0,0:0:0:0:
64,96,196987,1,0,0:0:0:0:
32,112,197076,1,0,0:0:0:0:
0,128,197164,1,0,0:0:0:0:
64,160,197340,1,2,0:0:0:0:
0,192,197517,2,2,C|26:224|64:224,1,80
96,288,197870,6,0,C|96:326|128:352,1,80
192,320,198223,1,0,0:0:0:0:
256,352,198399,1,0,0:0:0:0:
288,288,198576,1,0,0:0:0:0:
224,256,198752,1,0,0:0:0:0:
208,224,198840,1,0,0:0:0:0:
192,192,198928,1,0,0:0:0:0:
128,160,199105,1,0,0:0:0:0:
160,96,199281,1,0,0:0:0:0:
224,64,199458,1,2,0:0:0:0:
256,128,199634,2,2,C|288:153|288:192,1,80
320,256,199987,2,2,C|352:230|352:192,1,80
384,128,200340,2,2,C|416:153|416:192,1,80
448,256,200693,6,0,C|486:256|512:288,1,80
480,352,201046,1,0,0:0:0:0:
416,320,201223,1,0,0:0:0:0:
352,192,201576,1,0,0:0:0:0:
320,208,201664,1,0,0:0:0:0:
288,224,201752,1,0,0:0:0:0:
320,288,201928,1,0,0:0:0:0:
288,352,202105,1,0,0:0:0:0:
224,320,202281,1,0,0:0:0:0:
192,256,202458,1,0,0:0:0:0:
224,192,202634,1,0,0:0:0:0:
208,160,202723,1,0,0:0:0:0:
192,128,202811,1,0,0:0:0:0:
160,192,202987,1,2,0:0:0:0:
128,256,203164,2,2,C|160:281|160:320,1,80
96,352,203517,6,0,C|57:352|32:320,1,80
64,256,203870,1,0,0:0:0:0:
32,192,204046,1,0,0:0:0:0:
96,160,204223,1,0,0:0:0:0:
64,96,204399,1,0,0:0:0:0:
80,64,204487,1,0,0:0:0:0:
96,32,204576,1,0,0:0:0:0:
160,64,204752,1,0,0:0:0:0:
192,128,204928,1,0,0:0:0:0:
256,96,205105,1,2,0:0:0:0:
288,32,205281,2,2,C|326:32|352:64,1,80
416,96,205634,2,2,C|390:128|352:128,1,80
288,160,205987,2,2,C|256:185|256:224,1,80
224,288,206340,6,6,B|17:303|32:96,1,320,6|2,0:0|0:0,0:0:0:0:
160,32,207046,2,6,B|367:17|352:224,1,320,6|2,0:0|0:0,0:0:0:0:
288,352,207752,2,0,C|320:375|352:352,1,80,4|0,0:0|0:0,0:0:0:0:
416,320,208105,1,0,0:0:0:0:
448,256,208281,1,0,0:0:0:0:
416,192,208458,1,0,0:0:0:0:
480,160,208634,1,2,0:0:0:0:
448,96,208811,2,2,C|471:62|448:32,1,80
384,64,209164,6,0,C|352:40|320:64,1,80
352,128,209517,1,0,0:0:0:0:
288,160,209693,1,0,0:0:0:0:
224,128,209870,1,0,0:0:0:0:
256,64,210046,1,0,0:0:0:0:
224,48,210134,1,0,0:0:0:0:
192,32,210223,1,0,0:0:0:0:
128,64,210399,1,0,0:0:0:0:
96,128,210576,1,0,0:0:0:0:
32,160,210752,1,2,0:0:0:0:
64,224,210928,2,2,C|41:256|64:288,1,80
128,256,211281,2,2,C|160:224|128:192,1,80
192,160,211634,2,2,C|224:137|256:160,1,80
320,128,211987,6,0,C|343:96|320:64,1,80
352,0,212340,1,0,0:0:0:0:
416,32,212517,1,0,0:0:0:0:
480,160,212870,1,0,0:0:0:0:
448,176,212958,1,0,0:0:0:0:
416,192,213046,1,0,0:0:0:0:
448,256,213223,1,0,0:0:0:0:
480,320,213399,1,0,0:0:0:0:
416,352,213576,1,0,0:0:0:0:
352,320,213752,1,0,0:0:0:0:
288,352,213928,1,0,0:0:0:0:
272,320,214017,1,0,0:0:0:0:
256,288,214105,1,0,0:0:0:0:
320,256,214281,1,2,0:0:0:0:
352,192,214458,2,2,C|320:168|288:192,1,80
224,160,214811,6,0,C|200:191|224:224,1,80
160,256,215164,1,0,0:0:0:0:
128,320,215340,1,0,0:0:0:0:
64,352,215517,1,0,0:0:0:0:
32,288,215693,1,0,0:0:0:0:
64,272,215781,1,0,0:0:0:0:
96,256,215870,1,0,0:0:0:0:
64,192,216046,1,0,0:0:0:0:
32,128,216223,1,0,0:0:0:0:
64,64,216399,2,0,L|161:52|256:32|288:64,1,240
304,48,217017,1,0,0:0:0:0:
320,32,217105,1,0,0:0:0:0:
336,48,217193,1,0,0:0:0:0:
352,64,217281,1,0,0:0:0:0:
368,48,217370,1,0,0:0:0:0:
384,32,217458,1,0,0:0:0:0:
400,48,217546,1,0,0:0:0:0:
416,64,217634,1,0,0:0:0:0:
432,48,217723,1,0,0:0:0:0:
448,32,217811,5,4,0:0:0:0:
480,96,217987,1,0,0:0:0:0:
448,160,218164,1,0,0:0:0:0:
384,192,218340,1,0,0:0:0:0:
320,160,218517,2,0,C|294:128|256:128,1,80
192,160,218870,2,0,C|160:185|160:224,1,80
192,288,219223,1,0,0:0:0:0:
256,320,219399,1,0,0:0:0:0:
320,288,219576,1,0,0:0:0:0:
352,224,219752,1,0,0:0:0:0:
320,160,219928,2,0,C|295:128|256:128,1,80
224,192,220281,2,0,C|185:192|160:160,1,80
128,96,220634,5,0,0:0:0:0:
96,32,220811,1,0,0:0:0:0:
32,64,220987,2,0,C|9:96|32:128,1,80
96,160,221340,1,0,0:0:0:0:
64,224,221517,1,0,0:0:0:0:
128,256,221693,2,0,C|160:232|192:256,1,80
224,320,222046,1,0,0:0:0:0:
288,352,222223,1,0,0:0:0:0:
352,320,222399,2,0,C|375:288|352:256,1,80
288,224,222752,1,0,0:0:0:0:
256,160,222928,1,0,0:0:0:0:
288,96,223105,2,0,C|320:73|352:96,1,80
384,160,223458,6,2,C|400:196|416:160,1,80,2|0,0:0|0:0,0:0:0:0:
448,96,223811,2,2,C|464:60|480:96,1,80,2|0,0:0|0:0,0:0:0:0:
448,160,224164,1,0,0:0:0:0:
480,224,224340,1,0,0:0:0:0:
448,288,224517,1,0,0:0:0:0:
416,224,224693,1,0,0:0:0:0:
384,288,224870,2,2,C|368:324|352:288,1,80,2|0,0:0|0:0,0:0:0:0:
288,256,225223,2,2,C|272:220|256:256,1,80,2|0,0:0|0:0,0:0:0:0:
192,288,225576,1,0,0:0:0:0:
128,320,225752,1,0,0:0:0:0:
64,288,225928,1,0,0:0:0:0:
128,256,226105,1,0,0:0:0:0:
96,192,226281,5,0,0:0:0:0:
160,160,226458,1,0,0:0:0:0:
128,96,226634,1,0,0:0:0:0:
192,128,226811,1,0,0:0:0:0:
160,192,226987,1,0,0:0:0:0:
96,160,227164,1,0,0:0:0:0:
160,128,227340,2,2,C|185:96|224:96,1,80,2|0,0:0|0:0,0:0:0:0:
192,32,227693,1,0,0:0:0:0:
224,96,227870,1,0,0:0:0:0:
256,160,228046,1,0,0:0:0:0:
288,224,228223,1,0,0:0:0:0:
320,288,228399,1,0,0:0:0:0:
352,352,228576,1,0,0:0:0:0:
416,320,228752,2,2,C|480:368|480:288,1,160,2|8,0:0|0:0,0:0:0:0:
448,224,229281,5,0,0:0:0:0:
480,160,229458,1,8,0:0:0:0:
416,128,229634,1,0,0:0:0:0:
352,160,229811,1,8,0:0:0:0:
320,96,229987,1,0,0:0:0:0:
288,32,230164,1,8,0:0:0:0:
224,64,230340,1,0,0:0:0:0:
160,32,230517,1,8,0:0:0:0:
128,96,230693,1,0,0:0:0:0:
160,160,230870,1,8,0:0:0:0:
224,192,231046,1,0,0:0:0:0:
256,256,231223,1,8,0:0:0:0:
224,320,231399,1,0,0:0:0:0:
160,352,231576,1,8,0:0:0:0:
96,320,231752,1,0,0:0:0:0:
64,256,231928,1,8,0:0:0:0:
96,192,232105,1,0,0:0:0:0:
32,160,232281,1,8,0:0:0:0:
64,96,232458,1,0,0:0:0:0:
128,64,232634,1,8,0:0:0:0:
192,96,232811,1,0,0:0:0:0:
224,160,232987,1,8,0:0:0:0:
192,224,233164,1,0,0:0:0:0:
256,256,233340,5,8,0:0:0:0:
288,320,233517,1,0,0:0:0:0:
352,352,233693,1,8,0:0:0:0:
416,320,233870,1,0,0:0:0:0:
448,256,234046,1,8,0:0:0:0:
416,192,234223,1,0,0:0:0:0:
352,160,234399,1,8,0:0:0:0:
320,96,234576,1,0,0:0:0:0:
352,32,234752,1,8,0:0:0:0:
416,64,234928,1,0,0:0:0:0:
448,128,235105,1,8,0:0:0:0:
480,192,235281,1,0,0:0:0:0:
448,256,235458,1,8,0:0:0:0:
384,288,235634,1,0,0:0:0:0:
320,256,235811,1,8,0:0:0:0:
288,192,235987,1,0,0:0:0:0:
256,128,236164,1,8,0:0:0:0:
192,160,236340,1,0,0:0:0:0:
160,224,236517,1,8,0:0:0:0:
96,256,236693,1,0,0:0:0:0:
32,224,236870,1,8,0:0:0:0:
64,160,237046,1,0,0:0:0:0:
32,96,237223,1,8,0:0:0:0:
96,64,237399,1,0,0:0:0:0:
160,32,237576,5,8,0:0:0:0:
224,64,237752,1,0,0:0:0:0:
256,128,237928,1,8,0:0:0:0:
224,192,238105,1,0,0:0:0:0:
288,224,238281,1,8,0:0:0:0:
352,192,238458,1,0,0:0:0:0:
320,128,238634,1,8,0:0:0:0:
352,64,238811,1,0,0:0:0:0:
416,96,238987,1,8,0:0:0:0:
448,160,239164,1,0,0:0:0:0:
416,224,239340,1,8,0:0:0:0:
480,256,239517,1,0,0:0:0:0:
448,320,239693,1,8,0:0:0:0:
384,352,239870,1,0,0:0:0:0:
320,320,240046,1,8,0:0:0:0:
352,256,240223,1,0,0:0:0:0:
320,192,240399,1,8,0:0:0:0:
256,224,240576,1,0,0:0:0:0:
224,288,240752,1,8,0:0:0:0:
160,256,240928,1,0,0:0:0:0:
128,320,241105,1,8,0:0:0:0:
64,352,241281,1,0,0:0:0:0:
32,288,241458,1,8,0:0:0:0:
64,224,241634,1,0,0:0:0:0:
128,192,241811,5,8,0:0:0:0:
160,128,241987,1,0,0:0:0:0:
96,96,242164,1,8,0:0:0:0:
64,160,242340,1,0,0:0:0:0:
32,96,242517,1,8,0:0:0:0:
64,32,242693,1,0,0:0:0:0:
128,0,242870,1,8,0:0:0:0:
192,32,243046,1,0,0:0:0:0:
224,96,243223,1,8,0:0:0:0:
288,64,243399,1,0,0:0:0:0:
352,32,243576,1,8,0:0:0:0:
416,64,243752,1,0,0:0:0:0:
480,96,243928,2,0,C|480:135|448:160,1,80,8|0,0:0|0:0,0:0:0:0:
416,224,244281,2,0,C|378:224|352:192,1,80,8|0,0:0|0:0,0:0:0:0:
320,128,244634,2,0,C|288:153|288:192,1,80,8|0,0:0|0:0,0:0:0:0:
256,256,244987,2,0,C|218:256|192:224,1,80,8|0,0:0|0:0,0:0:0:0:
160,160,245340,2,0,C|127:188|128:224,1,80,8|0,0:0|0:0,0:0:0:0:
160,288,245693,2,0,C|134:320|96:320,1,80,8|0,0:0|0:0,0:0:0:0:
32,352,246046,1,4,0:0:0:0:
408,320,256620,5,2,0:0:0:0:
408,320,256706,1,2,0:0:0:0:
336,320,256877,1,2,0:0:0:0:
336,320,256963,1,2,0:0:0:0:
264,320,257135,1,2,0:0:0:0:
264,320,257220,1,2,0:0:0:0:
192,320,257392,1,2,0:0:0:0:
192,320,257477,1,2,0:0:0:0:
120,320,257649,5,2,0:0:0:0:
80,264,257820,1,0,0:0:0:0:
120,208,257992,1,2,0:0:0:0:
80,152,258163,1,2,0:0:0:0:
128,104,258335,1,2,0:0:0:0:
72,64,258506,1,2,0:0:0:0:
72,64,258592,1,2,0:0:0:0:
256,192,259020,5,4,0:0:0:0:
472,336,259363,6,0,B|392:336,1,70,2|0,0:0|0:0,0:0:0:0:
328,336,259706,2,0,B|240:336,1,70,2|0,0:0|0:0,0:0:0:0:
184,336,260049,2,2,B|16:336,1,140,2|2,0:0|0:0,0:0:0:0:
48,192,260735,6,0,B|136:192,1,70,2|0,0:0|0:0,0:0:0:0:
184,192,261077,2,0,B|264:192,1,70,2|0,0:0|0:0,0:0:0:0:
320,192,261420,2,2,B|416:192|488:192,1,140,2|2,0:0|0:0,0:0:0:0:
464,48,262106,5,2,0:0:0:0:
392,48,262277,1,0,0:0:0:0:
320,48,262449,1,2,0:0:0:0:
248,48,262620,1,0,0:0:0:0:
176,48,262792,1,2,0:0:0:0:
40,48,263135,1,2,0:0:0:0:
392,128,263477,1,2,0:0:0:0:
88,208,263820,1,2,0:0:0:0:
424,288,264163,1,2,0:0:0:0:
128,360,264506,1,6,0:0:0:0:
264,352,264849,5,2,0:0:0:0:
312,304,265020,2,0,B|360:248,1,70,0|2,0:0|0:0,0:0:0:0:
376,184,265363,1,0,0:0:0:0:
304,160,265535,2,2,B|208:160|200:264,1,140,2|2,0:0|0:0,0:0:0:0:
328,296,266220,5,2,0:0:0:0:
328,296,266392,1,0,0:0:0:0:
328,296,266563,1,2,0:0:0:0:
328,296,266735,1,0,0:0:0:0:
328,296,266906,2,2,B|472:296,1,140
464,64,267592,6,0,B|384:48,1,70,2|0,0:0|0:0,0:0:0:0:
328,32,267935,2,0,B|312:112,1,70,2|0,0:0|0:0,0:0:0:0:
304,168,268277,2,0,B|392:184,1,70,2|0,0:0|0:0,0:0:0:0:
440,192,268620,2,0,B|464:104,1,70,2|0,0:0|0:0,0:0:0:0:
472,56,268963,6,6,B|408:8|320:64,1,140,6|6,0:0|0:0,0:0:0:0:
40,328,269649,2,6,B|104:376|192:320,1,140,6|6,0:0|0:0,0:0:0:0:
168,72,270335,5,2,0:0:0:0:
240,72,270506,1,0,0:0:0:0:
240,72,270592,1,0,0:0:0:0:
240,72,270677,1,2,0:0:0:0:
312,72,270849,1,0,0:0:0:0:
384,72,271020,2,2,B|416:144|368:232,1,140,2|2,0:0|0:0,0:0:0:0:
96,328,271706,5,2,0:0:0:0:
168,328,271877,1,0,0:0:0:0:
168,328,271963,1,0,0:0:0:0:
168,328,272049,1,2,0:0:0:0:
240,328,272220,1,0,0:0:0:0:
312,328,272392,2,2,B|360:256|296:176,1,140,2|2,0:0|0:0,0:0:0:0:
56,192,273077,5,2,0:0:0:0:
56,192,273249,1,0,0:0:0:0:
56,192,273420,1,2,0:0:0:0:
56,192,273592,1,0,0:0:0:0:
56,192,273763,2,2,B|88:264|56:336,1,140,2|2,0:0|0:0,0:0:0:0:
200,328,274449,5,2,0:0:0:0:
272,328,274620,1,0,0:0:0:0:
272,328,274706,1,0,0:0:0:0:
272,328,274792,1,0,0:0:0:0:
344,328,274963,1,0,0:0:0:0:
344,328,275049,1,0,0:0:0:0:
344,328,275135,1,0,0:0:0:0:
432,344,275306,1,0,0:0:0:0:
432,344,275392,1,0,0:0:0:0:
432,344,275477,1,0,0:0:0:0:
432,344,275563,1,0,0:0:0:0:
432,344,275649,1,0,0:0:0:0:
432,344,275735,1,0,0:0:0:0:
432,344,275820,5,4,0:0:0:0:
432,56,276506,1,4,0:0:0:0:
80,56,277192,1,4,0:0:0:0:
408,184,277535,1,4,0:0:0:0:
80,280,277877,1,4,0:0:0:0:
152,280,278049,1,4,0:0:0:0:
224,280,278220,1,4,0:0:0:0:
472,280,278563,6,0,B|384:280,1,70,0|0,0:0|0:0,0:0:0:0:
328,280,278906,2,0,B|248:280,1,70,0|0,0:0|0:0,0:0:0:0:
184,280,279249,2,0,B|112:280,1,70,4|0,0:0|0:0,0:0:0:0:
40,280,279592,2,0,B|40:192,1,70,0|0,0:0|0:0,0:0:0:0:
112,208,279935,2,0,C|184:200|208:136|160:80,1,210,4|0,0:0|0:0,0:0:0:0:
96,88,280621,2,0,B|216:88|408:88,1,280
432,312,281305,5,0,0:0:0:0:
360,312,281477,1,0,0:0:0:0:
288,312,281648,1,0,0:0:0:0:
216,312,281820,2,0,B|136:200|272:104,1,210,0|0,0:0|0:0,0:0:0:0:
344,32,282677,5,0,0:0:0:0:
400,80,282848,1,0,0:0:0:0:
392,152,283020,1,0,0:0:0:0:
336,192,283191,2,0,B|376:256|352:336,1,140,0|0,0:0|0:0,0:0:0:0:
288,304,283705,1,0,0:0:0:0:
224,328,283877,1,0,0:0:0:0:
160,304,284048,5,0,0:0:0:0:
96,328,284220,1,0,0:0:0:0:
32,304,284391,1,0,0:0:0:0:
80,248,284563,2,0,B|120:208|192:192|296:200,1,210
464,208,285420,5,0,0:0:0:0:
480,136,285591,1,0,0:0:0:0:
440,72,285763,1,0,0:0:0:0:
376,96,285934,2,0,B|304:128|224:88,1,140,0|0,0:0|0:0,0:0:0:0:
240,96,286448,1,0,0:0:0:0:
72,312,286791,6,0,B|96:232,1,70
160,248,287134,2,0,B|248:248,1,70,0|0,0:0|0:0,0:0:0:0:
200,312,287477,2,0,B|96:312,1,70,0|0,0:0|0:0,0:0:0:0:
56,312,287820,2,0,B|80:240,1,70,0|0,0:0|0:0,0:0:0:0:
136,48,288163,1,0,0:0:0:0:
256,296,288505,5,0,0:0:0:0:
344,72,288848,1,0,0:0:0:0:
416,320,289191,1,0,0:0:0:0:
88,128,289534,6,4,B|48:200|96:288,1,140
424,128,290220,2,4,B|464:200|416:288,1,140
256,192,290905,12,0,291591,0:0:0:0:
160,176,302896,5,4,0:0:0:0:
80,176,303063,1,0,0:0:0:0:
80,96,303230,1,0,0:0:0:0:
160,96,303396,1,0,0:0:0:0:
200,96,303480,1,0,0:0:0:0:
240,96,303563,1,4,0:0:0:0:
320,96,303730,1,0,0:0:0:0:
400,96,303896,1,0,0:0:0:0:
400,176,304063,1,0,0:0:0:0:
320,176,304230,5,4,0:0:0:0:
320,256,304396,1,0,0:0:0:0:
400,256,304563,1,0,0:0:0:0:
320,256,304730,1,0,0:0:0:0:
240,256,304896,1,4,0:0:0:0:
200,256,304980,1,0,0:0:0:0:
160,256,305063,1,0,0:0:0:0:
120,256,305146,1,0,0:0:0:0:
80,256,305230,1,0,0:0:0:0:
80,96,305563,5,4,0:0:0:0:
80,176,305730,1,0,0:0:0:0:
120,192,305813,1,0,0:0:0:0:
160,176,305896,1,0,0:0:0:0:
160,96,306063,1,0,0:0:0:0:
240,96,306230,1,4,0:0:0:0:
240,136,306313,1,0,0:0:0:0:
240,176,306396,1,0,0:0:0:0:
320,176,306563,5,0,0:0:0:0:
320,96,306730,1,0,0:0:0:0:
400,96,306896,1,4,0:0:0:0:
400,176,307063,1,0,0:0:0:0:
400,256,307230,1,0,0:0:0:0:
360,272,307313,1,0,0:0:0:0:
320,256,307396,1,0,0:0:0:0:
240,256,307563,1,4,0:0:0:0:
160,256,307730,1,0,0:0:0:0:
200,320,307896,1,0,0:0:0:0:
120,320,308063,1,0,0:0:0:0:
72,256,308230,5,4,0:0:0:0:
72,216,308313,1,0,0:0:0:0:
72,176,308396,1,0,0:0:0:0:
72,136,308480,1,0,0:0:0:0:
72,96,308563,1,0,0:0:0:0:
136,136,308730,1,0,0:0:0:0:
200,96,308896,1,4,0:0:0:0:
264,136,309063,1,0,0:0:0:0:
328,96,309230,1,0,0:0:0:0:
368,80,309313,1,0,0:0:0:0:
408,96,309396,1,0,0:0:0:0:
368,160,309563,5,4,0:0:0:0:
408,224,309730,1,0,0:0:0:0:
368,288,309896,1,0,0:0:0:0:
328,224,310063,1,0,0:0:0:0:
288,288,310230,1,4,0:0:0:0:
240,224,310396,1,0,0:0:0:0:
200,240,310480,1,0,0:0:0:0:
160,224,310563,1,0,0:0:0:0:
72,304,310896,5,4,0:0:0:0:
56,264,310980,1,0,0:0:0:0:
72,224,311063,1,0,0:0:0:0:
72,144,311230,1,4,0:0:0:0:
56,104,311313,1,0,0:0:0:0:
72,64,311396,1,0,0:0:0:0:
136,104,311563,1,4,0:0:0:0:
200,152,311730,1,0,0:0:0:0:
264,104,311896,1,0,0:0:0:0:
320,152,312063,1,0,0:0:0:0:
384,104,312230,5,4,0:0:0:0:
136,104,312563,1,4,0:0:0:0:
256,344,312896,1,0,0:0:0:0:
256,304,312980,1,0,0:0:0:0:
256,264,313063,1,4,0:0:0:0:
256,224,313146,1,0,0:0:0:0:
256,184,313230,1,4,0:0:0:0:
176,72,313563,5,2,0:0:0:0:
256,72,313730,1,0,0:0:0:0:
336,72,313896,1,2,0:0:0:0:
368,96,313980,1,0,0:0:0:0:
352,136,314063,1,0,0:0:0:0:
432,144,314230,5,0,0:0:0:0:
384,200,314396,1,2,0:0:0:0:
416,224,314480,1,0,0:0:0:0:
456,216,314563,1,0,0:0:0:0:
432,64,314896,5,2,0:0:0:0:
400,40,314980,1,0,0:0:0:0:
360,24,315063,1,0,0:0:0:0:
320,24,315146,1,0,0:0:0:0:
280,32,315230,1,2,0:0:0:0:
200,48,315396,1,0,0:0:0:0:
128,80,315563,1,0,0:0:0:0:
96,104,315646,1,0,0:0:0:0:
96,144,315730,1,2,0:0:0:0:
128,168,315813,1,0,0:0:0:0:
168,160,315896,1,0,0:0:0:0:
208,96,316063,6,4,B|288:96,1,70,0|4,0:0|0:0,0:0:0:0:
360,96,316396,2,4,B|400:168,1,70,0|0,0:0|0:0,0:0:0:0:
320,160,316730,2,4,B|240:160,1,70,0|0,0:0|0:0,0:0:0:0:
248,240,317063,1,2,0:0:0:0:
248,280,317146,1,0,0:0:0:0:
248,320,317230,1,0,0:0:0:0:
168,320,317396,1,2,0:0:0:0:
88,320,317563,5,6,0:0:0:0:
48,256,317730,1,2,0:0:0:0:
56,176,317896,1,2,0:0:0:0:
56,176,317980,1,2,0:0:0:0:
128,160,318146,1,0,0:0:0:0:
128,160,318230,1,0,0:0:0:0:
208,160,318396,1,2,0:0:0:0:
248,160,318480,1,0,0:0:0:0:
288,160,318563,1,0,0:0:0:0:
368,160,318730,1,2,0:0:0:0:
448,160,318896,5,6,0:0:0:0:
448,80,319063,1,0,0:0:0:0:
368,80,319230,1,2,0:0:0:0:
296,48,319396,1,0,0:0:0:0:
224,80,319563,1,0,0:0:0:0:
152,56,319730,1,2,0:0:0:0:
112,72,319813,1,0,0:0:0:0:
80,88,319896,1,0,0:0:0:0:
32,144,320063,1,0,0:0:0:0:
104,176,320230,5,6,0:0:0:0:
184,176,320396,1,0,0:0:0:0:
184,256,320563,1,2,0:0:0:0:
264,256,320730,1,0,0:0:0:0:
264,176,320896,2,2,B|304:152|272:136|312:112,2,70
336,320,321563,5,4,0:0:0:0:
416,312,321730,1,0,0:0:0:0:
360,256,321896,1,0,0:0:0:0:
440,248,322063,1,0,0:0:0:0:
392,192,322230,1,4,0:0:0:0:
472,184,322396,1,0,0:0:0:0:
416,128,322563,1,0,0:0:0:0:
496,120,322730,1,0,0:0:0:0:
440,64,322896,5,0,0:0:0:0:
416,40,322980,1,0,0:0:0:0:
384,32,323063,1,0,0:0:0:0:
352,40,323146,1,0,0:0:0:0:
328,56,323230,1,0,0:0:0:0:
304,72,323313,1,0,0:0:0:0:
272,64,323396,1,0,0:0:0:0:
248,48,323480,1,0,0:0:0:0:
216,32,323563,1,0,0:0:0:0:
184,40,323646,1,0,0:0:0:0:
160,56,323730,1,0,0:0:0:0:
144,80,323813,1,0,0:0:0:0:
144,112,323896,1,0,0:0:0:0:
160,136,323980,1,0,0:0:0:0:
184,152,324063,1,0,0:0:0:0:
216,152,324146,1,0,0:0:0:0:
240,136,324230,1,4,0:0:0:0:
448,192,329274,5,0,0:0:0:0:
64,192,329922,1,0,0:0:0:0:
176,88,330571,5,0,0:0:0:0:
360,128,330895,1,0,0:0:0:0:
336,296,331219,1,0,0:0:0:0:
152,256,331544,1,0,0:0:0:0:
256,192,331868,5,0,0:0:0:0:
256,192,331949,12,0,334463,0:0:0:0:
192,264,334787,5,8,0:0:0:0:
280,296,334949,2,0,B|258:208|336:160,1,160
400,232,335436,2,0,B|371:262|328:272,1,80,8|0,0:0|0:0,0:0:0:0:
248,216,335760,6,0,B|240:128,1,80
144,64,336084,2,0,B|152:152,1,80,8|0,0:0|0:0,0:0:0:0:
80,200,336409,1,0,0:0:0:0:
88,288,336571,1,0,0:0:0:0:
176,320,336733,1,8,0:0:0:0:
248,264,336895,1,0,0:0:0:0:
168,232,337057,6,0,B|184:183|230:148,1,80,2|0,0:0|0:0,0:0:0:0:
296,184,337382,1,8,0:0:0:0:
376,144,337544,2,0,B|368:92|344:48,1,80,2|0,0:0|0:0,0:0:0:0:
264,88,337868,2,0,B|232:64|184:56,2,80,2|8|2,0:0|0:0|0:0,0:0:0:0:
328,280,338355,5,2,0:0:0:0:
392,216,338517,2,0,B|432:232,2,40,2|0|10,0:0|0:0|0:0,0:0:0:0:
240,248,338841,1,2,0:0:0:0:
336,128,339003,1,2,0:0:0:0:
240,160,339165,2,0,B|204:135|160:112,1,80,0|10,0:0|0:0,0:0:0:0:
96,168,339490,1,0,0:0:0:0:
96,168,339652,6,0,B|104:240|144:336,1,160,0|8,0:0|0:0,0:0:0:0:
216,288,340138,1,0,0:0:0:0:
288,336,340301,2,0,B|336:343|384:344,1,80
392,256,340625,2,0,B|437:237|479:214,1,80,8|0,0:0|0:0,0:0:0:0:
400,160,340949,5,0,0:0:0:0:
320,48,341111,1,0,0:0:0:0:
304,184,341274,1,8,0:0:0:0:
320,48,341436,1,0,0:0:0:0:
256,104,341598,6,0,B|208:111|176:128,1,80
128,56,341922,2,0,B|88:80|72:112,1,80,8|0,0:0|0:0,0:0:0:0:
112,192,342246,2,0,B|83:240,2,40,2|0|0,0:0|0:0|0:0,0:0:0:0:
168,264,342571,6,0,B|203:288|256:296,1,80,10|2,0:0|0:0,0:0:0:0:
328,272,342895,1,2,0:0:0:0:
296,192,343057,1,2,0:0:0:0:
300,170,343138,1,0,0:0:0:0:
293,150,343219,1,10,0:0:0:0:
192,136,343382,2,0,B|166:100|160:56,1,80,2|0,0:0|0:0,0:0:0:0:
264,48,343706,6,0,B|352:24,1,80,2|8,0:0|0:0,0:0:0:0:
400,112,344030,2,0,B|428:141|448:184,1,80,2|8,0:0|0:0,0:0:0:0:
376,264,344355,1,0,0:0:0:0:
376,264,344436,1,0,0:0:0:0:
376,264,344517,1,8,0:0:0:0:
304,208,344679,1,0,0:0:0:0:
304,208,344841,6,0,B|226:185|123:177,1,160,0|8,0:0|0:0,0:0:0:0:
104,256,345328,1,0,0:0:0:0:
176,312,345490,2,0,B|288:288,1,80
254,88,345814,2,0,B|176:72,1,80,8|0,0:0|0:0,0:0:0:0:
96,112,346138,5,2,0:0:0:0:
48,184,346301,1,0,0:0:0:0:
48,184,346382,1,0,0:0:0:0:
48,184,346463,1,8,0:0:0:0:
104,256,346625,2,0,B|184:232|272:224,1,160,2|0,0:0|0:0,0:0:0:0:
320,296,347111,1,10,0:0:0:0:
240,336,347274,1,0,0:0:0:0:
168,280,347436,6,0,B|152:200|160:120,1,160,0|8,0:0|0:0,0:0:0:0:
256,160,347922,2,0,B|310:148|352:112,1,80
320,40,348246,1,0,0:0:0:0:
208,32,348409,1,8,0:0:0:0:
320,40,348571,1,0,0:0:0:0:
400,80,348733,5,2,0:0:0:0:
415,98,348814,1,0,0:0:0:0:
424,120,348895,1,0,0:0:0:0:
424,208,349057,1,8,0:0:0:0:
384,288,349219,2,2,B|323:350|224:320,1,160,2|0,0:0|0:0,0:0:0:0:
160,272,349706,1,8,0:0:0:0:
216,200,349868,1,0,0:0:0:0:
296,248,350030,6,0,B|315:204|320:152,1,80
128,192,350355,2,0,B|109:148|106:115,1,80,8|0,0:0|0:0,0:0:0:0:
184,32,350679,1,0,0:0:0:0:
296,80,350841,2,0,B|346:78|399:59,2,80,0|8|0,0:0|0:0|0:0,0:0:0:0:
368,200,351328,5,0,0:0:0:0:
248,280,351490,1,0,0:0:0:0:
224,152,351652,1,8,0:0:0:0:
248,280,351814,1,0,0:0:0:0:
392,336,351976,6,0,B|419:303|435:252,1,80
368,200,352301,2,0,B|387:132|342:88|286:75,1,160,8|2,0:0|0:0,0:0:0:0:
208,72,352787,2,0,B|169:46,2,40,0|0|2,0:0|0:0|0:0,0:0:0:0:
200,224,353111,1,2,0:0:0:0:
272,176,353274,6,0,B|295:212|296:256,1,80,2|2,0:0|0:0,0:0:0:0:
200,224,353598,2,0,B|180:261|142:284,1,80,2|2,0:0|0:0,0:0:0:0:
112,208,353922,1,2,0:0:0:0:
93,193,354003,1,0,0:0:0:0:
81,169,354084,1,2,0:0:0:0:
80,145,354165,1,0,0:0:0:0:
88,122,354246,1,2,0:0:0:0:
152,56,354409,1,2,0:0:0:0:
240,72,354571,5,2,0:0:0:0:
200,208,354733,1,2,0:0:0:0:
336,168,354895,1,2,0:0:0:0:
240,72,355219,5,12,0:0:0:0:
256,192,363351,5,4,0:0:0:0:
64,128,363675,1,8,0:0:0:0:
128,320,364000,1,0,0:0:0:0:
192,352,364162,2,0,B|288:352,1,95,0|8,0:0|0:0,0:0:0:0:
352,320,364486,1,0,0:0:0:0:
416,128,364810,6,0,B|466:117|480:64,1,95,0|8,0:0|0:0,0:0:0:0:
416,32,365135,1,0,0:0:0:0:
352,64,365297,1,0,0:0:0:0:
416,256,365621,1,8,0:0:0:0:
224,192,365945,5,0,0:0:0:0:
32,256,366270,1,8,0:0:0:0:
96,64,366594,1,0,0:0:0:0:
160,32,366756,2,0,B|256:32,1,95,0|8,0:0|0:0,0:0:0:0:
288,96,367081,1,0,0:0:0:0:
224,288,367405,5,0,0:0:0:0:
256,304,367486,1,0,0:0:0:0:
288,320,367567,1,0,0:0:0:0:
320,256,367729,1,0,0:0:0:0:
352,272,367810,1,0,0:0:0:0:
384,288,367891,1,0,0:0:0:0:
416,224,368054,2,0,C|437:213|448:192,5,47.5,2|0|2|0|2|0,0:0|0:0|0:0|0:0|0:0|0:0,0:0:0:0:
448,192,368540,5,4,0:0:0:0:
256,128,368864,1,8,0:0:0:0:
448,64,369189,1,0,0:0:0:0:
384,32,369351,2,0,B|384:128,1,95,0|8,0:0|0:0,0:0:0:0:
320,160,369675,1,0,0:0:0:0:
128,96,370000,6,0,B|116:45|64:32,1,95,0|8,0:0|0:0,0:0:0:0:
0,64,370324,1,0,0:0:0:0:
32,128,370486,1,0,0:0:0:0:
224,192,370810,1,8,0:0:0:0:
32,256,371135,5,0,0:0:0:0:
224,320,371459,1,8,0:0:0:0:
288,128,371783,1,0,0:0:0:0:
320,192,371945,2,0,B|320:288,1,95,0|8,0:0|0:0,0:0:0:0:
352,352,372270,1,0,0:0:0:0:
416,160,372594,5,0,0:0:0:0:
448,144,372675,1,0,0:0:0:0:
480,128,372756,1,0,0:0:0:0:
448,64,372918,1,0,0:0:0:0:
384,32,373081,2,0,L|384:20|384:32,1,23.75,6|0,0:0|0:0,0:0:0:0:
352,96,373567,1,4,0:0:0:0:
160,32,373891,5,0,0:0:0:0:
96,64,374054,1,0,0:0:0:0:
32,96,374216,1,0,0:0:0:0:
0,160,374378,1,0,0:0:0:0:
0,224,374540,1,0,0:0:0:0:
32,288,374702,1,0,0:0:0:0:
96,320,374864,1,0,0:0:0:0:
160,352,375027,5,0,0:0:0:0:
352,288,375351,1,0,0:0:0:0:
416,96,375675,1,0,0:0:0:0:
448,160,375837,1,0,0:0:0:0:
464,192,375918,1,0,0:0:0:0:
448,224,376000,1,0,0:0:0:0:
416,288,376162,1,4,0:0:0:0:
352,96,376486,5,0,0:0:0:0:
288,64,376648,1,0,0:0:0:0:
256,128,376810,1,0,0:0:0:0:
192,96,376972,1,0,0:0:0:0:
160,160,377135,1,0,0:0:0:0:
96,128,377297,1,0,0:0:0:0:
32,320,377621,5,0,0:0:0:0:
416,320,377945,5,6,0:0:0:0:
160,32,378269,5,6,0:0:0:0:
96,64,378432,1,0,0:0:0:0:
32,32,378594,1,0,0:0:0:0:
0,96,378756,1,0,0:0:0:0:
64,288,379081,5,6,0:0:0:0:
128,320,379243,1,2,0:0:0:0:
192,352,379405,1,6,0:0:0:0:
384,288,379729,5,0,0:0:0:0:
320,320,379891,1,0,0:0:0:0:
256,352,380054,1,0,0:0:0:0:
192,160,380378,5,6,0:0:0:0:
224,96,380540,1,2,0:0:0:0:
256,32,380702,1,6,0:0:0:0:
320,224,381027,5,0,0:0:0:0:
288,160,381189,1,0,0:0:0:0:
320,96,381351,2,0,B|353:96|384:64|352:32,1,95
416,224,381837,5,6,0:0:0:0:
224,288,382162,1,0,0:0:0:0:
256,224,382324,1,2,0:0:0:0:
64,96,382810,6,0,C|31:128|64:160|31:192|64:224|30:256|64:288|30:320|64:352,1,380,4|0,0:0|0:0,0:0:0:0:
128,320,383621,1,0,0:0:0:0:
160,256,383783,1,0,0:0:0:0:
128,192,383945,1,0,0:0:0:0:
160,128,384107,6,0,C|160:32,1,95,6|0,0:0|0:0,0:0:0:0:
224,64,384432,2,0,C|320:64,1,95,2|0,0:0|0:0,0:0:0:0:
384,96,384756,2,0,C|384:192,2,95,2|0|0,0:0|0:0|0:0,0:0:0:0:
416,32,385242,2,0,C|512:32,1,95,2|0,0:0|0:0,0:0:0:0:
480,96,385567,6,0,C|480:192,1,95,2|0,0:0|0:0,0:0:0:0:
448,256,385891,1,2,0:0:0:0:
480,320,386053,2,0,C|384:320,1,95,2|0,0:0|0:0,0:0:0:0:
320,352,386377,2,0,C|224:352,1,95,2|0,0:0|0:0,0:0:0:0:
160,320,386702,6,0,C|160:224,1,95,2|0,0:0|0:0,0:0:0:0:
96,256,387027,2,0,C|0:256,1,95,2|0,0:0|0:0,0:0:0:0:
32,192,387351,2,0,C|32:96,2,95,2|0|0,0:0|0:0|0:0,0:0:0:0:
96,160,387837,2,0,C|192:160,1,95,2|0,0:0|0:0,0:0:0:0:
256,128,388162,6,0,C|256:32,1,95,2|0,0:0|0:0,0:0:0:0:
320,64,388486,1,2,0:0:0:0:
384,32,388648,2,0,C|480:32,1,95,2|0,0:0|0:0,0:0:0:0:
448,96,388972,2,0,C|448:192,1,95,2|0,0:0|0:0,0:0:0:0:
480,256,389296,6,0,C|384:256,1,95,2|0,0:0|0:0,0:0:0:0:
352,320,389621,2,0,C|256:320,1,95,2|0,0:0|0:0,0:0:0:0:
192,288,389945,2,0,C|192:192,2,95,2|0|0,0:0|0:0|0:0,0:0:0:0:
160,352,390431,2,0,C|64:352,1,95,2|0,0:0|0:0,0:0:0:0:
0,320,390756,6,0,C|0:224,1,95,2|0,0:0|0:0,0:0:0:0:
64,256,391080,1,2,0:0:0:0:
128,288,391242,2,0,C|128:192,1,95,2|0,0:0|0:0,0:0:0:0:
96,128,391567,2,0,C|0:128,1,95,2|0,0:0|0:0,0:0:0:0:
32,64,391891,6,0,C|128:64,1,95,2|0,0:0|0:0,0:0:0:0:
192,32,392216,2,0,C|288:32,1,95,2|0,0:0|0:0,0:0:0:0:
352,64,392540,2,0,C|352:160,1,95,2|0,0:0|0:0,0:0:0:0:
320,224,392864,1,0,0:0:0:0:
288,208,392945,1,0,0:0:0:0:
256,192,393026,1,0,0:0:0:0:
224,208,393107,1,0,0:0:0:0:
192,224,393167,6,0,L|180:224|192:224,1,23.75,2|0,0:0|0:0,0:0:0:0:
224,288,393690,1,0,0:0:0:0:
160,320,393853,1,0,0:0:0:0:
224,352,394015,1,0,0:0:0:0:
288,320,394178,1,0,0:0:0:0:
352,352,394340,1,0,0:0:0:0:
416,320,394501,6,0,B|468:307|480:256,1,95,4|0,0:0|0:0,0:0:0:0:
416,224,394826,2,0,B|429:172|480:160,1,95
448,96,395151,1,0,0:0:0:0:
384,128,395313,1,0,0:0:0:0:
320,96,395475,1,0,0:0:0:0:
384,64,395637,1,0,0:0:0:0:
448,32,395799,1,0,0:0:0:0:
128,64,396122,6,6,B|48:80|0:128|-16:192|0:256|48:304|128:320,1,380
192,352,396609,1,0,0:0:0:0:
224,336,396690,1,0,0:0:0:0:
256,320,396771,1,0,0:0:0:0:
288,256,396933,1,0,0:0:0:0:
256,192,397095,6,0,B|205:180|192:128,1,95,4|0,0:0|0:0,0:0:0:0:
256,96,397420,2,0,B|244:45|192:32,1,95
128,64,397744,1,0,0:0:0:0:
96,128,397906,1,0,0:0:0:0:
32,160,398069,1,0,0:0:0:0:
0,96,398231,1,0,0:0:0:0:
32,32,398392,1,0,0:0:0:0:
384,64,398717,6,6,B|464:80|512:128|528:192|512:256|464:304|384:320,1,380
320,352,399204,1,0,0:0:0:0:
304,320,399285,1,0,0:0:0:0:
288,288,399366,1,0,0:0:0:0:
256,224,399528,1,0,0:0:0:0:
224,160,399690,6,0,B|206:104|160:96,1,95,4|0,0:0|0:0,0:0:0:0:
96,128,400015,2,0,B|108:179|160:192,1,95
192,256,400339,1,0,0:0:0:0:
128,288,400501,1,0,0:0:0:0:
64,256,400663,1,0,0:0:0:0:
0,288,400825,1,0,0:0:0:0:
32,352,400987,1,0,0:0:0:0:
384,320,401311,6,6,B|464:304|512:256|528:192|512:128|464:80|384:64,1,380
320,32,401798,1,0,0:0:0:0:
288,48,401879,1,0,0:0:0:0:
256,64,401960,1,0,0:0:0:0:
192,96,402123,1,0,0:0:0:0:
224,160,402284,6,0,B|235:211|288:224,1,95,4|0,0:0|0:0,0:0:0:0:
320,160,402609,2,0,B|372:173|384:224,1,95
448,192,402933,1,0,0:0:0:0:
480,256,403096,1,0,0:0:0:0:
416,288,403258,1,0,0:0:0:0:
448,352,403420,1,0,0:0:0:0:
512,320,403582,1,0,0:0:0:0:
128,320,403906,6,6,B|48:304|0:256|-16:192|0:128|48:80|128:64,1,380
192,32,404393,1,0,0:0:0:0:
208,64,404474,1,0,0:0:0:0:
224,96,404555,1,0,0:0:0:0:
256,112,404636,1,0,0:0:0:0:
288,96,404717,1,0,0:0:0:0:
304,64,404798,1,0,0:0:0:0:
320,32,404879,6,0,B|416:0|384:128|480:96,1,190,4|0,0:0|0:0,0:0:0:0:
512,160,405365,2,0,B|504:192|481:199|456:192|448:160,1,95
384,128,405690,1,0,0:0:0:0:
352,192,405852,1,0,0:0:0:0:
320,256,406015,1,0,0:0:0:0:
256,288,406176,6,0,B|160:256|192:384|96:352,1,190,8|8,0:0|0:0,0:0:0:0:
32,320,406663,1,8,0:0:0:0:
0,256,406825,2,0,B|11:206|64:192,1,95,8|0,0:0|0:0,0:0:0:0:
128,160,407150,1,8,0:0:0:0:
96,96,407311,1,0,0:0:0:0:
112,64,407392,1,0,0:0:0:0:
128,32,407474,5,2,0:0:0:0:
192,64,407636,1,0,0:0:0:0:
256,32,407798,1,0,0:0:0:0:
448,96,408123,1,0,0:0:0:0:
512,128,408285,1,0,0:0:0:0:
448,320,408572,2,0,C|448:344,1,23.75
448,352,409059,1,6,0:0:0:0:
124,68,417703,6,0,B|188:88|204:164,1,110,4|8,0:0|0:0,0:0:0:0:
212,232,418019,1,0,0:0:0:0:
388,68,418177,6,0,B|324:88|308:164,1,110,8|0,0:0|0:0,0:0:0:0:
300,232,418493,1,8,0:0:0:0:
312,320,418650,2,0,B|200:320,1,110,0|8,0:0|0:0,0:0:0:0:
132,264,418966,6,0,B|104:216|104:216|56:192,1,110,0|8,0:0|0:0,0:0:0:0:
112,124,419282,2,0,B|164:100|164:100|212:124,1,110,0|8,0:0|0:0,0:0:0:0:
399,123,419598,2,0,B|348:100|348:100|300:123,1,110,0|8,0:0|0:0,0:0:0:0:
456,191,419914,2,0,B|408:216|408:216|380:264,1,110,0|8,0:0|0:0,0:0:0:0:
464,284,420229,6,0,B|448:344|384:356,1,110,4|8,0:0|0:0,0:0:0:0:
304,332,420545,1,0,0:0:0:0:
300,124,420703,1,8,0:0:0:0:
208,332,420861,1,0,0:0:0:0:
212,124,421019,1,8,0:0:0:0:
123,355,421177,2,0,B|64:344|48:284,1,110,0|8,0:0|0:0,0:0:0:0:
108,192,421492,6,0,B|8:140,1,110,4|8,0:0|0:0,0:0:0:0:
256,264,421808,2,0,B|356:316,1,110,4|8,0:0|0:0,0:0:0:0:
452,280,422124,6,0,B|354:229,1,110,4|8,0:0|0:0,0:0:0:0:
108,106,422440,2,0,B|205:156,1,110,4|8,0:0|0:0,0:0:0:0:
256,84,422756,6,0,B|308:52|372:68,1,110,4|8,0:0|0:0,0:0:0:0:
444,96,423071,1,0,0:0:0:0:
368,144,423229,2,0,B|344:200|368:252,1,110,8|0,0:0|0:0,0:0:0:0:
444,184,423545,2,0,B|464:240|444:292,1,110,8|0,0:0|0:0,0:0:0:0:
368,336,423861,1,8,0:0:0:0:
296,284,424019,5,0,0:0:0:0:
216,100,424177,1,8,0:0:0:0:
270,291,424335,1,0,0:0:0:0:
241,92,424493,1,8,0:0:0:0:
253,292,424650,1,0,0:0:0:0:
258,91,424808,1,8,0:0:0:0:
235,290,424966,1,0,0:0:0:0:
276,93,425124,1,8,0:0:0:0:
219,285,425282,5,4,0:0:0:0:
148,336,425440,2,0,B|84:344|48:300,1,110,8|0,0:0|0:0,0:0:0:0:
120,248,425756,1,8,0:0:0:0:
52,196,425914,2,0,B|40:132|88:100,1,110,0|8,0:0|0:0,0:0:0:0:
176,100,426229,2,0,B|224:132|212:196,1,110,8|0,0:0|0:0,0:0:0:0:
132,168,426545,5,4,0:0:0:0:
352,168,426703,1,8,0:0:0:0:
180,232,426861,5,4,0:0:0:0:
400,232,427019,1,8,0:0:0:0:
232,316,427177,5,4,0:0:0:0:
232,96,427335,1,8,0:0:0:0:
296,268,427493,5,4,0:0:0:0:
296,48,427651,1,8,0:0:0:0:
376,84,427808,6,0,B|440:88|452:152,1,110,4|8,0:0|0:0,0:0:0:0:
476,236,428124,1,0,0:0:0:0:
456,320,428282,2,0,B|404:352|352:320,1,110,8|0,0:0|0:0,0:0:0:0:
400,248,428598,2,0,B|348:216|296:248,1,110,8|0,0:0|0:0,0:0:0:0:
216,288,428914,1,8,0:0:0:0:
292,332,429071,6,0,B|252:392|176:368,1,110,0|8,0:0|0:0,0:0:0:0:
108,376,429387,2,0,B|37:390|0:319,1,110,0|8,0:0|0:0,0:0:0:0:
16,248,429703,2,0,B|1:177|72:140,1,110,0|8,0:0|0:0,0:0:0:0:
229,73,430019,2,0,B|176:56|128:104,1,110,0|8,0:0|0:0,0:0:0:0:
324,92,430335,6,0,B|344:152|408:148,1,110,4|8,0:0|0:0,0:0:0:0:
408,60,430650,1,0,0:0:0:0:
484,104,430808,2,0,B|500:172|464:224,1,110,8|0,0:0|0:0,0:0:0:0:
461,318,431124,2,0,B|445:250|481:198,1,110,8|0,0:0|0:0,0:0:0:0:
384,228,431440,1,8,0:0:0:0:
348,312,431598,6,0,B|284:220,1,110,4|8,0:0|0:0,0:0:0:0:
164,72,431914,2,0,B|228:164,1,110,4|8,0:0|0:0,0:0:0:0:
216,344,432229,2,0,B|216:231,1,110,4|8,0:0|0:0,0:0:0:0:
296,40,432545,2,0,B|295:152,1,110,4|8,0:0|0:0,0:0:0:0:
296,240,432861,6,0,B|252:280|192:256,1,110,4|8,0:0|0:0,0:0:0:0:
108,236,433177,1,0,0:0:0:0:
132,320,433335,2,0,B|64:332|32:276,1,110,8|0,0:0|0:0,0:0:0:0:
28,196,433650,2,0,B|60:144|124:152,1,110,8|0,0:0|0:0,0:0:0:0:
208,164,433966,1,8,0:0:0:0:
256,92,434124,6,0,B|324:180,1,110,0|8,0:0|0:0,0:0:0:0:
348,92,434440,2,0,B|416:180,1,110,0|8,0:0|0:0,0:0:0:0:
464,252,434756,2,0,B|412:288|348:268,1,110,0|8,0:0|0:0,0:0:0:0:
472,336,435071,2,0,B|412:364|344:344,1,110,0|8,0:0|0:0,0:0:0:0:
288,300,435387,6,0,B|228:280|180:308,1,110,4|8,0:0|0:0,0:0:0:0:
240,372,435703,1,0,0:0:0:0:
152,380,435861,2,0,B|88:348|108:268,1,110,8|0,0:0|0:0,0:0:0:0:
172,232,436177,2,0,B|124:184|56:212,1,110,8|0,0:0|0:0,0:0:0:0:
48,124,436492,1,8,0:0:0:0:
48,124,436650,5,4,0:0:0:0:
464,260,436966,1,4,0:0:0:0:
48,260,437282,1,4,0:0:0:0:
464,124,437598,1,4,0:0:0:0:
188,116,437914,6,0,B|248:132|256:192,1,110,4|8,0:0|0:0,0:0:0:0:
324,116,438229,2,0,B|264:132|256:192,1,110,4|8,0:0|0:0,0:0:0:0:
188,268,438545,2,0,B|248:252|256:192,1,110,4|8,0:0|0:0,0:0:0:0:
324,268,438861,2,0,B|264:252|256:192,1,110,4|8,0:0|0:0,0:0:0:0:
188,116,439177,6,0,B|172:56|112:48,1,110,4|8,0:0|0:0,0:0:0:0:
324,116,439492,2,0,B|340:56|400:48,1,110,4|8,0:0|0:0,0:0:0:0:
324,268,439808,2,0,B|340:328|400:336,1,110,4|8,0:0|0:0,0:0:0:0:
188,268,440124,2,0,B|172:328|112:336,1,110,4|8,0:0|0:0,0:0:0:0:
176,192,440440,6,0,B|196:132|256:128,1,110,4|8,0:0|0:0,0:0:0:0:
336,192,440756,2,0,B|316:252|256:256,1,110,4|8,0:0|0:0,0:0:0:0:
256,128,441071,2,0,B|318:135|335:192,1,110,4|8,0:0|0:0,0:0:0:0:
255,255,441387,2,0,B|193:248|176:190,1,110,4|8,0:0|0:0,0:0:0:0:
124,136,441703,6,0,B|144:76|204:72,1,110,4|8,0:0|0:0,0:0:0:0:
387,246,442019,2,0,B|370:305|308:312,1,110,4|8,0:0|0:0,0:0:0:0:
308,72,442335,2,0,B|370:79|387:136,1,110,4|8,0:0|0:0,0:0:0:0:
204,312,442650,2,0,B|144:308|124:248,1,110,4|8,0:0|0:0,0:0:0:0:
173,192,442966,6,0,B|217:180|217:180|217:204|217:204|257:192,1,110,4|8,0:0|0:0,0:0:0:0:
339,192,443282,2,0,B|295:180|295:180|295:204|295:204|255:192,1,110,4|8,0:0|0:0,0:0:0:0:
256,109,443598,2,0,B|268:153|268:153|244:153|244:153|256:193,1,110,4|8,0:0|0:0,0:0:0:0:
256,275,443914,2,0,B|268:231|268:231|244:231|244:231|256:191,1,110,4|8,0:0|0:0,0:0:0:0:
180,116,444229,6,0,B|156:64|128:92|105:41,1,110,4|8,0:0|0:0,0:0:0:0:
332,116,444545,2,0,B|355:64|383:92|406:41,1,110,4|8,0:0|0:0,0:0:0:0:
332,268,444861,2,0,B|355:319|383:291|406:342,1,110,4|8,0:0|0:0,0:0:0:0:
180,268,445177,2,0,B|156:319|128:291|105:342,1,110,4|8,0:0|0:0,0:0:0:0:
94,192,445492,6,0,B|204:192,1,110,4|8,0:0|0:0,0:0:0:0:
418,192,445808,2,0,B|308:192,1,110,4|8,0:0|0:0,0:0:0:0:
256,30,446124,2,0,B|256:140,1,110,4|8,0:0|0:0,0:0:0:0:
256,354,446440,2,0,B|256:244,1,110,4|8,0:0|0:0,0:0:0:0:
107,43,446756,6,0,B|208:144,1,110,4|8,0:0|0:0,0:0:0:0:
404,340,447072,2,0,B|303:239,1,110,4|8,0:0|0:0,0:0:0:0:
404,43,447388,2,0,B|303:144,1,110,4|8,0:0|0:0,0:0:0:0:
107,340,447704,2,0,B|208:239,1,110,4|8,0:0|0:0,0:0:0:0:
256,140,448019,5,4,0:0:0:0:
292,155,448098,1,0,0:0:0:0:
308,192,448177,1,8,0:0:0:0:
292,228,448256,1,0,0:0:0:0:
256,244,448335,1,4,0:0:0:0:
219,228,448414,1,0,0:0:0:0:
204,192,448493,1,8,0:0:0:0:
219,155,448572,1,0,0:0:0:0:
256,140,448650,2,0,B|256:84,2,55,4|0|8,0:0|0:0|0:0,0:0:0:0:
256,244,448966,2,0,B|256:300,2,55,4|0|8,0:0|0:0|0:0,0:0:0:0:
168,96,449282,5,4,0:0:0:0:
144,116,449361,1,0,0:0:0:0:
128,144,449440,1,8,0:0:0:0:
120,176,449519,1,0,0:0:0:0:
120,208,449598,1,4,0:0:0:0:
128,240,449677,1,0,0:0:0:0:
144,268,449756,1,8,0:0:0:0:
168,288,449835,1,0,0:0:0:0:
196,304,449914,2,0,B|212:356,2,55,4|0|8,0:0|0:0|0:0,0:0:0:0:
316,80,450229,2,0,B|300:28,3,55,4|0|8|0,0:0|0:0|0:0|0:0,0:0:0:0:
344,96,450545,5,4,0:0:0:0:
368,116,450624,1,0,0:0:0:0:
384,144,450703,1,8,0:0:0:0:
392,176,450782,1,0,0:0:0:0:
392,208,450861,1,4,0:0:0:0:
384,240,450940,1,0,0:0:0:0:
368,268,451019,1,8,0:0:0:0:
344,288,451098,1,0,0:0:0:0:
316,304,451177,2,0,B|300:356,2,55,4|0|8,0:0|0:0|0:0,0:0:0:0:
256,256,451492,1,4,0:0:0:0:
256,224,451571,1,0,0:0:0:0:
256,192,451650,1,8,0:0:0:0:
256,160,451729,1,0,0:0:0:0:
256,128,451808,6,0,B|256:60,2,55,4|0|8,0:0|0:0|0:0,0:0:0:0:
164,192,452124,2,0,B|96:192,2,55,4|0|8,0:0|0:0|0:0,0:0:0:0:
348,192,452440,2,0,B|416:192,2,55,4|0|8,0:0|0:0|0:0,0:0:0:0:
256,256,452756,2,0,B|256:324,2,55,4|0|8,0:0|0:0|0:0,0:0:0:0:
104,92,453071,5,4,0:0:0:0:
56,152,453229,1,8,0:0:0:0:
56,232,453387,1,4,0:0:0:0:
104,292,453545,1,8,0:0:0:0:
256,128,453703,5,4,0:0:0:0:
304,192,453861,1,8,0:0:0:0:
280,224,453940,1,0,0:0:0:0:
256,256,454019,1,4,0:0:0:0:
208,192,454177,1,8,0:0:0:0:
408,92,454335,5,4,0:0:0:0:
456,152,454493,1,8,0:0:0:0:
456,232,454651,1,4,0:0:0:0:
408,292,454809,1,8,0:0:0:0:
256,256,454966,5,4,0:0:0:0:
208,192,455124,1,8,0:0:0:0:
232,160,455203,1,0,0:0:0:0:
256,128,455282,1,4,0:0:0:0:
304,192,455440,1,8,0:0:0:0:
310,309,455598,6,0,B|303:359|255:379|207:359|201:309,1,164.999995082617,4|8,0:0|0:0,0:0:0:0:
202,75,455914,2,0,B|208:24|256:4|304:24|310:75,1,164.999995082617,4|8,0:0|0:0,0:0:0:0:
127,247,456229,6,0,B|76:241|56:193|76:144|127:138,1,164.999995082617,4|8,0:0|0:0,0:0:0:0:
385,137,456545,2,0,B|435:142|455:191|435:239|384:245,1,164.999995082617,4|8,0:0|0:0,0:0:0:0:
256,192,456861,12,0,457808,0:0:0:0:
256,64,458124,5,4,0:0:0:0:
136,132,468229,6,0,B|136:20,1,110,4|0,0:0|0:0,0:0:0:0:
256,152,468545,2,0,B|256:40,1,110,4|0,0:0|0:0,0:0:0:0:
376,132,468861,2,0,B|376:20,1,110,4|0,0:0|0:0,0:0:0:0:
136,252,469492,6,0,B|136:364,1,110,2|0,0:0|0:0,0:0:0:0:
256,232,469808,2,0,B|256:344,1,110,2|0,0:0|0:0,0:0:0:0:
376,252,470124,2,0,B|376:364,1,110,2|0,0:0|0:0,0:0:0:0:
196,312,470756,6,0,B|84:312,1,110,4|0,0:0|0:0,0:0:0:0:
216,192,471072,2,0,B|104:192,1,110,4|0,0:0|0:0,0:0:0:0:
196,72,471388,2,0,B|84:72,1,110,4|0,0:0|0:0,0:0:0:0:
316,312,472019,6,0,B|428:312,1,110,2|0,0:0|0:0,0:0:0:0:
296,192,472335,2,0,B|408:192,1,110,2|0,0:0|0:0,0:0:0:0:
316,72,472651,2,4,B|428:72,1,110,2|0,0:0|0:0,0:0:0:0:
160,144,473282,6,0,B|120:128|108:88|120:48,1,110,4|0,0:0|0:0,0:0:0:0:
352,144,473598,2,0,B|392:128|404:88|392:48,1,110,4|0,0:0|0:0,0:0:0:0:
256,36,473914,2,0,B|256:156,1,110,4|0,0:0|0:0,0:0:0:0:
160,240,474545,6,0,B|120:256|108:296|120:336,1,110,2|0,0:0|0:0,0:0:0:0:
352,240,474861,2,0,B|392:256|404:296|392:336,1,110,2|0,0:0|0:0,0:0:0:0:
256,348,475177,2,0,B|256:228,1,110,2|0,0:0|0:0,0:0:0:0:
96,56,475808,6,0,B|148:88|140:156,1,110,4|0,0:0|0:0,0:0:0:0:
188,328,476124,2,0,B|135:295|142:234,1,110,4|0,0:0|0:0,0:0:0:0:
192,44,476440,2,0,B|246:38|285:91|285:91|296:156|254:191,1,220,4|0,0:0|0:0,0:0:0:0:
416,328,477071,6,0,B|364:296|372:228,1,110,2|0,0:0|0:0,0:0:0:0:
324,56,477387,2,0,B|377:89|370:150,1,110,2|0,0:0|0:0,0:0:0:0:
320,340,477703,2,0,B|266:346|227:293|227:293|216:228|258:193,1,220,2|0,0:0|0:0,0:0:0:0:
104,340,478335,6,0,B|36:252,1,110,4|0,0:0|0:0,0:0:0:0:
90,192,478650,2,0,B|113:83,1,110,4|0,0:0|0:0,0:0:0:0:
195,87,478966,2,0,B|293:35,1,110,4|0,0:0|0:0,0:0:0:0:
472,52,479282,2,4,B|372:0,1,110,4|0,0:0|0:0,0:0:0:0:
428,122,479598,6,0,B|484:122,1,55,2|0,0:0|0:0,0:0:0:0:
411,196,479756,2,0,B|462:220,1,55
365,256,479914,2,0,B|401:299,1,55,2|0,0:0|0:0,0:0:0:0:
297,292,480071,2,0,B|312:346,1,55
214,293,480229,2,0,B|199:347,1,55,2|0,0:0|0:0,0:0:0:0:
146,257,480387,2,0,B|110:300,1,55
100,197,480545,2,0,B|49:221,1,55,2|0,0:0|0:0,0:0:0:0:
83,123,480703,2,0,B|27:123,1,55
56,48,480861,5,4,0:0:0:0:
188,48,481177,1,4,0:0:0:0:
324,48,481492,1,4,0:0:0:0:
456,48,481808,1,4,0:0:0:0:
428,228,482124,6,0,B|356:228|352:304,1,110,2|0,0:0|0:0,0:0:0:0:
304,364,482440,1,2,0:0:0:0:
288,336,482519,1,0,0:0:0:0:
256,324,482598,1,0,0:0:0:0:
224,336,482677,1,0,0:0:0:0:
208,364,482756,1,2,0:0:0:0:
158,292,482914,2,0,B|156:228|84:228,2,110,0|2|0,0:0|0:0|0:0,0:0:0:0:
48,148,483387,6,0,B|100:48,1,110,4|0,0:0|0:0,0:0:0:0:
184,148,483703,2,0,B|200:40,1,110,4|0,0:0|0:0,0:0:0:0:
328,148,484019,2,0,B|312:40,1,110,4|0,0:0|0:0,0:0:0:0:
464,148,484335,2,0,B|412:48,1,110,4|0,0:0|0:0,0:0:0:0:
308,264,484650,5,2,0:0:0:0:
308,286,484729,1,0,0:0:0:0:
295,308,484808,1,0,0:0:0:0:
278,321,484887,1,0,0:0:0:0:
256,325,484966,1,2,0:0:0:0:
234,321,485045,1,0,0:0:0:0:
216,308,485124,1,0,0:0:0:0:
203,286,485203,1,0,0:0:0:0:
203,264,485282,1,2,0:0:0:0:
256,192,485440,1,0,0:0:0:0:
256,192,485519,1,0,0:0:0:0:
256,192,485598,2,0,B|244:156|244:156|268:156|268:156|244:124|244:124|268:124|268:124|244:92|244:92|268:92|268:92|256:64,1,220,2|4,0:0|0:0,0:0:0:0:
256,319,486229,5,4,0:0:0:0:
64,192,486545,1,4,0:0:0:0:
448,192,486861,1,4,0:0:0:0:
116,108,487177,5,2,0:0:0:0:
128,88,487256,1,0,0:0:0:0:
144,76,487335,1,0,0:0:0:0:
164,68,487414,1,0,0:0:0:0:
184,64,487492,1,2,0:0:0:0:
208,68,487571,1,0,0:0:0:0:
228,76,487650,1,0,0:0:0:0:
244,88,487729,1,0,0:0:0:0:
256,108,487808,1,2,0:0:0:0:
268,88,487887,1,0,0:0:0:0:
284,76,487966,1,0,0:0:0:0:
304,68,488045,1,0,0:0:0:0:
328,64,488124,1,2,0:0:0:0:
348,68,488202,1,0,0:0:0:0:
368,76,488281,1,0,0:0:0:0:
384,88,488360,1,0,0:0:0:0:
400,108,488440,6,0,B|444:208,1,110,4|0,0:0|0:0,0:0:0:0:
320,176,488756,2,0,B|332:284,1,110,4|0,0:0|0:0,0:0:0:0:
192,180,489071,2,0,B|180:288,1,110,4|0,0:0|0:0,0:0:0:0:
112,108,489387,2,0,B|68:208,1,110,4|0,0:0|0:0,0:0:0:0:
100,316,489703,6,0,B|180:364|256:376|332:364|412:316,1,330,2|0,0:0|0:0,0:0:0:0:
328,264,490335,1,2,0:0:0:0:
292,276,490414,1,0,0:0:0:0:
256,280,490492,1,0,0:0:0:0:
220,276,490571,1,0,0:0:0:0:
184,264,490650,1,2,0:0:0:0:
256,128,490808,1,0,0:0:0:0:
176,52,490966,6,0,B|68:80,1,110,4|0,0:0|0:0,0:0:0:0:
336,52,491282,2,0,B|444:80,1,110,4|0,0:0|0:0,0:0:0:0:
100,192,491598,2,0,B|206:164,1,110,4|0,0:0|0:0,0:0:0:0:
412,192,491914,2,0,B|305:164,1,110,4|4,0:0|0:0,0:0:0:0:
192,264,492229,5,2,0:0:0:0:
176,280,492308,1,0,0:0:0:0:
168,300,492387,1,0,0:0:0:0:
168,324,492466,1,0,0:0:0:0:
184,340,492545,1,2,0:0:0:0:
200,352,492624,1,0,0:0:0:0:
220,356,492703,1,0,0:0:0:0:
240,352,492782,1,0,0:0:0:0:
256,336,492861,1,2,0:0:0:0:
272,352,492940,1,0,0:0:0:0:
292,356,493019,1,0,0:0:0:0:
312,352,493098,1,0,0:0:0:0:
328,340,493177,1,2,0:0:0:0:
344,324,493256,1,0,0:0:0:0:
344,300,493335,1,2,0:0:0:0:
336,280,493414,1,0,0:0:0:0:
320,264,493492,5,4,0:0:0:0:
334,245,493571,1,0,0:0:0:0:
350,226,493650,1,4,0:0:0:0:
363,211,493728,1,0,0:0:0:0:
378,192,493807,1,4,0:0:0:0:
393,174,493886,1,0,0:0:0:0:
409,155,493965,1,0,0:0:0:0:
425,136,494044,1,0,0:0:0:0:
440,118,494123,1,4,0:0:0:0:
453,103,494202,1,0,0:0:0:0:
460,83,494281,1,4,0:0:0:0:
463,60,494360,1,0,0:0:0:0:
456,38,494439,1,4,0:0:0:0:
443,21,494518,1,0,0:0:0:0:
424,7,494597,1,0,0:0:0:0:
401,3,494676,1,0,0:0:0:0:
379,5,494755,5,2,0:0:0:0:
376,28,494835,1,0,0:0:0:0:
368,48,494914,1,2,0:0:0:0:
356,64,494992,1,0,0:0:0:0:
340,76,495071,1,2,0:0:0:0:
320,84,495150,1,0,0:0:0:0:
300,88,495229,1,0,0:0:0:0:
276,88,495308,1,0,0:0:0:0:
256,88,495387,1,2,0:0:0:0:
236,88,495466,1,0,0:0:0:0:
212,88,495545,1,2,0:0:0:0:
192,84,495624,1,0,0:0:0:0:
172,76,495703,1,2,0:0:0:0:
156,64,495782,1,0,0:0:0:0:
144,48,495860,1,0,0:0:0:0:
136,28,495939,1,0,0:0:0:0:
133,5,496019,5,4,0:0:0:0:
111,3,496098,1,0,0:0:0:0:
88,7,496177,1,0,0:0:0:0:
69,21,496256,1,0,0:0:0:0:
56,38,496335,1,4,0:0:0:0:
49,60,496414,1,0,0:0:0:0:
52,83,496493,1,4,0:0:0:0:
59,103,496572,1,0,0:0:0:0:
72,118,496651,1,4,0:0:0:0:
87,136,496730,1,0,0:0:0:0:
103,155,496809,1,4,0:0:0:0:
119,174,496888,1,0,0:0:0:0:
134,192,496966,1,4,0:0:0:0:
149,211,497046,1,0,0:0:0:0:
162,226,497124,1,0,0:0:0:0:
178,245,497203,1,0,0:0:0:0:
192,264,497282,5,2,0:0:0:0:
192,284,497361,1,0,0:0:0:0:
200,304,497440,1,0,0:0:0:0:
208,324,497519,1,0,0:0:0:0:
224,336,497598,1,2,0:0:0:0:
236,316,497677,1,0,0:0:0:0:
240,296,497756,1,2,0:0:0:0:
248,276,497835,1,0,0:0:0:0:
256,256,497914,1,2,0:0:0:0:
256,236,497992,1,0,0:0:0:0:
256,212,498071,1,2,0:0:0:0:
256,188,498150,1,0,0:0:0:0:
256,164,498229,1,2,0:0:0:0:
256,140,498308,1,0,0:0:0:0:
256,116,498387,1,0,0:0:0:0:
256,92,498466,1,0,0:0:0:0:
256,67,498545,1,0,0:0:0:0:
200,192,512438,5,0,0:0:0:0:
200,192,512738,1,0,0:0:0:0:
312,192,513188,1,2,0:0:0:0:
312,192,513338,1,2,0:0:0:0:
200,192,513638,1,0,0:0:0:0:
200,192,513938,1,0,0:0:0:0:
312,192,514388,1,2,0:0:0:0:
312,192,514537,1,2,0:0:0:0:
200,192,514837,5,0,0:0:0:0:
200,192,515137,1,0,0:0:0:0:
312,192,515587,1,2,0:0:0:0:
312,192,515737,1,2,0:0:0:0:
200,192,516037,1,0,0:0:0:0:
200,192,516337,1,0,0:0:0:0:
312,192,516787,1,2,0:0:0:0:
312,192,516937,1,2,0:0:0:0:
200,192,517237,5,0,0:0:0:0:
312,192,517537,1,2,0:0:0:0:
200,192,517837,1,0,0:0:0:0:
312,192,518137,1,2,0:0:0:0:
200,192,518437,1,0,0:0:0:0:
312,192,518587,1,2,0:0:0:0:
200,192,518737,1,0,0:0:0:0:
312,192,518887,1,2,0:0:0:0:
200,192,519037,1,0,0:0:0:0:
312,192,519187,1,2,0:0:0:0:
200,192,519337,1,0,0:0:0:0:
312,192,519486,1,2,0:0:0:0:
256,192,519636,5,0,0:0:0:0:
256,184,519711,1,0,0:0:0:0:
256,176,519786,1,0,0:0:0:0:
256,168,519861,1,0,0:0:0:0:
256,160,519936,1,0,0:0:0:0:
256,152,520011,1,0,0:0:0:0:
256,144,520086,1,0,0:0:0:0:
256,136,520161,1,0,0:0:0:0:
256,128,520236,1,0,0:0:0:0:
256,120,520311,1,0,0:0:0:0:
256,112,520386,1,0,0:0:0:0:
256,104,520461,1,0,0:0:0:0:
256,96,520536,1,0,0:0:0:0:
256,88,520611,1,0,0:0:0:0:
256,80,520686,1,0,0:0:0:0:
256,72,520761,1,0,0:0:0:0:
256,64,520836,2,2,C|256:224,1,150
256,256,521286,1,0,0:0:0:0:
256,264,521361,1,0,0:0:0:0:
256,272,521436,1,0,0:0:0:0:
256,288,521586,1,0,0:0:0:0:
256,304,521736,1,0,0:0:0:0:
256,320,521886,1,0,0:0:0:0:
256,336,522036,6,4,C|336:336,1,75
368,336,522336,2,0,C|368:256,1,75
368,224,522636,2,0,C|448:224,1,75
480,224,522936,1,0,0:0:0:0:
480,176,523086,1,0,0:0:0:0:
480,128,523236,1,0,0:0:0:0:
432,128,523386,1,0,0:0:0:0:
384,128,523536,1,0,0:0:0:0:
384,80,523686,1,0,0:0:0:0:
384,32,523836,2,2,C|224:32,1,150
128,32,524361,5,0,0:0:0:0:
80,80,524586,1,0,0:0:0:0:
32,80,524736,1,0,0:0:0:0:
32,128,524886,1,0,0:0:0:0:
32,176,525036,1,0,0:0:0:0:
80,176,525186,1,0,0:0:0:0:
128,176,525336,1,0,0:0:0:0:
128,224,525486,2,0,C|128:304,1,75
176,304,525786,1,0,0:0:0:0:
224,304,525936,1,0,0:0:0:0:
224,352,526086,1,0,0:0:0:0:
272,352,526235,2,2,C|432:352,1,150
480,224,526835,6,0,C|400:224,1,75
368,224,527135,2,0,C|368:144,1,75
368,112,527435,2,0,C|288:112,1,75
256,112,527735,1,0,0:0:0:0:
256,160,527885,1,0,0:0:0:0:
256,208,528035,1,0,0:0:0:0:
208,208,528185,1,0,0:0:0:0:
160,208,528335,1,0,0:0:0:0:
160,160,528485,1,0,0:0:0:0:
160,112,528635,2,2,C|32:32,1,150
32,128,529160,6,0,C|32:256,1,112.5
32,288,529535,1,0,0:0:0:0:
80,288,529685,1,0,0:0:0:0:
80,336,529835,1,0,0:0:0:0:
128,336,529985,1,0,0:0:0:0:
176,336,530135,1,0,0:0:0:0:
176,288,530285,1,0,0:0:0:0:
176,240,530435,2,2,C|176:80,3,150
32,32,531634,6,0,C|32:80,2,37.5
96,32,531934,2,0,C|96:80,2,37.5
160,32,532234,2,0,C|160:80,2,37.5
224,32,532534,2,0,C|224:80,2,37.5
288,32,532834,2,0,C|288:80,2,37.5
352,32,533134,2,0,C|352:80,2,37.5
416,32,533434,2,0,C|416:80,2,37.5
480,32,533734,2,0,C|480:80,2,37.5
448,88,534034,5,0,0:0:0:0:
448,104,534184,1,0,0:0:0:0:
448,120,534334,1,0,0:0:0:0:
448,136,534484,1,0,0:0:0:0:
448,144,534559,1,0,0:0:0:0:
448,152,534634,1,0,0:0:0:0:
448,168,534784,1,0,0:0:0:0:
448,184,534934,1,0,0:0:0:0:
448,200,535084,1,0,0:0:0:0:
448,208,535184,1,0,0:0:0:0:
448,232,535384,1,0,0:0:0:0:
448,240,535459,1,0,0:0:0:0:
448,248,535534,1,0,0:0:0:0:
448,256,535609,1,0,0:0:0:0:
448,264,535684,1,0,0:0:0:0:
448,280,535834,1,0,0:0:0:0:
448,288,535909,1,0,0:0:0:0:
448,304,536059,1,0,0:0:0:0:
480,352,536433,6,0,C|480:304,2,37.5
416,352,536733,2,0,C|416:304,2,37.5
352,352,537033,2,0,C|352:304,2,37.5
288,352,537333,2,0,C|288:304,2,37.5
224,352,537633,2,0,C|224:304,2,37.5
160,352,537933,2,0,C|160:304,2,37.5
96,352,538233,2,0,C|96:304,2,37.5
32,352,538533,2,0,C|32:304,2,37.5
64,296,538833,5,0,0:0:0:0:
64,280,538983,1,0,0:0:0:0:
64,264,539133,1,0,0:0:0:0:
64,256,539233,1,0,0:0:0:0:
64,248,539333,1,0,0:0:0:0:
64,240,539433,1,0,0:0:0:0:
64,232,539508,1,0,0:0:0:0:
64,224,539583,1,0,0:0:0:0:
64,216,539658,1,0,0:0:0:0:
64,208,539733,1,0,0:0:0:0:
64,192,539883,1,0,0:0:0:0:
64,184,539958,1,0,0:0:0:0:
64,176,540033,1,0,0:0:0:0:
64,168,540108,1,0,0:0:0:0:
64,160,540183,1,0,0:0:0:0:
64,152,540258,1,0,0:0:0:0:
64,144,540333,1,0,0:0:0:0:
64,128,540483,1,0,0:0:0:0:
64,120,540583,1,0,0:0:0:0:
64,104,540783,1,0,0:0:0:0:
64,96,540883,1,0,0:0:0:0:
64,88,540983,1,0,0:0:0:0:
64,80,541082,1,0,0:0:0:0:
32,32,541232,6,0,C|112:32,1,75
160,32,541532,2,0,C|240:32,1,75
288,32,541832,2,0,C|368:32,1,75
416,32,542132,2,0,C|496:32,1,75
480,96,542432,2,0,C|400:96,1,75
352,96,542732,2,0,C|272:96,1,75
224,96,543032,2,0,C|144:96,1,75
96,96,543332,2,0,C|16:96,1,75
32,160,543632,5,0,0:0:0:0:
40,160,543707,1,0,0:0:0:0:
48,160,543782,1,0,0:0:0:0:
56,160,543857,1,0,0:0:0:0:
64,160,543932,1,0,0:0:0:0:
80,160,544032,1,0,0:0:0:0:
96,160,544132,1,0,0:0:0:0:
112,160,544232,1,0,0:0:0:0:
128,160,544382,1,0,0:0:0:0:
144,160,544482,1,0,0:0:0:0:
160,160,544607,1,0,0:0:0:0:
176,160,544732,1,0,0:0:0:0:
192,160,544832,1,0,0:0:0:0:
208,160,544982,1,0,0:0:0:0:
224,160,545082,1,0,0:0:0:0:
240,160,545182,1,0,0:0:0:0:
256,160,545282,1,0,0:0:0:0:
272,160,545432,1,0,0:0:0:0:
280,160,545507,1,0,0:0:0:0:
288,160,545582,1,0,0:0:0:0:
296,160,545657,1,0,0:0:0:0:
304,160,545732,1,0,0:0:0:0:
312,160,545832,1,0,0:0:0:0:
208,224,546031,5,0,0:0:0:0:
224,224,546131,1,0,0:0:0:0:
240,224,546281,1,0,0:0:0:0:
256,224,546431,1,0,0:0:0:0:
264,224,546506,1,0,0:0:0:0:
272,224,546581,1,0,0:0:0:0:
288,224,546681,1,0,0:0:0:0:
304,224,546781,1,0,0:0:0:0:
320,224,546881,1,0,0:0:0:0:
336,224,547081,1,0,0:0:0:0:
344,224,547131,1,0,0:0:0:0:
360,224,547256,1,0,0:0:0:0:
368,224,547331,1,0,0:0:0:0:
376,224,547406,1,0,0:0:0:0:
384,224,547481,1,0,0:0:0:0:
392,224,547556,1,0,0:0:0:0:
400,224,547631,1,0,0:0:0:0:
416,224,547781,1,0,0:0:0:0:
432,224,547931,1,0,0:0:0:0:
448,224,548031,1,0,0:0:0:0:
464,224,548131,1,0,0:0:0:0:
480,224,548231,1,0,0:0:0:0:
480,288,548431,5,0,0:0:0:0:
464,288,548581,1,0,0:0:0:0:
448,288,548731,1,0,0:0:0:0:
432,288,548881,1,0,0:0:0:0:
424,288,548956,1,0,0:0:0:0:
416,288,549031,1,0,0:0:0:0:
400,288,549181,1,0,0:0:0:0:
384,288,549331,1,0,0:0:0:0:
368,288,549481,1,0,0:0:0:0:
360,288,549556,1,0,0:0:0:0:
352,288,549631,1,0,0:0:0:0:
336,288,549781,1,0,0:0:0:0:
328,288,549856,1,0,0:0:0:0:
320,288,549931,1,0,0:0:0:0:
312,288,550006,1,0,0:0:0:0:
304,288,550081,1,0,0:0:0:0:
280,288,550306,1,0,0:0:0:0:
264,288,550456,1,0,0:0:0:0:
248,288,550606,1,0,0:0:0:0:
232,288,550756,1,0,0:0:0:0:
224,288,550830,1,4,0:0:0:0:
256,192,571141,5,4,0:0:0:0:
80,56,571583,5,0,0:0:0:0:
80,128,571730,2,8,B|48:184|48:232|96:288,1,150,8|8,0:0|0:0,0:0:0:0:
232,264,572318,5,0,0:0:0:0:
384,264,572612,1,0,0:0:0:0:
384,112,572906,2,0,B|312:64|232:120,1,150,8|0,0:0|0:0,0:0:0:0:
96,112,573494,1,4,0:0:0:0:
256,272,573936,5,0,0:0:0:0:
312,224,574083,2,8,B|392:208|416:120,1,150
296,32,574671,1,0,0:0:0:0:
144,32,574965,1,0,0:0:0:0:
48,144,575259,2,0,B|32:232|128:272,1,150,8|0,0:0|0:0,0:0:0:0:
264,256,575847,1,4,0:0:0:0:
400,72,576289,5,0,0:0:0:0:
328,72,576436,2,8,B|240:120|176:64,1,150
80,184,577024,1,0,0:0:0:0:
176,296,577318,1,0,0:0:0:0:
272,184,577612,2,0,B|344:112|416:192,1,150,8|0,0:0|0:0,0:0:0:0:
328,304,578200,5,0,0:0:0:0:
264,256,578347,1,0,0:0:0:0:
312,200,578494,1,0,0:0:0:0:
256,152,578641,1,0,0:0:0:0:
288,88,578789,1,0,0:0:0:0:
272,72,578862,1,0,0:0:0:0:
256,64,578936,1,0,0:0:0:0:
240,64,579009,1,0,0:0:0:0:
224,64,579083,1,0,0:0:0:0:
206,212,579377,6,4,B|254:236|318:212,2,112.5
224,144,579965,1,4,0:0:0:0:
296,144,580112,1,4,0:0:0:0:
256,80,580259,1,4,0:0:0:0:
112,104,580553,5,0,0:0:0:0:
64,160,580700,1,0,0:0:0:0:
128,200,580847,1,4,0:0:0:0:
88,264,580994,2,0,B|96:320|176:312,1,75
208,296,581289,1,0,0:0:0:0:
224,288,581362,1,0,0:0:0:0:
240,272,581436,1,4,0:0:0:0:
272,200,581583,1,0,0:0:0:0:
288,128,581730,5,0,0:0:0:0:
352,88,581877,1,0,0:0:0:0:
392,152,582024,1,4,0:0:0:0:
400,224,582171,2,0,B|400:296|352:304,1,75
312,328,582465,1,0,0:0:0:0:
296,336,582539,1,0,0:0:0:0:
280,344,582612,1,4,0:0:0:0:
208,344,582759,1,0,0:0:0:0:
136,312,582906,5,0,0:0:0:0:
88,256,583053,1,0,0:0:0:0:
128,192,583200,1,4,0:0:0:0:
80,136,583347,2,0,B|104:80|152:72,1,75
200,88,583641,1,0,0:0:0:0:
216,96,583715,1,0,0:0:0:0:
232,104,583789,6,0,B|288:128|256:176,1,75,4|0,0:0|0:0,0:0:0:0:
240,192,584009,1,0,0:0:0:0:
216,224,584083,2,0,B|184:280|264:296,1,75
264,296,584303,1,0,0:0:0:0:
296,304,584377,1,4,0:0:0:0:
368,272,584524,1,0,0:0:0:0:
384,200,584671,1,0,0:0:0:0:
328,152,584818,1,0,0:0:0:0:
320,80,584965,1,4,0:0:0:0:
248,48,585112,1,0,0:0:0:0:
176,64,585259,6,0,B|128:104|120:152,1,75
120,136,585480,1,0,0:0:0:0:
112,152,585553,1,4,0:0:0:0:
96,224,585700,1,0,0:0:0:0:
144,280,585847,1,0,0:0:0:0:
216,256,585994,1,0,0:0:0:0:
264,312,586141,1,4,0:0:0:0:
336,288,586289,1,0,0:0:0:0:
344,216,586436,6,0,B|352:160|320:128,1,75
320,128,586656,1,0,0:0:0:0:
304,112,586730,1,4,0:0:0:0:
240,72,586877,1,0,0:0:0:0:
176,112,587024,1,0,0:0:0:0:
224,168,587171,1,0,0:0:0:0:
152,192,587318,1,4,0:0:0:0:
208,240,587465,1,0,0:0:0:0:
136,264,587612,6,0,B|160:328|216:312,1,75
200,320,587833,1,0,0:0:0:0:
216,320,587906,2,0,B|392:272|400:80,1,300,4|0,0:0|0:0,0:0:0:0:
336,72,588347,1,0,0:0:0:0:
272,32,588494,2,0,B|176:56|104:152|88:264,1,300,4|0,0:0|0:0,0:0:0:0:
160,272,588936,6,0,B|240:304,1,75,4|0,0:0|0:0,0:0:0:0:
208,264,589083,2,0,B|288:280,1,75,4|0,0:0|0:0,0:0:0:0:
264,240,589230,2,0,B|344:248,1,75,4|0,0:0|0:0,0:0:0:0:
320,216,589377,2,0,B|400:208,1,75,4|0,0:0|0:0,0:0:0:0:
360,192,589524,2,0,B|440:168,1,75,4|0,0:0|0:0,0:0:0:0:
392,160,589671,2,0,B|464:120,1,75,4|0,0:0|0:0,0:0:0:0:
416,120,589818,2,0,B|480:64,1,75,4|0,0:0|0:0,0:0:0:0:
408,40,590112,5,0,0:0:0:0:
336,48,590259,2,0,B|264:64|264:104,1,75,4|0,0:0|0:0,0:0:0:0:
288,152,590553,1,0,0:0:0:0:
216,184,590700,1,0,0:0:0:0:
160,136,590847,2,0,B|120:168|120:208,1,75,4|0,0:0|0:0,0:0:0:0:
176,248,591141,1,0,0:0:0:0:
176,320,591289,1,0,0:0:0:0:
248,336,591436,2,0,B|304:336|328:296,1,75,4|0,0:0|0:0,0:0:0:0:
376,264,591730,1,0,0:0:0:0:
448,240,591877,1,0,0:0:0:0:
376,216,592024,1,4,0:0:0:0:
448,192,592171,1,0,0:0:0:0:
376,168,592318,5,0,0:0:0:0:
320,120,592465,1,0,0:0:0:0:
248,128,592612,2,0,B|200:128|176:168,1,75,4|0,0:0|0:0,0:0:0:0:
224,216,592906,1,0,0:0:0:0:
168,264,593053,1,0,0:0:0:0:
112,216,593200,2,0,B|56:168|80:120,1,75,4|0,0:0|0:0,0:0:0:0:
88,80,593494,5,0,0:0:0:0:
104,64,593568,1,0,0:0:0:0:
120,56,593641,1,0,0:0:0:0:
136,64,593715,1,0,0:0:0:0:
152,80,593789,2,0,B|200:120|200:160,1,75,4|0,0:0|0:0,0:0:0:0:
232,208,594083,5,0,0:0:0:0:
248,224,594156,1,0,0:0:0:0:
264,232,594230,1,0,0:0:0:0:
280,224,594303,1,0,0:0:0:0:
296,208,594377,2,0,B|344:168|344:128,1,75,4|0,0:0|0:0,0:0:0:0:
400,104,594671,5,0,0:0:0:0:
456,152,594818,1,0,0:0:0:0:
400,200,594965,1,8,0:0:0:0:
400,216,595039,1,8,0:0:0:0:
400,232,595112,1,8,0:0:0:0:
400,248,595186,1,8,0:0:0:0:
304,312,595406,5,2,0:0:0:0:
304,296,595480,1,2,0:0:0:0:
304,280,595553,1,2,0:0:0:0:
304,264,595627,1,2,0:0:0:0:
304,248,595700,1,2,0:0:0:0:
304,176,595847,5,0,0:0:0:0:
264,112,595994,1,0,0:0:0:0:
192,88,596141,1,0,0:0:0:0:
120,104,596289,2,0,B|80:160|96:192,1,75
112,240,596583,1,0,0:0:0:0:
176,280,596730,1,0,0:0:0:0:
192,280,596803,1,0,0:0:0:0:
208,280,596877,1,0,0:0:0:0:
224,280,596950,1,0,0:0:0:0:
240,280,597024,1,4,0:0:0:0:
312,280,597171,6,0,B|336:320,2,37.5
256,192,597465,5,0,0:0:0:0:
200,104,597612,6,0,B|176:64,4,37.5
272,104,598053,1,0,0:0:0:0:
344,104,598200,5,0,0:0:0:0:
384,168,598347,1,0,0:0:0:0:
384,184,598421,1,0,0:0:0:0:
384,200,598494,1,0,0:0:0:0:
336,256,598641,1,0,0:0:0:0:
320,264,598715,1,0,0:0:0:0:
304,272,598789,1,0,0:0:0:0:
288,272,598862,1,0,0:0:0:0:
272,264,598936,1,0,0:0:0:0:
256,256,599009,1,0,0:0:0:0:
240,240,599083,1,0,0:0:0:0:
232,224,599156,1,0,0:0:0:0:
224,208,599230,1,0,0:0:0:0:
224,192,599303,1,0,0:0:0:0:
224,96,599671,5,8,0:0:0:0:
296,96,599818,2,0,B|392:96|376:200,1,150
376,264,600259,1,8,0:0:0:0:
328,320,600406,1,0,0:0:0:0:
272,272,600553,5,0,0:0:0:0:
200,272,600700,1,0,0:0:0:0:
192,200,600847,1,8,0:0:0:0:
224,128,600994,2,0,B|280:64|360:128,1,150
408,176,601436,1,8,0:0:0:0:
456,232,601583,1,0,0:0:0:0:
400,280,601730,5,0,0:0:0:0:
344,224,601877,1,0,0:0:0:0:
320,152,602024,1,8,0:0:0:0:
280,88,602171,2,0,B|216:56|160:96|160:160,1,150
112,192,602612,1,8,0:0:0:0:
72,256,602759,1,0,0:0:0:0:
120,312,602906,5,0,0:0:0:0:
192,288,603053,1,0,0:0:0:0:
192,216,603200,1,8,0:0:0:0:
256,184,603347,2,0,B|336:160|400:216,1,150
432,272,603789,1,8,0:0:0:0:
424,120,604083,5,0,0:0:0:0:
360,80,604230,1,0,0:0:0:0:
344,72,604303,1,0,0:0:0:0:
328,80,604377,1,8,0:0:0:0:
256,80,604524,2,0,B|160:80|128:168,1,150
88,208,604965,1,8,0:0:0:0:
120,280,605112,1,0,0:0:0:0:
192,288,605259,5,0,0:0:0:0:
232,224,605406,1,0,0:0:0:0:
240,208,605480,1,0,0:0:0:0:
256,192,605553,1,8,0:0:0:0:
312,144,605700,2,0,B|368:96|416:112|448:184,1,150
440,232,606141,1,8,0:0:0:0:
408,296,606289,1,0,0:0:0:0:
336,304,606436,5,0,0:0:0:0:
264,280,606583,1,0,0:0:0:0:
248,264,606656,1,0,0:0:0:0:
232,248,606730,1,8,0:0:0:0:
176,192,606877,2,0,B|104:144|120:112|192:72,1,150
248,56,607318,1,8,0:0:0:0:
320,56,607465,1,0,0:0:0:0:
368,112,607612,6,0,B|400:176|352:208,1,75
368,256,607906,2,0,B|312:272|272:248,1,75,8|0,0:0|0:0,0:0:0:0:
216,256,608200,2,0,B|208:208|232:160,1,75
240,112,608494,2,0,B|176:104|136:120,1,75,8|0,0:0|0:0,0:0:0:0:
104,152,608789,5,0,0:0:0:0:
80,224,608936,1,0,0:0:0:0:
112,288,609083,2,0,B|176:320|216:296,1,75,8|0,0:0|0:0,0:0:0:0:
256,304,609377,2,0,B|328:304|352:280,1,75
392,256,609671,2,0,B|408:208|392:160,1,75,8|0,0:0|0:0,0:0:0:0:
392,104,609965,5,0,0:0:0:0:
320,80,610112,1,0,0:0:0:0:
296,152,610259,2,0,B|280:216|296:240,1,75,8|0,0:0|0:0,0:0:0:0:
312,296,610553,2,0,B|360:312|416:296,1,75
440,248,610847,2,0,B|448:192|432:160,1,75,8|0,0:0|0:0,0:0:0:0:
424,96,611141,5,0,0:0:0:0:
352,72,611289,1,0,0:0:0:0:
280,64,611436,2,0,B|216:72|200:112,1,75,8|0,0:0|0:0,0:0:0:0:
232,160,611730,2,0,B|192:192|144:184,1,75
120,120,612024,2,0,B|64:144|56:184,1,75,8|0,0:0|0:0,0:0:0:0:
96,232,612318,5,0,0:0:0:0:
160,264,612465,1,0,0:0:0:0:
232,272,612612,2,0,B|320:264|296:208,1,75,8|0,0:0|0:0,0:0:0:0:
264,176,612906,2,0,B|240:136|344:136,1,75
384,136,613200,2,0,B|464:136|432:72,1,75,8|0,0:0|0:0,0:0:0:0:
408,32,613494,5,0,0:0:0:0:
392,40,613568,1,0,0:0:0:0:
376,48,613641,1,0,0:0:0:0:
360,56,613715,1,0,0:0:0:0:
344,64,613789,2,0,B|264:104,1,75,8|0,0:0|0:0,0:0:0:0:
104,32,614083,5,0,0:0:0:0:
120,40,614156,1,0,0:0:0:0:
136,48,614230,1,0,0:0:0:0:
152,56,614303,1,0,0:0:0:0:
168,64,614377,2,0,B|248:104,1,75,8|0,0:0|0:0,0:0:0:0:
104,352,614671,5,0,0:0:0:0:
120,344,614744,1,0,0:0:0:0:
136,336,614818,1,0,0:0:0:0:
152,328,614891,1,0,0:0:0:0:
168,320,614965,2,0,B|248:280,1,75,8|0,0:0|0:0,0:0:0:0:
408,352,615259,5,0,0:0:0:0:
392,344,615333,1,0,0:0:0:0:
376,336,615406,1,0,0:0:0:0:
360,328,615480,1,0,0:0:0:0:
344,320,615553,2,0,B|264:280,1,75,8|0,0:0|0:0,0:0:0:0:
256,216,615847,5,4,0:0:0:0:
256,216,616436,5,4,0:0:0:0:
160,56,617024,5,4,0:0:0:0:
352,328,617318,5,4,0:0:0:0:
352,56,617612,5,4,0:0:0:0:
160,328,617906,5,4,0:0:0:0:
112,272,618053,1,0,0:0:0:0:
112,200,618200,6,4,B|152:128|248:104,1,150,4|2,0:0|0:0,0:0:0:0:
304,112,618641,2,0,B|384:128|432:200,1,150
432,264,619083,1,2,0:0:0:0:
280,264,619377,6,0,B|200:296|128:264,1,150,0|2,0:0|0:0,0:0:0:0:
136,192,619818,2,0,B|200:160|288:192,1,150
344,224,620259,1,2,0:0:0:0:
408,88,620553,5,0,0:0:0:0:
256,88,620847,1,2,0:0:0:0:
104,88,621141,1,0,0:0:0:0:
64,152,621289,1,0,0:0:0:0:
104,216,621436,1,2,0:0:0:0:
144,152,621583,2,0,B|192:120|216:184|304:144,2,150
184,216,622318,1,2,0:0:0:0:
336,216,622612,1,2,0:0:0:0:
336,64,622906,6,0,B|280:80|288:152|224:160,1,150,0|2,0:0|0:0,0:0:0:0:
152,160,623347,2,0,B|208:176|200:248|264:256,1,150
336,256,623789,1,2,0:0:0:0:
400,120,624083,6,0,B|344:88|304:144|240:112,1,150,0|2,0:0|0:0,0:0:0:0:
288,48,624524,2,0,B|224:72|184:32|128:56,1,150
64,56,624965,1,2,0:0:0:0:
40,128,625112,1,0,0:0:0:0:
64,200,625259,5,0,0:0:0:0:
176,304,625553,1,2,0:0:0:0:
272,192,625847,1,0,0:0:0:0:
208,152,625994,1,0,0:0:0:0:
248,88,626141,1,2,0:0:0:0:
312,128,626289,2,0,B|376:144|392:104|464:136,2,150,0|0|0,0:0|0:0|0:0,0:0:0:0:
272,192,627024,1,2,0:0:0:0:
304,256,627171,1,0,0:0:0:0:
248,304,627318,1,2,0:0:0:0:
184,264,627465,1,0,0:0:0:0:
168,192,627612,6,0,B|160:136|208:104,1,75
256,152,627906,2,0,B|280:88|336:88,1,75
336,160,628200,2,0,B|384:120|416:120|472:160,1,150,4|0,0:0|0:0,0:0:0:0:
472,232,628641,1,0,0:0:0:0:
448,304,628789,6,0,B|400:328|352:312,1,75
392,240,629083,2,0,B|328:256|304:224,1,75
368,176,629377,2,0,B|304:160|272:104|256:72,1,150,4|0,0:0|0:0,0:0:0:0:
192,48,629818,1,0,0:0:0:0:
120,48,629965,5,0,0:0:0:0:
72,104,630112,1,0,0:0:0:0:
120,160,630259,1,0,0:0:0:0:
72,216,630406,1,0,0:0:0:0:
120,272,630553,1,4,0:0:0:0:
192,288,630700,1,0,0:0:0:0:
272,272,630847,1,0,0:0:0:0:
328,224,630994,2,0,B|392:192|424:120|408:96,2,150
272,168,631730,1,4,0:0:0:0:
248,96,631877,1,0,0:0:0:0:
176,104,632024,1,0,0:0:0:0:
40,168,632318,6,0,B|40:232|112:216,1,75,4|0,0:0|0:0,0:0:0:0:
160,216,632612,1,0,0:0:0:0:
232,216,632759,2,0,B|288:216|280:272,1,75
280,336,633053,1,0,0:0:0:0:
352,336,633200,2,0,B|456:336|448:232,1,150,0|4,0:0|0:0,0:0:0:0:
448,168,633641,5,0,0:0:0:0:
376,168,633789,1,0,0:0:0:0:
376,96,633936,2,0,B|376:40|296:48,1,75
256,48,634230,1,0,0:0:0:0:
184,48,634377,2,0,B|136:48|136:120,1,75
136,168,634671,5,4,0:0:0:0:
216,296,634965,1,0,0:0:0:0:
288,168,635259,1,0,0:0:0:0:
328,104,635406,2,0,B|360:56|408:128,1,75
432,168,635700,1,0,0:0:0:0:
472,232,635847,1,0,0:0:0:0:
432,296,635994,1,0,0:0:0:0:
352,296,636141,1,0,0:0:0:0:
304,232,636289,1,0,0:0:0:0:
288,216,636362,1,0,0:0:0:0:
280,200,636436,1,0,0:0:0:0:
272,184,636509,1,0,0:0:0:0:
272,168,636583,1,0,0:0:0:0:
272,152,636656,1,0,0:0:0:0:
280,136,636730,1,0,0:0:0:0:
288,120,636803,1,0,0:0:0:0:
304,104,636877,1,0,0:0:0:0:
320,96,636950,1,0,0:0:0:0:
336,96,637024,1,4,0:0:0:0:
448,192,637318,5,0,0:0:0:0:
336,296,637612,1,0,0:0:0:0:
264,296,637759,2,0,B|152:296|184:176,1,150
344,56,638494,5,0,0:0:0:0:
400,104,638641,1,0,0:0:0:0:
424,176,638789,1,0,0:0:0:0:
384,240,638936,2,0,B|320:296|208:248|192:184,1,225,0|4,0:0|0:0,0:0:0:0:
152,128,639524,5,0,0:0:0:0:
208,80,639671,1,0,0:0:0:0:
280,64,639818,1,0,0:0:0:0:
352,80,639965,1,4,0:0:0:0:
408,128,640112,1,0,0:0:0:0:
408,200,640259,6,0,B|472:288,2,75,0|0|4,0:0|0:0|0:0,0:0:0:0:
336,200,640700,1,0,0:0:0:0:
264,200,640847,2,0,B|208:280,1,75
168,320,641141,5,4,0:0:0:0:
152,320,641215,1,0,0:0:0:0:
136,312,641289,1,0,0:0:0:0:
128,296,641362,1,0,0:0:0:0:
128,280,641436,1,0,0:0:0:0:
128,208,641583,1,0,0:0:0:0:
128,136,641730,5,4,0:0:0:0:
256,56,642024,1,0,0:0:0:0:
384,136,642318,1,0,0:0:0:0:
448,176,642465,2,0,B|488:224|440:248,1,75
400,296,642759,6,0,B|328:352|232:280,1,150
192,264,643200,1,0,0:0:0:0:
120,232,643347,1,0,0:0:0:0:
192,208,643494,1,0,0:0:0:0:
120,184,643641,2,0,B|32:160|32:128|136:120,1,150
192,104,644083,5,4,0:0:0:0:
264,88,644230,1,0,0:0:0:0:
336,104,644377,2,0,B|392:112|368:160|408:144,1,75
432,208,644671,5,4,0:0:0:0:
432,208,644744,1,0,0:0:0:0:
432,208,644818,1,0,0:0:0:0:
384,264,644965,2,0,B|328:272|352:312|288:296,1,75
248,304,645259,5,4,0:0:0:0:
248,304,645333,1,0,0:0:0:0:
248,304,645406,1,0,0:0:0:0:
176,304,645553,1,4,0:0:0:0:
176,304,645627,1,0,0:0:0:0:
176,304,645700,1,0,0:0:0:0:
208,240,645847,5,4,0:0:0:0:
216,224,645921,1,0,0:0:0:0:
208,208,645994,1,4,0:0:0:0:
200,192,646068,1,0,0:0:0:0:
208,176,646141,1,4,0:0:0:0:
208,104,646289,1,0,0:0:0:0:
280,80,646436,5,4,0:0:0:0:
352,56,646583,1,0,0:0:0:0:
424,24,646730,2,0,B|488:8|480:80,1,75
456,200,647024,5,4,0:0:0:0:
424,272,647171,1,0,0:0:0:0:
384,336,647318,2,0,B|352:376|312:320,1,75
224,216,647612,5,4,0:0:0:0:
168,160,647759,1,0,0:0:0:0:
112,104,647906,2,0,B|64:48|160:48,1,75
272,40,648200,5,4,0:0:0:0:
344,32,648347,1,0,0:0:0:0:
416,24,648494,2,0,B|472:8|472:72,1,75
384,176,648789,5,4,0:0:0:0:
336,232,648936,1,0,0:0:0:0:
288,288,649083,2,0,B|248:320|224:264,1,75
168,224,649377,2,0,B|128:168|208:144,1,75,4|0,0:0|0:0,0:0:0:0:
232,112,649671,1,0,0:0:0:0:
296,72,649818,2,0,B|344:48|400:88|464:64,2,150,4|0|4,0:0|0:0|0:0,0:0:0:0:
232,40,650553,5,0,0:0:0:0:
160,56,650700,1,0,0:0:0:0:
88,80,650847,1,0,0:0:0:0:
48,144,650994,1,0,0:0:0:0:
48,216,651141,5,12,0:0:0:0:
56,232,651215,1,0,0:0:0:0:
64,248,651289,1,0,0:0:0:0:
128,280,651436,5,12,0:0:0:0:
136,264,651509,1,0,0:0:0:0:
144,248,651583,1,0,0:0:0:0:
208,208,651730,5,12,0:0:0:0:
216,224,651803,1,0,0:0:0:0:
224,240,651877,1,0,0:0:0:0:
288,280,652024,5,12,0:0:0:0:
296,264,652097,1,0,0:0:0:0:
304,248,652171,1,0,0:0:0:0:
336,184,652318,5,12,0:0:0:0:
328,168,652391,1,0,0:0:0:0:
320,152,652465,1,0,0:0:0:0:
256,120,652612,5,12,0:0:0:0:
248,136,652686,1,0,0:0:0:0:
240,152,652759,1,0,0:0:0:0:
176,192,652906,5,12,0:0:0:0:
168,176,652980,1,0,0:0:0:0:
160,160,653053,1,0,0:0:0:0:
96,120,653200,5,12,0:0:0:0:
88,136,653274,1,0,0:0:0:0:
80,152,653347,1,0,0:0:0:0:
80,224,653494,6,0,B|120:280|168:272,1,75,12|0,0:0|0:0,0:0:0:0:
208,296,653789,2,0,B|264:312|312:288,1,75,12|0,0:0|0:0,0:0:0:0:
352,280,654083,2,0,B|416:256|440:216,1,75,12|0,0:0|0:0,0:0:0:0:
448,176,654377,2,0,B|456:112|432:88,1,75,12|0,0:0|0:0,0:0:0:0:
384,48,654671,5,12,0:0:0:0:
344,40,654744,1,0,0:0:0:0:
304,40,654818,1,0,0:0:0:0:
264,48,654891,1,0,0:0:0:0:
232,64,654965,1,12,0:0:0:0:
200,80,655039,1,0,0:0:0:0:
168,104,655112,1,0,0:0:0:0:
144,136,655186,1,0,0:0:0:0:
128,168,655259,1,12,0:0:0:0:
112,200,655333,1,0,0:0:0:0:
104,232,655406,1,0,0:0:0:0:
112,264,655480,1,0,0:0:0:0:
136,288,655553,1,12,0:0:0:0:
168,304,655627,1,0,0:0:0:0:
200,312,655700,1,0,0:0:0:0:
240,312,655774,1,0,0:0:0:0:
280,312,655847,1,4,0:0:0:0:
256,192,655994,12,4,658200,0:0:0:0:
