osu file format v14

[General]
AudioFilename: audio.mp3
AudioLeadIn: 0
PreviewTime: 65856
Countdown: 1
SampleSet: Normal
StackLeniency: 0.7
Mode: 0
LetterboxInBreaks: 0
WidescreenStoryboard: 0

[Editor]
Bookmarks: 65856
DistanceSpacing: 1
BeatDivisor: 4
GridSize: 16
TimelineZoom: 3.799999

[Metadata]
Title:Should I Quit Being A Maid? Should I Quit Beaing A Human?
TitleUnicode:Should I Quit Being A Maid? Should I Quit Beaing A Human?
Artist:IOSYS
ArtistUnicode:IOSYS
Creator:Derr Rtee
Version:Stress
Source:
Tags:
BeatmapID:2012670
BeatmapSetID:961394

[Difficulty]
HPDrainRate:9.2
CircleSize:3.7
OverallDifficulty:8.7
ApproachRate:8.5
SliderMultiplier:1.9
SliderTickRate:1

[Events]
//Background and Video events
0,0,"mqdefault.jpg",0,0
//Break Periods
//Storyboard Layer 0 (Background)
//Storyboard Layer 1 (Fail)
//Storyboard Layer 2 (Pass)
//Storyboard Layer 3 (Foreground)
//Storyboard Sound Samples

[TimingPoints]
14656,400,4,1,0,100,1,0
27056,-66.6666666666667,4,1,0,100,0,0
27456,-100,4,1,0,100,0,0
39856,-66.6666666666667,4,1,0,100,0,0
40256,-100,4,1,0,100,0,0
52656,-33.3333333333333,4,1,0,100,0,0
53056,-100,4,1,0,100,0,0
65862,-100,4,1,0,100,0,1
91437,300,4,1,0,100,1,0
129837,-100,4,1,0,100,0,1
149049,260.869565217391,4,1,0,100,1,0
182440,-100,4,1,0,100,0,1
199153,400,4,1,0,100,1,0
211953,-100,4,1,0,100,0,1
237553,-100,4,1,0,100,0,0

[HitObjects]
58,49,14656,5,4,3:0:0:0:
160,48,15056,1,0,2:0:0:0:
272,48,15456,2,0,B|480:48|480:48|480:240,1,380,0|0,2:0|2:0,2:0:0:0:
480,272,16456,2,0,B|480:368|480:368|336:368,2,190,0|0|0,2:0|2:0|2:0,2:0:0:0:
480,224,17456,2,0,L|480:128,2,95,0|0|0,2:0|2:0|2:0,2:0:0:0:
432,224,18056,1,0,2:0:0:0:
384,224,18256,1,0,2:0:0:0:
336,224,18456,1,0,2:0:0:0:
288,224,18656,1,8,2:0:0:0:
240,224,18856,1,0,2:0:0:0:
192,224,19056,1,0,2:0:0:0:
192,128,19456,6,0,L|80:128,1,95,0|0,3:0|3:0,3:0:0:0:
48,128,19856,2,0,L|160:128,1,95,0|0,3:0|3:0,3:0:0:0:
192,128,20256,1,0,2:0:0:0:
240,128,20456,2,0,L|352:128,1,95,0|0,2:0|2:0,2:0:0:0:
384,128,20856,1,0,2:2:0:0:
432,128,21056,2,0,B|496:128|496:128|496:272|496:272|416:272,1,285
368,272,21856,1,0,0:0:0:0:
320,272,22056,1,0,0:0:0:0:
272,272,22256,1,0,0:0:0:0:
272,176,22656,6,0,L|160:176,1,95,0|0,3:0|3:0,3:0:0:0:
128,176,23056,2,0,L|240:176,1,95,0|0,3:0|3:0,3:0:0:0:
272,176,23456,1,0,0:0:0:0:
320,176,23656,2,0,L|432:176,1,95,0|0,2:0|2:0,2:0:0:0:
464,176,24056,1,0,0:0:0:0:
512,176,24256,1,0,0:0:0:0:
464,176,24456,5,0,0:0:0:0:
400,176,24656,1,0,0:0:0:0:
336,176,24856,1,0,0:0:0:0:
256,176,25056,1,0,0:0:0:0:
176,176,25256,1,0,0:0:0:0:
80,176,25456,1,0,0:0:0:0:
128,96,25656,1,0,0:0:0:0:
128,192,25856,2,0,L|128:272,11,47.5
128,176,27056,6,0,L|400:176,1,213.750008153916
384,176,27456,2,0,L|224:176,1,95
96,128,27856,2,0,L|256:128,1,95
368,96,28256,2,0,L|208:96,1,95
80,48,28656,2,0,L|240:48,1,95
288,48,29056,2,0,L|288:160,1,95
368,240,29456,2,0,L|368:128,1,95
288,48,29856,2,0,L|288:160,1,95
208,240,30256,1,0,0:0:0:0:
208,144,30456,1,0,0:0:0:0:
288,144,30656,5,0,0:0:0:0:
288,240,30856,1,0,0:0:0:0:
384,240,31056,1,0,0:0:0:0:
384,144,31256,1,0,0:0:0:0:
464,144,31456,1,0,0:0:0:0:
464,240,31656,1,0,0:0:0:0:
464,336,31856,1,0,0:0:0:0:
384,336,32056,1,0,0:0:0:0:
304,336,32256,2,0,L|208:336,3,95
128,336,33056,1,0,0:0:0:0:
128,256,33256,1,0,0:0:0:0:
128,176,33456,1,0,0:0:0:0:
128,96,33656,1,0,0:0:0:0:
128,176,33856,6,0,L|288:176,1,95
416,128,34256,2,0,L|256:128,1,95
144,96,34656,2,0,L|304:96,1,95
432,48,35056,2,0,L|272:48,1,95
224,48,35456,2,0,L|224:160,1,95
144,240,35856,2,0,L|144:128,1,95
224,48,36256,2,0,L|224:160,1,95
304,240,36656,1,0,0:0:0:0:
304,240,36856,1,0,0:0:0:0:
288,128,37056,5,0,0:0:0:0:
208,64,37256,1,0,0:0:0:0:
208,208,37456,1,0,0:0:0:0:
288,128,37656,1,0,0:0:0:0:
368,64,37856,1,0,0:0:0:0:
288,128,38056,1,0,0:0:0:0:
368,208,38256,1,0,0:0:0:0:
304,208,38456,2,0,L|240:208,1,47.5
224,208,38656,2,0,L|160:208,1,47.5
128,208,38856,2,0,L|64:208,1,47.5
16,208,39056,2,0,L|16:160,1,47.5
16,96,39256,2,0,L|16:0,2,95
464,32,39856,6,0,B|384:144|544:144|448:256,1,213.750008153916
448,320,40256,2,0,P|400:336|352:304,1,95
320,240,40656,2,0,P|272:224|224:256,1,95
64,320,41056,2,0,P|112:336|160:304,1,95
192,240,41456,2,0,P|240:224|288:256,1,95
400,192,41856,5,0,0:0:0:0:
112,192,42256,1,0,0:0:0:0:
432,112,42656,5,0,0:0:0:0:
64,112,43056,1,0,0:0:0:0:
336,48,43256,5,0,0:0:0:0:
176,48,43456,1,0,0:0:0:0:
288,48,43656,5,0,0:0:0:0:
224,48,43756,1,0,0:0:0:0:
256,48,43856,1,0,0:0:0:0:
256,128,44056,1,0,0:0:0:0:
256,224,44256,1,0,0:0:0:0:
256,320,44456,1,0,0:0:0:0:
112,272,44656,1,0,0:0:0:0:
400,272,44856,1,0,0:0:0:0:
256,112,45056,5,0,0:0:0:0:
256,288,45256,1,0,0:0:0:0:
344,200,45456,5,0,0:3:0:0:
168,200,45656,1,0,0:3:0:0:
256,96,45856,2,0,B|224:176|336:176|256:304,2,190
144,80,47056,5,0,0:0:0:0:
144,192,47256,1,0,0:0:0:0:
144,304,47456,1,0,0:0:0:0:
368,192,47856,1,0,0:0:0:0:
144,192,48256,1,0,0:0:0:0:
368,192,48656,1,0,0:0:0:0:
144,304,49056,1,0,0:0:0:0:
144,192,49256,1,0,0:0:0:0:
144,80,49456,1,0,0:0:0:0:
256,80,49656,1,0,0:0:0:0:
368,80,49856,1,0,0:0:0:0:
368,192,50056,2,0,L|368:224,4,23.75
368,320,50356,1,0,0:0:0:0:
352,352,50456,1,0,0:0:0:0:
384,352,50556,1,0,0:0:0:0:
240,320,50656,1,0,0:0:0:0:
224,352,50756,1,0,0:0:0:0:
256,352,50856,1,0,0:0:0:0:
112,336,51056,2,0,L|112:240,1,95
112,112,51456,2,0,B|112:64|112:64|224:64,2,142.5
112,192,52256,2,0,B|112:304|112:304|176:304,1,142.5
208,304,52656,2,0,B|272:304|272:304|208:240|208:240|288:240|288:240|208:192|208:192|320:192,1,427.500016307831
432,32,53056,6,0,L|432:208,1,142.5
352,32,53456,2,0,L|352:208,1,142.5
144,32,53856,2,0,L|240:176,1,142.5
224,32,54256,2,0,L|128:176,1,142.5
80,352,54656,6,0,L|80:176,1,142.5
160,352,55056,2,0,L|160:176,1,142.5
368,352,55456,2,0,L|272:208,1,142.5
288,352,55856,2,0,L|336:272,1,47.5
352,256,56056,2,0,L|400:176,1,47.5
432,160,56256,2,0,L|320:80,1,95
