osu file format v14

[General]
AudioFilename: REUsatei.mp3
AudioLeadIn: 1500
PreviewTime: -1
Countdown: 1
SampleSet: Normal
StackLeniency: 0.7
Mode: 2
LetterboxInBreaks: 1
WidescreenStoryboard: 0

[Editor]
Bookmarks: 70856
DistanceSpacing: 0.2
BeatDivisor: 4
GridSize: 4
TimelineZoom: 1

[Metadata]
Title:RE:Usatei
TitleUnicode:RE:Usatei
Artist:IOSYS
ArtistUnicode:IOSYS
Creator:Spectator
Version:Spec's CTB
Source:Touhou
Tags:
BeatmapID:1037258
BeatmapSetID:486436

[Difficulty]
HPDrainRate:5
CircleSize:4
OverallDifficulty:5
ApproachRate:9
SliderMultiplier:2.5
SliderTickRate:2

[Events]
//Background and Video events
0,0,"Konachan.com - 80627 animal_ears bunny_ears bunnygirl long_hair panties purple_hair reisen_udongein_inaba scarlet_(studioscr) striped_panties touhou underwear.jpg",0,0
//Break Periods
//Storyboard Layer 0 (Background)
//Storyboard Layer 1 (Fail)
//Storyboard Layer 2 (Pass)
//Storyboard Layer 3 (Foreground)
//Storyboard Sound Samples

[TimingPoints]
571,342.857142857143,4,1,0,100,1,0
571,-100,4,1,0,100,0,0
11371,-66.6666666666667,4,1,0,100,0,0
30742,-66.6666666666667,4,1,0,70,0,0
31085,-66.6666666666667,4,1,0,80,0,0
31428,-66.6666666666667,4,1,0,90,0,0
31771,-66.6666666666667,4,1,0,100,0,0
54056,-66.6666666666667,4,1,0,70,0,0
55428,-66.6666666666667,4,1,0,100,0,0
66399,-66.6666666666667,4,1,0,100,0,1
77371,-66.6666666666667,4,1,0,80,0,1
86971,-66.6666666666667,4,2,0,80,0,1
87999,-100,4,2,0,50,0,1
88342,-133.333333333333,4,1,0,100,0,0
99313,-83.3333333333333,4,1,0,100,0,0
103085,-66.6666666666667,4,1,0,100,0,0
110285,-50,4,1,0,100,0,1
119885,-50,4,3,0,100,0,1
120913,-50,4,2,0,100,0,1
121256,-50,4,2,0,100,0,1

[Colours]
Combo1 : 164,234,169
Combo2 : 255,173,134
Combo3 : 236,130,213
Combo4 : 181,159,238

[HitObjects]
72,104,571,6,2,B|260:24|492:120,1,375,2|0,0:0|0:0,0:0:0:0:
428,188,1256,2,0,B|432:240|432:320,1,125,2|0,0:0|0:0,0:0:0:0:
256,236,1599,2,0,B|256:384,1,125,2|0,0:0|0:0,0:0:0:0:
84,188,1942,2,0,B|84:242|85:314,1,125
256,32,2285,6,0,B|256:164,2,125
256,236,2799,1,0,0:0:0:0:
256,236,2885,1,0,0:0:0:0:
256,236,2971,1,0,0:0:0:0:
344,236,3313,6,0,B|472:236,1,125
316,144,3656,2,0,B|448:144,1,125
168,148,3999,2,0,B|40:148,1,125,2|0,0:0|0:0,0:0:0:0:
192,240,4342,2,0,B|60:240,1,125,2|0,0:0|0:0,0:0:0:0:
320,248,4685,6,0,B|428:336,1,125
188,140,5028,2,0,B|80:52,1,125
320,140,5371,1,0,0:0:0:0:
192,248,5542,1,0,0:0:0:0:
192,248,5628,1,0,0:0:0:0:
192,248,5713,1,0,0:0:0:0:
192,248,6056,6,0,B|132:296|64:240,1,125
320,140,6399,2,0,B|380:92|448:148,1,125
192,168,6742,2,0,B|132:168|100:96,1,125,2|0,0:0|0:0,0:0:0:0:
320,216,7085,2,0,B|380:216|412:288,1,125,2|0,0:0|0:0,0:0:0:0:
196,88,7428,6,0,B|256:52|320:88,1,125
316,296,7771,2,0,B|256:332|192:296,1,125
256,192,8113,1,0,0:0:0:0:
256,192,8285,1,0,0:0:0:0:
256,192,8371,1,0,0:0:0:0:
256,192,8456,1,0,0:0:0:0:
256,64,8799,5,4,0:0:0:0:
256,192,8971,12,0,11199,0:0:0:0:
68,56,11542,6,0,B|476:56,1,374.999988824129,0|8,0:0|0:0,0:0:0:0:
444,140,12056,2,0,B|564:140,2,93.7499972060324
444,224,12399,2,0,B|364:300|256:216,1,187.499994412065,0|8,0:0|0:0,0:0:0:0:
68,160,12742,2,0,B|148:84|256:168,1,187.499994412065
328,32,13085,6,0,B|400:116|332:208,1,187.499994412065,0|8,0:0|0:0,0:0:0:0:
336,352,13428,2,0,B|400:280,2,93.7499972060324
216,260,13771,2,0,B|113:251|64:115,2,187.499994412065,0|8|0,0:0|0:0|0:0,0:0:0:0:
292,128,14285,6,0,B|395:137|444:273,1,187.499994412065
256,196,14628,1,8,0:0:0:0:
208,260,14799,2,0,B|128:328,1,93.7500035762788
304,260,14971,2,0,B|384:328,1,93.7500035762788
212,188,15142,2,0,B|140:120,1,93.7499972060324
300,188,15313,2,0,B|380:116,1,93.7499972060324
256,120,15485,2,0,B|256:28,2,93.7499972060324,0|0|0,0:0|0:0|0:0,0:0:0:0:
424,72,15999,5,2,0:0:0:0:
73,73,16342,1,0,0:0:0:0:
424,312,16685,1,2,0:0:0:0:
76,320,17028,6,0,B|184:260|184:260|184:136|184:136|52:60,1,374.999988824129,0|8,0:0|0:0,0:0:0:0:
220,36,17542,2,0,B|264:100|304:16,4,93.7500035762788,0|0|0|0|0,0:0|0:0|0:0|0:0|0:0,0:0:0:0:
256,192,18056,1,8,0:0:0:0:
256,192,18228,1,0,0:0:0:0:
436,320,18399,6,0,B|328:260|328:260|328:136|328:136|460:60,1,374.999988824129,0|8,0:0|0:0,0:0:0:0:
68,196,19085,1,2,0:0:0:0:
432,192,19428,1,2,0:0:0:0:
256,192,19771,1,2,0:0:0:0:
256,192,20456,1,2,0:0:0:0:
176,192,20971,6,0,B|100:244,2,93.7499972060324
336,192,21313,2,0,B|416:252,2,93.7499972060324
176,192,21656,2,0,B|96:248,2,93.7499972060324
336,192,21999,2,0,B|412:248,2,93.7499972060324
256,192,22342,1,0,0:0:0:0:
78,94,22513,6,0,B|258:22,1,187.499994412065
252,24,22771,1,0,0:0:0:0:
252,24,22856,2,0,B|442:110,1,187.499994412065,8|0,0:0|0:0,0:0:0:0:
424,288,23199,2,0,B|244:360,1,187.499994412065
250,358,23456,1,0,0:0:0:0:
250,358,23542,2,0,B|60:272,1,187.499994412065,8|0,0:0|0:0,0:0:0:0:
84,192,23885,5,0,0:0:0:0:
256,192,24056,1,0,0:0:0:0:
256,192,24142,1,0,0:0:0:0:
256,192,24228,1,8,0:0:0:0:
424,192,24399,1,0,0:0:0:0:
84,192,24571,1,0,0:0:0:0:
256,192,24742,1,0,0:0:0:0:
424,192,24913,1,8,0:0:0:0:
420,80,25256,5,0,0:0:0:0:
216,80,25428,1,0,0:0:0:0:
256,80,25513,1,0,0:0:0:0:
296,80,25599,1,8,0:0:0:0:
92,80,25771,1,0,0:0:0:0:
92,304,25942,1,0,0:0:0:0:
296,304,26114,1,0,0:0:0:0:
256,304,26199,1,0,0:0:0:0:
216,304,26285,1,8,0:0:0:0:
424,304,26457,1,0,0:0:0:0:
256,192,26628,5,0,0:0:0:0:
256,96,26799,2,0,B|256:0,2,93.7499972060324,0|0|8,0:0|0:0|0:0,0:0:0:0:
80,192,27142,1,0,0:0:0:0:
432,192,27313,1,0,0:0:0:0:
80,192,27485,1,0,0:0:0:0:
432,192,27656,1,8,0:0:0:0:
80,80,27999,5,2,0:0:0:0:
192,192,28171,1,0,0:0:0:0:
192,192,28256,1,0,0:0:0:0:
192,192,28342,1,8,0:0:0:0:
80,304,28513,1,0,0:0:0:0:
432,80,28685,1,0,0:0:0:0:
320,192,28857,1,0,0:0:0:0:
320,192,28942,1,0,0:0:0:0:
320,192,29028,1,8,0:0:0:0:
432,304,29199,1,0,0:0:0:0:
256,384,29371,6,0,B|256:176,1,187.499994412065
256,196,29628,1,0,0:0:0:0:
256,196,29713,2,0,B|256:-12,1,187.499994412065,8|0,0:0|0:0,0:0:0:0:
64,196,30056,1,0,0:0:0:0:
256,196,30228,1,0,0:0:0:0:
448,196,30399,1,8,0:0:0:0:
88,196,30742,5,0,0:0:0:0:
112,196,30828,1,0,0:0:0:0:
136,196,30913,1,0,0:0:0:0:
156,196,30999,1,0,0:0:0:0:
176,196,31085,1,0,0:0:0:0:
196,196,31171,1,0,0:0:0:0:
216,196,31256,1,0,0:0:0:0:
236,196,31342,1,0,0:0:0:0:
256,196,31428,1,0,0:0:0:0:
280,196,31514,1,0,0:0:0:0:
304,196,31599,1,0,0:0:0:0:
324,196,31685,1,0,0:0:0:0:
344,196,31771,1,0,0:0:0:0:
364,196,31857,1,0,0:0:0:0:
384,196,31942,1,0,0:0:0:0:
404,196,32028,1,0,0:0:0:0:
424,196,32113,5,0,0:0:0:0:
92,196,32456,1,2,0:0:0:0:
424,196,32799,1,0,0:0:0:0:
92,196,33142,1,2,0:0:0:0:
336,296,33485,6,0,B|488:296|288:296|500:296|168:296|512:296,1,187.499994412065
268,212,33828,2,0,B|420:212|220:212|432:212|100:212|444:212,1,187.499994412065,8|0,0:0|0:0,0:0:0:0:
148,128,34342,6,0,B|300:128|100:128|312:128|-20:128|324:128,1,187.499994412065,0|8,0:0|0:0,0:0:0:0:
80,44,34685,2,0,B|232:44|32:44|244:44|-88:44|256:44,1,187.499994412065
0,196,35199,1,2,0:0:0:0:
512,196,35713,1,2,0:0:0:0:
336,88,36228,6,0,B|488:88|288:88|500:88|168:88|512:88,1,187.499994412065
268,172,36571,2,0,B|420:172|220:172|432:172|100:172|444:172,1,187.499994412065,8|0,0:0|0:0,0:0:0:0:
148,256,37085,6,0,B|300:256|100:256|312:256|-20:256|324:256,1,187.499994412065,0|8,0:0|0:0,0:0:0:0:
80,340,37428,2,0,B|232:340|32:340|244:340|-88:340|256:340,1,187.499994412065
0,188,37942,1,2,0:0:0:0:
512,184,38456,1,2,0:0:0:0:
112,192,38971,5,0,0:0:0:0:
112,192,39142,1,0,0:0:0:0:
256,192,39313,1,8,0:0:0:0:
256,192,39399,1,0,0:0:0:0:
256,192,39485,1,0,0:0:0:0:
256,192,39571,1,0,0:0:0:0:
400,192,39657,1,0,0:0:0:0:
400,192,39828,1,0,0:0:0:0:
256,192,39999,1,8,0:0:0:0:
256,192,40085,1,0,0:0:0:0:
256,192,40171,1,0,0:0:0:0:
256,192,40256,1,0,0:0:0:0:
112,191,40342,6,0,B|112:378,1,187.499994412065
400,193,40685,2,0,B|400:6,1,187.499994412065,8|0,0:0|0:0,0:0:0:0:
112,192,41028,1,0,0:0:0:0:
400,192,41199,1,0,0:0:0:0:
112,192,41371,1,0,0:0:0:0:
80,80,41713,6,0,B|160:-16|256:96,2,187.499994412065
256,160,42228,1,0,0:0:0:0:
432,240,42399,2,0,B|352:336|256:224,2,187.499994412065
256,160,42913,1,0,0:0:0:0:
256,192,43085,12,0,44113,0:0:0:0:
256,200,44456,5,0,0:0:0:0:
88,112,44628,2,2,B|256:-72|456:152,1,374.999988824129,2|0,0:0|0:0,0:0:0:0:
416,272,45142,2,2,B|248:456|48:232,2,374.999988824129,2|0|0,0:0|0:0|0:0,0:0:0:0:
88,272,45999,6,2,B|196:212|196:212|196:88|196:88|64:12,1,374.999988824129,2|0,0:0|0:0,0:0:0:0:
424,272,46513,2,2,B|316:212|316:212|316:88|316:88|448:12,2,374.999988824129,2|2|0,0:0|0:0|0:0,0:0:0:0:
424,176,47371,6,2,B|256:24|80:184,1,374.999988824129,2|0,0:0|0:0,0:0:0:0:
88,272,47885,2,2,B|256:424|432:264,1,374.999988824129,2|0,0:0|0:0,0:0:0:0:
423,271,48399,1,0,0:0:0:0:
396,192,48571,5,0,0:0:0:0:
396,192,48657,1,0,0:0:0:0:
396,192,48742,1,0,0:0:0:0:
428,120,48913,1,8,0:0:0:0:
428,120,48999,1,0,0:0:0:0:
428,120,49085,1,0,0:0:0:0:
460,48,49256,1,0,0:0:0:0:
460,48,49342,1,0,0:0:0:0:
460,48,49428,1,0,0:0:0:0:
460,48,49599,1,8,0:0:0:0:
256,200,49771,1,0,0:0:0:0:
48,48,49942,5,0,0:0:0:0:
48,152,50113,2,2,B|380:368,1,374.999988824129,2|0,0:0|0:0,0:0:0:0:
464,232,50628,2,2,B|132:16,2,374.999988824129,2|2|0,0:0|0:0|0:0,0:0:0:0:
432,256,51485,6,2,B|256:348|52:264,1,374.999988824129,2|0,0:0|0:0,0:0:0:0:
80,128,51999,2,2,B|256:36|460:120,2,374.999988824129,2|2|0,0:0|0:0|0:0,0:0:0:0:
56,136,52856,6,2,B|56:332|56:332|168:340|300:360,1,374.999988824129,2|0,0:0|0:0,0:0:0:0:
460,252,53371,2,2,B|460:56|460:56|340:40|216:28,2,374.999988824129,2|2|0,0:0|0:0|0:0,0:0:0:0:
400,324,54142,6,0,B|485:225,3,93.7500035762788
50,131,54742,2,0,L|113:61,4,93.7500035762788
352,128,55428,5,0,0:0:0:0:
464,232,55599,2,2,B|132:16,1,374.999988824129,2|0,0:0|0:0,0:0:0:0:
48,152,56114,2,2,B|380:368,2,374.999988824129,2|2|0,0:0|0:0|0:0,0:0:0:0:
456,320,56971,6,2,B|332:300|256:112|500:40,1,374.999988824129,2|0,0:0|0:0,0:0:0:0:
56,64,57485,2,2,B|180:84|256:272|12:344,2,374.999988824129,2|2|0,0:0|0:0|0:0,0:0:0:0:
204,36,58342,6,2,B|560:276,1,374.999988824129,2|0,0:0|0:0,0:0:0:0:
308,348,58856,2,2,B|-48:108,2,374.999988824129,2|2|0,0:0|0:0|0:0,0:0:0:0:
452,240,59713,5,0,0:0:0:0:
452,240,59799,1,0,0:0:0:0:
452,240,59885,1,8,0:0:0:0:
256,196,60056,1,0,0:0:0:0:
72,236,60228,1,0,0:0:0:0:
72,236,60313,1,0,0:0:0:0:
72,236,60399,1,0,0:0:0:0:
72,236,60485,1,0,0:0:0:0:
72,236,60571,1,8,0:0:0:0:
72,236,60656,1,0,0:0:0:0:
72,236,60742,1,0,0:0:0:0:
72,236,60828,1,0,0:0:0:0:
72,236,60913,6,0,B|128:328|274:284,1,187.499994412065
264,276,61171,1,0,0:0:0:0:
296,256,61256,2,0,B|392:196|488:324,1,187.499994412065,8|0,0:0|0:0,0:0:0:0:
72,148,61599,6,0,B|128:56|274:100,1,187.499994412065
264,108,61857,1,0,0:0:0:0:
296,128,61942,2,0,B|392:188|488:60,1,187.499994412065,8|0,0:0|0:0,0:0:0:0:
88,192,62285,5,0,0:0:0:0:
300,196,62455,1,0,0:0:0:0:
260,196,62541,1,0,0:0:0:0:
224,196,62627,1,8,0:0:0:0:
432,192,62799,1,0,0:0:0:0:
88,192,62971,5,0,0:0:0:0:
256,324,63142,1,0,0:0:0:0:
432,192,63313,1,8,0:0:0:0:
256,192,63656,12,0,65028,0:0:0:0:
256,192,65713,5,0,0:0:0:0:
256,192,65799,1,0,0:0:0:0:
256,192,65885,1,0,0:0:0:0:
200,100,66056,1,0,0:0:0:0:
308,96,66228,1,0,0:0:0:0:
92,300,66399,5,0,0:0:0:0:
116,300,66485,1,0,0:0:0:0:
136,300,66571,1,0,0:0:0:0:
156,300,66656,1,0,0:0:0:0:
176,300,66742,1,8,0:0:0:0:
196,300,66828,1,0,0:0:0:0:
216,300,66913,1,0,0:0:0:0:
236,300,66999,1,0,0:0:0:0:
256,300,67085,1,0,0:0:0:0:
276,300,67171,1,0,0:0:0:0:
296,300,67256,1,0,0:0:0:0:
316,300,67342,1,0,0:0:0:0:
336,300,67428,1,8,0:0:0:0:
356,300,67513,1,0,0:0:0:0:
376,300,67599,1,0,0:0:0:0:
396,300,67685,1,0,0:0:0:0:
408,224,67771,6,0,B|296:48,1,187.499994412065
116,224,68113,2,0,B|228:48,1,187.499994412065,8|0,0:0|0:0,0:0:0:0:
456,220,68456,2,0,B|344:44,1,187.499994412065
56,220,68799,2,0,B|168:44,1,187.499994412065,8|0,0:0|0:0,0:0:0:0:
256,64,69142,6,0,B|256:172,3,93.7499972060324
256,320,69485,2,0,B|256:212,3,93.7499972060324,8|0|0|0,0:0|0:0|0:0|0:0,0:0:0:0:
256,64,69828,2,0,B|256:172,4,93.7499972060324,0|0|0|0|8,0:0|0:0|0:0|0:0|0:0,0:0:0:0:
256,64,70342,1,0,0:0:0:0:
480,144,70513,6,0,B|480:44,2,93.7499972060324
348,216,70856,2,0,B|348:116,2,93.7499972060324
164,168,71199,2,0,B|164:268,2,93.7499972060324
20,220,71542,2,0,B|20:320,2,93.7499972060324
336,312,71885,5,0,0:0:0:0:
316,288,71971,1,0,0:0:0:0:
296,268,72056,1,0,0:0:0:0:
276,248,72142,1,0,0:0:0:0:
248,228,72228,1,0,0:0:0:0:
224,208,72313,1,0,0:0:0:0:
204,188,72399,1,0,0:0:0:0:
188,172,72485,1,0,0:0:0:0:
172,152,72571,2,0,P|256:116|352:164,1,187.500007152558
172,232,72913,2,0,P|256:268|352:220,1,187.500007152558
56,104,73256,6,0,B|56:336,1,187.499994412065
456,104,73599,2,0,B|456:336,1,187.499994412065,8|0,0:0|0:0,0:0:0:0:
56,104,73942,2,0,B|56:336,1,187.499994412065
456,104,74285,2,0,B|456:336,1,187.499994412065,8|0,0:0|0:0,0:0:0:0:
176,72,74628,6,0,P|232:32|340:80,1,187.500007152558
336,312,74971,2,0,P|280:352|172:304,1,187.500007152558,8|0,0:0|0:0,0:0:0:0:
336,192,75313,2,0,L|536:192,1,187.500007152558
176,192,75656,2,0,L|-24:192,1,187.500007152558,8|0,0:0|0:0,0:0:0:0:
256,192,75999,12,2,77028,0:0:0:0:
256,60,77371,5,0,0:0:0:0:
84,192,77713,1,2,0:0:0:0:
256,324,78056,1,0,0:0:0:0:
436,196,78399,1,2,0:0:0:0:
140,96,78742,5,0,0:0:0:0:
140,276,79085,1,2,0:0:0:0:
368,276,79428,1,0,0:0:0:0:
360,92,79771,1,2,0:0:0:0:
104,184,80113,5,0,0:0:0:0:
416,188,80456,1,2,0:0:0:0:
104,184,80799,1,0,0:0:0:0:
416,188,81142,1,2,0:0:0:0:
64,288,81485,5,0,0:0:0:0:
64,288,81828,1,2,0:0:0:0:
448,296,82171,1,0,0:0:0:0:
448,296,82513,1,2,0:0:0:0:
84,184,82856,5,0,0:0:0:0:
464,188,83199,1,2,0:0:0:0:
48,100,83542,1,0,0:0:0:0:
428,104,83885,1,2,0:0:0:0:
428,200,84228,5,0,0:0:0:0:
48,196,84571,1,2,0:0:0:0:
464,284,84914,1,0,0:0:0:0:
84,280,85257,1,2,0:0:0:0:
436,160,85599,5,0,0:0:0:0:
80,156,85942,1,2,0:0:0:0:
436,160,86285,1,0,0:0:0:0:
80,156,86628,1,2,0:0:0:0:
436,256,86971,5,0,0:0:0:0:
404,256,87056,1,0,0:0:0:0:
372,256,87142,1,0,0:0:0:0:
340,256,87228,1,0,0:0:0:0:
316,256,87313,1,0,0:0:0:0:
284,256,87399,1,0,0:0:0:0:
252,256,87485,1,0,0:0:0:0:
220,256,87571,1,0,0:0:0:0:
188,256,87656,1,0,0:0:0:0:
156,256,87742,1,0,0:0:0:0:
124,256,87828,1,0,0:0:0:0:
92,256,87913,1,0,0:0:0:0:
64,256,87999,2,0,L|8:256,7,31.25
32,172,88342,6,0,L|228:172,2,187.500007152558
120,96,89199,1,0,0:0:0:0:
216,32,89371,2,0,L|320:32,1,93.7500035762788
480,108,89713,6,0,L|376:108,1,93.7500035762788
312,200,90056,2,0,L|204:200,1,93.7500035762788,2|0,0:0|0:0,0:0:0:0:
144,276,90399,2,0,L|40:276,1,93.7500035762788,2|0,0:0|0:0,0:0:0:0:
368,276,90742,2,0,L|472:276,1,93.7500035762788,2|0,0:0|0:0,0:0:0:0:
208,44,91085,5,0,0:0:0:0:
308,108,91256,1,0,0:0:0:0:
208,180,91428,1,0,0:0:0:0:
308,244,91599,1,0,0:0:0:0:
208,180,91771,2,0,L|192:284,1,93.7500035762788
308,108,92113,2,0,L|324:4,1,93.7500035762788
428,296,92456,6,0,L|448:92,2,187.500007152558,0|2|2,0:0|0:0|0:0,0:0:0:0:
328,252,93313,1,0,0:0:0:0:
224,288,93485,2,0,B|168:332|120:260|24:320,1,187.500007152558,2|0,0:0|0:0,0:0:0:0:
64,128,94171,6,0,L|88:32,1,93.7500035762788
248,120,94513,2,0,L|264:220,1,93.7500035762788
448,220,94856,2,0,P|440:148|440:16,2,187.500007152558,0|0|2,0:0|0:0|0:0,0:0:0:0:
352,248,95713,5,0,0:0:0:0:
424,324,95885,2,0,L|200:324,1,187.500007152558,2|2,0:0|0:0,0:0:0:0:
172,248,96399,1,0,0:0:0:0:
100,320,96571,1,0,0:0:0:0:
72,180,96742,1,0,0:0:0:0:
40,52,96913,1,0,0:0:0:0:
156,92,97085,1,0,0:0:0:0:
40,52,97256,1,0,0:0:0:0:
72,180,97428,1,0,0:0:0:0:
100,320,97599,1,0,0:0:0:0:
312,160,97771,5,0,0:0:0:0:
312,160,97942,2,0,P|368:144|420:160,1,93.7500035762788
512,240,98285,2,0,P|456:256|404:240,1,93.7500035762788,2|0,0:0|0:0,0:0:0:0:
196,208,98628,1,2,0:0:0:0:
312,160,98799,1,0,0:0:0:0:
196,208,98971,1,2,0:0:0:0:
464,248,99313,5,4,0:0:0:0:
464,248,99485,2,0,P|320:192|160:264,1,299.999990844727
96,284,99999,2,0,L|40:124,1,149.999995422363
416,100,100342,2,0,L|472:260,1,149.999995422363,2|0,0:0|0:0,0:0:0:0:
180,56,100685,6,0,L|340:56,1,149.999995422363
180,160,101028,2,0,L|340:160,1,149.999995422363,2|0,0:0|0:0,0:0:0:0:
88,100,101371,6,0,P|4:220|104:332,1,299.999990844727,0|2,0:0|0:0,0:0:0:0:
256,256,101885,1,0,0:0:0:0:
424,284,102056,2,0,P|508:164|408:52,1,299.999990844727,0|2,0:0|0:0,0:0:0:0:
184,120,102742,5,0,0:0:0:0:
336,252,102913,1,0,0:0:0:0:
88,256,103085,1,2,0:0:0:0:
424,128,103256,1,0,0:0:0:0:
180,192,103428,6,0,B|64:16,1,187.499994412065
332,192,103771,2,0,B|448:16,1,187.499994412065,2|0,0:0|0:0,0:0:0:0:
116,264,104113,2,0,B|0:88,1,187.499994412065
396,264,104456,2,0,B|512:88,1,187.499994412065,2|0,0:0|0:0,0:0:0:0:
256,80,104799,5,0,0:0:0:0:
160,96,104971,2,0,B|64:180,2,93.7499972060324,0|0|8,0:0|0:0|0:0,0:0:0:0:
352,96,105313,2,0,B|440:176,2,93.7499972060324
256,168,105656,2,0,B|256:284,2,93.7499972060324,0|0|8,0:0|0:0|0:0,0:0:0:0:
72,200,105999,2,0,B|72:260,4,46.8749986030162
256,168,106342,6,0,B|256:284,2,93.7499972060324,0|0|8,0:0|0:0|0:0,0:0:0:0:
440,208,106685,2,0,B|440:264,4,46.8749986030162
256,168,107028,5,0,0:0:0:0:
152,60,107199,1,0,0:0:0:0:
360,56,107371,1,0,0:0:0:0:
92,300,107542,5,0,0:0:0:0:
116,300,107628,1,0,0:0:0:0:
136,300,107714,1,0,0:0:0:0:
156,300,107799,1,0,0:0:0:0:
176,300,107885,1,0,0:0:0:0:
196,300,107971,1,0,0:0:0:0:
216,300,108056,1,0,0:0:0:0:
236,300,108142,1,0,0:0:0:0:
256,300,108228,1,0,0:0:0:0:
276,300,108314,1,0,0:0:0:0:
296,300,108399,1,0,0:0:0:0:
316,300,108485,1,0,0:0:0:0:
336,300,108571,1,0,0:0:0:0:
356,300,108656,1,0,0:0:0:0:
376,300,108742,1,0,0:0:0:0:
0,200,108913,5,2,0:0:0:0:
512,196,109428,1,2,0:0:0:0:
0,200,109942,1,2,0:0:0:0:
72,92,110285,6,0,B|168:-72|312:76,1,250
440,292,110628,2,0,B|344:456|200:308,1,250,8|0,0:0|0:0,0:0:0:0:
72,92,110971,2,0,B|168:-72|312:76,1,250
440,292,111314,2,0,B|344:456|200:308,1,250,8|0,0:0|0:0,0:0:0:0:
72,312,111656,6,0,B|72:56,1,250
252,296,111999,2,0,B|252:40,1,250,8|0,0:0|0:0,0:0:0:0:
440,312,112342,2,0,B|440:56,2,250,0|0|8,0:0|0:0|0:0,0:0:0:0:
256,208,113028,6,0,B|40:40,1,250
320,156,113371,2,0,B|104:-12,1,250,8|0,0:0|0:0,0:0:0:0:
256,172,113713,2,0,B|472:340,1,250
192,224,114056,2,0,B|408:392,1,250,8|0,0:0|0:0,0:0:0:0:
352,64,114399,6,0,B|256:212|144:44,2,250,0|0|8,0:0|0:0|0:0,0:0:0:0:
160,320,114913,2,0,B|256:172|368:340,2,250
256,192,115428,1,8,0:0:0:0:
76,96,115771,6,0,B|172:4|260:204,1,250,2|0,0:0|0:0,0:0:0:0:
256,192,116028,1,0,0:0:0:0:
256,192,116113,2,0,B|320:352|392:352|444:256,1,250,8|0,0:0|0:0,0:0:0:0:
76,288,116456,6,0,B|172:380|260:180,1,250,2|0,0:0|0:0,0:0:0:0:
256,192,116713,1,0,0:0:0:0:
256,192,116798,2,0,B|320:32|392:32|444:128,1,250,8|0,0:0|0:0,0:0:0:0:
256,288,117142,5,2,0:0:0:0:
252,192,117313,2,0,B|164:88,2,125,0|0|8,0:0|0:0|0:0,0:0:0:0:
256,192,117656,2,0,B|336:96,2,125,0|0|2,0:0|0:0|0:0,0:0:0:0:
72,112,117999,1,0,0:0:0:0:
436,104,118171,1,8,0:0:0:0:
252,48,118513,5,0,0:0:0:0:
240,56,118599,1,0,0:0:0:0:
232,64,118685,1,0,0:0:0:0:
224,76,118771,1,0,0:0:0:0:
220,88,118856,1,0,0:0:0:0:
216,100,118942,1,0,0:0:0:0:
216,112,119028,1,0,0:0:0:0:
220,124,119113,1,0,0:0:0:0:
228,136,119199,1,0,0:0:0:0:
236,144,119285,1,0,0:0:0:0:
244,152,119371,1,0,0:0:0:0:
252,160,119456,1,0,0:0:0:0:
260,168,119542,1,0,0:0:0:0:
268,180,119628,1,0,0:0:0:0:
276,192,119713,1,0,0:0:0:0:
280,204,119799,1,0,0:0:0:0:
284,216,119885,1,0,0:0:0:0:
284,228,119971,1,0,0:0:0:0:
284,240,120056,1,0,0:0:0:0:
280,252,120142,1,0,0:0:0:0:
276,264,120228,1,0,0:0:0:0:
272,276,120313,1,0,0:0:0:0:
264,288,120399,1,0,0:0:0:0:
256,300,120485,1,0,0:0:0:0:
248,312,120571,5,0,0:0:0:0:
248,40,120913,1,2,0:0:0:0:
256,192,121256,12,2,123999,0:0:0:0:
