osu file format v14

[General]
AudioFilename: audio.mp3
AudioLeadIn: 0
PreviewTime:46369
Countdown: 0
SampleSet: Soft
StackLeniency: 0.2
Mode: 0
LetterboxInBreaks: 0
WidescreenStoryboard: 1

[Editor]
Bookmarks: 12664,23958,45840,57840,67722,74781,107252,112193,119958,142546,145369,155252,156664,172105,173605,196193
DistanceSpacing: 1
BeatDivisor: 4
GridSize: 32
TimelineZoom: 1.1

[Metadata]
Title:Qualia
TitleUnicode:クオリア
Artist:IOSYS
ArtistUnicode:IOSYS
Creator:wetdog123
Version:Normal
Source:東方紅魔郷 ~ the Embodiment of Scarlet Devil.
Tags:東方Project hhjkl rockin'on kuoria ichigo touhou U.N. owen was her U.N.オーエンは彼女なのか? ZUN 魔法少女達の百年祭 the centennial festival for magical girls void 96 project japanese jrock rock j-rock jpop pop j-pop video game flandre scarlet extra stage boss theme doujin comiket 83 イオシス
BeatmapID:2844882
BeatmapSetID:1213880

[Difficulty]
HPDrainRate:3
CircleSize:3
OverallDifficulty:4
ApproachRate:5.5
SliderMultiplier:1.15
SliderTickRate:1

[Events]
//Background and Video events
0,0,"yo.jpg",0,0
//Break Periods
2,145369,153840
//Storyboard Layer 0 (Background)
//Storyboard Layer 1 (Fail)
//Storyboard Layer 2 (Pass)
//Storyboard Layer 3 (Foreground)
//Storyboard Layer 4 (Overlay)
//Storyboard Sound Samples

[TimingPoints]
1370,352.941176470588,4,2,1,30,1,0
1370,-133.333333333333,4,2,1,30,0,0
21134,-133.333333333333,4,2,1,30,0,0
23958,-120.481927710843,4,2,1,45,0,0
35252,-107.52688172043,4,2,1,45,0,0
35605,-107.52688172043,4,2,2,45,0,0
35958,-107.52688172043,4,2,1,45,0,0
37017,-107.52688172043,4,2,2,45,0,0
37369,-107.52688172043,4,2,1,45,0,0
37722,-107.52688172043,4,2,2,45,0,0
38075,-107.52688172043,4,2,1,45,0,0
38428,-107.52688172043,4,2,2,45,0,0
38781,-107.52688172043,4,2,1,45,0,0
39134,-107.52688172043,4,2,2,45,0,0
39487,-107.52688172043,4,2,1,45,0,0
39840,-107.52688172043,4,2,2,45,0,0
40193,-107.52688172043,4,2,1,45,0,0
40546,-107.52688172043,4,2,2,45,0,0
40899,-107.52688172043,4,2,1,45,0,0
41252,-107.52688172043,4,2,2,45,0,0
41605,-107.52688172043,4,2,1,45,0,0
41958,-107.52688172043,4,2,2,45,0,0
42134,-107.52688172043,4,2,1,45,0,0
42664,-107.52688172043,4,2,2,45,0,0
43017,-107.52688172043,4,2,1,45,0,0
43369,-107.52688172043,4,2,2,45,0,0
43722,-107.52688172043,4,2,1,45,0,0
44075,-107.52688172043,4,2,2,45,0,0
44428,-107.52688172043,4,2,1,45,0,0
44781,-107.52688172043,4,2,2,45,0,0
46546,-95.7854406130268,4,2,1,60,0,1
46899,-95.7854406130268,4,2,2,60,0,1
47252,-95.7854406130268,4,2,1,60,0,1
47605,-95.7854406130268,4,2,2,60,0,1
47781,-95.7854406130268,4,2,1,60,0,1
48311,-95.7854406130268,4,2,2,60,0,1
48487,-95.7854406130268,4,2,1,60,0,1
49017,-95.7854406130268,4,2,2,60,0,1
49369,-95.7854406130268,4,2,1,60,0,1
49722,-95.7854406130268,4,2,2,60,0,1
49899,-95.7854406130268,4,2,1,60,0,1
50428,-95.7854406130268,4,2,2,60,0,1
50605,-95.7854406130268,4,2,1,60,0,1
51134,-95.7854406130268,4,2,2,60,0,1
51311,-95.7854406130268,4,2,1,60,0,1
51840,-95.7854406130268,4,2,2,60,0,1
52193,-95.7854406130268,4,2,1,60,0,1
52546,-95.7854406130268,4,2,2,60,0,1
52722,-95.7854406130268,4,2,1,60,0,1
53252,-95.7854406130268,4,2,2,60,0,1
53428,-95.7854406130268,4,2,1,60,0,1
53958,-95.7854406130268,4,2,2,60,0,1
54134,-95.7854406130268,4,2,1,60,0,1
54664,-95.7854406130268,4,2,2,60,0,1
54840,-95.7854406130268,4,2,1,60,0,1
55369,-95.7854406130268,4,2,2,60,0,1
55722,-95.7854406130268,4,2,1,60,0,1
56075,-95.7854406130268,4,2,2,60,0,1
56252,-95.7854406130268,4,2,1,60,0,1
56781,-95.7854406130268,4,2,2,60,0,1
57840,-95.7854406130268,4,2,1,60,0,1
58193,-95.7854406130268,4,2,2,60,0,1
58546,-95.7854406130268,4,2,1,60,0,1
58899,-95.7854406130268,4,2,2,60,0,1
59075,-95.7854406130268,4,2,1,60,0,1
59605,-95.7854406130268,4,2,2,60,0,1
59781,-95.7854406130268,4,2,1,60,0,1
60311,-95.7854406130268,4,2,2,60,0,1
60487,-95.7854406130268,4,2,1,60,0,1
60664,-95.7854406130268,4,2,1,60,0,1
61017,-95.7854406130268,4,2,2,60,0,1
61193,-95.7854406130268,4,2,1,60,0,1
61722,-95.7854406130268,4,2,2,60,0,1
61899,-95.7854406130268,4,2,1,60,0,1
62428,-95.7854406130268,4,2,2,60,0,1
62605,-95.7854406130268,4,2,1,60,0,1
63134,-95.7854406130268,4,2,2,60,0,1
63487,-95.7854406130268,4,2,1,60,0,1
63840,-95.7854406130268,4,2,2,60,0,1
64017,-95.7854406130268,4,2,1,60,0,1
64546,-95.7854406130268,4,2,2,60,0,1
64899,-95.7854406130268,4,2,1,60,0,1
65252,-95.7854406130268,4,2,2,60,0,1
65605,-95.7854406130268,4,2,1,60,0,1
65958,-95.7854406130268,4,2,2,60,0,1
66134,-95.7854406130268,4,2,1,60,0,1
66664,-95.7854406130268,4,2,2,60,0,1
66840,-95.7854406130268,4,2,1,60,0,1
67546,-95.7854406130268,4,2,1,60,0,0
69134,-107.52688172043,4,2,1,60,0,0
71605,-107.52688172043,4,2,2,60,0,0
71958,-100,4,2,1,60,0,0
74075,-100,4,2,3,60,0,0
74781,-111.111111111111,4,2,4,45,0,0
75134,-111.111111111111,4,2,1,45,0,0
77428,-111.111111111111,4,2,3,45,0,0
77605,-111.111111111111,4,2,4,45,0,0
77958,-111.111111111111,4,2,1,45,0,0
80252,-111.111111111111,4,2,3,45,0,0
80428,-111.111111111111,4,2,4,45,0,0
80781,-111.111111111111,4,2,1,45,0,0
83075,-111.111111111111,4,2,3,45,0,0
83252,-111.111111111111,4,2,4,45,0,0
83605,-111.111111111111,4,2,1,45,0,0
86075,-100,4,2,4,45,0,0
86428,-100,4,2,1,45,0,0
87487,-100,4,2,1,45,0,0
88722,-100,4,2,3,45,0,0
88899,-100,4,2,4,45,0,0
89252,-100,4,2,1,45,0,0
90664,-100,4,2,2,45,0,0
91017,-100,4,2,1,45,0,0
91546,-100,4,2,3,45,0,0
91722,-100,4,2,1,45,0,0
95605,-100,4,2,2,45,0,0
96664,-100,4,2,5,45,0,0
97369,-95.7854406130268,4,2,1,60,0,1
97722,-95.7854406130268,4,2,2,60,0,1
98075,-95.7854406130268,4,2,1,60,0,1
98428,-95.7854406130268,4,2,2,60,0,1
98605,-95.7854406130268,4,2,1,60,0,1
99134,-95.7854406130268,4,2,2,60,0,1
99311,-95.7854406130268,4,2,1,60,0,1
99840,-95.7854406130268,4,2,2,60,0,1
100193,-95.7854406130268,4,2,1,60,0,1
100546,-95.7854406130268,4,2,2,60,0,1
100722,-95.7854406130268,4,2,1,60,0,1
101252,-95.7854406130268,4,2,2,60,0,1
101428,-95.7854406130268,4,2,1,60,0,1
101958,-95.7854406130268,4,2,2,60,0,1
102134,-95.7854406130268,4,2,1,60,0,1
102664,-95.7854406130268,4,2,2,60,0,1
103017,-95.7854406130268,4,2,1,60,0,1
103369,-95.7854406130268,4,2,2,60,0,1
103546,-95.7854406130268,4,2,1,60,0,1
104075,-95.7854406130268,4,2,2,60,0,1
104252,-95.7854406130268,4,2,1,60,0,1
104781,-95.7854406130268,4,2,2,60,0,1
104958,-95.7854406130268,4,2,1,60,0,1
105487,-95.7854406130268,4,2,2,60,0,1
105664,-95.7854406130268,4,2,1,60,0,1
106193,-95.7854406130268,4,2,2,60,0,1
106546,-95.7854406130268,4,2,1,60,0,1
106899,-95.7854406130268,4,2,2,60,0,1
107075,-95.7854406130268,4,2,1,60,0,1
107605,-95.7854406130268,4,2,2,60,0,1
108664,-95.7854406130268,4,2,1,60,0,1
109017,-95.7854406130268,4,2,2,60,0,1
109369,-95.7854406130268,4,2,1,60,0,1
109722,-95.7854406130268,4,2,2,60,0,1
109899,-95.7854406130268,4,2,1,60,0,1
110428,-95.7854406130268,4,2,2,60,0,1
110605,-95.7854406130268,4,2,1,60,0,1
111134,-95.7854406130268,4,2,2,60,0,1
111311,-95.7854406130268,4,2,1,60,0,1
111487,-95.7854406130268,4,2,1,60,0,1
111840,-95.7854406130268,4,2,2,60,0,1
112017,-95.7854406130268,4,2,1,60,0,1
112546,-95.7854406130268,4,2,2,60,0,1
112722,-95.7854406130268,4,2,1,60,0,1
113252,-95.7854406130268,4,2,2,60,0,1
113428,-95.7854406130268,4,2,1,60,0,1
113958,-95.7854406130268,4,2,2,60,0,1
114134,-95.7854406130268,4,2,1,60,0,1
114311,-95.7854406130268,4,2,1,60,0,0
114664,-95.7854406130268,4,2,2,60,0,0
114840,-95.7854406130268,4,2,1,60,0,0
115369,-95.7854406130268,4,2,2,60,0,0
115722,-95.7854406130268,4,2,1,60,0,0
116075,-95.7854406130268,4,2,2,60,0,0
116428,-95.7854406130268,4,2,1,60,0,0
116781,-95.7854406130268,4,2,2,60,0,0
116958,-95.7854406130268,4,2,1,60,0,0
117487,-95.7854406130268,4,2,2,60,0,0
117664,-95.7854406130268,4,2,1,60,0,0
119781,-107.181136120043,4,2,1,60,0,0
120311,-107.181136120043,4,2,1,45,0,0
128252,-107.181136120043,4,2,2,45,0,0
128428,-107.181136120043,4,2,1,45,0,0
130899,-107.181136120043,4,2,4,45,0,0
130987,-107.181136120043,4,2,3,45,0,0
131252,-107.181136120043,4,2,1,45,0,0
136546,-107.181136120043,4,2,3,45,0,0
136722,-107.181136120043,4,2,1,45,0,0
139369,-107.181136120043,4,2,3,45,0,0
139546,-107.181136120043,4,2,1,45,0,0
141664,-107.52688172043,4,2,1,45,0,0
141752,-107.52688172043,4,2,1,45,0,0
143869,-107.52688172043,4,2,1,45,0,0
144575,-107.52688172043,4,2,1,45,0,0
144664,-107.52688172043,4,2,1,30,0,0
155252,-111.111111111111,4,2,1,30,0,0
155605,-111.111111111111,4,2,1,30,0,0
155958,-111.111111111111,4,2,1,60,0,0
156664,-96.1538461538461,4,2,1,60,0,1
157017,-96.1538461538461,4,2,2,60,0,1
157369,-96.1538461538461,4,2,1,60,0,1
157722,-96.1538461538461,4,2,2,60,0,1
157899,-96.1538461538461,4,2,1,60,0,1
158428,-96.1538461538461,4,2,2,60,0,1
158605,-96.1538461538461,4,2,1,60,0,1
159134,-96.1538461538461,4,2,2,60,0,1
159311,-96.1538461538461,4,2,1,60,0,1
159487,-96.1538461538461,4,2,1,60,0,1
159840,-96.1538461538461,4,2,2,60,0,1
160017,-96.1538461538461,4,2,1,60,0,1
160546,-96.1538461538461,4,2,2,60,0,1
160722,-96.1538461538461,4,2,1,60,0,1
161252,-96.1538461538461,4,2,2,60,0,1
161428,-96.1538461538461,4,2,1,60,0,1
161958,-96.1538461538461,4,2,2,60,0,1
162311,-96.1538461538461,4,2,1,60,0,0
162664,-96.1538461538461,4,2,2,60,0,0
162840,-96.1538461538461,4,2,1,60,0,0
163369,-96.1538461538461,4,2,2,60,0,0
163546,-96.1538461538461,4,2,1,60,0,0
163722,-96.1538461538461,4,2,1,60,0,0
164075,-96.1538461538461,4,2,2,60,0,0
164428,-96.1538461538461,4,2,1,60,0,0
164781,-96.1538461538461,4,2,2,60,0,0
164958,-96.1538461538461,4,2,1,60,0,0
165487,-96.1538461538461,4,2,2,60,0,0
165664,-96.1538461538461,4,2,1,60,0,0
166193,-96.1538461538461,4,2,2,60,0,0
166546,-96.1538461538461,4,2,1,60,0,0
166899,-96.1538461538461,4,2,2,60,0,0
167781,-96.1538461538461,4,2,1,60,0,0
168311,-96.1538461538461,4,2,2,60,0,0
168487,-96.1538461538461,4,2,1,60,0,0
169017,-96.1538461538461,4,2,2,60,0,0
169369,-96.1538461538461,4,2,1,60,0,0
169722,-96.1538461538461,4,2,2,60,0,0
170075,-96.1538461538461,4,2,1,60,0,0
170428,-96.1538461538461,4,2,2,60,0,0
170605,-96.1538461538461,4,2,1,60,0,0
171134,-96.1538461538461,4,2,2,60,0,0
171311,-96.1538461538461,4,2,1,60,0,0
171840,-96.1538461538461,4,2,2,60,0,0
172017,-96.1538461538461,4,2,1,60,0,0
173958,-96.1538461538461,4,2,2,60,0,0
174134,-96.1538461538461,4,2,1,60,0,0
174664,-96.1538461538461,4,2,2,60,0,0
174840,-96.1538461538461,4,2,1,60,0,0
175369,-96.1538461538461,4,2,2,60,0,0
175546,-96.1538461538461,4,2,1,60,0,0
176075,-96.1538461538461,4,2,2,60,0,0
176252,-96.1538461538461,4,2,1,60,0,0
176781,-96.1538461538461,4,2,2,60,0,0
176958,-96.1538461538461,4,2,1,60,0,0
177487,-96.1538461538461,4,2,2,60,0,0
177664,-96.1538461538461,4,2,1,60,0,0
178193,-96.1538461538461,4,2,2,60,0,0
178369,-96.1538461538461,4,2,1,60,0,0
178899,-96.1538461538461,4,2,2,60,0,0
179075,-96.1538461538461,4,2,1,60,0,0
179605,-96.1538461538461,4,2,2,60,0,0
179958,-96.1538461538461,4,2,1,60,0,0
180311,-96.1538461538461,4,2,2,60,0,0
180487,-96.1538461538461,4,2,1,60,0,0
181017,-96.1538461538461,4,2,2,60,0,0
181193,-96.1538461538461,4,2,1,60,0,0
181722,-96.1538461538461,4,2,2,60,0,0
181899,-96.1538461538461,4,2,1,60,0,0
182428,-96.1538461538461,4,2,2,60,0,0
182781,-96.1538461538461,4,2,1,60,0,0
183134,-96.1538461538461,4,2,2,60,0,0
183311,-96.1538461538461,4,2,1,60,0,0
183840,-96.1538461538461,4,2,2,60,0,0
184017,-96.1538461538461,4,2,1,60,0,0
184193,-96.1538461538461,4,2,3,60,0,0
184369,-96.1538461538461,4,2,4,60,0,0
184458,-96.1538461538461,4,2,5,60,0,0
184899,-96.1538461538461,4,2,4,60,0,0
185252,-96.1538461538461,4,2,2,60,0,0
185605,-96.1538461538461,4,2,1,60,0,0
185958,-96.1538461538461,4,2,2,60,0,0
186134,-96.1538461538461,4,2,1,60,0,0
186664,-96.1538461538461,4,2,2,60,0,0
186840,-96.1538461538461,4,2,1,60,0,0
187369,-96.1538461538461,4,2,2,60,0,0
187722,-96.1538461538461,4,2,1,60,0,0
188075,-96.1538461538461,4,2,2,60,0,0
188428,-96.1538461538461,4,2,1,60,0,0
188781,-96.1538461538461,4,2,2,60,0,0
188958,-96.1538461538461,4,2,1,60,0,0
189487,-96.1538461538461,4,2,2,60,0,0
189664,-96.1538461538461,4,2,1,60,0,0
190193,-96.1538461538461,4,2,6,60,0,0
190281,-96.1538461538461,4,2,3,60,0,0
190546,-96.1538461538461,4,2,4,60,0,0
190899,-96.1538461538461,4,2,2,60,0,0
191252,-96.1538461538461,4,2,1,60,0,0
191605,-96.1538461538461,4,2,2,60,0,0
191781,-96.1538461538461,4,2,1,60,0,0
192311,-96.1538461538461,4,2,2,60,0,0
192487,-96.1538461538461,4,2,1,60,0,0
193017,-96.1538461538461,4,2,2,60,0,0
193193,-96.1538461538461,4,2,1,60,0,0
193722,-96.1538461538461,4,2,2,60,0,0
194075,-96.1538461538461,4,2,1,60,0,0
194428,-96.1538461538461,4,2,2,60,0,0
194605,-96.1538461538461,4,2,1,60,0,0
196899,-96.1538461538461,4,2,2,60,0,0

[Colours]
Combo1 : 253,206,244
Combo2 : 248,90,137

[HitObjects]
499,314,1370,6,0,P|450:281|407:270,1,86.2500032901765,2|2,2:2|2:2,0:0:0:0:
338,265,2075,2,0,P|300:271|240:292,1,86.2500032901765,2|2,2:2|2:2,0:0:0:0:
189,342,2781,1,2,2:2:0:0:
30,273,3487,1,2,2:2:0:0:
113,121,4193,2,0,L|296:150,1,172.500006580353,2|2,2:2|2:2,0:0:0:0:
359,106,5252,1,2,2:2:0:0:
429,154,5605,2,0,P|441:203|433:258,1,86.2500032901765,2|2,2:2|2:2,0:0:0:0:
364,282,6311,1,2,2:2:0:0:
359,106,7017,6,0,P|393:55|428:35,1,86.2500032901765,2|2,2:2|2:2,0:0:0:0:
494,70,7722,2,0,P|500:115|490:161,1,86.2500032901765,2|2,2:2|2:2,0:0:0:0:
430,215,8428,1,2,2:2:0:0:
262,173,9134,1,2,2:2:0:0:
100,234,9840,2,0,L|79:54,1,172.500006580353,2|2,2:2|2:2,0:0:0:0:
148,9,10899,1,2,2:2:0:0:
217,60,11252,2,0,L|210:155,1,86.2500032901765,2|2,2:2|2:2,0:0:0:0:
293,170,11958,2,0,L|328:76,1,86.2500032901765,2|0,2:2|0:0,0:0:0:0:
394,40,12664,6,0,P|450:76|467:191,1,172.500006580353,2|0,2:2|0:0,0:0:0:0:
457,215,13546,2,0,L|497:248,2,43.1250016450883,2|2|2,2:2|2:2|2:2,0:0:0:0:
428,247,14075,2,0,B|388:261|348:235|348:235|287:199|215:259|242:317,1,258.75000987053,2|2,2:2|2:2,0:0:0:0:
158,337,15487,2,0,L|141:154,1,172.500006580353,2|0,2:2|0:0,0:0:0:0:
169,83,16546,1,0,0:0:0:0:
107,22,16899,6,0,L|13:5,1,86.2500032901765,2|2,2:2|2:2,0:0:0:0:
2,90,17605,2,0,L|21:185,1,86.2500032901765,2|2,2:2|2:2,0:0:0:0:
100,202,18311,2,0,P|144:164|308:136,1,215.625008225441,2|2,2:2|2:2,0:0:0:0:
355,194,19546,1,2,2:2:0:0:
355,194,19722,2,0,L|365:296,1,86.2500032901765,2|0,2:2|0:0,0:0:0:0:
447,298,20428,2,0,L|477:198,1,86.2500032901765,2|2,2:2|2:2,0:0:0:0:
495,132,21134,6,0,B|430:122|392:76|400:7|400:7|379:74|352:97|275:93,1,345.000013160706,2|2,2:2|2:2,0:0:0:0:
189,81,22899,1,2,2:2:0:0:
141,16,23252,1,2,2:2:0:0:
141,16,23428,2,0,P|116:32|90:41,1,43.1250016450883,0|0,3:3|3:3,0:0:0:0:
13,69,23958,6,0,L|17:173,1,95.4500013836288,14|10,2:3|2:3,0:0:0:0:
101,208,24664,2,0,L|199:199,1,95.4500013836288,10|10,2:3|2:3,0:0:0:0:
273,255,25369,2,0,L|281:370,1,95.4500013836288,10|10,2:3|2:3,0:0:0:0:
370,381,26075,2,0,L|469:372,1,95.4500013836288,10|8,2:3|2:3,0:0:0:0:
508,287,26781,5,10,2:3:0:0:
507,191,27134,1,10,2:3:0:0:
452,112,27487,2,0,P|408:86|350:92,1,95.4500013836288,10|10,2:3|2:3,0:0:0:0:
284,138,28193,2,0,P|283:198|243:230,1,95.4500013836288,10|10,2:3|2:3,0:0:0:0:
164,225,28899,6,0,L|144:33,1,190.900002767258,10|10,2:3|2:3,0:0:0:0:
53,4,29958,1,10,2:3:0:0:
13,90,30311,2,0,L|25:192,1,95.4500013836288,10|10,2:3|2:3,0:0:0:0:
77,263,31017,2,0,L|183:247,1,95.4500013836288,10|10,2:3|2:3,0:0:0:0:
231,174,31722,2,0,L|234:70,1,95.4500013836288,10|8,2:3|2:3,0:0:0:0:
308,18,32428,5,10,2:3:0:0:
403,26,32781,1,10,2:3:0:0:
391,120,33134,1,10,2:3:0:0:
484,138,33487,1,10,2:3:0:0:
481,233,33840,2,0,P|478:297|458:340,1,95.4500013836288,10|10,2:3|3:3,0:0:0:0:
430,356,34369,1,0,3:3:0:0:
383,343,34546,2,0,P|366:308|307:280,1,95.4500013836288,10|10,3:3|3:3,0:0:0:0:
217,318,35252,6,0,L|205:96,1,213.900006690903,14|8,2:3|2:3,0:0:0:0:
150,12,36311,2,0,L|91:18,1,53.4750016727257,10|2,3:2|2:2,0:0:0:0:
43,24,36664,2,0,P|56:80|65:141,1,106.950003345451,10|10,2:3|2:3,0:0:0:0:
23,227,37369,1,10,2:3:0:0:
88,311,37722,1,10,3:3:0:0:
193,294,38075,6,0,P|244:279|297:287,1,106.950003345451,10|8,2:3|2:3,0:0:0:0:
386,354,38781,1,8,2:3:0:0:
386,354,38958,2,0,L|453:368,1,53.4750016727257,0|8,3:3|3:3,0:0:0:0:
490,271,39487,2,0,L|507:153,1,106.950003345451,10|10,2:3|2:3,0:0:0:0:
442,78,40193,1,10,2:3:0:0:
382,164,40546,1,10,2:3:0:0:
278,191,40899,6,0,P|239:100|136:68,1,213.900006690903,14|8,2:3|2:3,0:0:0:0:
70,153,41958,2,0,P|90:187|122:199,1,53.4750016727257,10|2,3:3|2:2,0:0:0:0:
154,200,42311,2,0,L|160:324,1,106.950003345451,10|8,2:3|2:3,0:0:0:0:
242,374,43017,1,10,2:3:0:0:
336,324,43369,1,10,3:3:0:0:
316,218,43722,6,0,B|338:65|338:65|369:50|396:9,1,213.900006690903,10|8,2:3|2:3,0:0:0:0:
490,19,44781,1,8,2:3:0:0:
503,124,45134,2,0,P|488:174|481:239,1,106.950003345451,8|8,3:3|3:3,0:0:0:0:
421,317,45840,2,0,P|361:301|295:293,1,106.950003345451,10|8,3:3|3:3,0:0:0:0:
275,184,46546,6,0,L|297:43,2,120.060002601398,14|10|10,3:3|2:3|2:3,0:0:0:0:
200,278,47605,1,10,3:3:0:0:
138,173,47958,2,0,L|114:42,1,120.060002601398,8|10,2:3|2:3,0:0:0:0:
59,34,48487,1,2,3:2:0:0:
9,68,48664,2,0,L|-3:194,1,120.060002601398,10|10,2:3|3:3,0:0:0:0:
21,305,49369,6,0,L|101:293,1,60.0300013006989,10|2,2:3|2:2,0:0:0:0:
137,315,49722,2,0,L|218:304,1,60.0300013006989,10|2,2:3|3:2,0:0:0:0:
242,268,50075,2,0,P|313:267|372:292,1,120.060002601398,10|10,2:3|3:3,0:0:0:0:
374,164,50781,2,0,P|315:164|243:143,1,120.060002601398,8|10,2:3|2:3,0:0:0:0:
214,35,51487,1,10,3:3:0:0:
330,6,51840,2,0,L|396:27,1,60.0300013006989,8|0,3:3|3:3,0:0:0:0:
446,16,52193,6,0,L|490:141,1,120.060002601398,14|10,3:3|2:3,0:0:0:0:
501,248,52899,2,0,L|487:318,1,60.0300013006989,10|2,2:3|3:2,0:0:0:0:
447,350,53252,1,10,3:3:0:0:
391,372,53428,2,0,B|270:358|270:358|254:335|224:313,1,180.090003902097,2|10,2:2|2:3,0:0:0:0:
180,207,54311,1,10,2:3:0:0:
77,270,54664,1,10,3:3:0:0:
64,211,54840,1,2,2:2:0:0:
50,152,55017,6,0,P|38:90|40:23,1,120.060002601398,10|10,2:3|2:3,0:0:0:0:
155,4,55722,1,10,3:3:0:0:
155,4,55899,2,0,P|170:53|191:74,1,60.0300013006989,2|12,2:2|3:3,0:0:0:0:
265,138,56428,2,0,L|325:121,1,60.0300013006989,8|0,3:3|3:3,0:0:0:0:
382,113,56781,2,0,L|447:134,1,60.0300013006989,8|0,3:3|3:3,0:0:0:0:
492,158,57134,2,0,L|502:217,1,60.0300013006989,10|0,3:3|3:3,0:0:0:0:
500,277,57487,2,0,L|479:335,1,60.0300013006989,8|0,3:3|3:3,0:0:0:0:
429,366,57840,6,0,L|287:361,2,120.060002601398,14|10|10,3:3|2:3|2:3,0:0:0:0:
511,278,58899,1,10,3:3:0:0:
440,180,59252,2,0,L|307:197,1,120.060002601398,8|10,2:3|2:3,0:0:0:0:
265,172,59781,1,2,3:2:0:0:
209,149,59958,2,0,L|63:135,1,120.060002601398,10|10,2:3|3:3,0:0:0:0:
1,58,60664,5,10,2:3:0:0:
110,8,61017,1,10,2:3:0:0:
212,69,61369,2,0,L|285:58,1,60.0300013006989,10|2,2:3|3:2,0:0:0:0:
324,32,61722,1,10,3:3:0:0:
382,44,61899,2,0,P|423:70|444:196,1,180.090003902097,2|10,2:2|2:3,0:0:0:0:
360,276,62781,1,10,3:3:0:0:
260,209,63134,2,0,L|173:213,1,60.0300013006989,10|0,3:3|3:3,0:0:0:0:
146,185,63487,6,0,P|108:216|108:351,1,180.090003902097,14|2,3:3|3:2,0:0:0:0:
155,361,64193,2,0,P|202:374|282:330,1,120.060002601398,10|8,2:3|3:3,0:0:0:0:
306,235,64899,1,8,2:3:0:0:
255,126,65252,1,8,2:3:0:0:
333,32,65605,1,8,2:3:0:0:
450,55,65958,2,0,L|469:129,1,60.0300013006989,10|2,3:3|2:2,0:0:0:0:
502,160,66311,6,0,P|495:222|372:241,1,180.090003902097,10|2,2:3|2:2,0:0:0:0:
351,213,67017,2,0,P|340:176|314:146,1,60.0300013006989,10|0,2:3|3:3,0:0:0:0:
237,79,67546,2,0,L|98:90,2,120.060002601398,10|10|10,2:3|2:3|2:3,0:0:0:0:
349,35,68605,1,10,2:3:0:0:
390,189,69134,6,0,L|451:196,2,53.4750016727257,12|0|8,2:3|0:0|2:3,0:0:0:0:
336,185,69664,1,0,0:0:0:0:
254,254,70017,1,0,0:0:0:0:
260,306,70193,1,8,2:3:0:0:
353,357,70546,1,8,2:3:0:0:
402,337,70722,1,0,0:0:0:0:
416,231,71075,2,0,L|427:171,1,53.4750016727257,0|8,0:0|2:3,0:0:0:0:
430,124,71428,1,0,0:0:0:0:
426,70,71605,1,8,2:3:0:0:
322,20,71958,6,0,P|283:46|244:124,1,115,8|0,2:2|3:3,0:0:0:0:
244,161,72487,2,0,P|252:210|274:293,1,115,12|0,3:3|3:3,0:0:0:0:
267,331,73017,2,0,P|238:368|164:353,1,115,12|0,3:3|3:3,0:0:0:0:
149,311,73546,2,0,P|130:246|60:158,1,172.5,12|10,3:3|2:3,0:0:0:0:
12,62,74428,1,2,2:3:0:0:
102,11,74781,6,0,L|212:18,1,103.499996841431,14|10,2:3|3:2,0:0:0:0:
307,37,75487,2,0,L|302:152,1,103.499996841431,10|10,3:3|3:2,0:0:0:0:
259,235,76193,2,0,L|373:250,1,103.499996841431,10|10,3:3|3:2,0:0:0:0:
456,291,76899,2,0,L|474:166,1,103.499996841431,10|8,3:3|3:2,0:0:0:0:
482,137,77428,1,2,2:3:0:0:
487,85,77605,6,0,P|477:43|410:22,1,103.499996841431,10|10,2:3|3:2,0:0:0:0:
322,26,78311,2,0,P|290:62|300:130,1,103.499996841431,10|10,3:3|3:2,0:0:0:0:
301,218,79017,2,0,P|291:254|227:268,1,103.499996841431,10|10,3:3|3:2,0:0:0:0:
129,258,79722,2,0,P|91:232|80:217,1,51.7499984207154,10|8,3:3|3:3,0:0:0:0:
74,177,80075,2,0,P|74:139|84:105,1,51.7499984207154,8|2,3:2|2:3,0:0:0:0:
89,75,80428,6,0,L|195:25,1,103.499996841431,10|10,2:3|3:2,0:0:0:0:
254,106,81134,2,0,L|214:206,1,103.499996841431,10|10,3:3|3:2,0:0:0:0:
286,278,81840,2,0,L|398:229,1,103.499996841431,10|10,3:3|3:2,0:0:0:0:
419,140,82546,2,0,L|368:24,1,103.499996841431,10|8,3:3|3:2,0:0:0:0:
332,19,83075,1,2,2:3:0:0:
280,10,83252,6,0,P|226:13|189:51,1,103.499996841431,10|10,2:3|3:2,0:0:0:0:
196,149,83958,2,0,P|186:208|140:247,1,103.499996841431,10|10,3:3|3:2,0:0:0:0:
55,216,84664,1,10,3:3:0:0:
14,120,85017,1,10,3:2:0:0:
74,36,85369,1,10,3:3:0:0:
176,48,85722,1,10,3:2:0:0:
231,149,86075,6,0,L|470:130,1,230,14|8,2:3|3:3,0:0:0:0:
496,176,86958,1,10,3:3:0:0:
496,233,87134,2,0,L|464:308,1,57.5,10|2,3:2|2:2,0:0:0:0:
417,300,87487,2,0,L|280:286,1,115,10|10,3:3|3:2,0:0:0:0:
279,190,88193,2,0,L|205:203,1,57.5,10|8,3:3|3:3,0:0:0:0:
167,179,88546,2,0,L|150:101,1,57.5,10|2,3:2|2:3,0:0:0:0:
161,65,88899,6,0,L|45:84,1,115,10|8,2:3|3:2,0:0:0:0:
6,191,89605,2,0,L|16:261,1,57.5,8|8,3:3|3:3,0:0:0:0:
39,299,89958,1,8,3:2:0:0:
152,317,90311,2,0,L|172:186,1,115,10|10,3:3|2:3,0:0:0:0:
159,88,91017,1,10,2:3:0:0:
271,67,91369,1,10,2:2:0:0:
295,179,91722,6,0,L|348:301,1,115,10|8,2:3|3:2,0:0:0:0:
451,316,92428,2,0,P|464:274|492:202,1,115,8|10,3:3|3:2,0:0:0:0:
504,151,92958,1,2,2:2:0:0:
502,93,93134,2,0,P|485:51|408:29,1,115,10|8,3:3|3:2,0:0:0:0:
312,57,93840,2,0,L|322:135,1,57.5,10|8,3:3|3:3,0:0:0:0:
313,171,94193,2,0,L|261:226,1,57.5,10|0,3:2|0:0,0:0:0:0:
215,211,94546,6,0,P|140:206|67:65,1,230,14|8,2:3|3:3,0:0:0:0:
143,0,95605,1,8,2:3:0:0:
171,111,95958,2,0,P|148:163|86:217,1,115,8|8,3:3|3:3,0:0:0:0:
38,296,96664,2,0,P|93:304|146:338,1,115,10|10,3:3|3:3,0:0:0:0:
261,370,97369,6,0,L|404:360,2,120.060002601398,14|10|10,2:3|2:3|2:3,0:0:0:0:
318,263,98428,1,10,3:3:0:0:
203,226,98781,2,0,P|169:180|167:101,1,120.060002601398,8|10,2:3|2:3,0:0:0:0:
201,72,99311,1,2,3:2:0:0:
260,72,99487,2,0,P|288:97|309:181,1,120.060002601398,10|10,2:3|3:3,0:0:0:0:
290,297,100193,5,10,2:3:0:0:
235,322,100369,1,2,2:2:0:0:
176,337,100546,2,0,L|42:320,1,120.060002601398,10|10,2:3|2:3,0:0:0:0:
5,212,101252,2,0,L|57:166,1,60.0300013006989,10|2,3:3|2:2,0:0:0:0:
77,119,101605,2,0,L|66:-3,1,120.060002601398,8|10,2:3|2:3,0:0:0:0:
185,12,102311,1,10,3:3:0:0:
188,132,102664,2,0,L|212:201,1,60.0300013006989,8|0,3:3|3:3,0:0:0:0:
242,238,103017,6,0,L|366:217,1,120.060002601398,14|10,3:3|2:3,0:0:0:0:
468,165,103722,2,0,P|442:144|428:114,1,60.0300013006989,10|2,2:3|3:2,0:0:0:0:
421,61,104075,1,10,3:3:0:0:
394,7,104252,2,0,B|266:14|266:14|258:36|229:59,1,180.090003902097,2|10,2:2|2:3,0:0:0:0:
116,29,105134,1,10,2:3:0:0:
40,122,105487,1,10,3:3:0:0:
44,182,105664,1,2,2:2:0:0:
27,239,105840,6,0,L|49:363,1,120.060002601398,10|10,2:3|2:3,0:0:0:0:
171,347,106546,1,10,3:3:0:0:
171,347,106722,2,0,P|177:315|203:293,1,60.0300013006989,2|12,2:2|3:3,0:0:0:0:
274,204,107252,2,0,L|258:122,1,60.0300013006989,8|0,3:3|3:3,0:0:0:0:
272,85,107605,2,0,L|311:16,1,60.0300013006989,8|0,3:3|3:3,0:0:0:0:
360,19,107958,2,0,L|427:15,1,60.0300013006989,10|0,3:3|3:3,0:0:0:0:
469,49,108311,2,0,L|511:111,1,60.0300013006989,8|0,3:3|3:3,0:0:0:0:
504,158,108664,6,0,L|472:284,1,120.060002601398,14|10,3:3|2:3,0:0:0:0:
380,349,109369,2,0,P|357:293|308:235,1,120.060002601398,10|10,2:3|3:3,0:0:0:0:
266,219,109899,1,2,2:2:0:0:
206,211,110075,2,0,P|158:216|86:262,1,120.060002601398,8|10,2:3|2:3,0:0:0:0:
18,159,110781,1,10,2:3:0:0:
48,42,111134,1,10,3:3:0:0:
161,3,111487,6,0,P|217:1|289:12,1,120.060002601398,10|10,2:3|2:3,0:0:0:0:
369,90,112193,2,0,L|356:158,1,60.0300013006989,10|2,2:3|3:2,0:0:0:0:
410,178,112546,1,10,3:3:0:0:
462,207,112722,2,0,L|431:386,1,180.090003902097,2|10,2:2|2:3,0:0:0:0:
312,362,113605,1,10,3:3:0:0:
313,241,113958,2,0,L|236:257,1,60.0300013006989,10|2,3:3|3:2,0:0:0:0:
200,279,114311,6,0,P|155:251|29:201,1,180.090003902097,14|2,3:3|3:2,0:0:0:0:
12,148,115017,2,0,P|23:96|101:55,1,120.060002601398,10|8,2:3|3:3,0:0:0:0:
191,32,115722,1,8,3:3:0:0:
264,126,116075,1,8,2:3:0:0:
219,237,116428,1,8,2:3:0:0:
277,342,116781,2,0,L|345:333,1,60.0300013006989,10|2,3:3|2:2,0:0:0:0:
391,310,117134,6,0,P|418:275|405:139,1,180.090003902097,10|2,2:3|2:2,0:0:0:0:
360,112,117840,2,0,P|338:90|330:57,1,60.0300013006989,10|0,2:3|3:3,0:0:0:0:
218,18,118369,2,0,L|207:151,2,120.060002601398,10|10|10,2:3|2:3|2:3,0:0:0:0:
98,36,119428,1,10,2:3:0:0:
30,119,119781,6,0,L|39:284,1,160.942498551085,14|8,2:3|2:3,0:0:0:0:
73,320,120487,1,8,2:3:0:0:
83,372,120664,1,8,2:2:0:0:
179,324,121017,1,10,2:2:0:0:
208,279,121193,2,0,P|219:223|241:162,1,107.294999034057,14|10,2:3|2:3,0:0:0:0:
215,125,121722,1,8,2:3:0:0:
216,17,122075,2,0,P|174:2|125:1,2,80.4712492755426,8|8|8,2:2|2:2|2:2,0:0:0:0:
261,45,122781,6,0,B|421:36|421:36|456:42|481:85,1,214.589998068114,14|8,2:3|2:2,0:0:0:0:
434,161,123840,1,10,2:2:0:0:
463,206,124017,2,0,P|477:250|393:325,1,160.942498551085,14|10,2:3|2:3,0:0:0:0:
305,287,124899,1,8,2:2:0:0:
227,361,125252,1,2,3:2:0:0:
142,295,125605,6,0,B|149:211|149:211|171:177|171:177|179:72,1,214.589998068114,14|8,2:3|2:2,0:0:0:0:
103,9,126664,1,0,3:3:0:0:
54,31,126840,2,0,P|24:66|54:182,1,160.942498551085,14|10,3:3|3:3,0:0:0:0:
145,198,127722,2,0,P|158:236|161:295,2,80.4712492755426,8|8|12,2:2|2:2|2:3,0:0:0:0:
169,150,128428,6,0,P|202:110|337:174,1,214.589998068114,10|8,2:3|2:2,0:0:0:0:
276,248,129487,1,0,3:3:0:0:
276,301,129664,2,0,L|367:364,1,107.294999034057,14|0,2:3|3:3,0:0:0:0:
413,339,130193,1,2,3:2:0:0:
472,249,130546,1,2,3:2:0:0:
431,149,130899,1,2,2:3:0:0:
484,56,131252,5,12,2:3:0:0:
376,7,131605,2,0,B|300:25|356:32|269:48,1,107.294999034057,10|10,2:3|2:2,0:0:0:0:
229,70,132134,2,0,P|206:59|170:59,1,53.6474995170284,2|8,2:2|2:2,0:0:0:0:
125,66,132487,2,0,P|82:94|74:208,1,160.942498551085,14|10,2:3|2:3,0:0:0:0:
154,259,133369,2,0,L|127:356,2,80.4712492755426,10|10|10,2:2|2:2|2:2,0:0:0:0:
197,227,134075,5,12,2:3:0:0:
231,125,134428,2,0,B|303:136|252:154|332:165,1,107.294999034057,10|10,2:3|2:2,0:0:0:0:
378,145,134958,2,0,P|401:115|424:112,1,53.6474995170284,2|8,2:2|2:2,0:0:0:0:
468,119,135311,2,0,P|503:169|491:271,1,160.942498551085,14|2,2:3|3:2,0:0:0:0:
394,301,136193,2,0,P|378:244|366:218,2,80.4712492755426,2|2|2,3:2|2:2|2:2,0:0:0:0:
348,330,136899,2,0,P|283:317|218:175,1,214.589998068114,14|8,2:3|2:2,0:0:0:0:
172,96,137958,1,10,2:2:0:0:
127,66,138134,2,0,P|85:108|58:216,1,160.942498551085,14|10,2:3|2:3,0:0:0:0:
60,310,139017,2,0,P|36:317|-20:345,2,80.4712492755426,8|8|8,2:2|2:2|2:2,0:0:0:0:
107,335,139722,5,12,2:3:0:0:
207,296,140075,2,0,B|246:150|192:246|232:82,1,214.589998068114,10|2,2:3|3:2,0:0:0:0:
248,33,140958,1,14,2:3:0:0:
408,18,141487,1,2,2:2:0:0:
419,70,141664,1,2,2:2:0:0:
367,338,155252,5,8,2:3:0:0:
327,242,155605,1,8,2:3:0:0:
340,139,155958,1,8,2:3:0:0:
411,64,156311,2,0,L|481:56,1,51.7499984207154,8|0,3:3|3:3,0:0:0:0:
509,95,156664,6,0,P|511:172|517:225,2,119.59999927002,14|10|10,3:3|2:3|2:3,0:0:0:0:
417,17,157722,1,10,3:3:0:0:
363,124,158075,2,0,P|374:173|377:257,1,119.59999927002,8|10,2:3|2:3,0:0:0:0:
338,287,158605,1,2,3:2:0:0:
285,259,158781,2,0,P|268:213|264:132,1,119.59999927002,10|10,2:3|3:3,0:0:0:0:
271,23,159487,6,0,L|127:16,1,119.59999927002,10|10,2:3|2:3,0:0:0:0:
40,61,160193,2,0,L|65:129,1,59.7999996350098,10|2,2:3|3:2,0:0:0:0:
40,173,160546,1,10,3:3:0:0:
93,199,160722,2,0,P|72:259|63:378,1,179.399998905029,2|10,2:2|2:3,0:0:0:0:
177,338,161605,1,10,3:3:0:0:
291,372,161958,2,0,L|360:363,1,59.7999996350098,10|0,3:3|3:3,0:0:0:0:
404,339,162311,6,0,P|443:284|417:156,1,179.399998905029,14|2,3:3|3:2,0:0:0:0:
383,141,163017,2,0,B|324:134|324:134|334:58,1,119.59999927002,10|8,2:3|3:3,0:0:0:0:
235,3,163722,1,8,2:3:0:0:
116,19,164075,1,8,2:3:0:0:
128,137,164428,1,8,2:3:0:0:
9,154,164781,2,0,L|11:231,1,59.7999996350098,10|2,3:3|2:2,0:0:0:0:
8,276,165134,6,0,P|57:278|121:392,1,179.399998905029,10|2,2:3|2:2,0:0:0:0:
182,371,165840,2,0,P|191:322|253:278,1,119.59999927002,10|8,2:3|2:3,0:0:0:0:
356,320,166546,1,8,2:3:0:0:
464,269,166899,1,8,2:3:0:0:
485,151,167252,1,8,3:3:0:0:
397,69,167605,2,0,P|362:55|321:47,1,59.7999996350098,10|2,3:3|3:2,0:0:0:0:
280,50,167958,6,0,L|295:237,1,179.399998905029,14|2,3:3|3:2,0:0:0:0:
280,287,168664,2,0,P|249:319|173:296,1,119.59999927002,10|8,2:3|3:3,0:0:0:0:
199,187,169369,1,8,2:3:0:0:
126,91,169722,1,8,2:3:0:0:
26,158,170075,1,8,2:3:0:0:
47,275,170428,2,0,P|76:303|84:342,1,59.7999996350098,10|2,3:3|2:2,0:0:0:0:
107,374,170781,6,0,L|303:350,1,179.399998905029,10|2,2:3|2:2,0:0:0:0:
341,332,171487,2,0,P|353:292|378:267,1,59.7999996350098,10|0,2:3|3:3,0:0:0:0:
394,161,172017,2,0,L|515:191,2,119.59999927002,10|10|10,2:2|2:2|2:2,0:0:0:0:
278,192,173075,1,10,2:2:0:0:
213,91,173428,6,0,P|189:53|62:74,1,179.399998905029,14|10,2:3|2:3,0:0:0:0:
10,167,174311,2,0,L|25:239,1,59.7999996350098,10|2,2:3|3:2,0:0:0:0:
25,285,174664,1,8,2:3:0:0:
73,320,174840,2,0,B|122:321|157:288|157:288|179:333|241:345,1,179.399998905029,2|10,2:2|2:3,0:0:0:0:
354,334,175722,1,10,2:3:0:0:
423,222,176075,1,8,2:3:0:0:
430,156,176252,6,0,B|411:58|411:58|377:51|322:15,1,179.399998905029,2|10,2:2|2:3,0:0:0:0:
236,107,177134,1,10,2:3:0:0:
274,220,177487,1,8,2:3:0:0:
220,326,177840,2,0,L|85:313,1,119.59999927002,12|8,3:3|2:3,0:0:0:0:
46,209,178546,1,8,3:3:0:0:
79,94,178899,2,0,L|67:27,1,59.7999996350098,10|2,3:3|3:2,0:0:0:0:
119,3,179252,6,0,P|172:3|197:70,1,119.59999927002,14|10,3:3|2:3,0:0:0:0:
148,165,179958,2,0,P|171:184|186:213,1,59.7999996350098,10|2,2:3|3:2,0:0:0:0:
190,269,180311,1,10,2:3:0:0:
177,327,180487,2,0,L|366:323,1,179.399998905029,2|10,2:2|2:3,0:0:0:0:
460,263,181369,1,8,2:3:0:0:
373,180,181722,1,8,2:3:0:0:
291,92,182075,6,0,L|271:24,1,59.7999996350098,10|0,2:3|0:0,0:0:0:0:
216,17,182428,2,0,L|166:133,1,119.59999927002,10|10,2:3|2:3,0:0:0:0:
48,132,183134,1,8,2:3:0:0:
10,245,183487,2,0,P|19:314|71:352,1,119.59999927002,12|10,3:3|3:3,0:0:0:0:
173,337,184193,2,0,P|213:299|212:228,1,119.59999927002,10|10,2:3|2:3,0:0:0:0:
231,118,184899,6,0,L|207:-8,2,119.59999927002,14|10|10,2:3|2:3|3:3,0:0:0:0:
305,212,185958,1,10,2:3:0:0:
350,173,186134,2,0,P|379:117|432:81,1,119.59999927002,2|2,2:2|2:2,0:0:0:0:
508,169,186840,1,2,3:2:0:0:
479,285,187193,1,2,3:2:0:0:
454,339,187369,2,0,L|318:348,1,119.59999927002,10|8,2:3|2:3,0:0:0:0:
216,325,188075,5,10,2:3:0:0:
198,206,188428,1,10,2:3:0:0:
181,87,188781,1,10,2:3:0:0:
156,32,188958,2,0,P|90:18|47:71,1,119.59999927002,2|2,2:2|2:2,0:0:0:0:
33,105,189487,1,8,2:3:0:0:
32,224,189840,2,0,L|47:289,1,59.7999996350098,8|2,3:3|3:2,0:0:0:0:
100,305,190193,2,0,L|169:320,1,59.7999996350098,10|2,2:3|2:3,0:0:0:0:
211,290,190546,6,0,B|239:228|239:228|274:214|291:180,1,119.59999927002,14|10,2:3|2:3,0:0:0:0:
315,83,191252,2,0,L|302:23,2,59.7999996350098,10|2|10,2:3|3:2|2:3,0:0:0:0:
359,123,191781,2,0,L|395:303,1,179.399998905029,2|10,2:2|2:3,0:0:0:0:
382,357,192487,2,0,L|458:374,1,59.7999996350098,2|8,3:2|2:3,0:0:0:0:
493,262,193017,1,8,2:3:0:0:
502,143,193369,6,0,P|470:98|450:25,1,119.59999927002,10|10,2:3|2:3,0:0:0:0:
334,10,194075,1,10,2:3:0:0:
317,67,194252,1,2,3:2:0:0:
214,127,194605,2,0,P|234:177|253:256,2,119.59999927002,10|10|10,2:2|2:2|2:2,0:0:0:0:
130,41,195664,1,10,2:2:0:0:
89,313,196899,1,14,2:3:0:0:
256,192,196987,12,0,207487,0:0:0:0:
