osu file format v14

[General]
AudioFilename: audio.mp3
AudioLeadIn: 0
PreviewTime: 46369
Countdown: 0
SampleSet: Soft
StackLeniency: 0.2
Mode: 0
LetterboxInBreaks: 0
WidescreenStoryboard: 0

[Editor]
Bookmarks: 12664,23958,45840,57840,67722,74781,107252,119958,142546,145369,156664,172105,173605,196193
DistanceSpacing: 0.8
BeatDivisor: 4
GridSize: 32
TimelineZoom: 3.099999

[Metadata]
Title:Qualia
TitleUnicode:クオリア
Artist:IOSYS
ArtistUnicode:IOSYS
Creator:wetdog123
Version:Lunatic
Source:東方紅魔郷 ~ the Embodiment of Scarlet Devil.
Tags:東方Project hhjkl rockin'on kuoria ichigo touhou U.N. owen was her U.N.オーエンは彼女なのか? ZUN 魔法少女達の百年祭 the centennial festival for magical girls void 96 project japanese jrock rock j-rock jpop pop j-pop video game flandre scarlet extra stage boss theme doujin comiket 83 イオシス
BeatmapID:2526517
BeatmapSetID:1213880

[Difficulty]
HPDrainRate:5
CircleSize:3.7
OverallDifficulty:8.7
ApproachRate:9.1
SliderMultiplier:1.8
SliderTickRate:1

[Events]
//Background and Video events
0,0,"yo.jpg",0,0
//Break Periods
//Storyboard Layer 0 (Background)
//Storyboard Layer 1 (Fail)
//Storyboard Layer 2 (Pass)
//Storyboard Layer 3 (Foreground)
//Storyboard Layer 4 (Overlay)
//Storyboard Sound Samples

[TimingPoints]
1370,352.941176470588,4,2,1,30,1,0
1370,-250,4,2,1,30,0,0
21134,-181.818181818182,4,2,1,30,0,0
23958,-117.647058823529,4,2,1,45,0,0
35605,-117.647058823529,4,2,2,45,0,0
35958,-117.647058823529,4,2,1,45,0,0
37017,-117.647058823529,4,2,2,45,0,0
37369,-117.647058823529,4,2,1,45,0,0
37722,-117.647058823529,4,2,2,45,0,0
38075,-117.647058823529,4,2,1,45,0,0
38428,-117.647058823529,4,2,2,45,0,0
38781,-117.647058823529,4,2,1,45,0,0
39134,-117.647058823529,4,2,2,45,0,0
39487,-117.647058823529,4,2,1,45,0,0
39840,-117.647058823529,4,2,2,45,0,0
40193,-117.647058823529,4,2,1,45,0,0
40546,-117.647058823529,4,2,2,45,0,0
40899,-117.647058823529,4,2,1,45,0,0
41252,-117.647058823529,4,2,2,45,0,0
41605,-117.647058823529,4,2,1,45,0,0
41958,-117.647058823529,4,2,2,45,0,0
42134,-117.647058823529,4,2,1,45,0,0
42664,-117.647058823529,4,2,2,45,0,0
43017,-117.647058823529,4,2,1,45,0,0
43369,-117.647058823529,4,2,2,45,0,0
43722,-117.647058823529,4,2,1,45,0,0
44075,-117.647058823529,4,2,2,45,0,0
44428,-117.647058823529,4,2,1,45,0,0
44781,-117.647058823529,4,2,2,45,0,0
46546,-100,4,2,1,60,0,0
46899,-100,4,2,2,60,0,0
47252,-100,4,2,1,60,0,0
47605,-100,4,2,2,60,0,0
47781,-100,4,2,1,60,0,0
48311,-100,4,2,2,60,0,0
48487,-100,4,2,1,60,0,0
49017,-100,4,2,2,60,0,0
49369,-100,4,2,1,60,0,0
49722,-100,4,2,2,60,0,0
49899,-100,4,2,1,60,0,0
50428,-100,4,2,2,60,0,0
50605,-100,4,2,1,60,0,0
51134,-100,4,2,2,60,0,0
51311,-100,4,2,1,60,0,0
51840,-100,4,2,2,60,0,0
52193,-100,4,2,1,60,0,0
52546,-100,4,2,2,60,0,0
52722,-100,4,2,1,60,0,0
53252,-100,4,2,2,60,0,0
53428,-100,4,2,1,60,0,0
53958,-100,4,2,2,60,0,0
54134,-100,4,2,1,60,0,0
54664,-100,4,2,2,60,0,0
54840,-100,4,2,1,60,0,0
55369,-100,4,2,2,60,0,0
55722,-100,4,2,1,60,0,0
56075,-100,4,2,2,60,0,0
56252,-100,4,2,1,60,0,0
56781,-100,4,2,2,60,0,0
57840,-100,4,2,1,60,0,0
58193,-100,4,2,2,60,0,0
58546,-100,4,2,1,60,0,0
58899,-100,4,2,2,60,0,0
59075,-100,4,2,1,60,0,0
59605,-100,4,2,2,60,0,0
59781,-100,4,2,1,60,0,0
60311,-100,4,2,2,60,0,0
60487,-100,4,2,1,60,0,0
60664,-100,4,2,1,60,0,0
61017,-100,4,2,2,60,0,0
61193,-100,4,2,1,60,0,0
61722,-100,4,2,2,60,0,0
61899,-100,4,2,1,60,0,0
62428,-100,4,2,2,60,0,0
62605,-100,4,2,1,60,0,0
63134,-100,4,2,2,60,0,0
63487,-100,4,2,1,60,0,0
63840,-100,4,2,2,60,0,0
64017,-100,4,2,1,60,0,0
64546,-100,4,2,2,60,0,0
64899,-100,4,2,1,60,0,0
65252,-100,4,2,2,60,0,0
65605,-100,4,2,1,60,0,0
65958,-100,4,2,2,60,0,0
66134,-100,4,2,1,60,0,0
66664,-100,4,2,2,60,0,0
66840,-100,4,2,1,60,0,0
69134,-117.647058823529,4,2,1,60,0,0
71605,-117.647058823529,4,2,2,60,0,0
71958,-100,4,2,1,60,0,0
74075,-100,4,2,3,60,0,0
74781,-117.647058823529,4,2,4,45,0,0
75134,-117.647058823529,4,2,1,45,0,0
77428,-117.647058823529,4,2,3,45,0,0
77605,-117.647058823529,4,2,4,45,0,0
77958,-117.647058823529,4,2,1,45,0,0
80252,-117.647058823529,4,2,3,45,0,0
80428,-117.647058823529,4,2,4,45,0,0
80781,-117.647058823529,4,2,1,45,0,0
83075,-117.647058823529,4,2,3,45,0,0
83252,-117.647058823529,4,2,4,45,0,0
83605,-117.647058823529,4,2,1,45,0,0
86075,-100,4,2,4,45,0,0
86428,-100,4,2,1,45,0,0
87487,-117.647058823529,4,2,1,45,0,0
88722,-117.647058823529,4,2,3,45,0,0
88899,-117.647058823529,4,2,4,45,0,0
89252,-117.647058823529,4,2,1,45,0,0
90664,-117.647058823529,4,2,2,45,0,0
91017,-117.647058823529,4,2,1,45,0,0
91546,-117.647058823529,4,2,3,45,0,0
91722,-117.647058823529,4,2,1,45,0,0
95605,-117.647058823529,4,2,2,45,0,0
96664,-117.647058823529,4,2,5,45,0,0
97369,-100,4,2,1,60,0,0
97722,-100,4,2,2,60,0,0
98075,-100,4,2,1,60,0,0
98428,-100,4,2,2,60,0,0
98605,-100,4,2,1,60,0,0
99134,-100,4,2,2,60,0,0
99311,-100,4,2,1,60,0,0
99840,-100,4,2,2,60,0,0
100193,-100,4,2,1,60,0,0
100546,-100,4,2,2,60,0,0
100722,-100,4,2,1,60,0,0
101252,-100,4,2,2,60,0,0
101428,-100,4,2,1,60,0,0
101958,-100,4,2,2,60,0,0
102134,-100,4,2,1,60,0,0
102664,-100,4,2,2,60,0,0
103017,-100,4,2,1,60,0,0
103369,-100,4,2,2,60,0,0
103546,-100,4,2,1,60,0,0
104075,-100,4,2,2,60,0,0
104252,-100,4,2,1,60,0,0
104781,-100,4,2,2,60,0,0
104958,-100,4,2,1,60,0,0
105487,-100,4,2,2,60,0,0
105664,-100,4,2,1,60,0,0
106193,-100,4,2,2,60,0,0
106546,-100,4,2,1,60,0,0
106899,-100,4,2,2,60,0,0
107075,-100,4,2,1,60,0,0
107605,-100,4,2,2,60,0,0
108664,-100,4,2,1,60,0,0
109017,-100,4,2,2,60,0,0
109369,-100,4,2,1,60,0,0
109722,-100,4,2,2,60,0,0
109899,-100,4,2,1,60,0,0
110428,-100,4,2,2,60,0,0
110605,-100,4,2,1,60,0,0
111134,-100,4,2,2,60,0,0
111311,-100,4,2,1,60,0,0
111487,-100,4,2,1,60,0,0
111840,-100,4,2,2,60,0,0
112017,-100,4,2,1,60,0,0
112546,-100,4,2,2,60,0,0
112722,-100,4,2,1,60,0,0
113252,-100,4,2,2,60,0,0
113428,-100,4,2,1,60,0,0
113958,-100,4,2,2,60,0,0
114134,-100,4,2,1,60,0,0
114664,-100,4,2,2,60,0,0
114840,-100,4,2,1,60,0,0
115369,-100,4,2,2,60,0,0
115722,-100,4,2,1,60,0,0
116075,-100,4,2,2,60,0,0
116428,-100,4,2,1,60,0,0
116781,-100,4,2,2,60,0,0
116958,-100,4,2,1,60,0,0
117487,-100,4,2,2,60,0,0
117664,-100,4,2,1,60,0,0
119781,-153.846153846153,4,2,1,60,0,0
120311,-153.846153846153,4,2,1,45,0,0
128252,-153.846153846153,4,2,2,45,0,0
128428,-153.846153846153,4,2,1,45,0,0
130899,-153.846153846153,4,2,4,45,0,0
130987,-153.846153846153,4,2,3,45,0,0
131252,-153.846153846153,4,2,1,45,0,0
136546,-153.846153846153,4,2,3,45,0,0
136722,-153.846153846153,4,2,1,45,0,0
139369,-153.846153846153,4,2,3,45,0,0
139546,-153.846153846153,4,2,1,45,0,0
141664,-222.22222222222,4,2,1,45,0,0
141752,-222.22222222222,4,2,1,45,0,0
143869,-222.22222222222,4,2,1,45,0,0
143958,-222.22222222222,4,2,1,5,0,0
144575,-222.22222222222,4,2,1,45,0,0
144664,-222.22222222222,4,2,1,30,0,0
155605,-117.647058823529,4,2,1,30,0,0
155958,-117.647058823529,4,2,1,60,0,0
156664,-100,4,2,1,60,0,0
157017,-100,4,2,2,60,0,0
157369,-100,4,2,1,60,0,0
157722,-100,4,2,2,60,0,0
157899,-100,4,2,1,60,0,0
158428,-100,4,2,2,60,0,0
158605,-100,4,2,1,60,0,0
159134,-100,4,2,2,60,0,0
159311,-100,4,2,1,60,0,0
159487,-100,4,2,1,60,0,0
159840,-100,4,2,2,60,0,0
160017,-100,4,2,1,60,0,0
160546,-100,4,2,2,60,0,0
160722,-100,4,2,1,60,0,0
161252,-100,4,2,2,60,0,0
161428,-100,4,2,1,60,0,0
161958,-100,4,2,2,60,0,0
162311,-100,4,2,1,60,0,0
162664,-100,4,2,2,60,0,0
162840,-100,4,2,1,60,0,0
163369,-100,4,2,2,60,0,0
163546,-100,4,2,1,60,0,0
163722,-100,4,2,1,60,0,0
164075,-100,4,2,2,60,0,0
164428,-100,4,2,1,60,0,0
164781,-100,4,2,2,60,0,0
164958,-100,4,2,1,60,0,0
165487,-100,4,2,2,60,0,0
165664,-100,4,2,1,60,0,0
166193,-100,4,2,2,60,0,0
166546,-100,4,2,1,60,0,0
166899,-100,4,2,2,60,0,0
167781,-100,4,2,1,60,0,0
168311,-100,4,2,2,60,0,0
168487,-100,4,2,1,60,0,0
169017,-100,4,2,2,60,0,0
169369,-100,4,2,1,60,0,0
169722,-100,4,2,2,60,0,0
170075,-100,4,2,1,60,0,0
170428,-100,4,2,2,60,0,0
170605,-100,4,2,1,60,0,0
171134,-100,4,2,2,60,0,0
171311,-100,4,2,1,60,0,0
171840,-100,4,2,2,60,0,0
172017,-100,4,2,1,60,0,0
173958,-100,4,2,2,60,0,0
174134,-100,4,2,1,60,0,0
174664,-100,4,2,2,60,0,0
174840,-100,4,2,1,60,0,0
175369,-100,4,2,2,60,0,0
175546,-100,4,2,1,60,0,0
176075,-100,4,2,2,60,0,0
176252,-100,4,2,1,60,0,0
176781,-100,4,2,2,60,0,0
176958,-100,4,2,1,60,0,0
177487,-100,4,2,2,60,0,0
177664,-100,4,2,1,60,0,0
178193,-100,4,2,2,60,0,0
178369,-100,4,2,1,60,0,0
178899,-100,4,2,2,60,0,0
179075,-100,4,2,1,60,0,0
179605,-100,4,2,2,60,0,0
179958,-100,4,2,1,60,0,0
180311,-100,4,2,2,60,0,0
180487,-100,4,2,1,60,0,0
181017,-100,4,2,2,60,0,0
181193,-100,4,2,1,60,0,0
181722,-100,4,2,2,60,0,0
181899,-100,4,2,1,60,0,0
182428,-100,4,2,2,60,0,0
182781,-100,4,2,1,60,0,0
183134,-100,4,2,2,60,0,0
183311,-100,4,2,1,60,0,0
183840,-100,4,2,2,60,0,0
184017,-100,4,2,1,60,0,0
184193,-100,4,2,3,60,0,0
184369,-100,4,2,4,60,0,0
184458,-100,4,2,5,60,0,0
184899,-100,4,2,4,60,0,0
185252,-100,4,2,2,60,0,0
185605,-100,4,2,1,60,0,0
185958,-100,4,2,2,60,0,0
186134,-100,4,2,1,60,0,0
186664,-100,4,2,2,60,0,0
186840,-100,4,2,1,60,0,0
187369,-100,4,2,2,60,0,0
187722,-100,4,2,1,60,0,0
188075,-100,4,2,2,60,0,0
188428,-100,4,2,1,60,0,0
188781,-100,4,2,2,60,0,0
188958,-100,4,2,1,60,0,0
189487,-100,4,2,2,60,0,0
189664,-100,4,2,1,60,0,0
190193,-100,4,2,6,60,0,0
190281,-100,4,2,3,60,0,0
190546,-100,4,2,4,60,0,0
190899,-100,4,2,2,60,0,0
191252,-100,4,2,1,60,0,0
191605,-100,4,2,2,60,0,0
191781,-100,4,2,1,60,0,0
192311,-100,4,2,2,60,0,0
192487,-100,4,2,1,60,0,0
193017,-100,4,2,2,60,0,0
193193,-100,4,2,1,60,0,0
193722,-100,4,2,2,60,0,0
194075,-100,4,2,1,60,0,0
194428,-100,4,2,2,60,0,0
194605,-100,4,2,1,60,0,0
196899,-100,4,2,2,60,0,0

[Colours]
Combo1 : 253,206,244
Combo2 : 248,90,137

[HitObjects]
489,341,1370,6,0,L|450:348,1,36,2|0,2:2|0:0,0:0:0:0:
493,346,1722,2,0,L|445:345,1,36,2|0,2:2|0:0,0:0:0:0:
489,341,2075,2,0,L|452:350,1,36,2|0,2:2|0:0,0:0:0:0:
485,336,2428,2,0,L|441:352,1,36,2|0,2:2|0:0,0:0:0:0:
376,326,2781,1,2,2:2:0:0:
280,339,3134,1,2,2:2:0:0:
178,353,3487,1,2,2:2:0:0:
143,178,4193,6,0,L|139:134,1,36,2|0,2:2|0:0,0:0:0:0:
120,134,4546,2,0,L|115:95,1,36,2|0,2:2|0:0,0:0:0:0:
113,143,4899,2,0,L|114:101,1,36,2|0,2:2|0:0,0:0:0:0:
151,196,5252,2,0,L|144:155,1,36,2|0,2:2|0:0,0:0:0:0:
60,79,5605,1,2,2:2:0:0:
161,68,5958,1,2,2:2:0:0:
258,59,6311,1,2,2:2:0:0:
85,319,7017,6,0,L|75:371,1,36,2|0,2:2|0:0,0:0:0:0:
75,316,7369,2,0,L|69:360,1,36,2|0,2:2|0:0,0:0:0:0:
103,322,7722,2,0,L|91:359,1,36,2|0,2:2|0:0,0:0:0:0:
147,341,8075,2,0,L|140:384,1,36,2|0,2:2|0:0,0:0:0:0:
112,241,8428,1,2,2:2:0:0:
99,151,8781,1,2,2:2:0:0:
85,65,9134,1,2,2:2:0:0:
462,137,9840,6,0,L|504:130,1,36,2|0,2:2|0:0,0:0:0:0:
467,142,10193,2,0,L|508:145,1,36,2|0,2:2|0:0,0:0:0:0:
382,122,10546,2,0,L|374:76,1,36,2|0,2:2|0:0,0:0:0:0:
371,124,10899,2,0,L|381:165,1,36,2|0,2:2|0:0,0:0:0:0:
354,286,11252,2,0,L|294:239,1,72,2|2,2:2|2:2,0:0:0:0:
235,198,11781,1,0,0:0:0:0:
235,198,11958,1,2,2:2:0:0:
174,136,12311,1,0,0:0:0:0:
122,63,12664,1,2,2:2:0:0:
415,363,13546,6,0,L|401:326,2,36,2|2|2,2:2|2:2|2:2,0:0:0:0:
417,250,14075,2,0,L|430:177,3,72,2|2|2|2,2:2|2:2|2:2|2:2,0:0:0:0:
444,86,15487,2,0,B|389:93|389:93|351:85|351:85|225:98,1,216,2|0,2:2|0:0,0:0:0:0:
231,103,16899,6,0,L|182:167,3,72,2|2|2|2,2:2|2:2|2:2|2:2,0:0:0:0:
120,53,18311,1,2,2:2:0:0:
65,304,19193,2,0,L|73:254,1,36,2|0,2:2|0:0,0:0:0:0:
61,181,19546,1,2,2:2:0:0:
61,181,19722,2,0,B|56:168|56:168|54:105,1,72,2|0,2:2|0:0,0:0:0:0:
172,98,20428,2,0,B|149:67|149:67|161:59|161:59|176:82,1,72,2|2,2:2|2:2,0:0:0:0:
40,4,21134,6,0,B|66:213|66:213|179:246|152:368,1,396.000012084961,2|2,2:2|2:2,0:0:0:0:
69,313,22899,1,2,2:2:0:0:
69,313,23252,1,2,2:2:0:0:
175,241,23428,2,0,L|144:261,2,24.7500007553101,0|0|0,3:3|3:3|3:3,0:0:0:0:
482,16,23958,5,14,2:3:0:0:
447,183,24311,1,10,2:3:0:0:
388,24,24664,2,0,L|305:38,1,76.5000014591217,10|0,2:3|0:0,0:0:0:0:
240,50,25017,2,0,L|162:63,1,76.5000014591217,10|0,2:3|0:0,0:0:0:0:
55,48,25369,1,10,2:3:0:0:
25,212,25722,1,10,2:3:0:0:
205,240,26075,2,0,P|221:277|229:312,1,76.5000014591217,10|0,2:3|0:0,0:0:0:0:
306,326,26428,2,0,P|325:292|350:265,1,76.5000014591217,8|0,2:3|0:0,0:0:0:0:
128,295,26781,6,0,L|-19:334,1,153.000002918243,10|10,2:3|2:3,0:0:0:0:
205,240,27487,2,0,L|366:202,1,153.000002918243,10|10,2:3|2:3,0:0:0:0:
97,196,28193,1,10,2:3:0:0:
214,365,28546,1,10,2:3:0:0:
231,163,28899,2,0,L|244:82,1,76.5000014591217,10|0,2:3|0:0,0:0:0:0:
286,20,29252,2,0,L|379:13,1,76.5000014591217,8|0,2:3|0:0,0:0:0:0:
459,41,29605,5,10,2:3:0:0:
245,90,29958,1,10,2:3:0:0:
451,171,30311,2,0,L|468:252,1,76.5000014591217,10|0,2:3|0:0,0:0:0:0:
414,303,30664,2,0,L|335:277,1,76.5000014591217,10|0,2:3|0:0,0:0:0:0:
239,267,31017,1,10,2:3:0:0:
378,173,31369,1,10,2:3:0:0:
295,29,31722,2,0,P|247:56|218:79,1,76.5000014591217,10|0,2:3|0:0,0:0:0:0:
149,50,32075,2,0,P|120:16|84:-3,1,76.5000014591217,8|0,2:3|0:0,0:0:0:0:
306,124,32428,6,0,L|333:298,1,153.000002918243,10|10,2:3|2:3,0:0:0:0:
62,89,33134,2,0,L|25:246,1,153.000002918243,10|10,2:3|2:3,0:0:0:0:
141,378,33840,2,0,P|151:343|123:310,1,76.5000014591217,10|0,2:3|0:0,0:0:0:0:
189,158,34193,1,10,3:3:0:0:
156,235,34369,1,0,3:3:0:0:
243,91,34546,1,10,3:3:0:0:
228,63,34634,1,0,3:3:0:0:
212,35,34722,1,0,3:3:0:0:
247,263,34899,1,10,3:3:0:0:
90,161,35075,2,0,L|37:167,1,38.2500007295609
243,91,35252,6,0,L|402:81,1,153.000002918243,14|8,2:3|2:3,0:0:0:0:
478,213,35781,1,0,3:3:0:0:
483,234,35870,1,0,3:3:0:0:
489,256,35958,1,8,2:3:0:0:
420,13,36134,1,2,3:2:0:0:
327,184,36311,1,10,3:2:0:0:
408,115,36487,1,2,2:2:0:0:
384,293,36664,6,0,L|388:374,1,76.5000014591217,10|0,2:3|0:0,0:0:0:0:
261,137,37017,2,0,L|292:215,1,76.5000014591217,10|0,2:3|3:3,0:0:0:0:
105,48,37281,1,0,3:3:0:0:
101,34,37369,2,0,L|178:65,1,76.5000014591217,10|0,2:3|3:3,0:0:0:0:
377,21,37722,2,0,B|402:24|402:24|435:8|484:0,1,76.5000014591217,10|0,3:3|0:0,0:0:0:0:
261,137,38075,6,0,P|190:165|191:253,1,153.000002918243,10|8,2:3|2:3,0:0:0:0:
327,265,38605,1,0,3:3:0:0:
351,260,38693,1,0,3:3:0:0:
102,324,38869,1,0,3:3:0:0:
79,329,38958,1,0,3:3:0:0:
245,328,39134,1,8,3:3:0:0:
330,353,39311,1,0,0:0:0:0:
101,146,39487,6,0,L|87:56,1,76.5000014591217,10|0,2:3|0:0,0:0:0:0:
246,62,39840,2,0,L|258:150,1,76.5000014591217,10|0,2:3|3:3,0:0:0:0:
46,234,40105,1,0,3:3:0:0:
29,233,40193,2,0,L|14:145,1,76.5000014591217,10|0,2:3|3:3,0:0:0:0:
322,18,40546,2,0,L|340:149,1,114.750002188683,10|0,2:3|0:0,0:0:0:0:
369,305,40899,6,0,P|407:309|434:336,2,76.5000014591217,14|0|8,2:3|0:0|2:3,0:0:0:0:
167,153,41428,2,0,L|157:248,1,76.5000014591217,0|8,3:3|2:3,0:0:0:0:
146,381,41693,1,0,3:3:0:0:
146,381,41781,1,2,3:2:0:0:
48,213,41958,1,10,3:3:0:0:
270,250,42134,1,2,2:2:0:0:
140,0,42311,6,0,B|131:76|131:76|97:92|77:130,1,153.000002918243,10|8,2:3|2:3,0:0:0:0:
237,322,42840,1,0,3:3:0:0:
384,140,43017,2,0,L|484:123,1,76.5000014591217,10|0,2:3|3:3,0:0:0:0:
250,145,43369,2,0,L|161:164,1,76.5000014591217,10|0,3:3|0:0,0:0:0:0:
253,12,43722,5,10,2:3:0:0:
319,257,43899,1,0,0:0:0:0:
336,342,44075,1,8,2:3:0:0:
302,168,44252,1,0,0:0:0:0:
469,34,44428,1,8,2:3:0:0:
448,277,44605,1,0,0:0:0:0:
202,239,44781,1,8,2:3:0:0:
253,12,44958,1,0,0:0:0:0:
444,150,45134,6,0,L|497:156,2,38.2500007295609,8|0|0,3:3|3:3|3:3,0:0:0:0:
187,85,45399,1,0,3:3:0:0:
165,103,45487,2,0,L|202:93,1,38.2500007295609,8|0,3:3|3:3,0:0:0:0:
455,0,45664,1,0,3:3:0:0:
427,19,45752,1,0,3:3:0:0:
403,37,45840,2,0,L|455:23,1,38.2500007295609,10|0,3:3|3:3,0:0:0:0:
279,156,46017,1,0,3:3:0:0:
299,141,46105,1,0,3:3:0:0:
324,123,46193,1,8,3:3:0:0:
292,161,46281,1,0,3:3:0:0:
261,200,46369,1,0,3:3:0:0:
232,242,46458,1,0,3:3:0:0:
208,282,46546,6,0,B|165:323|165:323|147:351|115:381,1,135,14|0,3:3|0:0,0:0:0:0:
54,194,46899,2,0,L|30:289,1,90,10|0,2:3|3:3,0:0:0:0:
0,380,47164,1,0,3:3:0:0:
0,380,47252,1,10,2:3:0:0:
157,122,47428,1,0,3:3:0:0:
123,35,47605,1,10,3:3:0:0:
268,349,47781,1,2,2:2:0:0:
350,297,47958,6,0,L|466:322,1,90,8|0,2:3|0:0,0:0:0:0:
142,251,48311,1,10,2:3:0:0:
436,172,48487,1,2,3:2:0:0:
466,133,48575,1,0,3:3:0:0:
307,205,48752,1,0,3:3:0:0:
286,243,48840,1,0,3:3:0:0:
219,26,49017,2,0,P|156:46|132:116,1,135,10|0,3:3|0:0,0:0:0:0:
444,47,49369,5,10,2:3:0:0:
384,358,49546,1,2,2:2:0:0:
222,117,49722,1,10,2:3:0:0:
110,295,49899,1,2,3:2:0:0:
227,127,50075,1,10,2:3:0:0:
380,347,50252,1,2,3:2:0:0:
425,53,50428,1,10,3:3:0:0:
180,3,50605,2,0,L|234:15,1,45,2|2,2:2|2:2,0:0:0:0:
117,121,50781,6,0,P|129:54|234:16,1,180,8|10,2:3|2:3,0:0:0:0:
443,56,51311,1,2,2:2:0:0:
454,291,51487,1,10,3:3:0:0:
448,243,51575,1,0,3:3:0:0:
443,198,51664,1,0,3:3:0:0:
195,110,51840,1,8,3:3:0:0:
190,158,51928,1,0,3:3:0:0:
183,206,52017,1,0,3:3:0:0:
178,254,52105,1,0,3:3:0:0:
172,302,52193,5,14,3:3:0:0:
184,164,52369,1,2,2:2:0:0:
149,384,52546,1,10,2:3:0:0:
110,52,52722,1,2,3:2:0:0:
294,276,52899,1,10,2:3:0:0:
316,249,52987,1,0,3:3:0:0:
339,222,53075,1,2,3:2:0:0:
60,275,53252,2,0,L|5:260,1,45,10|0,3:3|0:0,0:0:0:0:
339,222,53428,6,0,B|418:244|418:244|473:232|514:248,1,180,2|2,2:2|2:2,0:0:0:0:
197,225,53958,1,10,2:3:0:0:
102,204,54134,1,2,3:2:0:0:
436,325,54311,1,10,2:3:0:0:
436,325,54399,1,0,3:3:0:0:
436,325,54487,1,0,3:3:0:0:
276,354,54664,1,10,3:3:0:0:
306,114,54840,1,2,2:2:0:0:
287,362,55017,6,0,L|166:393,1,90,10|0,2:3|0:0,0:0:0:0:
452,168,55369,2,0,P|468:124|517:125,1,90,10|0,2:3|3:3,0:0:0:0:
242,271,55634,1,0,3:3:0:0:
242,271,55722,1,10,3:3:0:0:
398,320,55899,1,2,2:2:0:0:
47,202,56075,2,0,B|16:214|16:214|20:225|20:225|115:203,1,135,12|0,3:3|0:0,0:0:0:0:
309,80,56428,6,0,L|345:41,3,45,8|0|0|0,3:3|3:3|3:3|3:3,0:0:0:0:
287,279,56781,2,0,L|276:322,3,45,8|0|0|0,3:3|3:3|3:3|3:3,0:0:0:0:
443,8,57134,2,0,L|496:-2,3,45,10|0|0|0,3:3|3:3|3:3|3:3,0:0:0:0:
196,93,57487,2,0,L|134:62,1,45,8|0,3:3|3:3,0:0:0:0:
421,201,57664,2,0,L|368:179,1,45,0|0,3:3|3:3,0:0:0:0:
50,31,57840,6,0,B|34:78|8:102|8:102|25:217,1,180,14|10,3:3|2:3,0:0:0:0:
190,29,58369,1,0,3:3:0:0:
178,350,58546,1,10,2:3:0:0:
166,317,58634,1,0,3:3:0:0:
156,286,58722,1,0,3:3:0:0:
59,273,58899,1,10,3:3:0:0:
357,76,59075,2,0,L|379:22,1,45,2|2,2:2|2:2,0:0:0:0:
310,161,59252,6,0,B|380:170|380:170|402:200|402:200|482:214,1,180,8|10,2:3|2:3,0:0:0:0:
134,162,59781,1,2,3:2:0:0:
93,170,59869,1,0,3:3:0:0:
311,283,60046,1,0,3:3:0:0:
324,323,60134,1,0,3:3:0:0:
232,92,60311,2,0,L|225:2,1,90,10|2,3:3|2:2,0:0:0:0:
332,328,60575,1,2,2:2:0:0:
367,355,60664,6,0,L|397:242,1,90,10|2,2:3|2:2,0:0:0:0:
382,6,61017,1,10,2:3:0:0:
492,291,61193,1,2,3:2:0:0:
494,29,61369,2,0,L|541:34,1,45,10|0,2:3|3:3,0:0:0:0:
255,49,61546,2,0,L|319:45,1,45,2|0,3:2|0:0,0:0:0:0:
60,93,61722,1,10,3:3:0:0:
55,17,61899,6,0,P|139:53|145:144,1,180,2|2,2:2|2:2,0:0:0:0:
123,383,62428,1,10,2:3:0:0:
9,169,62605,1,2,2:2:0:0:
257,318,62781,1,10,3:3:0:0:
219,313,62870,1,0,3:3:0:0:
181,310,62958,1,0,3:3:0:0:
447,42,63134,1,10,3:3:0:0:
447,42,63222,1,0,3:3:0:0:
447,42,63311,1,0,3:3:0:0:
447,42,63399,1,0,3:3:0:0:
446,42,63487,6,0,P|354:77|356:177,1,180,14|8,3:3|2:3,0:0:0:0:
429,365,64017,1,2,3:2:0:0:
500,218,64193,2,0,B|457:244|439:276|439:276|346:296,1,180,10|8,2:3|3:3,0:0:0:0:
126,195,64722,1,2,0:3:0:0:
132,226,64811,1,2,0:3:0:0:
137,257,64899,5,8,2:3:0:0:
114,88,65075,1,0,0:0:0:0:
148,354,65252,1,8,2:3:0:0:
210,123,65428,1,0,3:3:0:0:
240,100,65517,1,0,3:3:0:0:
47,280,65693,1,0,3:3:0:0:
6,298,65781,1,0,3:3:0:0:
246,292,65958,1,10,3:3:0:0:
5,144,66134,1,2,2:2:0:0:
122,358,66311,6,0,P|134:285|136:158,1,180,10|8,2:3|2:3,0:0:0:0:
101,17,66840,1,2,2:2:0:0:
264,324,67017,1,10,2:3:0:0:
300,200,67193,1,0,3:3:0:0:
294,170,67281,1,0,3:3:0:0:
288,139,67369,1,8,3:2:0:0:
374,352,67546,5,10,2:3:0:0:
401,237,67899,1,10,2:3:0:0:
130,65,68252,1,10,2:3:0:0:
150,192,68605,1,10,2:3:0:0:
150,192,69134,6,0,P|171:147|182:105,2,76.5000014591217,12|0|8,2:3|0:0|2:3,0:0:0:0:
87,271,69664,2,0,L|102:358,1,76.5000014591217,0|8,0:0|2:3,0:0:0:0:
32,159,70017,1,0,0:0:0:0:
158,204,70193,2,0,L|250:235,1,76.5000014591217,8|0,2:3|0:0,0:0:0:0:
404,172,70546,6,0,P|365:175|318:186,2,76.5000014591217,8|0|8,2:3|0:0|2:3,0:0:0:0:
496,217,71075,1,0,0:0:0:0:
329,76,71252,1,8,2:3:0:0:
380,7,71428,1,0,0:0:0:0:
340,315,71605,2,0,P|361:359|381:335,1,76.5000014591217,8|0,2:3|0:0,0:0:0:0:
169,222,71958,5,8,2:2:0:0:
206,231,72045,1,0,0:0:0:0:
246,241,72134,1,0,3:3:0:0:
213,226,72222,1,0,3:3:0:0:
184,212,72310,2,0,L|130:187,1,45,0|0,3:3|3:3,0:0:0:0:
477,186,72487,1,12,3:3:0:0:
442,197,72575,1,0,3:3:0:0:
407,209,72663,1,0,3:3:0:0:
422,169,72751,1,0,3:3:0:0:
436,132,72840,2,0,L|461:78,1,45,0|0,3:3|3:3,0:0:0:0:
254,9,73017,1,12,3:3:0:0:
264,46,73105,1,0,3:3:0:0:
272,87,73193,1,0,3:3:0:0:
283,133,73281,1,0,3:3:0:0:
291,89,73369,6,0,L|298:35,1,45,0|0,3:3|3:3,0:0:0:0:
375,369,73546,1,12,3:3:0:0:
360,330,73634,1,0,3:3:0:0:
344,289,73722,1,0,3:3:0:0:
328,242,73811,1,0,3:3:0:0:
305,286,73899,1,0,3:3:0:0:
283,322,73987,1,0,3:3:0:0:
263,359,74075,1,10,2:3:0:0:
470,276,74252,1,2,2:3:0:0:
205,215,74428,1,2,2:3:0:0:
172,221,74517,1,2,2:3:0:0:
142,227,74605,1,10,2:3:0:0:
436,125,74781,6,0,L|518:142,1,76.5000014591217,14|0,2:3|0:0,0:0:0:0:
307,59,75134,2,0,L|225:45,1,76.5000014591217,10|0,3:2|3:3,0:0:0:0:
472,30,75399,1,0,3:3:0:0:
472,30,75487,1,10,3:3:0:0:
387,200,75664,1,8,3:3:0:0:
294,234,75840,2,0,L|304:339,1,76.5000014591217,10|0,3:2|0:0,0:0:0:0:
128,67,76193,6,0,P|81:42|119:10,1,114.750002188683,10|0,3:3|0:0,0:0:0:0:
183,130,76546,2,0,L|175:233,1,76.5000014591217,10|0,3:2|3:3,0:0:0:0:
143,322,76811,1,0,3:3:0:0:
143,322,76899,1,10,3:3:0:0:
43,336,77075,1,8,3:3:0:0:
360,350,77252,1,8,3:2:0:0:
272,323,77428,1,2,2:3:0:0:
297,175,77605,6,0,L|306:97,1,76.5000014591217,10|0,2:3|0:0,0:0:0:0:
489,30,77958,2,0,L|476:120,1,76.5000014591217,10|0,3:2|3:3,0:0:0:0:
453,236,78223,1,0,3:3:0:0:
453,236,78311,2,0,L|458:315,1,76.5000014591217,10|8,3:3|3:3,0:0:0:0:
253,245,78664,2,0,L|240:151,1,76.5000014591217,10|0,3:2|0:0,0:0:0:0:
327,5,79017,2,0,P|376:-2|343:38,1,114.750002188683,10|0,3:3|0:0,0:0:0:0:
353,118,79369,2,0,L|347:206,1,76.5000014591217,10|0,3:2|3:3,0:0:0:0:
332,344,79634,1,0,3:3:0:0:
332,344,79722,1,10,3:3:0:0:
422,367,79899,1,8,3:3:0:0:
194,191,80075,1,8,3:2:0:0:
173,98,80252,1,2,2:3:0:0:
93,354,80428,6,0,P|56:351|33:380,1,76.5000014591217,10|0,2:3|0:0,0:0:0:0:
204,279,80781,2,0,P|246:270|273:317,1,76.5000014591217,10|0,3:2|3:3,0:0:0:0:
262,103,81046,1,0,3:3:0:0:
262,103,81134,1,10,3:3:0:0:
124,153,81311,1,8,3:3:0:0:
0,207,81487,2,0,P|20:237|72:223,1,76.5000014591217,10|0,3:2|0:0,0:0:0:0:
80,36,81840,6,0,P|44:38|77:105,1,114.750002188683,10|0,3:3|0:0,0:0:0:0:
124,153,82193,2,0,L|221:191,1,76.5000014591217,10|0,3:2|3:3,0:0:0:0:
358,252,82458,1,0,3:3:0:0:
358,252,82546,1,10,3:3:0:0:
306,330,82722,1,8,3:3:0:0:
394,35,82899,1,8,3:2:0:0:
345,114,83075,1,2,2:3:0:0:
461,349,83252,6,0,L|468:272,1,76.5000014591217,10|0,2:3|0:0,0:0:0:0:
329,93,83605,2,0,L|237:81,1,76.5000014591217,10|0,3:2|3:3,0:0:0:0:
489,293,83869,1,0,3:3:0:0:
489,293,83958,2,0,L|494:374,1,76.5000014591217,10|8,3:3|3:3,0:0:0:0:
248,70,84311,2,0,L|157:75,1,76.5000014591217,10|0,3:2|0:0,0:0:0:0:
463,12,84664,6,0,B|452:47|452:47|424:98|404:156,1,153.000002918243,10|10,3:3|3:2,0:0:0:0:
183,310,85193,1,0,3:3:0:0:
300,273,85369,2,0,B|337:280|337:280|337:291|337:291|305:292,1,76.5000014591217,10|8,3:3|3:3,0:0:0:0:
193,108,85722,2,0,P|232:154|202:212,1,114.750002188683,10|0,3:2|0:0,0:0:0:0:
71,346,86075,6,0,B|76:313|99:332|112:286|78:302|77:282|41:300|52:252|77:271|83:249|116:262|118:206|82:228|86:193,1,180,14|8,2:3|3:2,0:0:0:0:
40,19,86605,1,0,3:3:0:0:
96,108,86781,1,8,3:3:0:0:
180,34,86958,1,10,3:3:0:0:
249,260,87134,1,10,3:2:0:0:
355,52,87311,1,2,2:2:0:0:
208,224,87487,6,0,P|197:253|211:301,1,76.5000014591217,10|0,3:3|0:0,0:0:0:0:
286,303,87840,2,0,P|302:256|292:217,1,76.5000014591217,10|0,3:2|3:3,0:0:0:0:
135,256,88105,1,0,3:3:0:0:
135,256,88193,2,0,L|58:269,1,76.5000014591217,10|8,3:3|3:3,0:0:0:0:
353,312,88546,1,10,3:2:0:0:
444,325,88722,1,2,2:3:0:0:
255,168,88899,6,0,L|245:16,1,153.000002918243,10|8,2:3|3:2,0:0:0:0:
455,186,89428,1,0,3:3:0:0:
458,168,89517,1,0,3:3:0:0:
461,150,89605,1,8,3:3:0:0:
394,260,89781,1,8,3:3:0:0:
332,91,89958,2,0,B|304:64|304:64|295:104,1,76.5000014591217,8|0,3:2|0:0,0:0:0:0:
199,337,90311,5,10,3:3:0:0:
133,169,90487,1,0,0:0:0:0:
49,145,90664,1,10,2:3:0:0:
284,280,90840,1,0,0:0:0:0:
342,221,91017,5,10,2:3:0:0:
88,352,91193,1,8,2:3:0:0:
201,92,91369,5,10,2:2:0:0:
147,35,91546,1,2,2:3:0:0:
457,312,91722,2,0,B|397:302|397:302|394:318|394:318|500:340,1,153.000002918243,10|8,2:3|3:2,0:0:0:0:
245,212,92252,1,0,3:3:0:0:
238,230,92340,1,0,3:3:0:0:
232,247,92428,1,8,3:3:0:0:
268,326,92605,1,10,3:3:0:0:
418,80,92781,1,10,3:2:0:0:
329,45,92958,1,2,2:2:0:0:
370,357,93134,6,0,L|344:178,1,153.000002918243,10|8,3:3|3:2,0:0:0:0:
171,47,93664,1,0,3:3:0:0:
190,51,93752,1,0,3:3:0:0:
209,56,93840,1,10,3:3:0:0:
90,28,94017,1,8,3:3:0:0:
99,127,94193,1,10,3:2:0:0:
109,222,94369,1,0,0:0:0:0:
130,369,94546,5,14,2:3:0:0:
21,336,94722,1,0,0:0:0:0:
244,245,94899,1,8,2:2:0:0:
397,285,95075,1,0,3:3:0:0:
375,288,95163,1,0,3:3:0:0:
352,294,95252,1,8,3:3:0:0:
18,220,95428,1,0,0:0:0:0:
211,351,95605,1,8,2:3:0:0:
213,65,95781,1,0,0:0:0:0:
87,17,95958,5,8,3:3:0:0:
79,75,96046,1,0,3:3:0:0:
101,134,96134,1,0,3:3:0:0:
145,176,96222,1,0,3:3:0:0:
207,186,96311,1,8,3:3:0:0:
265,155,96399,1,0,3:3:0:0:
330,143,96487,1,0,3:3:0:0:
388,165,96575,1,0,3:3:0:0:
430,217,96664,1,10,3:3:0:0:
434,226,96752,1,2,3:3:0:0:
437,234,96840,1,2,3:3:0:0:
438,247,96928,1,2,3:3:0:0:
436,262,97017,1,10,3:3:0:0:
428,269,97105,1,2,3:3:0:0:
423,263,97193,1,2,3:3:0:0:
424,253,97281,1,2,3:3:0:0:
432,246,97369,6,0,L|458:80,1,135,14|0,2:3|0:0,0:0:0:0:
216,46,97722,2,0,B|258:46|258:46|281:31|312:23,1,90,10|0,2:3|3:3,0:0:0:0:
450,0,97987,1,0,3:3:0:0:
450,0,98075,1,10,2:3:0:0:
185,174,98252,1,0,3:3:0:0:
103,206,98428,1,10,3:3:0:0:
430,308,98604,1,2,2:2:0:0:
358,369,98781,6,0,L|286:171,1,180,8|10,2:3|2:3,0:0:0:0:
0,75,99311,1,2,3:2:0:0:
32,94,99399,1,0,3:3:0:0:
265,111,99575,1,0,3:3:0:0:
302,100,99664,1,0,3:3:0:0:
46,280,99840,2,0,B|20:310|20:310|30:261,1,90,10|0,3:3|0:0,0:0:0:0:
169,0,100193,5,10,2:3:0:0:
256,288,100369,1,2,2:2:0:0:
7,82,100546,1,10,2:3:0:0:
298,109,100722,1,2,3:2:0:0:
27,281,100899,1,10,2:3:0:0:
169,1,101075,1,2,3:2:0:0:
238,297,101252,1,10,3:3:0:0:
389,32,101428,6,0,P|467:52|484:150,1,180,2|2,2:2|2:2,0:0:0:0:
361,367,101958,1,10,2:3:0:0:
266,125,102134,1,2,2:2:0:0:
508,287,102311,1,10,3:3:0:0:
468,279,102399,1,0,3:3:0:0:
423,271,102487,1,0,3:3:0:0:
195,74,102664,1,8,3:3:0:0:
148,81,102752,1,0,3:3:0:0:
101,87,102840,1,0,3:3:0:0:
56,94,102928,1,0,3:3:0:0:
11,99,103017,5,14,3:3:0:0:
204,53,103193,1,2,2:2:0:0:
236,274,103369,1,10,2:3:0:0:
14,246,103546,1,2,3:2:0:0:
237,191,103722,1,10,2:3:0:0:
451,135,103899,1,2,3:2:0:0:
123,208,104075,2,0,L|112:164,1,45,10|0,3:3|0:0,0:0:0:0:
362,356,104252,6,0,L|450:371,1,90,2|8,2:2|2:3,0:0:0:0:
282,56,104605,1,2,2:2:0:0:
255,295,104781,1,10,2:3:0:0:
496,304,104958,1,2,3:2:0:0:
499,72,105134,1,10,2:3:0:0:
499,72,105223,1,0,3:3:0:0:
499,72,105311,1,0,3:3:0:0:
358,252,105487,1,10,3:3:0:0:
393,29,105664,1,2,2:2:0:0:
364,259,105840,6,0,P|424:285|449:331,1,90,10|0,2:3|0:0,0:0:0:0:
116,126,106193,2,0,L|26:114,1,90,10|0,2:3|3:3,0:0:0:0:
386,160,106458,1,0,3:3:0:0:
386,160,106546,1,10,3:3:0:0:
512,181,106722,1,2,2:2:0:0:
262,378,106899,2,0,L|252:239,1,135,12|0,3:3|0:0,0:0:0:0:
232,50,107252,6,0,L|248:-5,3,45,8|0|0|0,3:3|3:3|3:3|3:3,0:0:0:0:
117,215,107605,2,0,L|82:243,3,45,8|0|0|0,3:3|3:3|3:3|3:3,0:0:0:0:
354,14,107958,2,0,L|422:1,3,45,10|0|0|0,3:3|3:3|3:3|3:3,0:0:0:0:
254,361,108311,2,0,L|187:355,1,45,8|0,3:3|3:3,0:0:0:0:
77,347,108487,2,0,L|17:343,1,45,0|0,3:3|3:3,0:0:0:0:
509,244,108664,6,0,B|453:263|453:263|309:280,1,180,14|10,3:3|2:3,0:0:0:0:
247,59,109193,1,0,3:3:0:0:
114,264,109369,1,10,2:3:0:0:
142,254,109457,1,0,3:3:0:0:
169,245,109546,1,0,3:3:0:0:
392,191,109722,1,10,3:3:0:0:
113,38,109899,2,0,L|172:14,1,45,2|2,2:2|2:2,0:0:0:0:
12,36,110075,6,0,B|24:119|24:119|64:134|86:194,1,180,8|10,2:3|2:3,0:0:0:0:
282,133,110605,1,2,3:2:0:0:
317,110,110693,1,0,3:3:0:0:
135,307,110870,1,0,3:3:0:0:
117,341,110958,1,0,3:3:0:0:
129,109,111134,2,0,L|108:10,1,90,10|2,3:3|2:2,0:0:0:0:
117,341,111399,1,2,2:2:0:0:
145,371,111487,6,0,P|208:361|258:362,1,90,10|2,2:3|2:2,0:0:0:0:
490,230,111840,1,10,2:3:0:0:
198,170,112017,1,2,3:2:0:0:
416,307,112193,2,0,P|434:325|442:356,1,45,10|0,2:3|3:3,0:0:0:0:
291,178,112369,2,0,P|303:196|320:210,1,45,2|0,3:2|0:0,0:0:0:0:
280,35,112546,1,10,3:3:0:0:
372,0,112722,6,0,P|434:22|440:134,1,180,2|2,2:2|2:2,0:0:0:0:
164,257,113252,1,10,2:3:0:0:
40,319,113428,1,2,2:2:0:0:
427,240,113605,1,10,3:3:0:0:
454,256,113693,1,0,3:3:0:0:
477,271,113781,1,0,3:3:0:0:
116,26,113958,1,10,3:3:0:0:
97,29,114046,1,0,3:3:0:0:
82,38,114134,1,2,3:2:0:0:
75,58,114222,1,0,3:3:0:0:
72,77,114311,6,0,B|83:168|83:168|12:188|1:233,1,180,14|8,3:3|2:3,0:0:0:0:
273,374,114840,1,2,3:2:0:0:
184,348,115017,2,0,B|173:257|173:257|244:237|254:191,1,180,10|8,2:3|3:3,0:0:0:0:
221,9,115546,1,0,3:3:0:0:
196,12,115634,1,0,3:3:0:0:
172,15,115722,5,8,3:3:0:0:
376,0,115899,1,0,3:3:0:0:
365,151,116075,1,8,2:3:0:0:
510,140,116252,1,0,3:3:0:0:
478,134,116340,1,0,3:3:0:0:
253,113,116517,1,0,3:3:0:0:
215,111,116605,1,0,3:3:0:0:
422,301,116781,1,10,3:3:0:0:
76,221,116958,1,2,2:2:0:0:
235,260,117134,6,0,B|158:288|158:288|127:319|76:342,1,180,10|8,2:3|2:3,0:0:0:0:
409,315,117664,1,2,2:2:0:0:
230,125,117840,1,10,2:3:0:0:
261,40,118017,1,0,3:3:0:0:
277,24,118105,1,0,3:3:0:0:
292,6,118193,1,8,3:2:0:0:
227,375,118369,5,10,2:3:0:0:
221,258,118722,1,10,2:3:0:0:
190,20,119075,1,10,2:3:0:0:
213,130,119428,1,10,2:3:0:0:
221,258,119781,6,0,B|320:232|304:230|378:305,1,175.499991966248,14|8,2:3|2:3,0:0:0:0:
372,299,120487,1,8,2:3:0:0:
488,134,120664,1,8,2:2:0:0:
398,120,120840,1,2,2:2:0:0:
489,145,121017,1,10,2:2:0:0:
255,135,121193,6,0,B|282:73|284:82|219:29,2,116.999994644165,14|10|2,2:3|2:3|2:2,0:0:0:0:
69,188,122075,1,8,2:2:0:0:
52,94,122340,1,8,2:2:0:0:
35,0,122605,1,8,2:2:0:0:
62,198,122781,6,0,B|64:246|64:246|69:250|69:250|62:277|71:330,1,116.999994644165,14|8,2:3|2:3,0:0:0:0:
166,342,123311,1,8,2:3:0:0:
173,179,123487,2,0,L|183:121,1,58.4999973220826,8|2,2:2|2:2,0:0:0:0:
318,248,123840,1,10,2:2:0:0:
303,240,123928,1,0,3:3:0:0:
293,230,124017,6,0,P|294:179|361:174,1,116.999994644165,14|2,2:3|3:2,0:0:0:0:
362,177,124458,1,0,3:3:0:0:
371,190,124546,1,10,2:3:0:0:
185,185,124722,1,2,2:2:0:0:
65,113,124899,1,8,2:2:0:0:
44,74,124987,1,0,3:3:0:0:
161,20,125164,1,0,3:3:0:0:
159,63,125252,1,2,3:2:0:0:
103,225,125428,1,8,2:3:0:0:
264,133,125605,6,0,B|271:93|271:93|291:61|305:-2,1,116.999994644165,14|8,2:3|2:3,0:0:0:0:
379,229,126134,1,10,2:3:0:0:
370,314,126311,1,8,2:2:0:0:
414,27,126664,1,0,3:3:0:0:
410,61,126752,1,0,3:3:0:0:
405,93,126840,2,0,P|454:122|466:184,1,116.999994644165,14|0,3:3|3:3,0:0:0:0:
462,199,127281,1,0,3:3:0:0:
444,215,127369,1,10,3:3:0:0:
422,218,127458,1,0,3:3:0:0:
401,206,127546,1,0,3:3:0:0:
373,200,127634,1,0,3:3:0:0:
355,213,127722,2,0,L|341:318,2,87.749995983124,8|8|12,2:2|2:2|2:3,0:0:0:0:
228,371,128428,6,0,B|219:344|201:321|201:321|189:246,1,116.999994644165,10|8,2:3|2:3,0:0:0:0:
149,146,128958,1,10,2:3:0:0:
28,343,129134,2,0,P|65:311|69:239,1,116.999994644165,8|0,2:2|3:3,0:0:0:0:
59,228,129575,1,0,0:0:0:0:
50,210,129664,2,0,P|30:170|40:101,1,116.999994644165,14|0,2:3|3:3,0:0:0:0:
56,89,130105,1,0,3:3:0:0:
65,72,130193,1,2,3:2:0:0:
172,0,130369,1,0,3:3:0:0:
238,88,130546,1,2,3:2:0:0:
286,66,130634,1,0,3:3:0:0:
336,43,130722,1,0,3:3:0:0:
368,30,130811,1,0,3:3:0:0:
360,69,130899,1,2,2:3:0:0:
340,85,130987,1,2,2:3:0:0:
328,85,131075,1,2,2:3:0:0:
322,73,131164,1,2,2:3:0:0:
327,67,131252,6,0,L|318:151,1,58.4999973220826,12|0,2:3|0:0,0:0:0:0:
87,267,131605,1,10,2:3:0:0:
92,210,131722,1,2,2:2:0:0:
156,217,131840,1,2,2:2:0:0:
219,224,131958,2,0,L|230:141,1,58.4999973220826,10|2,2:2|2:2,0:0:0:0:
291,320,132311,1,8,2:2:0:0:
327,67,132487,6,0,P|296:23|220:10,1,116.999994644165,14|10,2:3|2:3,0:0:0:0:
424,88,133017,2,0,P|453:67|493:72,1,58.4999973220826,10|0,2:3|0:0,0:0:0:0:
371,166,133369,1,10,2:2:0:0:
389,271,133634,1,10,2:2:0:0:
408,377,133899,1,10,2:2:0:0:
499,364,134075,2,0,L|513:286,1,58.4999973220826,12|0,2:3|0:0,0:0:0:0:
281,161,134428,1,10,2:3:0:0:
238,196,134546,1,2,2:2:0:0:
233,251,134664,1,2,2:2:0:0:
228,309,134781,2,0,L|286:314,1,58.4999973220826,10|2,2:2|2:2,0:0:0:0:
145,225,135134,1,8,2:2:0:0:
84,358,135311,6,0,B|75:323|60:304|60:304|46:226,1,116.999994644165,14|10,2:3|2:3,0:0:0:0:
60,56,135840,2,0,L|37:-11,1,58.4999973220826,2|0,3:2|0:0,0:0:0:0:
13,135,136193,1,2,3:2:0:0:
200,175,136458,1,2,2:2:0:0:
321,33,136722,1,2,2:2:0:0:
415,69,136899,5,14,2:3:0:0:
415,69,137075,2,0,P|464:83|474:158,1,116.999994644165,2|8,2:2|2:3,0:0:0:0:
441,209,137605,2,0,L|365:215,1,58.4999973220826,8|0,2:2|0:0,0:0:0:0:
327,323,137958,1,10,2:2:0:0:
327,323,138134,2,0,P|279:317|241:251,1,116.999994644165,14|8,2:3|2:3,0:0:0:0:
270,190,138664,2,0,P|288:168|291:140,1,58.4999973220826,10|2,2:3|2:2,0:0:0:0:
198,33,139017,2,0,L|113:28,1,58.4999973220826,8|0,2:2|0:0,0:0:0:0:
139,29,139281,2,0,L|134:96,1,58.4999973220826,8|0,2:2|0:0,0:0:0:0:
134,87,139546,2,0,L|86:84,1,29.2499986610413,8|0,2:2|0:0,0:0:0:0:
25,90,139722,6,0,P|18:139|19:172,1,58.4999973220826,12|0,2:3|0:0,0:0:0:0:
105,309,140075,1,10,2:3:0:0:
163,304,140193,1,2,2:2:0:0:
213,299,140311,1,2,2:2:0:0:
267,294,140428,1,10,2:2:0:0:
218,261,140546,1,2,2:2:0:0:
170,240,140664,1,2,2:2:0:0:
131,221,140781,1,2,3:2:0:0:
131,221,140869,1,0,3:3:0:0:
131,221,140958,6,0,P|129:179|243:149,1,175.499991966248,14|2,2:3|2:2,0:0:0:0:
303,199,141664,2,0,B|395:216|429:130|357:23|364:20|341:154|414:175|414:175|470:189|501:253|467:305|467:305|446:335|460:365,1,526.499983932496,2|0,2:2|0:0,0:0:0:0:
457,358,145369,6,0,L|499:366,7,40.4999987640381,2|0|2|0|2|0|2|2,2:2|0:0|2:2|0:0|2:2|0:0|2:2|2:2,0:0:0:0:
410,291,146781,2,0,L|362:295,7,40.4999987640381,0|0|2|2|2|0|2|0,0:0|0:0|2:2|2:2|2:2|0:0|2:2|0:0,0:0:0:0:
467,228,148193,2,0,L|520:238,7,40.4999987640381,2|2|2|2|2|2|2|2,2:2|2:2|2:2|2:2|2:2|2:2|2:2|2:2,0:0:0:0:
407,168,149605,2,0,P|379:184|360:190,3,40.4999987640381,0|2|2|2,0:0|2:2|2:2|2:2,0:0:0:0:
470,110,150311,2,0,L|523:120,1,40.4999987640381,2|0,2:2|0:0,0:0:0:0:
351,82,150664,2,0,L|404:95,1,40.4999987640381
470,16,151017,6,0,L|336:37,1,121.499996292114,2|2,2:2|2:2,0:0:0:0:
259,17,151722,2,0,L|126:33,1,121.499996292114,2|2,2:2|2:2,0:0:0:0:
360,58,152428,2,0,P|402:78|458:146,1,121.499996292114,0|2,0:0|2:2,0:0:0:0:
284,94,153134,2,0,B|273:112|273:112|320:131|346:199,1,121.499996292114,2|2,2:2|2:2,0:0:0:0:
192,268,153840,6,0,B|183:183|183:183|155:158|131:108,2,161.999995056153,2|2|8,2:2|2:2|2:3,0:0:0:0:
192,268,155605,2,0,L|282:285,1,76.5000014591217,8|0,2:3|0:0,0:0:0:0:
24,317,155958,1,8,2:3:0:0:
61,35,156134,1,8,3:2:0:0:
75,86,156222,1,0,3:3:0:0:
86,137,156311,1,8,3:3:0:0:
98,186,156399,1,0,3:3:0:0:
107,236,156487,2,0,L|124:302,1,38.2500007295609,0|0,3:3|3:3,0:0:0:0:
238,154,156664,6,0,L|261:20,1,135,14|0,3:3|0:0,0:0:0:0:
148,206,157017,2,0,P|174:241|194:282,1,90,10|0,2:3|3:3,0:0:0:0:
14,171,157281,1,0,3:3:0:0:
14,171,157369,1,10,2:3:0:0:
147,88,157546,1,0,3:3:0:0:
24,337,157722,1,10,3:3:0:0:
371,263,157899,2,0,L|418:290,1,45,2|2,2:2|2:2,0:0:0:0:
356,189,158075,6,0,P|295:234|337:335,1,180,8|10,2:3|2:3,0:0:0:0:
271,38,158605,1,2,3:2:0:0:
238,1,158693,1,0,3:3:0:0:
451,134,158869,1,0,3:3:0:0:
493,153,158958,1,0,3:3:0:0:
170,98,159134,2,0,L|81:113,1,90,10|2,3:3|2:2,0:0:0:0:
385,40,159399,1,2,2:2:0:0:
385,40,159487,5,10,2:3:0:0:
357,298,159664,1,2,2:2:0:0:
284,329,159840,1,10,2:3:0:0:
259,38,160017,1,2,3:2:0:0:
200,286,160193,1,10,2:3:0:0:
483,318,160369,1,2,3:2:0:0:
487,46,160546,1,10,3:3:0:0:
409,11,160722,6,0,B|319:18|319:18|321:119,1,180,2|2,2:2|2:2,0:0:0:0:
250,352,161252,1,10,2:3:0:0:
143,145,161428,1,2,2:2:0:0:
74,358,161605,1,10,3:3:0:0:
58,316,161693,1,0,3:3:0:0:
43,277,161781,1,0,3:3:0:0:
454,163,161958,1,10,3:3:0:0:
454,163,162046,1,0,3:3:0:0:
454,163,162134,1,0,3:3:0:0:
454,163,162222,1,0,3:3:0:0:
454,163,162311,6,0,P|446:212|329:206,1,180,14|8,3:3|2:3,0:0:0:0:
229,71,162840,1,2,3:2:0:0:
209,367,163017,2,0,P|221:288|210:167,1,180,10|8,2:3|3:3,0:0:0:0:
71,22,163546,1,2,0:2:0:0:
47,26,163634,1,2,0:2:0:0:
23,30,163722,5,8,2:3:0:0:
162,94,163899,1,0,0:0:0:0:
14,155,164075,1,8,2:3:0:0:
212,207,164252,1,0,3:3:0:0:
251,219,164340,1,0,3:3:0:0:
28,258,164517,1,0,3:3:0:0:
0,278,164605,1,0,3:3:0:0:
234,361,164781,1,10,3:3:0:0:
100,124,164958,1,2,2:2:0:0:
32,379,165134,6,0,B|70:369|70:369|114:277|114:277|178:258,1,180,10|8,2:3|2:3,0:0:0:0:
344,121,165664,1,2,2:2:0:0:
371,307,165840,2,0,P|414:322|455:348,1,90,10|0,2:3|0:0,0:0:0:0:
123,185,166193,1,8,2:3:0:0:
397,107,166369,2,0,P|449:116|511:134,1,90,0|8,0:0|2:3,0:0:0:0:
242,355,166722,1,0,0:0:0:0:
173,49,166899,1,8,2:3:0:0:
438,231,167075,1,0,0:0:0:0:
123,185,167252,1,8,3:3:0:0:
92,193,167340,1,0,3:3:0:0:
65,201,167428,1,0,3:3:0:0:
407,21,167605,1,10,3:3:0:0:
368,34,167693,1,0,3:3:0:0:
332,48,167781,1,2,3:2:0:0:
296,62,167869,1,0,3:3:0:0:
261,73,167958,6,0,P|221:30|87:51,1,180,14|8,3:3|2:3,0:0:0:0:
281,311,168487,1,2,3:2:0:0:
269,346,168575,1,0,3:3:0:0:
410,122,168752,1,0,3:3:0:0:
445,108,168840,1,0,3:3:0:0:
141,183,169017,1,8,3:3:0:0:
433,233,169193,6,0,P|480:249|507:295,1,90,0|8,0:0|2:3,0:0:0:0:
184,78,169546,1,0,0:0:0:0:
276,353,169722,1,8,2:3:0:0:
359,81,169899,1,0,3:3:0:0:
365,43,169987,1,0,3:3:0:0:
354,255,170164,1,0,3:3:0:0:
368,292,170252,1,0,3:3:0:0:
90,46,170428,1,10,3:3:0:0:
184,78,170605,1,2,2:2:0:0:
67,358,170781,6,0,P|19:284|41:200,1,180,10|8,2:3|2:3,0:0:0:0:
418,205,171311,1,2,2:2:0:0:
242,136,171487,1,10,2:3:0:0:
68,65,171664,1,0,3:3:0:0:
68,65,171752,1,0,3:3:0:0:
68,65,171840,1,8,3:3:0:0:
198,359,172017,5,10,2:2:0:0:
389,370,172369,1,10,2:2:0:0:
428,32,172722,1,10,2:2:0:0:
227,17,173075,1,10,2:2:0:0:
390,370,173428,6,0,P|444:348|398:235,1,180,14|2,2:3|2:2,0:0:0:0:
137,162,173958,1,10,2:3:0:0:
48,98,174134,1,2,3:2:0:0:
46,122,174222,1,2,3:2:0:0:
44,145,174311,1,10,2:3:0:0:
307,73,174487,1,2,3:2:0:0:
156,53,174664,1,8,2:3:0:0:
125,370,174840,6,0,B|133:274|133:274|96:256|62:197,1,180,2|2,2:2|2:2,0:0:0:0:
287,354,175369,1,10,2:3:0:0:
222,123,175546,1,2,3:2:0:0:
227,147,175634,1,2,3:2:0:0:
233,171,175722,1,10,2:3:0:0:
442,166,175899,2,0,L|380:257,1,90,2|8,3:2|2:3,0:0:0:0:
439,20,176252,6,0,B|381:3|381:3|333:146,1,180,2|2,2:2|2:2,0:0:0:0:
210,262,176781,1,10,2:3:0:0:
356,320,176958,1,2,2:2:0:0:
373,336,177046,1,2,2:2:0:0:
388,350,177134,1,10,2:3:0:0:
95,256,177311,1,2,2:2:0:0:
425,225,177487,1,8,2:3:0:0:
169,40,177664,1,2,2:2:0:0:
258,356,177840,6,0,L|278:175,1,180,12|8,3:3|2:3,0:0:0:0:
103,96,178369,1,2,2:2:0:0:
370,25,178546,1,8,3:3:0:0:
411,31,178634,1,0,3:3:0:0:
453,38,178722,1,2,3:2:0:0:
103,260,178899,1,10,3:3:0:0:
90,213,178987,1,0,3:3:0:0:
74,166,179075,1,2,3:2:0:0:
57,113,179164,1,0,3:3:0:0:
41,65,179252,5,14,3:3:0:0:
116,15,179428,1,0,0:0:0:0:
48,358,179605,2,0,P|74:297|87:242,1,90,10|0,2:3|3:3,0:0:0:0:
217,95,179958,2,0,P|236:162|256:203,2,90,10|2|10,2:3|3:2|2:3,0:0:0:0:
146,366,180487,6,0,P|211:302|301:314,1,180,2|2,2:2|2:2,0:0:0:0:
343,71,181017,1,10,2:3:0:0:
407,270,181193,2,0,P|459:285|497:330,1,90,2|8,2:2|2:3,0:0:0:0:
171,183,181546,1,0,0:0:0:0:
415,51,181722,2,0,L|523:77,1,90,8|2,2:3|2:2,0:0:0:0:
204,11,181987,1,2,2:2:0:0:
204,11,182075,5,10,2:3:0:0:
229,293,182252,1,0,0:0:0:0:
218,145,182428,1,10,2:3:0:0:
65,170,182605,1,2,0:3:0:0:
65,170,182693,1,2,0:3:0:0:
65,170,182781,2,0,L|17:191,1,45,10|0,2:3|0:0,0:0:0:0:
312,105,182958,2,0,P|364:113|421:145,1,90,2|8,2:2|2:3,0:0:0:0:
67,54,183311,1,2,2:2:0:0:
204,3,183487,5,12,3:3:0:0:
200,43,183575,1,0,3:3:0:0:
195,91,183664,1,2,3:2:0:0:
191,133,183752,1,0,3:3:0:0:
187,180,183840,1,10,3:3:0:0:
181,223,183928,1,0,3:3:0:0:
180,265,184017,1,2,3:2:0:0:
173,305,184105,1,0,3:3:0:0:
168,350,184193,2,0,L|147:245,1,90,10|2,2:3|2:3,0:0:0:0:
318,150,184546,1,10,2:3:0:0:
12,213,184722,1,2,2:3:0:0:
12,213,184811,1,2,2:3:0:0:
12,213,184899,5,14,2:3:0:0:
119,0,185075,1,0,0:0:0:0:
169,241,185252,2,0,P|204:208|248:234,1,90,10|0,2:3|0:0,0:0:0:0:
396,1,185605,2,0,P|370:55|267:38,1,180,10|10,3:3|2:3,0:0:0:0:
501,126,186134,2,0,P|459:157|439:290,1,180,2|2,2:2|2:2,0:0:0:0:
239,220,186664,1,8,2:3:0:0:
400,366,186840,1,2,3:2:0:0:
444,379,186928,1,0,3:3:0:0:
263,336,187105,1,0,3:3:0:0:
219,327,187193,1,2,3:2:0:0:
59,369,187369,6,0,P|69:316|87:157,1,180,10|8,2:3|2:3,0:0:0:0:
321,105,187899,1,0,0:0:0:0:
71,68,188075,2,0,P|39:46|81:9,1,90,10|0,2:3|0:0,0:0:0:0:
198,199,188428,2,0,P|259:137|222:42,1,180,10|10,2:3|2:3,0:0:0:0:
33,245,188958,2,0,B|61:259|95:265|95:265|228:324,1,180,2|2,2:2|2:2,0:0:0:0:
412,107,189487,1,8,2:3:0:0:
336,57,189664,1,2,2:2:0:0:
372,364,189840,1,8,3:3:0:0:
359,318,189928,1,0,3:3:0:0:
348,274,190017,1,2,3:2:0:0:
336,228,190105,1,2,3:2:0:0:
320,185,190193,1,10,2:3:0:0:
366,196,190281,1,2,2:3:0:0:
411,208,190369,1,2,2:3:0:0:
455,220,190458,1,2,2:3:0:0:
477,226,190546,6,0,B|456:265|446:294|446:294|357:317,1,135,14|0,2:3|0:0,0:0:0:0:
339,320,190899,2,0,L|244:344,1,90,10|0,2:3|3:3,0:0:0:0:
23,204,191252,1,10,2:3:0:0:
49,306,191428,1,2,3:2:0:0:
223,189,191605,1,10,2:3:0:0:
204,87,191781,2,0,P|179:36|44:46,1,180,2|2,2:2|2:2,0:0:0:0:
257,276,192311,1,10,2:3:0:0:
303,75,192487,2,0,P|334:24|451:24,1,180,2|0,3:2|3:3,0:0:0:0:
257,276,193017,1,8,2:3:0:0:
456,212,193193,1,2,2:2:0:0:
476,221,193281,1,2,2:2:0:0:
493,228,193369,5,10,2:3:0:0:
407,108,193546,1,0,0:0:0:0:
402,358,193722,2,0,P|392:300|327:187,1,180,10|10,2:3|2:3,0:0:0:0:
43,72,194252,1,2,3:2:0:0:
72,80,194340,1,0,3:3:0:0:
96,87,194428,1,8,3:3:0:0:
401,16,194605,5,10,2:2:0:0:
397,332,194958,1,10,2:2:0:0:
109,331,195311,1,10,2:2:0:0:
124,14,195664,1,10,2:2:0:0:
256,191,196899,5,14,2:3:0:0:
