osu file format v14

[General]
AudioFilename: audio.mp3
AudioLeadIn: 0
PreviewTime:46369
Countdown: 0
SampleSet: Soft
StackLeniency: 0.9
Mode: 0
LetterboxInBreaks: 0
WidescreenStoryboard: 1

[Editor]
Bookmarks: 3840,5252,6311,6664,12664,23958,45840,57840,67722,74781,86075,107252,119958,142546,145369,156664,172105,173605,196193
DistanceSpacing: 0.5
BeatDivisor: 4
GridSize: 32
TimelineZoom: 3.1

[Metadata]
Title:Qualia
TitleUnicode:クオリア
Artist:IOSYS
ArtistUnicode:IOSYS
Creator:wetdog123
Version:Insane
Source:東方紅魔郷 ~ the Embodiment of Scarlet Devil.
Tags:東方Project hhjkl rockin'on kuoria ichigo touhou U.N. owen was her U.N.オーエンは彼女なのか? ZUN 魔法少女達の百年祭 the centennial festival for magical girls void 96 project japanese jrock rock j-rock jpop pop j-pop video game flandre scarlet extra stage boss theme doujin comiket 83 イオシス
BeatmapID:2721588
BeatmapSetID:1213880

[Difficulty]
HPDrainRate:5
CircleSize:3.8
OverallDifficulty:8
ApproachRate:9
SliderMultiplier:1.5
SliderTickRate:1

[Events]
//Background and Video events
0,0,"yo.jpg",0,0
//Break Periods
//Storyboard Layer 0 (Background)
//Storyboard Layer 1 (Fail)
//Storyboard Layer 2 (Pass)
//Storyboard Layer 3 (Foreground)
//Storyboard Layer 4 (Overlay)
//Storyboard Sound Samples

[TimingPoints]
1370,352.941176470588,4,2,1,30,1,0
1370,-200,4,2,1,30,0,0
21134,-142.857142857143,4,2,1,30,0,0
23958,-100,4,2,1,45,0,0
35605,-100,4,2,2,45,0,0
35958,-100,4,2,1,45,0,0
37017,-100,4,2,2,45,0,0
37369,-100,4,2,1,45,0,0
37722,-100,4,2,2,45,0,0
38075,-100,4,2,1,45,0,0
38428,-100,4,2,2,45,0,0
38781,-100,4,2,1,45,0,0
39134,-100,4,2,2,45,0,0
39487,-100,4,2,1,45,0,0
39840,-100,4,2,2,45,0,0
40193,-100,4,2,1,45,0,0
40546,-100,4,2,2,45,0,0
40899,-100,4,2,1,45,0,0
41252,-100,4,2,2,45,0,0
41605,-100,4,2,1,45,0,0
41958,-100,4,2,2,45,0,0
42134,-100,4,2,1,45,0,0
42664,-100,4,2,2,45,0,0
43017,-100,4,2,1,45,0,0
43369,-100,4,2,2,45,0,0
43722,-100,4,2,1,45,0,0
44075,-100,4,2,2,45,0,0
44428,-100,4,2,1,45,0,0
44781,-100,4,2,2,45,0,0
46546,-79.9999999999999,4,2,1,60,0,0
46899,-79.9999999999999,4,2,2,60,0,0
47252,-79.9999999999999,4,2,1,60,0,0
47605,-79.9999999999999,4,2,2,60,0,0
47781,-79.9999999999999,4,2,1,60,0,0
48311,-79.9999999999999,4,2,2,60,0,0
48487,-79.9999999999999,4,2,1,60,0,0
49017,-79.9999999999999,4,2,2,60,0,0
49369,-79.9999999999999,4,2,1,60,0,0
49722,-79.9999999999999,4,2,2,60,0,0
49899,-79.9999999999999,4,2,1,60,0,0
50428,-79.9999999999999,4,2,2,60,0,0
50605,-79.9999999999999,4,2,1,60,0,0
51134,-79.9999999999999,4,2,2,60,0,0
51311,-79.9999999999999,4,2,1,60,0,0
51840,-79.9999999999999,4,2,2,60,0,0
52193,-79.9999999999999,4,2,1,60,0,0
52546,-79.9999999999999,4,2,2,60,0,0
52722,-79.9999999999999,4,2,1,60,0,0
53252,-79.9999999999999,4,2,2,60,0,0
53428,-79.9999999999999,4,2,1,60,0,0
53958,-79.9999999999999,4,2,2,60,0,0
54134,-79.9999999999999,4,2,1,60,0,0
54664,-79.9999999999999,4,2,2,60,0,0
54840,-79.9999999999999,4,2,1,60,0,0
55369,-79.9999999999999,4,2,2,60,0,0
55722,-79.9999999999999,4,2,1,60,0,0
56075,-79.9999999999999,4,2,2,60,0,0
56252,-79.9999999999999,4,2,1,60,0,0
56781,-79.9999999999999,4,2,2,60,0,0
57840,-79.9999999999999,4,2,1,60,0,0
58193,-79.9999999999999,4,2,2,60,0,0
58546,-79.9999999999999,4,2,1,60,0,0
58899,-79.9999999999999,4,2,2,60,0,0
59075,-79.9999999999999,4,2,1,60,0,0
59605,-79.9999999999999,4,2,2,60,0,0
59781,-79.9999999999999,4,2,1,60,0,0
60311,-79.9999999999999,4,2,2,60,0,0
60487,-79.9999999999999,4,2,1,60,0,0
60664,-79.9999999999999,4,2,1,60,0,0
61017,-79.9999999999999,4,2,2,60,0,0
61193,-79.9999999999999,4,2,1,60,0,0
61722,-79.9999999999999,4,2,2,60,0,0
61899,-79.9999999999999,4,2,1,60,0,0
62428,-79.9999999999999,4,2,2,60,0,0
62605,-79.9999999999999,4,2,1,60,0,0
63134,-79.9999999999999,4,2,2,60,0,0
63487,-79.9999999999999,4,2,1,60,0,0
63840,-79.9999999999999,4,2,2,60,0,0
64017,-79.9999999999999,4,2,1,60,0,0
64546,-79.9999999999999,4,2,2,60,0,0
64899,-79.9999999999999,4,2,1,60,0,0
65252,-79.9999999999999,4,2,2,60,0,0
65605,-79.9999999999999,4,2,1,60,0,0
65958,-79.9999999999999,4,2,2,60,0,0
66134,-79.9999999999999,4,2,1,60,0,0
66664,-79.9999999999999,4,2,2,60,0,0
66840,-79.9999999999999,4,2,1,60,0,0
69134,-100,4,2,1,60,0,0
71605,-100,4,2,2,60,0,0
71958,-100,4,2,1,60,0,0
74075,-100,4,2,3,60,0,0
74781,-100,4,2,4,45,0,0
75134,-100,4,2,1,45,0,0
77428,-100,4,2,3,45,0,0
77605,-100,4,2,4,45,0,0
77958,-100,4,2,1,45,0,0
80252,-100,4,2,3,45,0,0
80428,-100,4,2,4,45,0,0
80781,-100,4,2,1,45,0,0
83075,-100,4,2,3,45,0,0
83252,-100,4,2,4,45,0,0
83605,-100,4,2,1,45,0,0
86075,-100,4,2,4,45,0,0
86428,-100,4,2,1,45,0,0
87487,-100,4,2,1,45,0,0
88722,-100,4,2,3,45,0,0
88899,-100,4,2,4,45,0,0
89252,-100,4,2,1,45,0,0
90664,-100,4,2,2,45,0,0
91017,-100,4,2,1,45,0,0
91546,-100,4,2,3,45,0,0
91722,-100,4,2,1,45,0,0
95605,-100,4,2,2,45,0,0
96664,-100,4,2,5,45,0,0
97369,-79.9999999999999,4,2,1,60,0,0
97722,-79.9999999999999,4,2,2,60,0,0
98075,-79.9999999999999,4,2,1,60,0,0
98428,-79.9999999999999,4,2,2,60,0,0
98605,-79.9999999999999,4,2,1,60,0,0
99134,-79.9999999999999,4,2,2,60,0,0
99311,-79.9999999999999,4,2,1,60,0,0
99840,-79.9999999999999,4,2,2,60,0,0
100193,-79.9999999999999,4,2,1,60,0,0
100546,-79.9999999999999,4,2,2,60,0,0
100722,-79.9999999999999,4,2,1,60,0,0
101252,-79.9999999999999,4,2,2,60,0,0
101428,-79.9999999999999,4,2,1,60,0,0
101958,-79.9999999999999,4,2,2,60,0,0
102134,-79.9999999999999,4,2,1,60,0,0
102664,-79.9999999999999,4,2,2,60,0,0
103017,-79.9999999999999,4,2,1,60,0,0
103369,-79.9999999999999,4,2,2,60,0,0
103546,-79.9999999999999,4,2,1,60,0,0
104075,-79.9999999999999,4,2,2,60,0,0
104252,-79.9999999999999,4,2,1,60,0,0
104781,-79.9999999999999,4,2,2,60,0,0
104958,-79.9999999999999,4,2,1,60,0,0
105487,-79.9999999999999,4,2,2,60,0,0
105664,-79.9999999999999,4,2,1,60,0,0
106193,-79.9999999999999,4,2,2,60,0,0
106546,-79.9999999999999,4,2,1,60,0,0
106899,-79.9999999999999,4,2,2,60,0,0
107075,-79.9999999999999,4,2,1,60,0,0
107605,-79.9999999999999,4,2,2,60,0,0
108664,-79.9999999999999,4,2,1,60,0,0
109017,-79.9999999999999,4,2,2,60,0,0
109369,-79.9999999999999,4,2,1,60,0,0
109722,-79.9999999999999,4,2,2,60,0,0
109899,-79.9999999999999,4,2,1,60,0,0
110428,-79.9999999999999,4,2,2,60,0,0
110605,-79.9999999999999,4,2,1,60,0,0
111134,-79.9999999999999,4,2,2,60,0,0
111311,-79.9999999999999,4,2,1,60,0,0
111487,-79.9999999999999,4,2,1,60,0,0
111840,-79.9999999999999,4,2,2,60,0,0
112017,-79.9999999999999,4,2,1,60,0,0
112546,-79.9999999999999,4,2,2,60,0,0
112722,-79.9999999999999,4,2,1,60,0,0
113252,-79.9999999999999,4,2,2,60,0,0
113428,-79.9999999999999,4,2,1,60,0,0
113958,-79.9999999999999,4,2,2,60,0,0
114134,-79.9999999999999,4,2,1,60,0,0
114664,-79.9999999999999,4,2,2,60,0,0
114840,-79.9999999999999,4,2,1,60,0,0
115369,-79.9999999999999,4,2,2,60,0,0
115722,-79.9999999999999,4,2,1,60,0,0
116075,-79.9999999999999,4,2,2,60,0,0
116428,-79.9999999999999,4,2,1,60,0,0
116781,-79.9999999999999,4,2,2,60,0,0
116958,-79.9999999999999,4,2,1,60,0,0
117487,-79.9999999999999,4,2,2,60,0,0
117664,-79.9999999999999,4,2,1,60,0,0
119781,-142.857142857143,4,2,1,60,0,0
120311,-142.857142857143,4,2,1,45,0,0
128252,-142.857142857143,4,2,2,45,0,0
128428,-142.857142857143,4,2,1,45,0,0
130899,-142.857142857143,4,2,4,45,0,0
130987,-142.857142857143,4,2,3,45,0,0
131252,-142.857142857143,4,2,1,45,0,0
136546,-142.857142857143,4,2,3,45,0,0
136722,-142.857142857143,4,2,1,45,0,0
139369,-142.857142857143,4,2,3,45,0,0
139546,-142.857142857143,4,2,1,45,0,0
141664,-250,4,2,1,45,0,0
141752,-250,4,2,1,45,0,0
143869,-250,4,2,1,45,0,0
143958,-250,4,2,1,5,0,0
144575,-250,4,2,1,45,0,0
144664,-250,4,2,1,30,0,0
155605,-133.333333333333,4,2,1,30,0,0
155958,-133.333333333333,4,2,1,60,0,0
156664,-79.9999999999999,4,2,1,60,0,0
157017,-79.9999999999999,4,2,2,60,0,0
157369,-79.9999999999999,4,2,1,60,0,0
157722,-79.9999999999999,4,2,2,60,0,0
157899,-79.9999999999999,4,2,1,60,0,0
158428,-79.9999999999999,4,2,2,60,0,0
158605,-79.9999999999999,4,2,1,60,0,0
159134,-79.9999999999999,4,2,2,60,0,0
159311,-79.9999999999999,4,2,1,60,0,0
159487,-79.9999999999999,4,2,1,60,0,0
159840,-79.9999999999999,4,2,2,60,0,0
160017,-79.9999999999999,4,2,1,60,0,0
160546,-79.9999999999999,4,2,2,60,0,0
160722,-79.9999999999999,4,2,1,60,0,0
161252,-79.9999999999999,4,2,2,60,0,0
161428,-79.9999999999999,4,2,1,60,0,0
161958,-79.9999999999999,4,2,2,60,0,0
162311,-79.9999999999999,4,2,1,60,0,0
162664,-79.9999999999999,4,2,2,60,0,0
162840,-79.9999999999999,4,2,1,60,0,0
163369,-79.9999999999999,4,2,2,60,0,0
163546,-79.9999999999999,4,2,1,60,0,0
163722,-79.9999999999999,4,2,1,60,0,0
164075,-79.9999999999999,4,2,2,60,0,0
164428,-79.9999999999999,4,2,1,60,0,0
164781,-79.9999999999999,4,2,2,60,0,0
164958,-79.9999999999999,4,2,1,60,0,0
165487,-79.9999999999999,4,2,2,60,0,0
165664,-79.9999999999999,4,2,1,60,0,0
166193,-79.9999999999999,4,2,2,60,0,0
166546,-79.9999999999999,4,2,1,60,0,0
166899,-79.9999999999999,4,2,2,60,0,0
167781,-79.9999999999999,4,2,1,60,0,0
168311,-79.9999999999999,4,2,2,60,0,0
168487,-79.9999999999999,4,2,1,60,0,0
169017,-79.9999999999999,4,2,2,60,0,0
169369,-79.9999999999999,4,2,1,60,0,0
169722,-79.9999999999999,4,2,2,60,0,0
170075,-79.9999999999999,4,2,1,60,0,0
170428,-79.9999999999999,4,2,2,60,0,0
170605,-79.9999999999999,4,2,1,60,0,0
171134,-79.9999999999999,4,2,2,60,0,0
171311,-79.9999999999999,4,2,1,60,0,0
171840,-79.9999999999999,4,2,2,60,0,0
172017,-79.9999999999999,4,2,1,60,0,0
173958,-79.9999999999999,4,2,2,60,0,0
174134,-79.9999999999999,4,2,1,60,0,0
174664,-79.9999999999999,4,2,2,60,0,0
174840,-79.9999999999999,4,2,1,60,0,0
175369,-79.9999999999999,4,2,2,60,0,0
175546,-79.9999999999999,4,2,1,60,0,0
176075,-79.9999999999999,4,2,2,60,0,0
176252,-79.9999999999999,4,2,1,60,0,0
176781,-79.9999999999999,4,2,2,60,0,0
176958,-79.9999999999999,4,2,1,60,0,0
177487,-79.9999999999999,4,2,2,60,0,0
177664,-79.9999999999999,4,2,1,60,0,0
178193,-79.9999999999999,4,2,2,60,0,0
178369,-79.9999999999999,4,2,1,60,0,0
178899,-79.9999999999999,4,2,2,60,0,0
179075,-79.9999999999999,4,2,1,60,0,0
179605,-79.9999999999999,4,2,2,60,0,0
179958,-79.9999999999999,4,2,1,60,0,0
180311,-79.9999999999999,4,2,2,60,0,0
180487,-79.9999999999999,4,2,1,60,0,0
181017,-79.9999999999999,4,2,2,60,0,0
181193,-79.9999999999999,4,2,1,60,0,0
181722,-79.9999999999999,4,2,2,60,0,0
181899,-79.9999999999999,4,2,1,60,0,0
182428,-79.9999999999999,4,2,2,60,0,0
182781,-79.9999999999999,4,2,1,60,0,0
183134,-79.9999999999999,4,2,2,60,0,0
183311,-79.9999999999999,4,2,1,60,0,0
183840,-79.9999999999999,4,2,2,60,0,0
184017,-79.9999999999999,4,2,1,60,0,0
184193,-79.9999999999999,4,2,3,60,0,0
184369,-79.9999999999999,4,2,4,60,0,0
184458,-79.9999999999999,4,2,5,60,0,0
184899,-79.9999999999999,4,2,4,60,0,0
185252,-79.9999999999999,4,2,2,60,0,0
185605,-79.9999999999999,4,2,1,60,0,0
185958,-79.9999999999999,4,2,2,60,0,0
186134,-79.9999999999999,4,2,1,60,0,0
186664,-79.9999999999999,4,2,2,60,0,0
186840,-79.9999999999999,4,2,1,60,0,0
187369,-79.9999999999999,4,2,2,60,0,0
187722,-79.9999999999999,4,2,1,60,0,0
188075,-79.9999999999999,4,2,2,60,0,0
188428,-79.9999999999999,4,2,1,60,0,0
188781,-79.9999999999999,4,2,2,60,0,0
188958,-79.9999999999999,4,2,1,60,0,0
189487,-79.9999999999999,4,2,2,60,0,0
189664,-79.9999999999999,4,2,1,60,0,0
190193,-79.9999999999999,4,2,6,60,0,0
190281,-79.9999999999999,4,2,3,60,0,0
190546,-79.9999999999999,4,2,4,60,0,0
190899,-79.9999999999999,4,2,2,60,0,0
191252,-79.9999999999999,4,2,1,60,0,0
191605,-79.9999999999999,4,2,2,60,0,0
191781,-79.9999999999999,4,2,1,60,0,0
192311,-79.9999999999999,4,2,2,60,0,0
192487,-79.9999999999999,4,2,1,60,0,0
193017,-79.9999999999999,4,2,2,60,0,0
193193,-79.9999999999999,4,2,1,60,0,0
193722,-79.9999999999999,4,2,2,60,0,0
194075,-79.9999999999999,4,2,1,60,0,0
194428,-79.9999999999999,4,2,2,60,0,0
194605,-79.9999999999999,4,2,1,60,0,0
196899,-79.9999999999999,4,2,2,60,0,0

[Colours]
Combo1 : 253,206,244
Combo2 : 248,90,137

[HitObjects]
425,359,1370,6,0,B|497:329|483:207|399:187|399:187|315:168|277:71|330:16|330:16|339:55|313:97,1,525,2|0,2:2|0:0,0:0:0:0:
224,68,4193,6,0,B|114:116|4:116|4:116|115:142|204:215|204:215|156:217|116:196,1,525,2|0,2:2|0:0,0:0:0:0:
248,282,7017,2,0,B|330:232|454:254|516:332|516:332|447:182|412:292|374:174|384:142,1,525,2|0,2:2|0:0,0:0:0:0:
429,61,9840,2,0,B|451:73|466:69|466:69|420:4|282:-1|229:86,1,300,2|2,2:2|2:2,0:0:0:0:
202,160,11605,1,2,2:2:0:0:
152,216,11958,1,2,2:2:0:0:
78,230,12311,1,0,0:0:0:0:
17,185,12664,6,0,B|20:81|20:81|27:74|27:74|24:39|32:21,1,150,2|0,2:2|0:0,0:0:0:0:
106,18,13545,1,2,2:2:0:0:
106,18,13722,2,0,L|143:35,1,37.5,2|2,2:2|2:2,0:0:0:0:
208,81,14075,2,0,B|282:78|282:78|292:153|292:153|367:144|367:144,1,225,2|2,2:2|2:2,0:0:0:0:
449,147,15487,6,0,P|457:215|318:260,1,225,2|0,2:2|0:0,0:0:0:0:
332,269,16899,2,0,L|417:282,1,75,2|2,2:2|2:2,0:0:0:0:
476,324,17605,2,0,L|434:385,1,75,2|2,2:2|2:2,0:0:0:0:
352,379,18311,6,0,P|283:348|210:332,1,150,2|0,2:2|0:0,0:0:0:0:
210,332,19193,2,0,P|209:293|195:247,1,75,2|2,2:2|2:2,0:0:0:0:
200,259,19722,2,0,L|211:171,1,75,2|0,2:2|0:0,0:0:0:0:
209,184,20428,2,0,B|237:181|237:181|234:170|234:170|196:178,1,75,2|2,2:2|2:2,0:0:0:0:
199,177,21134,6,0,B|102:195|102:195|98:180|98:180|409:121,1,419.999987182618,2|2,2:2|2:2,0:0:0:0:
474,109,22899,1,2,2:2:0:0:
338,49,23252,1,2,2:2:0:0:
338,49,23428,2,0,L|338:10,2,26.2499991989136,0|0|0,3:3|3:3|3:3,0:0:0:0:
372,355,23958,6,0,L|352:189,1,150,14|10,2:3|2:3,0:0:0:0:
339,127,24664,2,0,L|190:146,1,150,10|10,2:3|2:3,0:0:0:0:
111,157,25369,2,0,L|124:316,1,150,10|10,2:3|2:3,0:0:0:0:
133,384,26075,2,0,L|316:369,1,150,10|8,2:3|2:3,0:0:0:0:
242,253,26781,5,10,2:3:0:0:
242,253,27134,1,10,2:3:0:0:
466,270,27487,1,10,2:3:0:0:
466,270,27840,1,10,2:3:0:0:
475,54,28193,1,10,2:3:0:0:
475,54,28546,1,10,2:3:0:0:
251,37,28899,2,0,L|174:8,2,75,10|0|8,2:3|0:0|2:3,0:0:0:0:
356,60,29428,1,0,0:0:0:0:
356,60,29605,6,0,P|386:124|409:228,1,150,10|10,2:3|2:3,0:0:0:0:
362,270,30311,2,0,P|308:217|241:185,1,150,10|10,2:3|2:3,0:0:0:0:
164,171,31017,2,0,P|132:103|121:30,1,150,10|10,2:3|2:3,0:0:0:0:
45,49,31722,2,0,P|49:113|38:198,1,150,10|8,2:3|2:3,0:0:0:0:
33,278,32252,1,0,0:0:0:0:
33,278,32428,5,10,2:3:0:0:
229,298,32781,1,10,2:3:0:0:
152,292,33134,1,10,2:3:0:0:
416,316,33487,1,10,2:3:0:0:
339,310,33840,6,0,L|279:377,1,75,10|0,2:3|0:0,0:0:0:0:
364,214,34193,2,0,L|352:174,1,37.5,10|0,3:3|0:0,0:0:0:0:
434,256,34369,1,0,3:3:0:0:
269,231,34546,1,10,3:3:0:0:
250,233,34634,1,0,3:3:0:0:
231,235,34722,1,0,3:3:0:0:
339,97,34899,1,10,3:3:0:0:
364,214,35075,1,0,0:0:0:0:
339,97,35252,6,0,P|325:44|218:24,1,150,14|8,2:3|2:3,0:0:0:0:
112,90,35781,1,0,3:3:0:0:
94,84,35869,1,0,3:3:0:0:
75,79,35958,1,8,2:3:0:0:
178,156,36134,1,2,3:2:0:0:
256,115,36311,1,10,3:2:0:0:
100,197,36487,1,2,2:2:0:0:
256,115,36664,6,0,L|272:198,1,75,10|0,2:3|0:0,0:0:0:0:
100,197,37017,2,0,L|108:283,1,75,10|0,2:3|3:3,0:0:0:0:
152,337,37281,1,0,3:3:0:0:
152,337,37369,2,0,L|237:362,1,75,10|0,2:3|3:3,0:0:0:0:
270,188,37722,2,0,L|349:205,1,75,10|0,3:3|0:0,0:0:0:0:
477,348,38075,6,0,L|316:302,1,150,10|8,2:3|2:3,0:0:0:0:
227,273,38605,1,0,3:3:0:0:
199,278,38693,1,0,3:3:0:0:
183,143,38869,1,0,3:3:0:0:
159,150,38958,1,0,3:3:0:0:
247,17,39134,2,0,L|116:23,1,112.5,8|0,3:3|0:0,0:0:0:0:
74,26,39487,6,0,P|43:55|85:78,1,75,10|0,2:3|0:0,0:0:0:0:
95,187,39840,2,0,P|105:220|139:214,1,75,10|0,2:3|3:3,0:0:0:0:
265,226,40193,2,0,P|301:231|308:190,1,75,10|0,2:3|3:3,0:0:0:0:
351,73,40546,2,0,P|369:38|316:35,1,112.5,10|0,2:3|0:0,0:0:0:0:
351,73,40899,6,0,L|387:155,2,75,14|0|8,2:3|0:0|2:3,0:0:0:0:
230,57,41428,1,0,3:3:0:0:
456,18,41605,1,8,2:3:0:0:
469,25,41693,1,0,3:3:0:0:
482,32,41781,1,2,3:2:0:0:
470,119,41958,1,10,3:3:0:0:
260,152,42134,1,2,2:2:0:0:
324,339,42311,6,0,P|278:319|184:378,1,150,10|8,2:3|2:3,0:0:0:0:
104,251,42840,1,0,3:3:0:0:
355,223,43017,2,0,P|417:260|438:261,1,75,10|0,2:3|3:3,0:0:0:0:
232,111,43369,2,0,P|222:76|217:38,1,75,10|0,3:3|0:0,0:0:0:0:
231,251,43722,6,0,L|214:353,2,75,10|0|8,2:3|0:0|2:3,0:0:0:0:
350,146,44252,1,0,0:0:0:0:
128,143,44428,2,0,L|48:170,1,75,8|0,2:3|0:0,0:0:0:0:
238,41,44781,2,0,B|208:-3|208:-3|228:81,1,112.5,8|0,2:3|0:0,0:0:0:0:
254,130,45134,6,0,L|224:183,1,37.5,8|0,3:3|3:3,0:0:0:0:
151,204,45311,1,0,3:3:0:0:
156,217,45399,1,0,3:3:0:0:
164,232,45487,2,0,L|106:250,1,37.5,8|0,3:3|3:3,0:0:0:0:
44,222,45664,1,0,3:3:0:0:
38,239,45752,1,0,3:3:0:0:
34,254,45840,2,0,L|-3:242,1,37.5,10|0,3:3|3:3,0:0:0:0:
42,351,46017,1,0,3:3:0:0:
71,348,46105,1,0,3:3:0:0:
100,345,46193,1,8,3:3:0:0:
129,342,46281,1,0,3:3:0:0:
158,336,46369,2,0,L|209:364,1,37.5,0|0,3:3|3:3,0:0:0:0:
267,274,46546,6,0,L|425:219,1,140.625,14|0,3:3|0:0,0:0:0:0:
399,227,46899,2,0,P|402:180|427:141,1,93.75,10|0,2:3|3:3,0:0:0:0:
493,92,47164,1,0,3:3:0:0:
493,92,47252,1,10,2:3:0:0:
483,280,47428,1,0,3:3:0:0:
279,166,47605,1,10,3:3:0:0:
324,70,47781,2,0,L|364:46,1,46.875,2|0,2:2|0:0,0:0:0:0:
364,46,47958,6,0,L|171:66,1,187.5,8|10,2:3|2:3,0:0:0:0:
27,54,48487,1,2,3:2:0:0:
17,28,48575,1,0,3:3:0:0:
126,142,48752,1,0,3:3:0:0:
134,168,48840,1,0,3:3:0:0:
66,299,49017,2,0,B|45:220|45:220|57:214|57:214|81:260,1,140.625,10|0,3:3|0:0,0:0:0:0:
78,255,49369,6,0,L|108:348,1,93.75,10|2,2:3|2:2,0:0:0:0:
176,94,49722,1,10,2:3:0:0:
219,337,49899,1,2,3:2:0:0:
343,162,50075,1,10,2:3:0:0:
314,258,50252,1,2,3:2:0:0:
417,327,50428,2,0,L|431:234,1,93.75,10|2,3:3|2:2,0:0:0:0:
455,157,50693,1,2,2:2:0:0:
454,157,50781,6,0,P|450:67|365:33,1,187.5,8|10,2:3|2:3,0:0:0:0:
245,125,51311,1,2,2:2:0:0:
134,30,51487,1,10,3:3:0:0:
111,34,51575,1,0,3:3:0:0:
87,38,51664,1,0,3:3:0:0:
218,210,51840,1,8,3:3:0:0:
171,198,51928,1,0,3:3:0:0:
120,184,52017,1,0,3:3:0:0:
68,172,52105,1,0,3:3:0:0:
18,161,52193,6,0,L|4:259,1,93.75,14|2,3:3|2:2,0:0:0:0:
138,94,52546,1,10,2:3:0:0:
219,119,52722,1,2,3:2:0:0:
160,288,52899,1,10,2:3:0:0:
242,312,53075,1,2,3:2:0:0:
376,363,53252,1,10,3:3:0:0:
452,337,53428,6,0,B|467:255|467:255|491:199|499:156,1,187.5,2|2,2:2|2:2,0:0:0:0:
424,22,53958,1,10,2:3:0:0:
354,176,54134,1,2,3:2:0:0:
290,115,54311,2,0,L|258:24,1,93.75,10|0,2:3|3:3,0:0:0:0:
200,206,54664,2,0,L|183:306,1,93.75,10|2,3:3|2:2,0:0:0:0:
135,361,54928,1,2,2:2:0:0:
135,360,55017,6,0,P|48:338|25:252,1,187.5,10|10,2:3|2:3,0:0:0:0:
130,103,55546,2,0,L|76:124,1,46.875,0|0,3:3|3:3,0:0:0:0:
86,119,55722,2,0,P|69:75|24:24,1,93.75,10|2,3:3|2:2,0:0:0:0:
220,214,56075,2,0,B|149:214|149:214|232:251,1,140.625,12|0,3:3|0:0,0:0:0:0:
285,289,56428,6,0,L|335:271,3,46.875,8|0|0|0,3:3|3:3|3:3|3:3,0:0:0:0:
421,255,56781,2,0,L|463:218,3,46.875,8|0|0|0,3:3|3:3|3:3|3:3,0:0:0:0:
224,357,57134,2,0,L|158:372,3,46.875,10|0|0|0,3:3|3:3|3:3|3:3,0:0:0:0:
357,343,57487,2,0,L|413:365,1,46.875,8|0,3:3|3:3,0:0:0:0:
269,167,57664,2,0,L|280:212,1,46.875,0|0,3:3|3:3,0:0:0:0:
388,17,57840,6,0,L|233:84,1,140.625,14|0,3:3|0:0,0:0:0:0:
258,72,58193,2,0,P|206:34|166:32,1,93.75,10|0,2:3|3:3,0:0:0:0:
96,34,58458,1,0,3:3:0:0:
96,34,58546,1,10,2:3:0:0:
11,147,58722,1,0,3:3:0:0:
210,223,58899,1,10,3:3:0:0:
92,310,59075,2,0,L|55:339,1,46.875,2|2,2:2|2:2,0:0:0:0:
96,314,59252,6,0,L|113:123,1,187.5,8|10,2:3|2:3,0:0:0:0:
201,78,59781,1,2,3:2:0:0:
194,37,59869,1,0,3:3:0:0:
297,70,60046,1,0,3:3:0:0:
302,33,60134,1,0,3:3:0:0:
405,159,60311,2,0,L|414:66,1,93.75,10|2,3:3|2:2,0:0:0:0:
500,33,60575,1,2,2:2:0:0:
500,33,60664,6,0,L|504:126,1,93.75,10|2,2:3|2:2,0:0:0:0:
512,320,61017,1,10,2:3:0:0:
433,360,61193,1,2,3:2:0:0:
343,135,61369,1,10,2:3:0:0:
311,313,61546,1,2,3:2:0:0:
258,384,61722,1,10,3:3:0:0:
191,204,61899,6,0,B|151:91|151:91|129:56|126:9,1,187.5,2|2,2:2|2:2,0:0:0:0:
91,214,62428,1,10,2:3:0:0:
235,85,62605,1,2,2:2:0:0:
45,110,62781,2,0,L|-4:91,2,46.875,10|0|0,3:3|3:3|3:3,0:0:0:0:
235,85,63134,2,0,L|278:58,1,46.875,10|0,3:3|3:3,0:0:0:0:
364,24,63311,1,0,3:3:0:0:
395,33,63399,1,0,3:3:0:0:
426,41,63487,6,0,P|432:135|460:228,1,187.5,14|8,3:3|2:3,0:0:0:0:
378,353,64017,1,2,3:2:0:0:
378,353,64193,2,0,P|357:259|300:162,1,187.5,10|8,2:3|3:3,0:0:0:0:
219,194,64722,1,2,0:3:0:0:
153,31,64899,6,0,P|100:19|50:18,1,93.75,8|0,2:3|0:0,0:0:0:0:
268,88,65252,1,8,2:3:0:0:
87,130,65428,1,0,3:3:0:0:
50,147,65517,1,0,3:3:0:0:
108,274,65693,1,0,3:3:0:0:
62,265,65781,1,0,3:3:0:0:
232,342,65958,1,10,3:3:0:0:
258,225,66134,1,2,2:2:0:0:
283,101,66311,6,0,P|322:53|448:69,1,187.5,10|8,2:3|2:3,0:0:0:0:
452,179,66840,1,2,2:2:0:0:
465,311,67017,1,10,2:3:0:0:
373,357,67193,1,0,3:3:0:0:
373,357,67281,1,0,3:3:0:0:
373,357,67369,1,8,3:2:0:0:
356,234,67546,5,10,2:3:0:0:
94,205,67899,1,10,2:3:0:0:
356,234,68252,1,10,2:3:0:0:
94,205,68605,1,10,2:3:0:0:
243,202,69134,6,0,L|275:107,2,75,12|0|8,2:3|0:0|2:3,0:0:0:0:
193,284,69664,2,0,L|205:370,1,75,0|8,0:0|2:3,0:0:0:0:
285,280,70017,1,0,0:0:0:0:
156,190,70193,2,0,L|141:102,1,75,8|0,2:3|0:0,0:0:0:0:
236,5,70546,2,0,L|210:100,2,75,8|0|8,2:3|0:0|2:3,0:0:0:0:
124,29,71075,1,0,0:0:0:0:
302,90,71252,2,0,L|382:90,1,75,8|0,2:3|0:0,0:0:0:0:
195,170,71605,2,0,B|174:171|150:166|150:166|85:185,1,112.5,8|0,2:3|0:0,0:0:0:0:
12,196,71958,5,8,2:2:0:0:
16,225,72046,1,0,0:0:0:0:
20,254,72134,1,0,3:3:0:0:
23,283,72222,1,0,3:3:0:0:
28,312,72311,2,0,L|79:333,1,37.5,0|0,3:3|3:3,0:0:0:0:
155,353,72487,1,12,3:3:0:0:
159,323,72575,1,0,3:3:0:0:
164,293,72664,1,0,3:3:0:0:
168,263,72752,1,0,3:3:0:0:
173,233,72840,2,0,L|148:194,1,37.5,0|0,3:3|3:3,0:0:0:0:
87,135,73017,1,12,3:3:0:0:
99,107,73105,1,0,3:3:0:0:
111,80,73193,2,0,L|177:72,3,37.5,0|0|0|0,3:3|3:3|3:3|3:3,0:0:0:0:
232,24,73546,5,12,3:3:0:0:
236,53,73634,1,0,3:3:0:0:
240,82,73722,1,0,3:3:0:0:
244,111,73811,1,0,3:3:0:0:
247,141,73899,2,0,L|263:190,1,37.5,0|0,3:3|3:3,0:0:0:0:
284,255,74075,1,10,2:3:0:0:
284,255,74252,1,2,2:3:0:0:
380,196,74428,2,0,L|394:142,1,37.5,2|2,2:3|2:3,0:0:0:0:
364,84,74605,1,10,2:3:0:0:
363,301,74781,6,0,L|493:361,1,112.5,14|0,2:3|0:0,0:0:0:0:
465,348,75134,2,0,L|508:257,1,75,10|0,3:2|3:3,0:0:0:0:
277,323,75487,2,0,L|150:348,1,112.5,10|0,3:3|0:0,0:0:0:0:
166,344,75840,2,0,L|145:264,1,75,10|0,3:2|0:0,0:0:0:0:
282,116,76193,2,0,B|333:143|333:143|277:173,1,112.5,10|0,3:3|0:0,0:0:0:0:
284,168,76546,2,0,L|191:158,1,75,10|0,3:2|3:3,0:0:0:0:
127,156,76811,1,0,3:3:0:0:
127,156,76899,2,0,L|35:158,1,75,10|8,3:3|3:3,0:0:0:0:
32,57,77252,1,8,3:2:0:0:
117,231,77428,1,2,2:3:0:0:
144,35,77605,6,0,P|192:24|279:28,1,112.5,10|0,2:3|0:0,0:0:0:0:
255,23,77958,2,0,P|283:61|325:65,1,75,10|0,3:2|3:3,0:0:0:0:
251,251,78311,2,0,P|194:242|132:228,1,112.5,10|0,3:3|0:0,0:0:0:0:
140,230,78664,2,0,P|109:195|60:180,1,75,10|0,3:2|0:0,0:0:0:0:
213,128,79017,2,0,L|384:199,1,150,10|10,3:3|3:2,0:0:0:0:
443,135,79546,1,0,3:3:0:0:
449,113,79634,1,0,3:3:0:0:
455,91,79722,1,10,3:3:0:0:
460,230,79899,1,8,3:3:0:0:
358,96,80075,1,8,3:2:0:0:
347,14,80252,1,2,2:3:0:0:
358,96,80428,6,0,B|329:191|329:191|323:256,1,150,10|10,2:3|3:2,0:0:0:0:
176,287,80958,2,0,L|237:303,1,37.5,0|0,3:3|3:3,0:0:0:0:
213,297,81134,2,0,B|198:190|198:190|163:123,1,150,10|10,3:3|3:2,0:0:0:0:
188,39,81664,1,0,0:0:0:0:
70,43,81840,2,0,L|50:135,1,75,10|0,3:3|0:0,0:0:0:0:
25,192,82193,2,0,L|38:265,1,75,10|0,3:2|3:3,0:0:0:0:
55,349,82458,1,0,3:3:0:0:
55,349,82546,2,0,L|229:375,1,150,10|8,3:3|3:2,0:0:0:0:
228,262,83075,1,2,2:3:0:0:
396,296,83252,6,0,P|460:281|476:190,1,150,10|10,2:3|3:2,0:0:0:0:
366,110,83781,2,0,L|409:121,1,37.5,0|0,3:3|3:3,0:0:0:0:
402,119,83958,2,0,P|341:137|320:223,1,150,10|10,3:3|3:2,0:0:0:0:
407,202,84487,1,0,0:0:0:0:
427,18,84664,2,0,P|376:18|333:30,1,75,10|0,3:3|0:0,0:0:0:0:
243,158,85017,2,0,L|213:83,1,75,10|0,3:2|3:3,0:0:0:0:
186,13,85281,1,0,3:3:0:0:
186,13,85369,1,10,3:3:0:0:
322,81,85546,1,8,3:3:0:0:
131,160,85722,2,0,B|98:147|98:147|76:180,1,75,10|0,3:2|0:0,0:0:0:0:
206,301,86075,6,0,B|207:257|216:210|243:255|243:149,1,150,14|8,2:3|3:2,0:0:0:0:
215,76,86605,1,0,3:3:0:0:
157,22,86781,1,8,3:3:0:0:
211,81,86958,1,10,3:3:0:0:
314,81,87134,1,10,3:2:0:0:
375,136,87311,1,2,2:2:0:0:
382,232,87487,6,0,B|440:297,1,75,10|0,3:3|0:0,0:0:0:0:
310,381,87840,2,0,L|256:323,1,75,10|0,3:2|3:3,0:0:0:0:
196,259,88105,1,0,3:3:0:0:
196,259,88193,2,0,L|181:160,1,75,10|8,3:3|3:3,0:0:0:0:
128,109,88546,1,10,3:2:0:0:
300,226,88722,1,2,2:3:0:0:
152,348,88899,6,0,B|129:354|99:375|99:375|-21:387,1,150,10|8,2:3|3:2,0:0:0:0:
56,261,89428,2,0,L|107:269,2,37.5,0|0|8,3:3|3:3|3:3,0:0:0:0:
13,143,89781,1,8,3:3:0:0:
82,0,89958,1,8,3:2:0:0:
46,70,90134,1,0,0:0:0:0:
169,161,90311,6,0,L|292:144,1,112.5,10|0,3:3|0:0,0:0:0:0:
280,145,90664,2,0,P|276:107|293:72,1,75,10|0,2:3|0:0,0:0:0:0:
421,76,91017,2,0,P|431:130|412:182,1,112.5,10|0,2:3|0:0,0:0:0:0:
411,181,91369,2,0,L|492:199,1,75,10|2,2:2|2:3,0:0:0:0:
284,359,91722,6,0,B|304:332|318:322|318:322|331:223,1,150,10|8,2:3|3:2,0:0:0:0:
358,123,92252,1,0,3:3:0:0:
358,123,92340,1,0,3:3:0:0:
358,123,92428,1,8,3:3:0:0:
368,17,92605,1,10,3:3:0:0:
232,182,92782,1,10,3:2:0:0:
440,226,92958,1,2,2:2:0:0:
358,123,93134,6,0,L|184:81,1,150,10|8,3:3|3:2,0:0:0:0:
44,24,93664,1,0,3:3:0:0:
55,33,93752,1,0,3:3:0:0:
66,42,93840,1,10,3:3:0:0:
123,123,94017,1,8,3:3:0:0:
6,220,94193,1,10,3:2:0:0:
188,210,94369,1,0,0:0:0:0:
78,376,94546,6,0,L|103:291,2,75,14|0|8,2:3|0:0|2:2,0:0:0:0:
46,149,95075,2,0,L|109:161,1,37.5,0|0,3:3|3:3,0:0:0:0:
82,156,95252,2,0,P|66:122|56:85,1,75,8|0,3:3|0:0,0:0:0:0:
29,245,95605,1,8,2:3:0:0:
209,167,95781,1,0,0:0:0:0:
392,107,95958,5,8,3:3:0:0:
392,107,96046,1,0,3:3:0:0:
392,107,96134,1,0,3:3:0:0:
392,107,96222,1,0,3:3:0:0:
392,107,96311,2,0,L|435:63,3,37.5,8|0|0|0,3:3|3:3|3:3|3:3,0:0:0:0:
350,214,96664,2,0,L|366:165,3,37.5,10|2|2|2,3:3|3:3|3:3|3:3,0:0:0:0:
398,320,97017,2,0,L|390:283,1,37.5,10|2,3:3|3:3,0:0:0:0:
288,161,97193,2,0,L|276:116,1,37.5,2|2,3:3|3:3,0:0:0:0:
478,339,97369,6,0,P|408:346|350:384,1,140.625,14|0,2:3|0:0,0:0:0:0:
350,384,97722,2,0,P|309:355|267:345,1,93.75,10|0,2:3|3:3,0:0:0:0:
183,355,97987,1,0,3:3:0:0:
183,355,98075,1,10,2:3:0:0:
32,251,98252,1,0,3:3:0:0:
155,229,98428,1,10,3:3:0:0:
283,206,98605,2,0,L|341:212,1,46.875,2|0,2:2|0:0,0:0:0:0:
329,210,98781,6,0,P|421:205|445:98,1,187.5,8|10,2:3|2:3,0:0:0:0:
330,21,99311,1,2,3:2:0:0:
291,22,99399,1,0,3:3:0:0:
206,90,99575,1,0,3:3:0:0:
184,122,99664,1,0,3:3:0:0:
102,242,99840,2,0,P|89:168|52:108,1,140.625,10|0,3:3|0:0,0:0:0:0:
55,112,100193,6,0,P|28:152|65:178,1,93.75,10|2,2:3|2:2,0:0:0:0:
187,255,100546,1,10,2:3:0:0:
142,19,100722,1,2,3:2:0:0:
279,180,100899,1,10,2:3:0:0:
159,109,101075,1,2,3:2:0:0:
389,140,101252,2,0,L|366:231,1,93.75,10|2,3:3|2:2,0:0:0:0:
350,321,101517,1,0,0:0:0:0:
350,321,101605,6,0,P|425:367|495:301,1,187.5,8|10,2:3|2:3,0:0:0:0:
475,204,102134,1,2,2:2:0:0:
292,169,102311,1,10,3:3:0:0:
264,173,102399,1,0,3:3:0:0:
236,177,102487,1,0,3:3:0:0:
120,314,102664,1,8,3:3:0:0:
111,272,102752,1,0,3:3:0:0:
102,230,102840,1,0,3:3:0:0:
93,188,102928,1,0,3:3:0:0:
84,146,103017,6,0,L|106:30,1,93.75,14|2,3:3|2:2,0:0:0:0:
21,247,103369,1,10,2:3:0:0:
222,146,103546,1,2,3:2:0:0:
227,65,103722,1,10,2:3:0:0:
0,146,103899,1,2,3:2:0:0:
134,219,104075,1,10,3:3:0:0:
272,292,104252,6,0,B|414:280|414:280|432:257|459:248,1,187.5,2|2,2:2|2:2,0:0:0:0:
176,344,104781,1,10,2:3:0:0:
176,344,104958,1,2,3:2:0:0:
170,227,105134,2,0,L|65:242,1,93.75,10|0,2:3|3:3,0:0:0:0:
335,162,105487,1,10,3:3:0:0:
207,107,105664,2,0,L|180:69,1,46.875,2|0,2:2|0:0,0:0:0:0:
180,69,105840,6,0,L|-1:22,2,187.5,10|10|10,2:3|2:3|3:3,0:0:0:0:
240,230,106722,1,2,2:2:0:0:
294,125,106899,2,0,B|318:111|332:94|332:94|434:77,1,140.625,12|0,3:3|0:0,0:0:0:0:
470,21,107252,6,0,L|501:-12,3,46.875,8|0|0|0,3:3|3:3|3:3|3:3,0:0:0:0:
416,144,107605,2,0,L|407:97,3,46.875,8|0|0|0,3:3|3:3|3:3|3:3,0:0:0:0:
496,258,107958,2,0,L|456:219,3,46.875,10|0|0|0,3:3|3:3|3:3|3:3,0:0:0:0:
382,325,108311,2,0,L|410:371,1,46.875,8|0,3:3|3:3,0:0:0:0:
263,234,108487,2,0,L|321:260,1,46.875,0|0,3:3|3:3,0:0:0:0:
40,260,108664,6,0,L|196:217,1,140.625,14|0,3:3|0:0,0:0:0:0:
175,222,109017,2,0,P|184:166|210:110,1,93.75,10|0,2:3|3:3,0:0:0:0:
253,70,109281,1,0,3:3:0:0:
253,70,109369,1,10,2:3:0:0:
108,100,109546,1,0,3:3:0:0:
274,199,109722,1,10,3:3:0:0:
134,331,109899,2,0,L|76:365,1,46.875,2|2,2:2|2:2,0:0:0:0:
93,354,110075,6,0,L|57:151,1,187.5,8|10,2:3|2:3,0:0:0:0:
26,33,110605,1,2,3:2:0:0:
63,33,110693,1,0,3:3:0:0:
172,79,110869,1,0,3:3:0:0:
189,111,110958,1,0,3:3:0:0:
203,230,111134,2,0,L|308:202,1,93.75,10|2,3:3|2:2,0:0:0:0:
364,161,111399,1,2,2:2:0:0:
363,161,111487,6,0,P|379:115|420:70,1,93.75,10|2,2:3|2:2,0:0:0:0:
391,251,111840,1,10,2:3:0:0:
296,58,112017,1,2,3:2:0:0:
472,198,112193,1,10,2:3:0:0:
495,77,112369,1,2,3:2:0:0:
508,0,112546,1,10,3:3:0:0:
480,286,112722,6,0,P|388:302|283:360,1,187.5,2|2,2:2|2:2,0:0:0:0:
256,153,113252,2,0,P|238:192|226:264,1,93.75,10|2,2:3|2:2,0:0:0:0:
156,342,113605,1,10,3:3:0:0:
138,336,113693,1,0,3:3:0:0:
120,330,113781,1,0,3:3:0:0:
50,174,113958,2,0,L|0:183,2,46.875,10|0|2,3:3|3:3|3:2,0:0:0:0:
84,101,114222,1,0,3:3:0:0:
84,101,114311,6,0,B|68:9|68:9|164:-4,1,187.5,14|8,3:3|2:3,0:0:0:0:
198,178,114840,1,2,3:2:0:0:
281,190,115017,2,0,B|284:95|284:95|191:90,1,187.5,10|8,2:3|3:3,0:0:0:0:
54,215,115546,1,0,3:3:0:0:
54,215,115634,1,0,3:3:0:0:
54,215,115722,6,0,L|40:314,1,93.75,8|0,3:3|3:3,0:0:0:0:
99,118,116075,1,8,2:3:0:0:
149,277,116252,1,0,3:3:0:0:
152,313,116340,1,0,3:3:0:0:
254,242,116517,1,0,3:3:0:0:
270,271,116605,1,0,3:3:0:0:
275,110,116781,2,0,L|237:11,1,93.75,10|2,3:3|2:2,0:0:0:0:
388,152,117134,6,0,B|405:45|509:21,1,187.5,10|8,2:3|2:3,0:0:0:0:
321,208,117664,1,2,2:2:0:0:
218,173,117840,1,10,2:3:0:0:
425,243,118017,1,0,3:3:0:0:
431,260,118105,1,0,3:3:0:0:
437,277,118193,1,8,3:2:0:0:
377,354,118369,5,10,2:3:0:0:
106,377,118722,1,10,2:3:0:0:
94,248,119075,1,10,2:3:0:0:
365,225,119428,1,10,2:3:0:0:
213,266,119781,6,0,B|162:196|164:207|188:122,1,157.499995193482,14|8,2:3|2:3,0:0:0:0:
313,137,120487,1,8,2:3:0:0:
312,137,120664,2,0,P|330:115|313:88,1,52.4999983978272,8|2,2:2|2:2,0:0:0:0:
187,29,121017,1,10,2:2:0:0:
187,29,121193,2,0,B|128:18|141:18|67:57,2,104.999996795654,14|10|2,2:3|2:3|2:2,0:0:0:0:
303,2,122075,5,8,2:2:0:0:
399,8,122340,1,8,2:2:0:0:
495,14,122605,1,8,2:2:0:0:
444,112,122781,2,0,P|411:134|399:214,1,104.999996795654,14|8,2:3|2:3,0:0:0:0:
253,215,123311,1,8,2:3:0:0:
331,253,123488,2,0,P|365:287|383:357,1,104.999996795654,8|10,2:2|2:2,0:0:0:0:
375,350,123928,1,0,3:3:0:0:
361,357,124017,6,0,P|321:360|261:330,1,104.999996795654,14|2,2:3|3:2,0:0:0:0:
254,324,124458,1,0,3:3:0:0:
240,321,124546,1,10,2:3:0:0:
155,349,124722,1,2,2:2:0:0:
136,213,124899,1,8,2:2:0:0:
153,234,124987,1,0,3:3:0:0:
76,310,125164,1,0,3:3:0:0:
52,300,125252,1,2,3:2:0:0:
34,201,125428,1,8,2:3:0:0:
34,201,125605,6,0,L|28:76,1,104.999996795654,14|8,2:3|2:3,0:0:0:0:
36,18,126134,1,10,2:3:0:0:
174,5,126311,2,0,L|182:115,1,104.999996795654,8|0,2:2|3:3,0:0:0:0:
180,126,126752,1,0,3:3:0:0:
176,142,126840,2,0,L|294:175,1,104.999996795654,14|0,3:3|3:3,0:0:0:0:
292,165,127281,1,0,3:3:0:0:
308,158,127369,2,0,L|347:126,3,26.2499991989136,10|0|0|0,3:3|3:3|3:3|3:3,0:0:0:0:
272,64,127722,5,8,2:2:0:0:
179,101,127987,1,8,2:2:0:0:
85,139,128252,1,12,2:3:0:0:
17,252,128428,6,0,P|88:273|122:305,1,104.999996795654,10|8,2:3|2:3,0:0:0:0:
186,359,128958,1,10,2:3:0:0:
186,359,129134,2,0,P|231:320|291:308,1,104.999996795654,8|0,2:2|3:3,0:0:0:0:
276,295,129575,1,0,0:0:0:0:
280,281,129664,6,0,P|325:274|376:241,1,104.999996795654,14|0,2:3|3:3,0:0:0:0:
374,228,130105,1,0,3:3:0:0:
378,212,130193,1,2,3:2:0:0:
464,148,130369,1,0,3:3:0:0:
301,69,130546,1,2,3:2:0:0:
295,57,130634,1,0,3:3:0:0:
295,45,130722,1,0,3:3:0:0:
296,33,130811,1,0,3:3:0:0:
314,6,130899,1,2,2:3:0:0:
333,43,130987,1,2,2:3:0:0:
331,84,131075,1,2,2:3:0:0:
306,118,131164,1,2,2:3:0:0:
268,135,131252,6,0,L|213:131,1,52.4999983978272,12|0,2:3|0:0,0:0:0:0:
51,53,131605,2,0,L|53:104,1,34.9999989318848,10|2,2:3|2:2,0:0:0:0:
58,172,131840,1,2,2:2:0:0:
58,172,131958,2,0,P|93:176|126:198,1,52.4999983978272,10|2,2:2|2:2,0:0:0:0:
217,226,132311,1,8,2:2:0:0:
65,247,132487,6,0,P|32:271|21:349,1,104.999996795654,14|10,2:3|2:3,0:0:0:0:
86,378,133017,2,0,P|111:383|135:374,1,52.4999983978272,10|0,2:3|0:0,0:0:0:0:
192,306,133369,1,10,2:2:0:0:
208,191,133634,1,10,2:2:0:0:
224,75,133899,1,10,2:2:0:0:
177,19,134075,6,0,L|110:24,1,52.4999983978272,12|0,2:3|0:0,0:0:0:0:
303,37,134428,2,0,L|310:89,1,34.9999989318848,10|2,2:3|2:2,0:0:0:0:
321,148,134664,1,2,2:2:0:0:
321,148,134781,2,0,L|385:140,1,52.4999983978272,10|2,2:2|2:2,0:0:0:0:
438,32,135134,1,8,2:2:0:0:
470,151,135311,2,0,B|465:215|465:215|444:248|436:271,1,104.999996795654,14|10,2:3|2:3,0:0:0:0:
447,332,135840,2,0,L|484:370,1,52.4999983978272,2|0,3:2|0:0,0:0:0:0:
362,249,136193,2,0,L|322:203,1,52.4999983978272,2|0,3:2|0:0,0:0:0:0:
365,334,136546,2,0,L|313:380,1,52.4999983978272,2|2,2:3|2:2,0:0:0:0:
159,362,136899,5,14,2:3:0:0:
159,362,137075,2,0,B|139:336|125:330|125:330|118:251,1,104.999996795654,2|8,2:2|2:3,0:0:0:0:
117,168,137605,2,0,L|128:110,1,52.4999983978272,8|0,2:2|0:0,0:0:0:0:
44,233,137958,1,10,2:2:0:0:
195,192,138134,2,0,P|243:188|308:200,1,104.999996795654,14|8,2:3|2:3,0:0:0:0:
370,153,138664,2,0,P|380:119|393:97,1,52.4999983978272,10|2,2:3|2:2,0:0:0:0:
477,50,139017,1,8,2:2:0:0:
486,151,139281,1,8,2:2:0:0:
495,252,139546,1,8,2:2:0:0:
460,333,139722,6,0,L|359:322,1,78.7499975967408,12|0,2:3|0:0,0:0:0:0:
304,318,140075,1,10,2:3:0:0:
304,318,140193,2,0,L|251:295,1,34.9999989318848,2|2,2:2|2:2,0:0:0:0:
186,286,140428,1,10,2:2:0:0:
186,286,140546,2,0,L|172:236,1,34.9999989318848,2|2,2:2|2:2,0:0:0:0:
125,179,140781,5,2,3:2:0:0:
125,179,140869,1,0,3:3:0:0:
125,179,140958,2,0,P|151:144|157:24,1,157.499995193482,14|2,2:3|2:2,0:0:0:0:
261,11,141664,2,0,B|227:58|249:129|326:146|326:146|413:166|437:252|380:308,1,390,2|0,2:2|0:0,0:0:0:0:
382,305,145369,6,0,L|376:340,7,30,2|0|2|0|2|0|2|2,2:2|0:0|2:2|0:0|2:2|0:0|2:2|2:2,0:0:0:0:
325,251,146781,2,0,L|329:216,7,30,0|0|2|2|2|0|2|0,0:0|0:0|2:2|2:2|2:2|0:0|2:2|0:0,0:0:0:0:
258,310,148193,2,0,L|260:352,7,30,2|2|2|2|2|2|2|2,2:2|2:2|2:2|2:2|2:2|2:2|2:2|2:2,0:0:0:0:
198,236,149605,2,0,L|204:201,3,30,0|2|2|2,0:0|2:2|2:2|2:2,0:0:0:0:
123,299,150311,2,0,L|125:340,1,30,2|0,2:2|0:0,0:0:0:0:
64,197,150664,2,0,L|65:240,1,30
99,108,151017,6,0,P|102:66|143:28,1,90,2|2,2:2|2:2,0:0:0:0:
211,15,151722,2,0,P|247:39|259:82,1,90,2|2,2:2|2:2,0:0:0:0:
227,156,152428,2,0,P|225:194|262:234,1,90,0|2,0:0|2:2,0:0:0:0:
343,252,153134,2,0,P|376:242|408:187,1,90,2|2,2:2|2:2,0:0:0:0:
425,117,153840,2,0,B|400:24|400:24|390:-12|342:-1|341:35|341:35|338:95,1,240,2|8,2:2|2:3,0:0:0:0:
338,89,155605,6,0,P|311:96|286:107,1,56.2500021457673,8|0,2:3|0:0,0:0:0:0:
127,94,155958,1,8,2:3:0:0:
185,191,156134,1,8,3:2:0:0:
188,218,156222,1,0,3:3:0:0:
191,246,156311,1,8,3:3:0:0:
194,273,156399,1,0,3:3:0:0:
198,300,156487,1,0,3:3:0:0:
202,327,156575,1,0,3:3:0:0:
208,353,156664,6,0,B|302:313|302:313|320:296|348:279,1,140.625,14|0,3:3|0:0,0:0:0:0:
332,289,157017,2,0,P|392:310|450:296,1,93.75,10|0,2:3|3:3,0:0:0:0:
487,261,157281,1,0,3:3:0:0:
487,261,157369,1,10,2:3:0:0:
492,153,157546,1,0,3:3:0:0:
496,42,157722,1,10,3:3:0:0:
372,18,157899,2,0,L|378:72,1,46.875,2|2,2:2|2:2,0:0:0:0:
377,64,158075,6,0,P|396:127|284:154,1,187.5,8|10,2:3|2:3,0:0:0:0:
192,116,158605,1,2,3:2:0:0:
183,86,158693,1,0,3:3:0:0:
68,73,158869,1,0,3:3:0:0:
60,104,158958,1,0,3:3:0:0:
74,212,159134,2,0,B|129:228|129:228|150:233|143:257|127:253|127:253|56:234,1,140.625,10|2,3:3|2:2,0:0:0:0:
87,242,159487,6,0,P|36:262|9:308,1,93.75,10|2,2:3|2:2,0:0:0:0:
150,344,159840,1,10,2:3:0:0:
143,158,160017,1,2,3:2:0:0:
140,60,160193,1,10,2:3:0:0:
51,49,160369,1,2,3:2:0:0:
235,74,160546,1,10,3:3:0:0:
130,261,160722,2,0,P|83:250|37:126,1,187.5,2|2,2:2|2:2,0:0:0:0:
238,284,161252,2,0,P|287:319|299:358,1,93.75,10|2,2:3|2:2,0:0:0:0:
173,168,161605,1,10,3:3:0:0:
177,145,161693,1,0,3:3:0:0:
182,122,161781,1,0,3:3:0:0:
283,42,161958,1,10,3:3:0:0:
289,74,162046,1,0,3:3:0:0:
295,106,162134,1,0,3:3:0:0:
301,138,162222,1,0,3:3:0:0:
308,170,162311,6,0,B|360:153|393:131|393:131|436:154|488:167,1,187.5,14|8,3:3|2:3,0:0:0:0:
397,222,162840,1,2,3:2:0:0:
467,358,163017,2,0,B|419:336|389:304|389:304|357:328|291:328,1,187.5,10|8,2:3|3:3,0:0:0:0:
163,340,163546,2,0,L|122:305,1,46.875,2|2,0:2|0:2,0:0:0:0:
127,309,163722,2,0,L|28:324,2,93.75,8|0|8,2:3|0:0|2:3,0:0:0:0:
182,215,164252,1,0,3:3:0:0:
215,216,164340,1,0,3:3:0:0:
102,120,164517,1,0,3:3:0:0:
67,131,164605,1,0,3:3:0:0:
98,241,164781,1,10,3:3:0:0:
210,118,164958,1,2,2:2:0:0:
57,14,165134,6,0,P|38:74|27:219,1,187.5,10|8,2:3|2:3,0:0:0:0:
116,190,165664,1,2,2:2:0:0:
250,55,165840,2,0,P|224:109|194:238,1,187.5,10|8,2:3|2:3,0:0:0:0:
210,355,166369,2,0,P|168:333|201:309,1,93.75,0|8,0:0|2:3,0:0:0:0:
314,235,166722,1,0,0:0:0:0:
491,263,166899,1,8,2:3:0:0:
401,248,167075,1,0,0:0:0:0:
337,356,167252,1,8,3:3:0:0:
315,347,167340,1,0,3:3:0:0:
293,338,167428,1,0,3:3:0:0:
239,209,167605,1,10,3:3:0:0:
249,173,167693,1,0,3:3:0:0:
259,137,167781,1,2,3:2:0:0:
269,101,167869,1,0,3:3:0:0:
279,63,167958,6,0,P|351:9|439:33,1,187.5,14|8,3:3|2:3,0:0:0:0:
436,109,168487,1,2,3:2:0:0:
308,262,168664,2,0,P|340:209|477:202,1,187.5,10|8,2:3|3:3,0:0:0:0:
208,126,169193,2,0,P|241:174|231:218,1,93.75,0|8,0:0|2:3,0:0:0:0:
128,294,169546,1,0,0:0:0:0:
113,209,169722,1,8,2:3:0:0:
221,319,169899,1,0,3:3:0:0:
202,355,169987,1,0,3:3:0:0:
63,349,170164,1,0,3:3:0:0:
47,313,170252,1,0,3:3:0:0:
91,197,170428,2,0,P|117:158|119:112,1,93.75,10|2,3:3|2:2,0:0:0:0:
194,9,170781,6,0,L|224:207,1,187.5,10|8,2:3|2:3,0:0:0:0:
261,281,171311,1,2,2:2:0:0:
364,121,171487,1,10,2:3:0:0:
417,295,171664,1,0,3:3:0:0:
420,318,171752,1,0,3:3:0:0:
424,340,171840,1,8,3:3:0:0:
360,214,172017,5,10,2:2:0:0:
360,214,172369,1,10,2:2:0:0:
153,179,172722,1,10,2:2:0:0:
153,179,173075,1,10,2:2:0:0:
257,195,173428,6,0,B|255:146|268:95|306:137|328:64|306:8,1,187.5,14|2,2:3|2:2,0:0:0:0:
212,9,173958,1,10,2:3:0:0:
397,68,174134,2,0,L|454:52,1,46.875,2|2,3:2|3:2,0:0:0:0:
397,68,174311,2,0,L|424:190,1,93.75,10|2,2:3|3:2,0:0:0:0:
435,268,174664,1,8,2:3:0:0:
288,164,174840,2,0,P|308:232|290:356,1,187.5,2|2,2:2|2:2,0:0:0:0:
111,254,175369,2,0,P|130:215|182:223,1,93.75,10|2,2:3|3:2,0:0:0:0:
201,290,175634,1,2,3:2:0:0:
201,290,175722,2,0,P|169:328|157:373,1,93.75,10|2,2:3|3:2,0:0:0:0:
336,239,176075,1,8,2:3:0:0:
195,88,176252,6,0,B|71:100|157:151|24:161,1,187.5,2|2,2:2|2:2,0:0:0:0:
26,65,176781,1,10,2:3:0:0:
177,198,176958,2,0,L|190:242,1,46.875,2|2,2:2|2:2,0:0:0:0:
177,198,177134,2,0,L|286:180,1,93.75,10|2,2:3|2:2,0:0:0:0:
347,79,177487,2,0,P|303:45|281:6,1,93.75,8|2,2:3|2:2,0:0:0:0:
469,166,177840,6,0,L|455:362,1,187.5,12|8,3:3|2:3,0:0:0:0:
342,205,178369,1,2,2:2:0:0:
289,372,178546,1,8,3:3:0:0:
265,369,178634,1,0,3:3:0:0:
236,367,178722,1,2,3:2:0:0:
178,209,178899,1,10,3:3:0:0:
140,206,178987,1,0,3:3:0:0:
102,205,179075,1,2,3:2:0:0:
100,242,179164,1,0,3:3:0:0:
101,283,179252,6,0,B|30:296|30:296|13:218,1,140.625,14|0,3:3|0:0,0:0:0:0:
15,229,179605,2,0,L|28:103,1,93.75,10|0,2:3|3:3,0:0:0:0:
98,13,179958,2,0,L|103:119,2,93.75,10|2|10,2:3|3:2|2:3,0:0:0:0:
192,197,180487,2,0,P|207:118|279:14,1,187.5,2|2,2:2|2:2,0:0:0:0:
392,55,181017,1,10,2:3:0:0:
392,55,181193,2,0,P|400:127|377:257,1,187.5,2|0,2:2|0:0,0:0:0:0:
249,295,181722,2,0,P|190:320|152:351,1,93.75,8|2,2:3|2:2,0:0:0:0:
102,377,181987,1,2,2:2:0:0:
102,377,182075,6,0,P|75:311|78:250,1,93.75,10|0,2:3|0:0,0:0:0:0:
81,144,182428,1,10,2:3:0:0:
180,228,182605,2,0,L|215:182,1,46.875,2|2,0:3|0:3,0:0:0:0:
208,190,182781,2,0,L|175:62,1,93.75,10|2,2:3|2:2,0:0:0:0:
31,8,183134,2,0,P|73:29|120:34,1,93.75,8|2,2:3|2:2,0:0:0:0:
271,1,183487,6,0,L|211:20,3,46.875,12|0|2|0,3:3|3:3|3:2|3:3,0:0:0:0:
385,47,183840,2,0,L|349:18,3,46.875,10|0|2|0,3:3|3:3|3:2|3:3,0:0:0:0:
456,112,184193,1,10,2:3:0:0:
441,141,184281,1,2,2:3:0:0:
426,170,184369,1,2,2:3:0:0:
411,199,184458,1,2,2:3:0:0:
396,228,184546,1,10,2:3:0:0:
404,259,184634,1,2,2:3:0:0:
413,290,184722,1,2,2:3:0:0:
422,321,184811,1,2,2:3:0:0:
431,351,184899,6,0,P|477:345|497:300,1,93.75,14|0,2:3|0:0,0:0:0:0:
484,212,185252,2,0,P|450:165|360:183,1,140.625,10|0,2:3|0:0,0:0:0:0:
373,169,185605,2,0,B|358:225|358:225|334:264,1,93.75,10|0,3:3|3:3,0:0:0:0:
171,305,185958,1,10,2:3:0:0:
262,351,186134,2,0,P|238:254|203:174,1,187.5,2|2,2:2|2:2,0:0:0:0:
110,107,186664,1,8,2:3:0:0:
183,36,186840,1,2,3:2:0:0:
214,24,186928,1,0,3:3:0:0:
91,19,187105,1,0,3:3:0:0:
58,4,187193,1,2,3:2:0:0:
99,123,187369,6,0,P|78:185|55:315,1,187.5,10|8,2:3|2:3,0:0:0:0:
139,378,187899,1,0,0:0:0:0:
207,291,188075,2,0,P|226:241|274:236,1,93.75,10|0,2:3|0:0,0:0:0:0:
221,86,188428,2,0,P|271:133|386:126,1,187.5,10|10,2:3|2:3,0:0:0:0:
480,207,188958,2,0,P|423:241|384:365,2,187.5,2|2|2,2:2|2:2|2:2,0:0:0:0:
475,95,189840,1,8,3:3:0:0:
479,76,189928,1,0,3:3:0:0:
484,57,190017,2,0,P|500:22|511:9,1,46.875,2|2,3:2|3:2,0:0:0:0:
357,48,190193,2,0,P|388:71|406:92,3,46.875,10|2|2|2,2:3|2:3|2:3|2:3,0:0:0:0:
357,48,190546,6,0,L|228:67,1,93.75,14|0,2:3|0:0,0:0:0:0:
296,206,190899,2,0,L|216:149,1,93.75,10|0,2:3|3:3,0:0:0:0:
146,315,191252,2,0,L|136:201,2,93.75,10|2|10,2:3|3:2|2:3,0:0:0:0:
27,178,191781,2,0,B|72:68|72:68|79:-7,1,187.5,2|2,2:2|2:2,0:0:0:0:
192,23,192311,1,10,2:3:0:0:
192,23,192487,2,0,B|204:138|204:138|236:215,1,187.5,2|0,3:2|3:3,0:0:0:0:
369,210,193017,1,8,2:3:0:0:
263,315,193193,2,0,L|232:376,1,46.875,2|2,2:2|2:2,0:0:0:0:
242,357,193369,2,0,P|288:357|330:376,1,93.75,10|0,2:3|0:0,0:0:0:0:
128,280,193722,2,0,P|89:268|63:318,1,93.75,10|0,2:3|0:0,0:0:0:0:
285,209,194075,1,10,2:3:0:0:
138,162,194252,1,2,3:2:0:0:
130,139,194340,1,0,3:3:0:0:
122,116,194428,1,8,3:3:0:0:
220,0,194605,5,10,2:2:0:0:
213,126,194958,1,10,2:2:0:0:
206,252,195311,1,10,2:2:0:0:
199,384,195664,1,10,2:2:0:0:
112,70,196899,1,14,2:3:0:0:
