osu file format v14

[General]
AudioFilename: audio.mp3
AudioLeadIn: 0
PreviewTime: 63158
Countdown: 0
SampleSet: Normal
StackLeniency: 0.7
Mode: 1
LetterboxInBreaks: 0
WidescreenStoryboard: 0

[Editor]
DistanceSpacing: 1
BeatDivisor: 4
GridSize: 32
TimelineZoom: 2.2

[Metadata]
Title:Poinsettia
TitleUnicode:Poinsettia
Artist:IOSYS
ArtistUnicode:IOSYS
Creator:eiri-
Version:salchow's Futsuu
Source:東方風神録 ~ Mountain of Faith.
Tags:Ayyri guro salchow Realazy Real Nepuri Nepu 東方Project Touhou Team Shanghai Alice Touhou Sanae Kochiya 東風谷 早苗 The Primal Scene of Japan the Girl Saw 少女が見た日本の原風景 Stage 5 Shoujo ga mita nihon no genfuukei Theme bloom MoF TH10 TH 10 Reitaisai 6 R6 IO-0155 ARM
BeatmapID:1678186
BeatmapSetID:799276

[Difficulty]
HPDrainRate:7
CircleSize:2
OverallDifficulty:4
ApproachRate:10
SliderMultiplier:1.4
SliderTickRate:1

[Events]
//Background and Video events
0,0,"Sanae 485.jpg",0,65
//Break Periods
//Storyboard Layer 0 (Background)
//Storyboard Layer 1 (Fail)
//Storyboard Layer 2 (Pass)
//Storyboard Layer 3 (Foreground)
//Storyboard Sound Samples

[TimingPoints]
7159,333.333333333333,4,1,0,75,1,0
19158,-100,4,1,0,75,0,1
29825,-100,4,1,0,75,0,0
64492,-100,4,1,0,75,0,1
75158,-100,4,1,0,75,0,0
139158,-100,4,1,0,75,0,1
149825,-100,4,1,0,75,0,0
168492,-100,4,1,0,75,0,1
179158,-100,4,1,0,75,0,0

[HitObjects]
256,192,7158,5,8,0:0:0:0:
256,192,7492,1,8,0:0:0:0:
256,192,7825,1,0,0:0:0:0:
256,192,8492,1,0,0:0:0:0:
256,192,8992,1,0,0:0:0:0:
256,192,9325,1,8,0:0:0:0:
256,192,9658,1,0,0:0:0:0:
256,192,10158,1,8,0:0:0:0:
256,192,10825,1,8,0:0:0:0:
256,192,11158,1,0,0:0:0:0:
256,192,11492,1,0,0:0:0:0:
256,192,11992,1,8,0:0:0:0:
256,192,12325,1,8,0:0:0:0:
256,192,12992,1,8,0:0:0:0:
256,192,13825,1,8,0:0:0:0:
256,192,14158,1,8,0:0:0:0:
256,192,14658,1,0,0:0:0:0:
256,192,14992,1,8,0:0:0:0:
256,192,15658,1,8,0:0:0:0:
256,192,16158,1,8,0:0:0:0:
256,192,16492,1,0,0:0:0:0:
256,192,16992,1,8,0:0:0:0:
256,192,17325,1,0,0:0:0:0:
256,192,17658,1,8,0:0:0:0:
166,232,18158,2,4,B|257:99|257:99|342:228|342:228|284:231,1,349.99999165535,0|0,0:0|0:0,0:0:0:0:
256,192,19158,1,0,0:0:0:0:
256,192,19492,1,8,0:0:0:0:
256,192,19825,1,8,0:0:0:0:
256,192,20325,1,8,0:0:0:0:
256,192,20492,1,0,0:0:0:0:
256,192,20825,1,8,0:0:0:0:
256,192,21158,1,0,0:0:0:0:
256,192,21825,1,8,0:0:0:0:
256,192,22158,1,8,0:0:0:0:
256,192,22492,1,0,0:0:0:0:
256,192,22992,1,8,0:0:0:0:
256,192,23158,1,0,0:0:0:0:
256,192,23325,1,8,0:0:0:0:
256,192,23825,1,8,0:0:0:0:
256,192,24325,1,8,0:0:0:0:
256,192,24492,1,0,0:0:0:0:
256,192,24826,1,8,0:0:0:0:
256,192,25159,1,8,0:0:0:0:
256,192,25659,1,8,0:0:0:0:
256,192,25826,1,0,0:0:0:0:
256,192,26159,1,8,0:0:0:0:
256,192,26492,1,0,0:0:0:0:
256,192,27159,1,8,0:0:0:0:
256,192,27492,1,8,0:0:0:0:
256,192,27826,1,0,0:0:0:0:
256,192,28326,1,8,0:0:0:0:
256,192,28492,1,0,0:0:0:0:
256,192,28658,1,0,0:0:0:0:
256,192,29492,1,8,0:0:0:0:
256,192,29825,1,8,0:0:0:0:
256,192,29992,1,8,0:0:0:0:
256,192,30158,1,0,0:0:0:0:
256,192,30492,1,8,0:0:0:0:
256,192,30825,1,0,0:0:0:0:
256,192,30992,1,8,0:0:0:0:
256,192,31325,1,12,0:0:0:0:
256,192,31825,1,12,0:0:0:0:
256,192,32492,1,8,0:0:0:0:
256,192,32825,1,0,0:0:0:0:
256,192,32992,1,8,0:0:0:0:
256,192,33492,1,0,0:0:0:0:
256,192,33825,1,8,0:0:0:0:
256,192,34158,1,0,0:0:0:0:
256,192,34325,1,8,0:0:0:0:
256,192,34825,1,0,0:0:0:0:
256,192,35158,1,8,0:0:0:0:
256,192,35492,1,0,0:0:0:0:
256,192,35658,1,8,0:0:0:0:
256,192,36158,1,0,0:0:0:0:
256,192,36325,1,0,0:0:0:0:
256,192,36492,1,8,0:0:0:0:
256,192,36825,1,8,0:0:0:0:
256,192,37158,1,0,0:0:0:0:
256,192,37825,1,8,0:0:0:0:
249,189,38158,1,0,0:0:0:0:
256,192,38325,1,8,0:0:0:0:
256,192,38825,1,0,0:0:0:0:
256,192,39158,1,8,0:0:0:0:
249,189,39492,1,0,0:0:0:0:
256,192,39658,1,8,0:0:0:0:
256,192,40158,1,0,0:0:0:0:
256,192,40492,1,8,0:0:0:0:
249,189,40825,1,0,0:0:0:0:
256,192,40992,1,8,0:0:0:0:
256,192,41492,1,0,0:0:0:0:
256,192,41658,1,8,0:0:0:0:
256,192,41825,1,8,0:0:0:0:
256,192,42158,1,8,0:0:0:0:
256,192,42492,1,0,0:0:0:0:
256,192,43158,1,0,0:0:0:0:
256,192,43658,1,0,0:0:0:0:
256,192,44158,1,8,0:0:0:0:
256,192,44492,1,0,0:0:0:0:
256,192,44992,1,0,0:0:0:0:
256,192,45492,1,8,0:0:0:0:
256,192,45825,1,0,0:0:0:0:
256,192,46325,1,0,0:0:0:0:
256,192,47325,1,8,0:0:0:0:
256,192,47492,1,0,0:0:0:0:
256,192,47825,1,8,0:0:0:0:
256,192,48158,1,0,0:0:0:0:
256,192,48325,1,0,0:0:0:0:
256,192,48492,1,12,0:0:0:0:
256,192,48992,1,0,0:0:0:0:
256,192,49492,1,8,0:0:0:0:
256,192,49825,1,0,0:0:0:0:
256,192,50492,1,8,0:0:0:0:
256,192,50825,1,0,0:0:0:0:
256,192,51158,1,8,0:0:0:0:
256,192,52492,1,0,0:0:0:0:
256,192,52825,1,0,0:0:0:0:
256,192,53158,1,8,0:0:0:0:
256,192,53825,1,8,0:0:0:0:
256,192,54158,1,0,0:0:0:0:
256,192,54492,1,8,0:0:0:0:
263,190,54992,1,8,0:0:0:0:
256,192,55158,1,0,0:0:0:0:
256,192,55492,1,0,0:0:0:0:
256,192,55825,1,8,0:0:0:0:
263,190,56325,1,0,0:0:0:0:
256,192,56492,1,8,0:0:0:0:
256,192,57158,1,8,0:0:0:0:
256,192,57492,1,0,0:0:0:0:
256,192,57825,1,8,0:0:0:0:
256,192,59158,1,12,0:0:0:0:
256,192,59658,1,0,0:0:0:0:
256,192,60158,1,0,0:0:0:0:
256,192,60492,1,0,0:0:0:0:
256,192,60658,1,12,0:0:0:0:
256,192,61158,1,0,0:0:0:0:
256,192,61492,1,12,0:0:0:0:
256,192,61825,1,12,0:0:0:0:
256,192,62492,1,0,0:0:0:0:
256,192,62825,1,0,0:0:0:0:
256,192,63158,1,8,0:0:0:0:
256,192,63658,1,8,0:0:0:0:
208,163,63825,2,4,B|257:243|257:243|299:160|299:160|259:160,1,209.99999499321
256,192,64492,1,0,0:0:0:0:
256,192,64826,1,8,0:0:0:0:
256,192,65159,1,8,0:0:0:0:
256,192,65659,1,8,0:0:0:0:
256,192,65826,1,0,0:0:0:0:
256,192,66159,1,8,0:0:0:0:
256,192,66492,1,0,0:0:0:0:
256,192,67159,1,8,0:0:0:0:
256,192,67492,1,8,0:0:0:0:
256,192,67826,1,0,0:0:0:0:
256,192,68326,1,8,0:0:0:0:
256,192,68492,1,0,0:0:0:0:
256,192,68659,1,8,0:0:0:0:
256,192,69158,1,8,0:0:0:0:
256,192,69658,1,8,0:0:0:0:
256,192,69826,1,0,0:0:0:0:
256,192,70158,1,8,0:0:0:0:
256,192,70493,1,8,0:0:0:0:
256,192,70993,1,8,0:0:0:0:
256,192,71158,1,0,0:0:0:0:
256,192,71493,1,8,0:0:0:0:
256,192,71826,1,0,0:0:0:0:
256,192,72493,1,8,0:0:0:0:
256,192,72826,1,8,0:0:0:0:
256,192,73158,1,0,0:0:0:0:
256,192,73658,1,8,0:0:0:0:
256,192,73826,1,0,0:0:0:0:
256,192,73992,1,0,0:0:0:0:
256,192,74825,1,8,0:0:0:0:
256,192,75158,1,4,0:0:0:0:
256,192,76270,1,8,0:0:0:0:
256,192,76492,1,4,0:0:0:0:
256,192,77603,1,8,0:0:0:0:
256,192,77825,1,4,0:0:0:0:
256,192,78936,1,8,0:0:0:0:
256,192,79158,1,4,0:0:0:0:
256,192,80492,1,12,0:0:0:0:
256,192,81603,1,0,0:0:0:0:
256,192,81825,1,12,0:0:0:0:
256,192,82936,1,0,0:0:0:0:
256,192,83158,1,12,0:0:0:0:
256,192,84270,1,0,0:0:0:0:
248,137,84492,2,4,P|128:256|288:256,1,420
256,192,85825,1,12,0:0:0:0:
256,192,86158,1,0,0:0:0:0:
256,192,86492,1,8,0:0:0:0:
256,192,87158,1,0,0:0:0:0:
256,192,87492,1,8,0:0:0:0:
256,192,87658,1,0,0:0:0:0:
256,192,87825,1,8,0:0:0:0:
256,192,88492,1,12,0:0:0:0:
256,192,88826,1,0,0:0:0:0:
256,192,88992,1,8,0:0:0:0:
256,192,89325,1,0,0:0:0:0:
256,192,89658,1,12,0:0:0:0:
256,192,89992,1,0,0:0:0:0:
256,192,90158,1,8,0:0:0:0:
263,193,90492,1,8,0:0:0:0:
262,193,90825,1,0,0:0:0:0:
256,192,90992,1,0,0:0:0:0:
263,192,91158,1,8,0:0:0:0:
262,193,91825,1,8,0:0:0:0:
262,193,92492,1,0,0:0:0:0:
262,193,92825,1,8,0:0:0:0:
262,193,92992,1,0,0:0:0:0:
262,193,93158,1,8,0:0:0:0:
262,193,93492,1,0,0:0:0:0:
262,193,93825,1,8,0:0:0:0:
262,193,94158,1,8,0:0:0:0:
262,193,94658,1,0,0:0:0:0:
265,182,94992,1,8,0:0:0:0:
256,192,95492,1,8,0:0:0:0:
256,192,95825,1,0,0:0:0:0:
256,192,96492,1,12,0:0:0:0:
256,192,96825,1,0,0:0:0:0:
256,192,97158,1,0,0:0:0:0:
256,192,97492,1,0,0:0:0:0:
256,192,97825,1,8,0:0:0:0:
256,192,98492,1,8,0:0:0:0:
256,192,99158,1,8,0:0:0:0:
256,192,99492,1,0,0:0:0:0:
256,192,99825,1,0,0:0:0:0:
256,192,100158,1,0,0:0:0:0:
256,192,100492,1,8,0:0:0:0:
256,192,101158,1,8,0:0:0:0:
256,192,101825,1,8,0:0:0:0:
256,192,102158,1,8,0:0:0:0:
256,192,102658,1,0,0:0:0:0:
256,192,102992,1,8,0:0:0:0:
256,192,103658,1,8,0:0:0:0:
256,192,104158,1,8,0:0:0:0:
256,192,104492,1,0,0:0:0:0:
256,192,104992,1,8,0:0:0:0:
256,192,105325,1,0,0:0:0:0:
256,192,105658,1,8,0:0:0:0:
256,192,106158,1,12,0:0:0:0:
256,192,107158,1,0,0:0:0:0:
256,192,107658,1,8,0:0:0:0:
256,192,108158,1,8,0:0:0:0:
256,192,108492,1,0,0:0:0:0:
256,192,108992,1,8,0:0:0:0:
256,192,109825,1,0,0:0:0:0:
256,192,110325,1,8,0:0:0:0:
256,192,110825,1,8,0:0:0:0:
256,192,111158,1,0,0:0:0:0:
256,192,111825,1,8,0:0:0:0:
256,192,112492,1,0,0:0:0:0:
256,192,112992,1,0,0:0:0:0:
256,192,113158,1,12,0:0:0:0:
256,192,113825,1,0,0:0:0:0:
256,192,114492,1,8,0:0:0:0:
256,192,114825,1,8,0:0:0:0:
256,192,115158,1,0,0:0:0:0:
256,192,115658,1,8,0:0:0:0:
256,192,116158,1,8,0:0:0:0:
256,192,116492,1,0,0:0:0:0:
256,192,117158,1,8,0:0:0:0:
256,192,117825,1,0,0:0:0:0:
256,192,118325,1,0,0:0:0:0:
256,192,118825,1,8,0:0:0:0:
256,192,119159,1,0,0:0:0:0:
256,192,119659,1,0,0:0:0:0:
256,192,120159,1,8,0:0:0:0:
256,192,120492,1,0,0:0:0:0:
256,192,120992,1,0,0:0:0:0:
256,192,121492,1,8,0:0:0:0:
256,192,121992,1,8,0:0:0:0:
256,192,122159,1,0,0:0:0:0:
256,192,122492,1,8,0:0:0:0:
256,192,122825,1,0,0:0:0:0:
256,192,122992,1,0,0:0:0:0:
256,192,123159,1,12,0:0:0:0:
256,192,123659,1,0,0:0:0:0:
256,192,124159,1,8,0:0:0:0:
256,192,124492,1,0,0:0:0:0:
256,192,125159,1,8,0:0:0:0:
256,192,125492,1,0,0:0:0:0:
256,192,125825,1,8,0:0:0:0:
256,192,127159,1,0,0:0:0:0:
256,192,127492,1,0,0:0:0:0:
256,192,127992,1,8,0:0:0:0:
256,192,128158,1,8,0:0:0:0:
256,192,128492,1,8,0:0:0:0:
256,192,128825,1,0,0:0:0:0:
256,192,129159,1,8,0:0:0:0:
256,192,129658,1,8,0:0:0:0:
256,192,129825,1,0,0:0:0:0:
256,192,130159,1,0,0:0:0:0:
256,192,130492,1,8,0:0:0:0:
256,192,130992,1,0,0:0:0:0:
256,192,131159,1,8,0:0:0:0:
256,192,131825,1,8,0:0:0:0:
256,192,132159,1,0,0:0:0:0:
256,192,132492,1,8,0:0:0:0:
256,192,133825,1,12,0:0:0:0:
256,192,134325,1,0,0:0:0:0:
256,192,134825,1,0,0:0:0:0:
256,192,135159,1,0,0:0:0:0:
256,192,135325,1,12,0:0:0:0:
256,192,135825,1,0,0:0:0:0:
256,192,136159,1,12,0:0:0:0:
256,192,136492,1,12,0:0:0:0:
256,192,137158,1,0,0:0:0:0:
256,192,137492,1,0,0:0:0:0:
256,192,137825,1,8,0:0:0:0:
256,192,138325,1,8,0:0:0:0:
208,163,138492,2,4,B|257:243|257:243|299:160|299:160|259:160,1,209.99999499321
256,192,139159,1,0,0:0:0:0:
256,192,139493,1,8,0:0:0:0:
256,192,139826,1,8,0:0:0:0:
256,192,140326,1,8,0:0:0:0:
256,192,140493,1,0,0:0:0:0:
256,192,140826,1,8,0:0:0:0:
256,192,141159,1,0,0:0:0:0:
256,192,141826,1,8,0:0:0:0:
256,192,142159,1,8,0:0:0:0:
256,192,142493,1,0,0:0:0:0:
256,192,142993,1,8,0:0:0:0:
256,192,143159,1,0,0:0:0:0:
256,192,143326,1,8,0:0:0:0:
256,192,143825,1,8,0:0:0:0:
256,192,144325,1,8,0:0:0:0:
256,192,144493,1,0,0:0:0:0:
256,192,144825,1,8,0:0:0:0:
256,192,145158,1,8,0:0:0:0:
256,192,145658,1,8,0:0:0:0:
256,192,145825,1,0,0:0:0:0:
256,192,146158,1,8,0:0:0:0:
256,192,146493,1,0,0:0:0:0:
256,192,147158,1,8,0:0:0:0:
256,192,147493,1,8,0:0:0:0:
256,192,147825,1,0,0:0:0:0:
256,192,148325,1,8,0:0:0:0:
256,192,148493,1,0,0:0:0:0:
256,192,148659,1,0,0:0:0:0:
256,192,149492,1,8,0:0:0:0:
256,192,149825,1,4,0:0:0:0:
256,192,150937,1,8,0:0:0:0:
256,192,151159,1,4,0:0:0:0:
256,192,152270,1,8,0:0:0:0:
256,192,152492,1,4,0:0:0:0:
256,192,153603,1,8,0:0:0:0:
256,192,153825,1,4,0:0:0:0:
256,192,155159,1,12,0:0:0:0:
256,192,156270,1,0,0:0:0:0:
256,192,156492,1,12,0:0:0:0:
256,192,157603,1,0,0:0:0:0:
256,192,157825,1,12,0:0:0:0:
256,192,158937,1,0,0:0:0:0:
256,192,159158,8,0,160270,0:0:0:0:
256,192,160492,5,0,0:0:0:0:
256,192,160825,1,12,0:0:0:0:
256,192,161158,1,0,0:0:0:0:
248,191,162158,1,12,0:0:0:0:
248,189,162492,1,0,0:0:0:0:
256,192,163492,1,12,0:0:0:0:
256,192,163825,1,0,0:0:0:0:
256,192,164825,1,12,0:0:0:0:
256,192,165158,1,0,0:0:0:0:
256,192,165992,1,0,0:0:0:0:
256,192,166325,1,0,0:0:0:0:
256,192,166492,1,8,0:0:0:0:
256,192,166825,1,8,0:0:0:0:
256,192,166992,1,8,0:0:0:0:
256,192,167158,1,4,0:0:0:0:
256,192,167658,1,4,0:0:0:0:
256,192,168158,1,4,0:0:0:0:
256,192,168492,1,0,0:0:0:0:
256,192,168826,1,8,0:0:0:0:
256,192,169159,1,8,0:0:0:0:
256,192,169659,1,8,0:0:0:0:
256,192,169826,1,0,0:0:0:0:
256,192,170159,1,8,0:0:0:0:
256,192,170492,1,0,0:0:0:0:
256,192,171159,1,8,0:0:0:0:
256,192,171492,1,8,0:0:0:0:
256,192,171826,1,0,0:0:0:0:
256,192,172326,1,8,0:0:0:0:
256,192,172492,1,0,0:0:0:0:
256,192,172659,1,8,0:0:0:0:
256,192,173158,1,8,0:0:0:0:
256,192,173658,1,8,0:0:0:0:
256,192,173826,1,0,0:0:0:0:
256,192,174158,1,8,0:0:0:0:
256,192,174493,1,8,0:0:0:0:
256,192,174993,1,8,0:0:0:0:
256,192,175158,1,0,0:0:0:0:
256,192,175493,1,8,0:0:0:0:
256,192,175826,1,0,0:0:0:0:
256,192,176493,1,8,0:0:0:0:
256,192,176826,1,8,0:0:0:0:
256,192,177158,1,0,0:0:0:0:
256,192,177658,1,8,0:0:0:0:
256,192,177826,1,0,0:0:0:0:
256,192,177992,1,0,0:0:0:0:
256,192,178493,1,8,0:0:0:0:
256,192,179158,1,4,0:0:0:0:
256,192,180270,1,8,0:0:0:0:
256,192,180492,1,4,0:0:0:0:
256,192,181603,1,8,0:0:0:0:
256,192,181825,1,4,0:0:0:0:
256,192,182936,1,8,0:0:0:0:
256,192,183158,1,4,0:0:0:0:
256,192,184492,1,12,0:0:0:0:
256,192,185603,1,0,0:0:0:0:
256,192,185825,1,12,0:0:0:0:
256,192,186936,1,0,0:0:0:0:
256,192,187158,1,12,0:0:0:0:
256,192,188270,1,0,0:0:0:0:
256,192,188492,8,0,189603,0:0:0:0:
256,192,189825,5,12,0:0:0:0:
