osu file format v14

[General]
AudioFilename: audio.mp3
AudioLeadIn: 0
PreviewTime: 63158
Countdown: 0
SampleSet: Normal
StackLeniency: 0.7
Mode: 1
LetterboxInBreaks: 0
WidescreenStoryboard: 1

[Editor]
Bookmarks: 492,7158,8492,13825,19158,29825,32492,43158,53825,64492,75158,85825,96492,101825,107158,117825,128492,139158,149825,160825,168492,179158,189825
DistanceSpacing: 0.1
BeatDivisor: 4
GridSize: 32
TimelineZoom: 2.2

[Metadata]
Title:Poinsettia
TitleUnicode:Poinsettia
Artist:IOSYS
ArtistUnicode:IOSYS
Creator:eiri-
Version:Lite Muzukashii
Source:東方風神録 ~ Mountain of Faith.
Tags:Ayyri guro salchow Realazy Real Nepuri Nepu 東方Project Touhou Team Shanghai Alice Touhou Sanae Kochiya 東風谷 早苗 The Primal Scene of Japan the Girl Saw 少女が見た日本の原風景 Stage 5 Shoujo ga mita nihon no genfuukei Theme bloom MoF TH10 TH 10 Reitaisai 6 R6 IO-0155 ARM
BeatmapID:1716330
BeatmapSetID:799276

[Difficulty]
HPDrainRate:6
CircleSize:2
OverallDifficulty:4.5
ApproachRate:10
SliderMultiplier:1.4
SliderTickRate:1

[Events]
//Background and Video events
0,0,"Sanae 485.jpg",0,65
//Break Periods
//Storyboard Layer 0 (Background)
//Storyboard Layer 1 (Fail)
//Storyboard Layer 2 (Pass)
//Storyboard Layer 3 (Foreground)
//Storyboard Sound Samples

[TimingPoints]
7159,333.333333333333,4,1,0,75,1,0
19158,-100,4,1,0,75,0,1
29825,-100,4,1,0,75,0,0
64492,-100,4,1,0,75,0,1
75158,-100,4,1,0,75,0,0
139158,-100,4,1,0,75,0,1
149825,-100,4,1,0,75,0,0
168492,-100,4,1,0,75,0,1
179158,-100,4,1,0,75,0,0

[HitObjects]
256,192,7158,5,8,0:0:0:0:
256,192,7492,1,8,0:0:0:0:
256,192,7658,1,8,0:0:0:0:
256,192,7825,1,0,0:0:0:0:
256,192,8492,1,12,0:0:0:0:
256,192,8825,1,8,0:0:0:0:
256,192,8992,1,8,0:0:0:0:
256,192,9325,1,0,0:0:0:0:
256,192,9658,1,12,0:0:0:0:
256,192,10158,1,8,0:0:0:0:
256,192,10825,1,8,0:0:0:0:
256,192,11158,1,12,0:0:0:0:
256,192,11492,1,8,0:0:0:0:
256,192,11658,1,8,0:0:0:0:
256,192,11992,1,0,0:0:0:0:
256,192,12325,1,8,0:0:0:0:
256,192,12658,1,0,0:0:0:0:
256,192,12825,1,8,0:0:0:0:
256,192,13158,1,0,0:0:0:0:
256,192,13325,1,0,0:0:0:0:
256,192,13492,1,8,0:0:0:0:
256,192,13825,1,12,0:0:0:0:
256,192,14325,1,8,0:0:0:0:
256,192,14658,1,0,0:0:0:0:
256,192,14992,1,12,0:0:0:0:
256,192,15492,1,8,0:0:0:0:
256,192,15825,1,0,0:0:0:0:
256,192,15992,1,0,0:0:0:0:
256,192,16158,1,8,0:0:0:0:
256,192,16492,1,12,0:0:0:0:
256,192,16992,1,8,0:0:0:0:
256,192,17325,1,0,0:0:0:0:
256,192,17658,1,8,0:0:0:0:
256,192,17992,1,0,0:0:0:0:
256,192,18158,1,12,0:0:0:0:
256,192,18492,1,12,0:0:0:0:
256,192,18825,1,0,0:0:0:0:
256,192,18992,1,0,0:0:0:0:
256,192,19158,1,12,0:0:0:0:
256,192,19658,1,8,0:0:0:0:
256,192,19825,1,0,0:0:0:0:
256,192,20325,1,8,0:0:0:0:
256,192,20492,1,8,0:0:0:0:
256,192,20992,1,0,0:0:0:0:
256,192,21158,1,8,0:0:0:0:
256,192,21658,1,8,0:0:0:0:
256,192,21825,1,12,0:0:0:0:
256,192,22325,1,8,0:0:0:0:
256,192,22492,1,0,0:0:0:0:
256,192,22992,1,8,0:0:0:0:
256,192,23158,1,0,0:0:0:0:
256,192,23325,1,12,0:0:0:0:
256,192,23825,1,8,0:0:0:0:
256,192,24075,1,8,0:0:0:0:
256,192,24325,1,0,0:0:0:0:
256,192,24492,1,12,0:0:0:0:
256,192,24992,1,8,0:0:0:0:
256,192,25158,1,0,0:0:0:0:
256,192,25658,1,8,0:0:0:0:
256,192,25825,1,8,0:0:0:0:
256,192,26325,1,0,0:0:0:0:
256,192,26492,1,8,0:0:0:0:
256,192,26992,1,8,0:0:0:0:
256,192,27158,1,12,0:0:0:0:
256,192,27658,1,0,0:0:0:0:
256,192,27825,1,8,0:0:0:0:
256,192,28325,1,0,0:0:0:0:
256,192,28492,1,8,0:0:0:0:
256,192,28658,1,0,0:0:0:0:
256,192,29158,1,0,0:0:0:0:
256,192,29325,1,0,0:0:0:0:
256,192,29492,1,8,0:0:0:0:
256,192,29825,1,8,0:0:0:0:
256,192,30158,1,4,0:0:0:0:
256,192,30492,1,12,0:0:0:0:
256,192,30825,1,0,0:0:0:0:
256,192,30992,1,12,0:0:0:0:
256,192,31325,1,0,0:0:0:0:
256,192,31492,1,12,0:0:0:0:
256,192,31658,1,12,0:0:0:0:
256,192,31825,1,0,0:0:0:0:
256,192,32492,1,12,0:0:0:0:
256,192,32658,1,0,0:0:0:0:
256,192,32992,1,0,0:0:0:0:
256,192,33158,1,8,0:0:0:0:
256,192,33825,1,0,0:0:0:0:
256,192,33992,1,0,0:0:0:0:
256,192,34325,1,8,0:0:0:0:
256,192,34825,1,8,0:0:0:0:
256,192,35158,1,12,0:0:0:0:
256,192,35324,1,0,0:0:0:0:
256,192,35658,1,8,0:0:0:0:
256,192,35825,1,0,0:0:0:0:
256,192,35991,1,0,0:0:0:0:
256,192,36325,1,8,0:0:0:0:
256,192,36492,1,0,0:0:0:0:
256,192,36825,1,12,0:0:0:0:
256,192,37158,1,8,0:0:0:0:
256,192,37325,1,0,0:0:0:0:
256,192,37825,1,12,0:0:0:0:
256,192,38325,1,8,0:0:0:0:
256,192,38492,1,0,0:0:0:0:
256,192,39158,1,0,0:0:0:0:
256,192,39492,1,0,0:0:0:0:
256,192,39658,1,8,0:0:0:0:
256,192,40158,1,8,0:0:0:0:
256,192,40491,1,12,0:0:0:0:
256,192,40657,1,0,0:0:0:0:
256,192,40991,1,8,0:0:0:0:
256,192,41157,1,0,0:0:0:0:
256,192,41324,1,0,0:0:0:0:
256,192,41658,1,8,0:0:0:0:
256,192,41824,1,8,0:0:0:0:
256,192,42157,1,8,0:0:0:0:
256,192,42324,1,0,0:0:0:0:
256,192,42492,1,8,0:0:0:0:
256,192,42824,1,0,0:0:0:0:
256,192,42991,1,0,0:0:0:0:
256,192,43157,1,12,0:0:0:0:
256,192,43658,1,8,0:0:0:0:
256,192,43992,1,0,0:0:0:0:
256,192,44158,1,8,0:0:0:0:
256,192,44492,1,8,0:0:0:0:
256,192,44825,1,0,0:0:0:0:
256,192,44992,1,8,0:0:0:0:
256,192,45492,1,8,0:0:0:0:
256,192,45825,1,12,0:0:0:0:
256,192,46325,1,8,0:0:0:0:
256,192,46658,1,0,0:0:0:0:
256,192,46825,1,8,0:0:0:0:
256,192,47325,1,4,0:0:0:0:
256,192,47492,1,8,0:0:0:0:
256,192,47825,1,8,0:0:0:0:
256,192,47992,1,0,0:0:0:0:
256,192,48158,1,8,0:0:0:0:
256,192,48492,1,12,0:0:0:0:
256,192,48992,1,8,0:0:0:0:
256,192,49492,1,8,0:0:0:0:
256,192,49658,1,0,0:0:0:0:
256,192,49825,1,8,0:0:0:0:
256,192,50158,1,8,0:0:0:0:
256,192,50492,1,8,0:0:0:0:
256,192,50658,1,0,0:0:0:0:
256,192,50825,1,8,0:0:0:0:
256,192,51158,1,4,0:0:0:0:
256,192,51492,1,8,0:0:0:0:
256,192,52158,1,8,0:0:0:0:
256,192,52492,1,0,0:0:0:0:
256,192,52658,1,8,0:0:0:0:
256,192,52825,1,8,0:0:0:0:
256,192,53158,1,12,0:0:0:0:
256,192,53492,1,0,0:0:0:0:
256,192,53825,1,12,0:0:0:0:
256,192,54492,1,0,0:0:0:0:
256,192,54742,1,0,0:0:0:0:
256,192,54992,1,8,0:0:0:0:
256,192,55158,1,8,0:0:0:0:
256,192,55825,1,0,0:0:0:0:
256,192,56075,1,8,0:0:0:0:
256,192,56325,1,0,0:0:0:0:
256,192,56492,1,12,0:0:0:0:
256,192,56825,1,8,0:0:0:0:
256,192,57158,1,8,0:0:0:0:
256,192,57492,1,0,0:0:0:0:
256,192,57825,1,8,0:0:0:0:
256,192,58492,1,0,0:0:0:0:
256,192,58658,1,8,0:0:0:0:
256,192,58825,1,0,0:0:0:0:
256,192,59158,1,12,0:0:0:0:
256,192,59658,1,4,0:0:0:0:
256,192,60158,1,12,0:0:0:0:
256,192,60658,1,4,0:0:0:0:
256,192,61158,1,12,0:0:0:0:
256,192,61658,1,0,0:0:0:0:
256,192,61825,1,8,0:0:0:0:
256,192,62158,1,12,0:0:0:0:
256,192,62492,1,0,0:0:0:0:
256,192,62825,1,12,0:0:0:0:
256,192,63158,1,4,0:0:0:0:
256,192,63825,1,8,0:0:0:0:
256,192,64158,1,0,0:0:0:0:
256,192,64325,1,0,0:0:0:0:
256,192,64492,1,12,0:0:0:0:
256,192,64992,1,8,0:0:0:0:
256,192,65159,1,0,0:0:0:0:
256,192,65659,1,8,0:0:0:0:
256,192,65826,1,8,0:0:0:0:
256,192,66326,1,0,0:0:0:0:
256,192,66492,1,8,0:0:0:0:
256,192,66992,1,8,0:0:0:0:
256,192,67159,1,12,0:0:0:0:
256,192,67659,1,8,0:0:0:0:
256,192,67826,1,0,0:0:0:0:
256,192,68326,1,8,0:0:0:0:
256,192,68492,1,0,0:0:0:0:
256,192,68659,1,12,0:0:0:0:
256,192,69159,1,8,0:0:0:0:
256,192,69408,1,8,0:0:0:0:
256,192,69659,1,0,0:0:0:0:
256,192,69826,1,12,0:0:0:0:
256,192,70326,1,8,0:0:0:0:
256,192,70492,1,0,0:0:0:0:
256,192,70992,1,8,0:0:0:0:
256,192,71159,1,8,0:0:0:0:
256,192,71659,1,0,0:0:0:0:
256,192,71826,1,8,0:0:0:0:
256,192,72326,1,8,0:0:0:0:
256,192,72492,1,12,0:0:0:0:
256,192,72992,1,0,0:0:0:0:
256,192,73159,1,8,0:0:0:0:
256,192,73659,1,0,0:0:0:0:
256,192,73826,1,8,0:0:0:0:
256,192,73992,1,0,0:0:0:0:
256,192,74492,1,0,0:0:0:0:
256,192,74659,1,0,0:0:0:0:
256,192,74826,1,8,0:0:0:0:
256,192,75159,1,4,0:0:0:0:
256,192,75603,1,4,0:0:0:0:
256,192,75825,1,12,0:0:0:0:
256,192,76492,1,4,0:0:0:0:
256,192,76936,1,4,0:0:0:0:
256,192,77159,1,12,0:0:0:0:
256,192,77825,1,4,0:0:0:0:
256,192,78270,1,4,0:0:0:0:
256,192,78492,1,12,0:0:0:0:
256,192,79158,1,0,0:0:0:0:
256,192,79492,1,0,0:0:0:0:
256,192,79714,1,0,0:0:0:0:
256,192,79825,1,8,0:0:0:0:
256,192,80158,1,0,0:0:0:0:
256,192,80492,1,12,0:0:0:0:
256,192,80936,1,4,0:0:0:0:
256,192,81159,1,12,0:0:0:0:
256,192,81825,1,12,0:0:0:0:
256,192,82270,1,4,0:0:0:0:
256,192,82492,1,12,0:0:0:0:
256,192,83158,1,12,0:0:0:0:
256,192,83603,1,4,0:0:0:0:
256,192,83825,1,12,0:0:0:0:
256,192,84492,1,12,0:0:0:0:
256,192,84658,1,0,0:0:0:0:
256,192,84825,1,8,0:0:0:0:
256,192,85158,1,8,0:0:0:0:
256,192,85492,1,0,0:0:0:0:
256,192,85658,1,0,0:0:0:0:
256,192,85825,1,12,0:0:0:0:
256,192,86492,1,0,0:0:0:0:
256,192,86825,1,8,0:0:0:0:
256,192,86992,1,0,0:0:0:0:
256,192,87325,1,8,0:0:0:0:
256,192,87492,1,8,0:0:0:0:
256,192,87825,1,8,0:0:0:0:
256,192,88158,1,0,0:0:0:0:
256,192,88492,1,12,0:0:0:0:
256,192,88825,1,0,0:0:0:0:
256,192,88992,1,12,0:0:0:0:
256,192,89658,1,12,0:0:0:0:
256,192,89992,1,8,0:0:0:0:
256,192,90158,1,0,0:0:0:0:
256,192,90658,1,0,0:0:0:0:
256,192,90825,1,8,0:0:0:0:
256,192,91158,1,12,0:0:0:0:
256,192,91492,1,8,0:0:0:0:
256,192,91658,1,0,0:0:0:0:
256,192,91992,1,8,0:0:0:0:
256,192,92158,1,8,0:0:0:0:
256,192,92492,1,8,0:0:0:0:
256,192,92825,1,8,0:0:0:0:
256,192,92992,1,0,0:0:0:0:
256,192,93492,1,0,0:0:0:0:
256,192,93658,1,0,0:0:0:0:
256,192,93825,1,12,0:0:0:0:
256,192,94158,1,0,0:0:0:0:
256,192,94658,1,4,0:0:0:0:
256,192,94992,1,12,0:0:0:0:
256,192,95492,1,0,0:0:0:0:
256,192,95658,1,8,0:0:0:0:
256,192,95992,1,8,0:0:0:0:
256,192,96158,1,8,0:0:0:0:
256,192,96325,1,0,0:0:0:0:
256,192,96492,1,12,0:0:0:0:
256,192,96825,1,0,0:0:0:0:
256,192,97492,1,0,0:0:0:0:
256,192,97825,1,0,0:0:0:0:
256,192,97992,1,8,0:0:0:0:
256,192,98158,1,0,0:0:0:0:
256,192,98825,1,0,0:0:0:0:
256,192,99158,1,0,0:0:0:0:
256,192,99325,1,8,0:0:0:0:
256,192,99492,1,0,0:0:0:0:
256,192,99825,1,0,0:0:0:0:
256,192,100158,1,0,0:0:0:0:
256,192,100492,1,0,0:0:0:0:
256,192,100658,1,8,0:0:0:0:
256,192,100825,1,0,0:0:0:0:
256,192,101158,1,0,0:0:0:0:
256,192,101825,1,12,0:0:0:0:
256,192,102325,1,8,0:0:0:0:
256,192,102658,1,0,0:0:0:0:
256,192,102992,1,12,0:0:0:0:
256,192,103492,1,8,0:0:0:0:
256,192,103825,1,0,0:0:0:0:
256,192,103992,1,0,0:0:0:0:
256,192,104158,1,8,0:0:0:0:
256,192,104492,1,12,0:0:0:0:
256,192,104992,1,8,0:0:0:0:
256,192,105325,1,0,0:0:0:0:
256,192,105658,1,8,0:0:0:0:
256,192,105992,1,0,0:0:0:0:
256,192,106158,1,12,0:0:0:0:
256,192,106492,1,12,0:0:0:0:
256,192,106825,1,0,0:0:0:0:
256,192,106992,1,0,0:0:0:0:
256,192,107158,1,12,0:0:0:0:
256,192,107658,1,8,0:0:0:0:
256,192,108492,1,8,0:0:0:0:
256,192,108992,1,8,0:0:0:0:
256,192,109492,1,0,0:0:0:0:
256,192,109658,1,0,0:0:0:0:
256,192,109825,1,12,0:0:0:0:
256,192,110325,1,8,0:0:0:0:
256,192,110992,1,8,0:0:0:0:
256,192,111158,1,8,0:0:0:0:
256,192,111492,1,8,0:0:0:0:
256,192,111825,1,0,0:0:0:0:
256,192,112492,1,8,0:0:0:0:
256,192,112992,1,0,0:0:0:0:
256,192,113158,1,12,0:0:0:0:
256,192,113825,1,8,0:0:0:0:
256,192,114158,1,0,0:0:0:0:
256,192,114325,1,8,0:0:0:0:
256,192,114825,1,0,0:0:0:0:
256,192,114992,1,0,0:0:0:0:
256,192,115158,1,12,0:0:0:0:
256,192,115658,1,8,0:0:0:0:
256,192,116325,1,0,0:0:0:0:
256,192,116492,1,12,0:0:0:0:
256,192,117158,1,0,0:0:0:0:
256,192,117492,1,8,0:0:0:0:
256,192,117825,1,12,0:0:0:0:
256,192,118325,1,8,0:0:0:0:
256,192,118658,1,0,0:0:0:0:
256,192,118825,1,8,0:0:0:0:
256,192,119158,1,8,0:0:0:0:
256,192,119658,1,8,0:0:0:0:
256,192,119992,1,0,0:0:0:0:
256,192,120158,1,8,0:0:0:0:
256,192,120492,1,12,0:0:0:0:
256,192,120992,1,8,0:0:0:0:
256,192,121325,1,0,0:0:0:0:
256,192,121492,1,8,0:0:0:0:
256,192,121992,1,4,0:0:0:0:
256,192,122158,1,8,0:0:0:0:
256,192,122492,1,8,0:0:0:0:
256,192,122658,1,0,0:0:0:0:
256,192,122825,1,0,0:0:0:0:
256,192,123158,1,12,0:0:0:0:
256,192,123658,1,8,0:0:0:0:
256,192,123991,1,0,0:0:0:0:
256,192,124158,1,8,0:0:0:0:
256,192,124491,1,8,0:0:0:0:
256,192,125158,1,0,0:0:0:0:
256,192,125492,1,0,0:0:0:0:
256,192,125658,1,8,0:0:0:0:
256,192,125825,1,4,0:0:0:0:
256,192,126158,1,8,0:0:0:0:
256,192,126659,1,0,0:0:0:0:
256,192,126825,1,8,0:0:0:0:
256,192,127158,1,8,0:0:0:0:
256,192,127325,1,8,0:0:0:0:
256,192,127492,1,0,0:0:0:0:
256,192,127825,1,0,0:0:0:0:
256,192,127992,1,8,0:0:0:0:
256,192,128158,1,8,0:0:0:0:
256,192,128492,1,12,0:0:0:0:
256,192,129159,1,0,0:0:0:0:
256,192,129408,1,0,0:0:0:0:
256,192,129659,1,8,0:0:0:0:
256,192,129825,1,8,0:0:0:0:
256,192,130492,1,0,0:0:0:0:
256,192,130742,1,8,0:0:0:0:
256,192,130992,1,0,0:0:0:0:
256,192,131159,1,12,0:0:0:0:
256,192,131492,1,8,0:0:0:0:
256,192,131825,1,8,0:0:0:0:
256,192,132159,1,0,0:0:0:0:
256,192,132492,1,8,0:0:0:0:
256,192,133159,1,0,0:0:0:0:
256,192,133325,1,8,0:0:0:0:
256,192,133492,1,0,0:0:0:0:
256,192,133825,1,12,0:0:0:0:
256,192,134325,1,4,0:0:0:0:
256,192,134825,1,12,0:0:0:0:
256,192,135325,1,4,0:0:0:0:
256,192,135825,1,12,0:0:0:0:
256,192,136325,1,0,0:0:0:0:
256,192,136492,1,8,0:0:0:0:
256,192,136825,1,12,0:0:0:0:
256,192,137159,1,0,0:0:0:0:
256,192,137492,1,12,0:0:0:0:
256,192,137825,1,4,0:0:0:0:
256,192,138492,1,8,0:0:0:0:
256,192,138825,1,0,0:0:0:0:
256,192,138992,1,0,0:0:0:0:
256,192,139158,1,12,0:0:0:0:
256,192,139658,1,8,0:0:0:0:
256,192,139825,1,0,0:0:0:0:
256,192,140325,1,8,0:0:0:0:
256,192,140492,1,8,0:0:0:0:
256,192,140992,1,0,0:0:0:0:
256,192,141158,1,8,0:0:0:0:
256,192,141658,1,8,0:0:0:0:
256,192,141825,1,12,0:0:0:0:
256,192,142325,1,8,0:0:0:0:
256,192,142492,1,0,0:0:0:0:
256,192,142992,1,8,0:0:0:0:
256,192,143158,1,0,0:0:0:0:
256,192,143325,1,12,0:0:0:0:
256,192,143825,1,8,0:0:0:0:
256,192,144075,1,8,0:0:0:0:
256,192,144325,1,0,0:0:0:0:
256,192,144492,1,12,0:0:0:0:
256,192,144992,1,8,0:0:0:0:
256,192,145158,1,0,0:0:0:0:
256,192,145658,1,8,0:0:0:0:
256,192,145825,1,8,0:0:0:0:
256,192,146325,1,0,0:0:0:0:
256,192,146492,1,8,0:0:0:0:
256,192,146992,1,8,0:0:0:0:
256,192,147158,1,12,0:0:0:0:
256,192,147658,1,0,0:0:0:0:
256,192,147825,1,8,0:0:0:0:
256,192,148325,1,0,0:0:0:0:
256,192,148492,1,8,0:0:0:0:
256,192,148658,1,0,0:0:0:0:
256,192,149158,1,0,0:0:0:0:
256,192,149325,1,0,0:0:0:0:
256,192,149492,1,8,0:0:0:0:
256,192,149825,1,4,0:0:0:0:
256,192,150269,1,4,0:0:0:0:
256,192,150491,1,12,0:0:0:0:
256,192,151158,1,4,0:0:0:0:
256,192,151602,1,4,0:0:0:0:
256,192,151825,1,12,0:0:0:0:
256,192,152491,1,4,0:0:0:0:
256,192,152936,1,4,0:0:0:0:
256,192,153158,1,12,0:0:0:0:
256,192,153824,1,0,0:0:0:0:
256,192,154158,1,0,0:0:0:0:
256,192,154380,1,0,0:0:0:0:
256,192,154491,1,8,0:0:0:0:
256,192,154824,1,0,0:0:0:0:
256,192,155158,1,12,0:0:0:0:
256,192,155603,1,4,0:0:0:0:
256,192,155825,1,12,0:0:0:0:
256,192,156491,1,12,0:0:0:0:
256,192,156936,1,4,0:0:0:0:
256,192,157158,1,12,0:0:0:0:
256,192,157824,1,12,0:0:0:0:
256,192,158269,1,4,0:0:0:0:
256,192,158491,1,12,0:0:0:0:
256,192,159158,1,8,0:0:0:0:
256,192,159492,1,0,0:0:0:0:
256,192,159714,1,0,0:0:0:0:
256,192,159825,1,8,0:0:0:0:
256,192,160158,1,0,0:0:0:0:
256,192,160492,1,8,0:0:0:0:
256,192,160825,1,12,0:0:0:0:
256,192,161158,1,4,0:0:0:0:
256,192,161603,1,4,0:0:0:0:
256,192,162158,1,12,0:0:0:0:
256,192,162492,1,4,0:0:0:0:
256,192,162936,1,4,0:0:0:0:
256,192,163492,1,12,0:0:0:0:
256,192,163825,1,4,0:0:0:0:
256,192,164270,1,4,0:0:0:0:
256,192,164825,1,8,0:0:0:0:
256,192,165158,1,4,0:0:0:0:
256,192,165603,1,4,0:0:0:0:
256,192,165992,1,0,0:0:0:0:
256,192,166158,1,0,0:0:0:0:
256,192,166325,1,8,0:0:0:0:
256,192,166658,1,0,0:0:0:0:
256,192,166825,1,8,0:0:0:0:
256,192,167158,1,12,0:0:0:0:
256,192,167658,1,12,0:0:0:0:
256,192,168158,1,12,0:0:0:0:
256,192,168492,1,12,0:0:0:0:
256,192,168992,1,0,0:0:0:0:
256,192,169159,1,8,0:0:0:0:
256,192,169659,1,8,0:0:0:0:
256,192,169826,1,8,0:0:0:0:
256,192,170326,1,8,0:0:0:0:
256,192,170492,1,0,0:0:0:0:
256,192,170992,1,8,0:0:0:0:
256,192,171159,1,12,0:0:0:0:
256,192,171659,1,0,0:0:0:0:
256,192,171826,1,8,0:0:0:0:
256,192,172326,1,8,0:0:0:0:
256,192,172492,1,0,0:0:0:0:
256,192,172658,1,12,0:0:0:0:
256,192,173159,1,8,0:0:0:0:
256,192,173408,1,8,0:0:0:0:
256,192,173659,1,0,0:0:0:0:
256,192,173826,1,12,0:0:0:0:
256,192,174326,1,8,0:0:0:0:
256,192,174492,1,0,0:0:0:0:
256,192,174992,1,8,0:0:0:0:
256,192,175159,1,8,0:0:0:0:
256,192,175659,1,8,0:0:0:0:
256,192,175826,1,0,0:0:0:0:
256,192,176326,1,0,0:0:0:0:
256,192,176492,1,12,0:0:0:0:
256,192,176992,1,0,0:0:0:0:
256,192,177159,1,8,0:0:0:0:
256,192,177659,1,8,0:0:0:0:
256,192,177826,1,8,0:0:0:0:
256,192,178492,1,0,0:0:0:0:
256,192,178658,1,0,0:0:0:0:
256,192,178825,1,8,0:0:0:0:
256,192,179158,1,4,0:0:0:0:
256,192,179603,1,4,0:0:0:0:
256,192,179825,1,12,0:0:0:0:
256,192,180492,1,4,0:0:0:0:
256,192,180936,1,4,0:0:0:0:
256,192,181159,1,12,0:0:0:0:
256,192,181825,1,4,0:0:0:0:
256,192,182270,1,4,0:0:0:0:
256,192,182492,1,12,0:0:0:0:
256,192,183158,1,0,0:0:0:0:
256,192,183492,1,8,0:0:0:0:
256,192,183825,1,0,0:0:0:0:
256,192,184047,1,0,0:0:0:0:
256,192,184158,1,8,0:0:0:0:
256,192,184492,1,12,0:0:0:0:
256,192,184936,1,4,0:0:0:0:
256,192,185159,1,12,0:0:0:0:
256,192,185825,1,12,0:0:0:0:
256,192,186270,1,4,0:0:0:0:
256,192,186492,1,12,0:0:0:0:
256,192,187158,1,12,0:0:0:0:
256,192,187603,1,4,0:0:0:0:
256,192,187825,1,12,0:0:0:0:
256,192,188492,1,12,0:0:0:0:
256,192,188936,1,0,0:0:0:0:
256,192,189158,1,8,0:0:0:0:
256,192,189603,1,0,0:0:0:0:
256,192,189825,1,12,0:0:0:0:
