osu file format v14

[General]
AudioFilename: audio.mp3
AudioLeadIn: 0
PreviewTime: 63158
Countdown: 0
SampleSet: Normal
StackLeniency: 0.7
Mode: 1
LetterboxInBreaks: 0
WidescreenStoryboard: 0

[Editor]
Bookmarks: 492,7158,19158,29825,43158,53825,64492,75158,85825,96492,117825,128492,139158,149825,168492,179158,189825
DistanceSpacing: 0.1
BeatDivisor: 4
GridSize: 32
TimelineZoom: 2.2

[Metadata]
Title:Poinsettia
TitleUnicode:Poinsettia
Artist:IOSYS
ArtistUnicode:IOSYS
Creator:eiri-
Version:AyyLazy's Muzukashii
Source:東方風神録 ~ Mountain of Faith.
Tags:Ayyri guro salchow Realazy Real Nepuri Nepu 東方Project Touhou Team Shanghai Alice Touhou Sanae Kochiya 東風谷 早苗 The Primal Scene of Japan the Girl Saw 少女が見た日本の原風景 Stage 5 Shoujo ga mita nihon no genfuukei Theme bloom MoF TH10 TH 10 Reitaisai 6 R6 IO-0155 ARM
BeatmapID:1678182
BeatmapSetID:799276

[Difficulty]
HPDrainRate:5
CircleSize:2
OverallDifficulty:5
ApproachRate:10
SliderMultiplier:1.4
SliderTickRate:1

[Events]
//Background and Video events
0,0,"Sanae 485.jpg",0,65
//Break Periods
//Storyboard Layer 0 (Background)
//Storyboard Layer 1 (Fail)
//Storyboard Layer 2 (Pass)
//Storyboard Layer 3 (Foreground)
//Storyboard Sound Samples

[TimingPoints]
7159,333.333333333333,4,1,0,75,1,0
19158,-100,4,1,0,75,0,1
29825,-100,4,1,0,75,0,0
64492,-100,4,1,0,75,0,1
75158,-100,4,1,0,75,0,0
139158,-100,4,1,0,75,0,1
149825,-100,4,1,0,75,0,0
168492,-100,4,1,0,75,0,1
179158,-100,4,1,0,75,0,0

[HitObjects]
256,192,7158,5,8,0:0:0:0:
256,192,7492,1,8,0:0:0:0:
256,192,7658,1,8,0:0:0:0:
256,192,7825,1,0,0:0:0:0:
256,192,7908,1,0,0:0:0:0:
256,192,7992,1,0,0:0:0:0:
256,192,8158,1,0,0:0:0:0:
256,192,8492,1,12,0:0:0:0:
256,192,8825,1,8,0:0:0:0:
256,192,8992,1,8,0:0:0:0:
256,192,9325,1,0,0:0:0:0:
256,192,9658,1,12,0:0:0:0:
256,192,9992,1,0,0:0:0:0:
256,192,10158,1,8,0:0:0:0:
256,192,10658,1,0,0:0:0:0:
256,192,10825,1,8,0:0:0:0:
256,192,11158,1,12,0:0:0:0:
256,192,11492,1,8,0:0:0:0:
256,192,11658,1,8,0:0:0:0:
256,192,11992,1,0,0:0:0:0:
256,192,12325,1,8,0:0:0:0:
256,192,12658,1,0,0:0:0:0:
256,192,12825,1,8,0:0:0:0:
256,192,12992,1,8,0:0:0:0:
256,192,13158,1,0,0:0:0:0:
256,192,13325,1,0,0:0:0:0:
256,192,13492,1,8,0:0:0:0:
256,192,13825,1,12,0:0:0:0:
256,192,14158,1,8,0:0:0:0:
256,192,14325,1,8,0:0:0:0:
256,192,14658,1,0,0:0:0:0:
256,192,14992,1,12,0:0:0:0:
256,192,15325,1,0,0:0:0:0:
256,192,15492,1,8,0:0:0:0:
256,192,15825,1,0,0:0:0:0:
256,192,16158,1,8,0:0:0:0:
256,192,16492,1,12,0:0:0:0:
256,192,16825,1,0,0:0:0:0:
256,192,16992,1,8,0:0:0:0:
256,192,17325,1,0,0:0:0:0:
256,192,17658,1,8,0:0:0:0:
256,192,17992,1,0,0:0:0:0:
256,192,18158,1,12,0:0:0:0:
256,192,18492,1,12,0:0:0:0:
256,192,18825,1,0,0:0:0:0:
256,192,18908,1,0,0:0:0:0:
256,192,18992,1,0,0:0:0:0:
256,192,19158,1,12,0:0:0:0:
256,192,19408,1,8,0:0:0:0:
256,192,19658,1,0,0:0:0:0:
256,192,19825,1,0,0:0:0:0:
256,192,20325,1,8,0:0:0:0:
256,192,20492,1,8,0:0:0:0:
256,192,20742,1,8,0:0:0:0:
256,192,20992,1,0,0:0:0:0:
256,192,21158,1,8,0:0:0:0:
256,192,21658,1,8,0:0:0:0:
256,192,21825,1,12,0:0:0:0:
256,192,22075,1,8,0:0:0:0:
256,192,22325,1,0,0:0:0:0:
256,192,22492,1,0,0:0:0:0:
256,192,22742,1,0,0:0:0:0:
256,192,22992,1,8,0:0:0:0:
256,192,23158,1,0,0:0:0:0:
256,192,23325,1,12,0:0:0:0:
256,192,23825,1,8,0:0:0:0:
256,192,23992,1,8,0:0:0:0:
256,192,24075,1,8,0:0:0:0:
256,192,24242,1,0,0:0:0:0:
256,192,24325,1,0,0:0:0:0:
256,192,24492,1,12,0:0:0:0:
256,192,24742,1,8,0:0:0:0:
256,192,24992,1,0,0:0:0:0:
256,192,25158,1,8,0:0:0:0:
256,192,25658,1,8,0:0:0:0:
256,192,25825,1,8,0:0:0:0:
256,192,26075,1,8,0:0:0:0:
256,192,26325,1,0,0:0:0:0:
256,192,26492,1,0,0:0:0:0:
256,192,26992,1,8,0:0:0:0:
256,192,27158,1,12,0:0:0:0:
256,192,27408,1,8,0:0:0:0:
256,192,27658,1,0,0:0:0:0:
256,192,27825,1,8,0:0:0:0:
256,192,28075,1,0,0:0:0:0:
256,192,28325,1,8,0:0:0:0:
256,192,28492,1,8,0:0:0:0:
256,192,29158,1,0,0:0:0:0:
256,192,29325,1,0,0:0:0:0:
256,192,29408,1,0,0:0:0:0:
256,192,29492,1,0,0:0:0:0:
256,192,29658,1,8,0:0:0:0:
256,192,29825,1,8,0:0:0:0:
256,192,29992,1,8,0:0:0:0:
256,192,30158,1,4,0:0:0:0:
256,192,30492,1,12,0:0:0:0:
256,192,30825,1,0,0:0:0:0:
256,192,30992,1,12,0:0:0:0:
256,192,31325,1,0,0:0:0:0:
256,192,31492,1,12,0:0:0:0:
256,192,31658,1,12,0:0:0:0:
256,192,31825,1,0,0:0:0:0:
256,192,32158,1,8,0:0:0:0:
256,192,32492,1,12,0:0:0:0:
256,192,32658,1,0,0:0:0:0:
256,192,32992,1,0,0:0:0:0:
256,192,33158,1,8,0:0:0:0:
256,192,33325,1,0,0:0:0:0:
256,192,33825,1,0,0:0:0:0:
256,192,33992,1,0,0:0:0:0:
256,192,34158,1,8,0:0:0:0:
256,192,34325,1,0,0:0:0:0:
256,192,34658,1,0,0:0:0:0:
256,192,34825,1,8,0:0:0:0:
256,192,35158,1,12,0:0:0:0:
256,192,35324,1,0,0:0:0:0:
256,192,35658,1,0,0:0:0:0:
256,192,35824,1,8,0:0:0:0:
256,192,35991,1,0,0:0:0:0:
256,192,36325,1,8,0:0:0:0:
256,192,36408,1,8,0:0:0:0:
256,192,36491,1,8,0:0:0:0:
256,192,36658,1,4,0:0:0:0:
256,192,36824,1,12,0:0:0:0:
256,192,37158,1,8,0:0:0:0:
256,192,37324,1,0,0:0:0:0:
256,192,37408,1,0,0:0:0:0:
256,192,37491,1,0,0:0:0:0:
256,192,37658,1,0,0:0:0:0:
256,192,37825,1,12,0:0:0:0:
256,192,37991,1,0,0:0:0:0:
256,192,38325,1,0,0:0:0:0:
256,192,38491,1,8,0:0:0:0:
256,192,38658,1,0,0:0:0:0:
256,192,39158,1,0,0:0:0:0:
256,192,39325,1,0,0:0:0:0:
256,192,39491,1,8,0:0:0:0:
256,192,39658,1,0,0:0:0:0:
256,192,39991,1,0,0:0:0:0:
256,192,40158,1,8,0:0:0:0:
256,192,40491,1,12,0:0:0:0:
256,192,40657,1,0,0:0:0:0:
256,192,40991,1,0,0:0:0:0:
256,192,41157,1,8,0:0:0:0:
256,192,41324,1,0,0:0:0:0:
256,192,41658,1,8,0:0:0:0:
256,192,41741,1,8,0:0:0:0:
256,192,41824,1,8,0:0:0:0:
256,192,41991,1,0,0:0:0:0:
256,192,42157,1,8,0:0:0:0:
256,192,42324,1,0,0:0:0:0:
256,192,42492,1,8,0:0:0:0:
256,192,42824,1,0,0:0:0:0:
256,192,42908,1,0,0:0:0:0:
256,192,42991,1,0,0:0:0:0:
256,192,43157,1,12,0:0:0:0:
256,192,43492,1,8,0:0:0:0:
256,192,43658,1,0,0:0:0:0:
256,192,43992,1,0,0:0:0:0:
256,192,44075,1,0,0:0:0:0:
256,192,44158,1,0,0:0:0:0:
256,192,44325,1,0,0:0:0:0:
256,192,44492,1,8,0:0:0:0:
256,192,44825,1,0,0:0:0:0:
256,192,44992,1,8,0:0:0:0:
256,192,45325,1,8,0:0:0:0:
256,192,45492,1,8,0:0:0:0:
256,192,45658,1,0,0:0:0:0:
256,192,45825,1,12,0:0:0:0:
256,192,46158,1,8,0:0:0:0:
256,192,46325,1,0,0:0:0:0:
256,192,46658,1,0,0:0:0:0:
256,192,46825,1,8,0:0:0:0:
256,192,47325,1,4,0:0:0:0:
256,192,47492,1,8,0:0:0:0:
256,192,47658,1,0,0:0:0:0:
256,192,47825,1,8,0:0:0:0:
256,192,47992,1,0,0:0:0:0:
256,192,48075,1,0,0:0:0:0:
256,192,48158,1,0,0:0:0:0:
256,192,48325,1,0,0:0:0:0:
256,192,48492,1,12,0:0:0:0:
256,192,48825,1,8,0:0:0:0:
256,192,48992,1,0,0:0:0:0:
256,192,49325,1,0,0:0:0:0:
256,192,49408,1,0,0:0:0:0:
256,192,49492,1,0,0:0:0:0:
256,192,49658,1,8,0:0:0:0:
256,192,49825,1,0,0:0:0:0:
256,192,50158,1,8,0:0:0:0:
256,192,50492,1,8,0:0:0:0:
256,192,50658,1,0,0:0:0:0:
256,192,50825,1,8,0:0:0:0:
256,192,50992,1,8,0:0:0:0:
256,192,51158,1,4,0:0:0:0:
256,192,51992,1,0,0:0:0:0:
256,192,52158,1,8,0:0:0:0:
256,192,52325,1,0,0:0:0:0:
256,192,52492,1,8,0:0:0:0:
256,192,52658,1,8,0:0:0:0:
256,192,52742,1,8,0:0:0:0:
256,192,52825,1,8,0:0:0:0:
256,192,53158,1,12,0:0:0:0:
256,192,53325,1,0,0:0:0:0:
256,192,53408,1,0,0:0:0:0:
256,192,53492,1,0,0:0:0:0:
256,192,53658,1,0,0:0:0:0:
256,192,53825,1,12,0:0:0:0:
256,192,54075,1,0,0:0:0:0:
256,192,54158,1,0,0:0:0:0:
256,192,54325,1,8,0:0:0:0:
256,192,54492,1,0,0:0:0:0:
256,192,54742,1,0,0:0:0:0:
256,192,54992,1,8,0:0:0:0:
256,192,55158,1,8,0:0:0:0:
256,192,55825,1,0,0:0:0:0:
256,192,56075,1,8,0:0:0:0:
256,192,56325,1,0,0:0:0:0:
256,192,56492,1,12,0:0:0:0:
256,192,56825,1,8,0:0:0:0:
256,192,56992,1,0,0:0:0:0:
256,192,57158,1,8,0:0:0:0:
256,192,57242,1,8,0:0:0:0:
256,192,57325,1,8,0:0:0:0:
256,192,57492,1,0,0:0:0:0:
256,192,57825,1,8,0:0:0:0:
256,192,57992,1,0,0:0:0:0:
256,192,58158,1,8,0:0:0:0:
256,192,58325,1,0,0:0:0:0:
256,192,58408,1,0,0:0:0:0:
256,192,58492,1,0,0:0:0:0:
256,192,58658,1,8,0:0:0:0:
256,192,58825,1,0,0:0:0:0:
256,192,59158,1,12,0:0:0:0:
256,192,59325,1,0,0:0:0:0:
256,192,59492,1,8,0:0:0:0:
256,192,59658,1,4,0:0:0:0:
256,192,59992,1,0,0:0:0:0:
256,192,60158,1,12,0:0:0:0:
256,192,60492,1,8,0:0:0:0:
256,192,60658,1,4,0:0:0:0:
256,192,60992,1,0,0:0:0:0:
256,192,61158,1,12,0:0:0:0:
256,192,61408,1,0,0:0:0:0:
256,192,61658,1,0,0:0:0:0:
256,192,61825,1,8,0:0:0:0:
256,192,61908,1,8,0:0:0:0:
256,192,62158,1,12,0:0:0:0:
256,192,62408,1,0,0:0:0:0:
256,192,62492,1,0,0:0:0:0:
256,192,62658,1,0,0:0:0:0:
256,192,62825,1,12,0:0:0:0:
256,192,63158,1,4,0:0:0:0:
256,192,63408,1,4,0:0:0:0:
256,192,63658,1,4,0:0:0:0:
256,192,63825,1,8,0:0:0:0:
256,192,63908,1,8,0:0:0:0:
256,192,63992,1,8,0:0:0:0:
256,192,64158,1,0,0:0:0:0:
256,192,64325,1,0,0:0:0:0:
256,192,64492,1,12,0:0:0:0:
256,192,64742,1,8,0:0:0:0:
256,192,64992,1,0,0:0:0:0:
256,192,65159,1,8,0:0:0:0:
256,192,65659,1,8,0:0:0:0:
256,192,65826,1,8,0:0:0:0:
256,192,66076,1,8,0:0:0:0:
256,192,66326,1,8,0:0:0:0:
256,192,66492,1,0,0:0:0:0:
256,192,66992,1,8,0:0:0:0:
256,192,67159,1,12,0:0:0:0:
256,192,67409,1,8,0:0:0:0:
256,192,67659,1,0,0:0:0:0:
256,192,67826,1,8,0:0:0:0:
256,192,68076,1,0,0:0:0:0:
256,192,68326,1,8,0:0:0:0:
256,192,68492,1,0,0:0:0:0:
256,192,68658,1,12,0:0:0:0:
256,192,69159,1,8,0:0:0:0:
256,192,69326,1,8,0:0:0:0:
256,192,69409,1,8,0:0:0:0:
256,192,69576,1,0,0:0:0:0:
256,192,69659,1,0,0:0:0:0:
256,192,69826,1,12,0:0:0:0:
256,192,70076,1,8,0:0:0:0:
256,192,70326,1,0,0:0:0:0:
256,192,70492,1,8,0:0:0:0:
256,192,70992,1,8,0:0:0:0:
256,192,71159,1,8,0:0:0:0:
256,192,71409,1,8,0:0:0:0:
256,192,71659,1,8,0:0:0:0:
256,192,71826,1,0,0:0:0:0:
256,192,72326,1,8,0:0:0:0:
256,192,72492,1,12,0:0:0:0:
256,192,72742,1,8,0:0:0:0:
256,192,72992,1,0,0:0:0:0:
256,192,73159,1,8,0:0:0:0:
256,192,73409,1,0,0:0:0:0:
256,192,73659,1,8,0:0:0:0:
256,192,73826,1,8,0:0:0:0:
256,192,74492,1,0,0:0:0:0:
256,192,74575,1,0,0:0:0:0:
256,192,74658,1,0,0:0:0:0:
256,192,74825,1,8,0:0:0:0:
256,192,74992,1,0,0:0:0:0:
256,192,75158,1,4,0:0:0:0:
256,192,75603,1,4,0:0:0:0:
256,192,75825,1,12,0:0:0:0:
256,192,76270,1,12,0:0:0:0:
256,192,76492,1,4,0:0:0:0:
256,192,76937,1,4,0:0:0:0:
256,192,77159,1,12,0:0:0:0:
256,192,77825,1,4,0:0:0:0:
256,192,78048,1,4,0:0:0:0:
256,192,78270,1,4,0:0:0:0:
256,192,78492,1,12,0:0:0:0:
256,192,78936,1,12,0:0:0:0:
256,192,79158,1,0,0:0:0:0:
256,192,79381,1,0,0:0:0:0:
256,192,79492,1,8,0:0:0:0:
256,192,79825,1,0,0:0:0:0:
256,192,80047,1,0,0:0:0:0:
256,192,80158,1,8,0:0:0:0:
256,192,80492,1,12,0:0:0:0:
256,192,80715,1,4,0:0:0:0:
256,192,80937,1,4,0:0:0:0:
256,192,81159,1,12,0:0:0:0:
256,192,81825,1,12,0:0:0:0:
256,192,82048,1,4,0:0:0:0:
256,192,82270,1,4,0:0:0:0:
256,192,82492,1,12,0:0:0:0:
256,192,82936,1,4,0:0:0:0:
256,192,83158,1,12,0:0:0:0:
256,192,83381,1,4,0:0:0:0:
256,192,83603,1,4,0:0:0:0:
256,192,83825,1,12,0:0:0:0:
256,192,84492,1,12,0:0:0:0:
256,192,84658,1,0,0:0:0:0:
256,192,84825,1,8,0:0:0:0:
256,192,84992,1,8,0:0:0:0:
256,192,85158,1,0,0:0:0:0:
256,192,85325,1,8,0:0:0:0:
256,192,85492,1,0,0:0:0:0:
256,192,85575,1,0,0:0:0:0:
256,192,85658,1,0,0:0:0:0:
256,192,85825,1,12,0:0:0:0:
256,192,86158,1,8,0:0:0:0:
256,192,86325,1,0,0:0:0:0:
256,192,86658,1,0,0:0:0:0:
256,192,86742,1,0,0:0:0:0:
256,192,86825,1,0,0:0:0:0:
256,192,86992,1,8,0:0:0:0:
256,192,87325,1,8,0:0:0:0:
256,192,87408,1,8,0:0:0:0:
256,192,87492,1,8,0:0:0:0:
256,192,87658,1,0,0:0:0:0:
256,192,87825,1,8,0:0:0:0:
256,192,87992,1,8,0:0:0:0:
256,192,88158,1,0,0:0:0:0:
256,192,88492,1,12,0:0:0:0:
256,192,88992,1,12,0:0:0:0:
256,192,89325,1,12,0:0:0:0:
256,192,89492,1,0,0:0:0:0:
256,192,89658,1,12,0:0:0:0:
256,192,89992,1,8,0:0:0:0:
256,192,90158,1,0,0:0:0:0:
256,192,90325,1,0,0:0:0:0:
256,192,90658,1,0,0:0:0:0:
256,192,90742,1,0,0:0:0:0:
256,192,90825,1,0,0:0:0:0:
256,192,90992,1,8,0:0:0:0:
256,192,91158,1,12,0:0:0:0:
256,192,91492,1,8,0:0:0:0:
256,192,91658,1,0,0:0:0:0:
256,192,91992,1,8,0:0:0:0:
256,192,92075,1,8,0:0:0:0:
256,192,92158,1,8,0:0:0:0:
256,192,92325,1,0,0:0:0:0:
256,192,92492,1,8,0:0:0:0:
256,192,92658,1,0,0:0:0:0:
256,192,92825,1,8,0:0:0:0:
256,192,92992,1,0,0:0:0:0:
256,192,93492,1,0,0:0:0:0:
256,192,93658,1,0,0:0:0:0:
256,192,93825,1,12,0:0:0:0:
256,192,93992,1,0,0:0:0:0:
256,192,94075,1,0,0:0:0:0:
256,192,94158,1,0,0:0:0:0:
256,192,94325,1,8,0:0:0:0:
256,192,94658,1,12,0:0:0:0:
256,192,94825,1,0,0:0:0:0:
256,192,94992,1,12,0:0:0:0:
256,192,95492,1,0,0:0:0:0:
256,192,95658,1,8,0:0:0:0:
256,192,95992,1,8,0:0:0:0:
256,192,96075,1,8,0:0:0:0:
256,192,96158,1,8,0:0:0:0:
256,192,96325,1,0,0:0:0:0:
256,192,96492,1,12,0:0:0:0:
256,192,96825,1,0,0:0:0:0:
256,192,97492,1,0,0:0:0:0:
256,192,97825,1,0,0:0:0:0:
256,192,97992,1,8,0:0:0:0:
256,192,98158,1,0,0:0:0:0:
256,192,98492,1,0,0:0:0:0:
256,192,98658,1,8,0:0:0:0:
256,192,98825,1,0,0:0:0:0:
256,192,98992,1,8,0:0:0:0:
256,192,99158,1,0,0:0:0:0:
256,192,99492,1,0,0:0:0:0:
256,192,99825,1,0,0:0:0:0:
256,192,99992,1,8,0:0:0:0:
256,192,100158,1,0,0:0:0:0:
256,192,100325,1,8,0:0:0:0:
256,192,100492,1,0,0:0:0:0:
256,192,100658,1,8,0:0:0:0:
256,192,100825,1,0,0:0:0:0:
256,192,101492,1,0,0:0:0:0:
256,192,101658,1,0,0:0:0:0:
256,192,101825,1,12,0:0:0:0:
256,192,102158,1,8,0:0:0:0:
256,192,102325,1,8,0:0:0:0:
256,192,102658,1,0,0:0:0:0:
256,192,102992,1,12,0:0:0:0:
256,192,103325,1,0,0:0:0:0:
256,192,103492,1,8,0:0:0:0:
256,192,103825,1,0,0:0:0:0:
256,192,104158,1,8,0:0:0:0:
256,192,104492,1,12,0:0:0:0:
256,192,104825,1,0,0:0:0:0:
256,192,104992,1,8,0:0:0:0:
256,192,105325,1,0,0:0:0:0:
256,192,105658,1,8,0:0:0:0:
256,192,105992,1,0,0:0:0:0:
256,192,106158,1,12,0:0:0:0:
256,192,106492,1,12,0:0:0:0:
256,192,106825,1,0,0:0:0:0:
256,192,106908,1,0,0:0:0:0:
256,192,106992,1,0,0:0:0:0:
256,192,107158,1,12,0:0:0:0:
256,192,107658,1,0,0:0:0:0:
256,192,107825,1,8,0:0:0:0:
256,192,108158,1,0,0:0:0:0:
256,192,108492,1,8,0:0:0:0:
256,192,108658,1,8,0:0:0:0:
256,192,108825,1,0,0:0:0:0:
256,192,109158,1,8,0:0:0:0:
256,192,109492,1,0,0:0:0:0:
256,192,109575,1,0,0:0:0:0:
256,192,109658,1,0,0:0:0:0:
256,192,109825,1,12,0:0:0:0:
256,192,110325,1,0,0:0:0:0:
256,192,110492,1,8,0:0:0:0:
256,192,110825,1,0,0:0:0:0:
256,192,110992,1,8,0:0:0:0:
256,192,111075,1,8,0:0:0:0:
256,192,111158,1,8,0:0:0:0:
256,192,111325,1,0,0:0:0:0:
256,192,111492,1,8,0:0:0:0:
256,192,111825,1,0,0:0:0:0:
256,192,112158,1,8,0:0:0:0:
256,192,112492,1,0,0:0:0:0:
256,192,112714,1,0,0:0:0:0:
256,192,112936,1,0,0:0:0:0:
256,192,113158,1,12,0:0:0:0:
256,192,113492,1,8,0:0:0:0:
256,192,113825,1,0,0:0:0:0:
256,192,113992,1,8,0:0:0:0:
256,192,114158,1,0,0:0:0:0:
256,192,114492,1,8,0:0:0:0:
256,192,114825,1,0,0:0:0:0:
256,192,114908,1,0,0:0:0:0:
256,192,114992,1,0,0:0:0:0:
256,192,115158,1,12,0:0:0:0:
256,192,115658,1,0,0:0:0:0:
256,192,115825,1,8,0:0:0:0:
256,192,116158,1,0,0:0:0:0:
256,192,116325,1,0,0:0:0:0:
256,192,116492,1,12,0:0:0:0:
256,192,117158,1,0,0:0:0:0:
256,192,117242,1,0,0:0:0:0:
256,192,117492,1,8,0:0:0:0:
256,192,117658,1,0,0:0:0:0:
256,192,117825,1,12,0:0:0:0:
256,192,118158,1,8,0:0:0:0:
256,192,118325,1,0,0:0:0:0:
256,192,118408,1,0,0:0:0:0:
256,192,118658,1,0,0:0:0:0:
256,192,118825,1,8,0:0:0:0:
256,192,119158,1,8,0:0:0:0:
256,192,119325,1,0,0:0:0:0:
256,192,119408,1,0,0:0:0:0:
256,192,119492,1,0,0:0:0:0:
256,192,119658,1,8,0:0:0:0:
256,192,119992,1,0,0:0:0:0:
256,192,120158,1,8,0:0:0:0:
256,192,120492,1,12,0:0:0:0:
256,192,120825,1,0,0:0:0:0:
256,192,120992,1,8,0:0:0:0:
256,192,121325,1,0,0:0:0:0:
256,192,121492,1,8,0:0:0:0:
256,192,121992,1,4,0:0:0:0:
256,192,122158,1,8,0:0:0:0:
256,192,122325,1,0,0:0:0:0:
256,192,122492,1,8,0:0:0:0:
256,192,122658,1,0,0:0:0:0:
256,192,122742,1,0,0:0:0:0:
256,192,122825,1,0,0:0:0:0:
256,192,122992,1,0,0:0:0:0:
256,192,123158,1,12,0:0:0:0:
256,192,123491,1,8,0:0:0:0:
256,192,123658,1,0,0:0:0:0:
256,192,123991,1,0,0:0:0:0:
256,192,124158,1,8,0:0:0:0:
256,192,124491,1,8,0:0:0:0:
256,192,125158,1,0,0:0:0:0:
256,192,125325,1,8,0:0:0:0:
256,192,125492,1,0,0:0:0:0:
256,192,125658,1,8,0:0:0:0:
256,192,125825,1,4,0:0:0:0:
256,192,126158,1,8,0:0:0:0:
256,192,126659,1,0,0:0:0:0:
256,192,126825,1,8,0:0:0:0:
256,192,127158,1,8,0:0:0:0:
256,192,127242,1,8,0:0:0:0:
256,192,127325,1,8,0:0:0:0:
256,192,127492,1,0,0:0:0:0:
256,192,127658,1,8,0:0:0:0:
256,192,127825,1,0,0:0:0:0:
256,192,127908,1,0,0:0:0:0:
256,192,127992,1,0,0:0:0:0:
256,192,128158,1,8,0:0:0:0:
256,192,128492,1,12,0:0:0:0:
256,192,128742,1,0,0:0:0:0:
256,192,128825,1,0,0:0:0:0:
256,192,128992,1,8,0:0:0:0:
256,192,129159,1,0,0:0:0:0:
256,192,129409,1,0,0:0:0:0:
256,192,129659,1,8,0:0:0:0:
256,192,129825,1,8,0:0:0:0:
256,192,130492,1,0,0:0:0:0:
256,192,130575,1,0,0:0:0:0:
256,192,130742,1,8,0:0:0:0:
256,192,130992,1,0,0:0:0:0:
256,192,131159,1,12,0:0:0:0:
256,192,131492,1,8,0:0:0:0:
256,192,131659,1,0,0:0:0:0:
256,192,131825,1,8,0:0:0:0:
256,192,131992,1,8,0:0:0:0:
256,192,132159,1,0,0:0:0:0:
256,192,132492,1,8,0:0:0:0:
256,192,132659,1,0,0:0:0:0:
256,192,132825,1,8,0:0:0:0:
256,192,132992,1,0,0:0:0:0:
256,192,133075,1,0,0:0:0:0:
256,192,133159,1,0,0:0:0:0:
256,192,133325,1,8,0:0:0:0:
256,192,133492,1,0,0:0:0:0:
256,192,133825,1,12,0:0:0:0:
256,192,134325,1,4,0:0:0:0:
256,192,134659,1,0,0:0:0:0:
256,192,134825,1,12,0:0:0:0:
256,192,135159,1,8,0:0:0:0:
256,192,135325,1,4,0:0:0:0:
256,192,135659,1,0,0:0:0:0:
256,192,135825,1,12,0:0:0:0:
256,192,136075,1,0,0:0:0:0:
256,192,136325,1,0,0:0:0:0:
256,192,136492,1,8,0:0:0:0:
256,192,136575,1,8,0:0:0:0:
256,192,136825,1,12,0:0:0:0:
256,192,137075,1,0,0:0:0:0:
256,192,137159,1,0,0:0:0:0:
256,192,137325,1,0,0:0:0:0:
256,192,137492,1,12,0:0:0:0:
256,192,137825,1,4,0:0:0:0:
256,192,138075,1,4,0:0:0:0:
256,192,138325,1,4,0:0:0:0:
256,192,138492,1,8,0:0:0:0:
256,192,138575,1,8,0:0:0:0:
256,192,138659,1,8,0:0:0:0:
256,192,138825,1,0,0:0:0:0:
256,192,138992,1,0,0:0:0:0:
256,192,139158,1,12,0:0:0:0:
256,192,139408,1,8,0:0:0:0:
256,192,139658,1,0,0:0:0:0:
256,192,139825,1,0,0:0:0:0:
256,192,140325,1,8,0:0:0:0:
256,192,140492,1,8,0:0:0:0:
256,192,140742,1,8,0:0:0:0:
256,192,140992,1,0,0:0:0:0:
256,192,141158,1,8,0:0:0:0:
256,192,141658,1,8,0:0:0:0:
256,192,141825,1,12,0:0:0:0:
256,192,142075,1,8,0:0:0:0:
256,192,142325,1,0,0:0:0:0:
256,192,142492,1,0,0:0:0:0:
256,192,142742,1,0,0:0:0:0:
256,192,142992,1,8,0:0:0:0:
256,192,143158,1,0,0:0:0:0:
256,192,143325,1,12,0:0:0:0:
256,192,143825,1,8,0:0:0:0:
256,192,143992,1,8,0:0:0:0:
256,192,144075,1,8,0:0:0:0:
256,192,144242,1,0,0:0:0:0:
256,192,144325,1,0,0:0:0:0:
256,192,144492,1,12,0:0:0:0:
256,192,144742,1,8,0:0:0:0:
256,192,144992,1,0,0:0:0:0:
256,192,145158,1,8,0:0:0:0:
256,192,145658,1,8,0:0:0:0:
256,192,145825,1,8,0:0:0:0:
256,192,146075,1,8,0:0:0:0:
256,192,146325,1,0,0:0:0:0:
256,192,146492,1,0,0:0:0:0:
256,192,146992,1,8,0:0:0:0:
256,192,147158,1,12,0:0:0:0:
256,192,147408,1,8,0:0:0:0:
256,192,147658,1,0,0:0:0:0:
256,192,147825,1,8,0:0:0:0:
256,192,148075,1,0,0:0:0:0:
256,192,148325,1,8,0:0:0:0:
256,192,148492,1,8,0:0:0:0:
256,192,149158,1,0,0:0:0:0:
256,192,149242,1,0,0:0:0:0:
256,192,149325,1,0,0:0:0:0:
256,192,149492,1,8,0:0:0:0:
256,192,149658,1,0,0:0:0:0:
256,192,149825,1,4,0:0:0:0:
256,192,150270,1,4,0:0:0:0:
256,192,150492,1,12,0:0:0:0:
256,192,150937,1,12,0:0:0:0:
256,192,151159,1,4,0:0:0:0:
256,192,151604,1,4,0:0:0:0:
256,192,151826,1,12,0:0:0:0:
256,192,152492,1,4,0:0:0:0:
256,192,152715,1,4,0:0:0:0:
256,192,152937,1,4,0:0:0:0:
256,192,153159,1,12,0:0:0:0:
256,192,153603,1,12,0:0:0:0:
256,192,153825,1,0,0:0:0:0:
256,192,154048,1,0,0:0:0:0:
256,192,154159,1,8,0:0:0:0:
256,192,154492,1,0,0:0:0:0:
256,192,154714,1,0,0:0:0:0:
256,192,154825,1,8,0:0:0:0:
256,192,155159,1,12,0:0:0:0:
256,192,155382,1,4,0:0:0:0:
256,192,155604,1,4,0:0:0:0:
256,192,155826,1,12,0:0:0:0:
256,192,156492,1,12,0:0:0:0:
256,192,156715,1,4,0:0:0:0:
256,192,156937,1,4,0:0:0:0:
256,192,157159,1,12,0:0:0:0:
256,192,157603,1,4,0:0:0:0:
256,192,157825,1,12,0:0:0:0:
256,192,158048,1,4,0:0:0:0:
256,192,158270,1,4,0:0:0:0:
256,192,158492,1,12,0:0:0:0:
256,192,159159,1,12,0:0:0:0:
256,192,159492,1,0,0:0:0:0:
256,192,159714,1,0,0:0:0:0:
256,192,159825,1,8,0:0:0:0:
256,192,160158,1,0,0:0:0:0:
256,192,160381,1,0,0:0:0:0:
256,192,160492,1,8,0:0:0:0:
256,192,160825,1,12,0:0:0:0:
256,192,161158,1,4,0:0:0:0:
256,192,161381,1,4,0:0:0:0:
256,192,161603,1,4,0:0:0:0:
256,192,162158,1,12,0:0:0:0:
256,192,162492,1,4,0:0:0:0:
256,192,162714,1,4,0:0:0:0:
256,192,162936,1,4,0:0:0:0:
256,192,163492,1,12,0:0:0:0:
256,192,163825,1,4,0:0:0:0:
256,192,164047,1,4,0:0:0:0:
256,192,164270,1,4,0:0:0:0:
256,192,164825,1,8,0:0:0:0:
256,192,165158,1,4,0:0:0:0:
256,192,165381,1,4,0:0:0:0:
256,192,165603,1,4,0:0:0:0:
256,192,165992,1,0,0:0:0:0:
256,192,166158,1,0,0:0:0:0:
256,192,166325,1,8,0:0:0:0:
256,192,166492,1,8,0:0:0:0:
256,192,166658,1,0,0:0:0:0:
256,192,166825,1,8,0:0:0:0:
256,192,166992,1,0,0:0:0:0:
256,192,167158,1,12,0:0:0:0:
256,192,167492,1,0,0:0:0:0:
256,192,167658,1,12,0:0:0:0:
256,192,167992,1,0,0:0:0:0:
256,192,168158,1,12,0:0:0:0:
256,192,168492,1,12,0:0:0:0:
256,192,168742,1,8,0:0:0:0:
256,192,168992,1,0,0:0:0:0:
256,192,169159,1,8,0:0:0:0:
256,192,169659,1,8,0:0:0:0:
256,192,169826,1,8,0:0:0:0:
256,192,170076,1,8,0:0:0:0:
256,192,170326,1,8,0:0:0:0:
256,192,170492,1,0,0:0:0:0:
256,192,170742,1,0,0:0:0:0:
256,192,170992,1,8,0:0:0:0:
256,192,171159,1,12,0:0:0:0:
256,192,171409,1,8,0:0:0:0:
256,192,171659,1,0,0:0:0:0:
256,192,171826,1,8,0:0:0:0:
256,192,172076,1,0,0:0:0:0:
256,192,172326,1,8,0:0:0:0:
256,192,172492,1,0,0:0:0:0:
256,192,172658,1,12,0:0:0:0:
256,192,173159,1,8,0:0:0:0:
256,192,173325,1,0,0:0:0:0:
256,192,173409,1,0,0:0:0:0:
256,192,173576,1,0,0:0:0:0:
256,192,173659,1,0,0:0:0:0:
256,192,173826,1,12,0:0:0:0:
256,192,174076,1,8,0:0:0:0:
256,192,174326,1,0,0:0:0:0:
256,192,174492,1,8,0:0:0:0:
256,192,174992,1,8,0:0:0:0:
256,192,175159,1,8,0:0:0:0:
256,192,175409,1,8,0:0:0:0:
256,192,175659,1,8,0:0:0:0:
256,192,175826,1,0,0:0:0:0:
256,192,176076,1,0,0:0:0:0:
256,192,176326,1,8,0:0:0:0:
256,192,176492,1,12,0:0:0:0:
256,192,176742,1,8,0:0:0:0:
256,192,176992,1,0,0:0:0:0:
256,192,177159,1,8,0:0:0:0:
256,192,177409,1,0,0:0:0:0:
256,192,177659,1,8,0:0:0:0:
256,192,177826,1,8,0:0:0:0:
256,192,178492,1,0,0:0:0:0:
256,192,178575,1,0,0:0:0:0:
256,192,178658,1,0,0:0:0:0:
256,192,178825,1,8,0:0:0:0:
256,192,178992,1,0,0:0:0:0:
256,192,179158,1,4,0:0:0:0:
256,192,179603,1,4,0:0:0:0:
256,192,179825,1,12,0:0:0:0:
256,192,180270,1,12,0:0:0:0:
256,192,180492,1,4,0:0:0:0:
256,192,180937,1,4,0:0:0:0:
256,192,181159,1,12,0:0:0:0:
256,192,181825,1,4,0:0:0:0:
256,192,182048,1,4,0:0:0:0:
256,192,182270,1,4,0:0:0:0:
256,192,182492,1,12,0:0:0:0:
256,192,182936,1,12,0:0:0:0:
256,192,183158,1,0,0:0:0:0:
256,192,183381,1,0,0:0:0:0:
256,192,183492,1,8,0:0:0:0:
256,192,183825,1,0,0:0:0:0:
256,192,184047,1,0,0:0:0:0:
256,192,184158,1,8,0:0:0:0:
256,192,184492,1,12,0:0:0:0:
256,192,184715,1,4,0:0:0:0:
256,192,184937,1,4,0:0:0:0:
256,192,185159,1,12,0:0:0:0:
256,192,185825,1,12,0:0:0:0:
256,192,186048,1,4,0:0:0:0:
256,192,186270,1,4,0:0:0:0:
256,192,186492,1,12,0:0:0:0:
256,192,186936,1,4,0:0:0:0:
256,192,187158,1,12,0:0:0:0:
256,192,187381,1,4,0:0:0:0:
256,192,187603,1,4,0:0:0:0:
256,192,187825,1,12,0:0:0:0:
256,192,188492,1,12,0:0:0:0:
256,192,188714,1,0,0:0:0:0:
256,192,188936,1,0,0:0:0:0:
256,192,189158,1,8,0:0:0:0:
256,192,189381,1,0,0:0:0:0:
256,192,189603,1,0,0:0:0:0:
256,192,189825,1,12,0:0:0:0:
