osu file format v14

[General]
AudioFilename: audio.mp3
AudioLeadIn: 0
PreviewTime: 37274
Countdown: 0
SampleSet: Soft
StackLeniency: 0.7
Mode: 0
LetterboxInBreaks: 0
WidescreenStoryboard: 1

[Editor]
Bookmarks: 14024,26024,76649
DistanceSpacing: 1.3
BeatDivisor: 4
GridSize: 32
TimelineZoom: 3.399999

[Metadata]
Title:Miracle Hinacle
TitleUnicode:Miracle∞Hinacle
Artist:IOSYS
ArtistUnicode:IOSYS
Creator:Elcheer
Version:Jval's Advanced
Source:東方風神録 ~ Mountain of Faith.
Tags:ZUN 3L 鍵山 雛 かぎやま ひな Hina Kagiyama Touhou Such A Mystery doujin toho 厄神様の通り道 ~ Dark Road Stage 2 Theme IO-0146 東方想幽森雛 Soyu Shinpi comiket 74 ぼいど void 夕野ヨシミ Yoshimi Younopop The of the Apotropaic God Side Fate Fuujinroku japanese cut short version ver ver. vocal remix c79 pop j-pop jpop glaceon nightmare night mare xehn xen xenon- jval jval93700
BeatmapID:2402672
BeatmapSetID:980713

[Difficulty]
HPDrainRate:4.6
CircleSize:3.5
OverallDifficulty:5.2
ApproachRate:6.5
SliderMultiplier:1.22
SliderTickRate:1

[Events]
//Background and Video events
0,0,"bg.jpg",0,0
//Break Periods
//Storyboard Layer 0 (Background)
//Storyboard Layer 1 (Fail)
//Storyboard Layer 2 (Pass)
//Storyboard Layer 3 (Foreground)
//Storyboard Layer 4 (Overlay)
//Storyboard Sound Samples

[TimingPoints]
524,375,4,2,1,50,1,0
524,-100,4,2,1,50,0,0
38024,-90.9090909090909,4,2,1,50,0,1
49274,-90.9090909090909,4,2,1,50,0,0
50024,-90.9090909090909,4,2,1,50,0,1
61274,-100,4,2,1,50,0,0

[Colours]
Combo1 : 119,187,255
Combo2 : 0,255,128
Combo3 : 255,128,128

[HitObjects]
91,287,524,5,0,3:2:0:0:
91,287,711,2,0,L|83:219,2,61,8|8|0,0:2|0:2|3:2,0:0:0:0:
147,343,1274,2,0,L|215:334,1,61,8|8,0:2|0:2,0:0:0:0:
286,324,1649,1,8,0:2:0:0:
442,298,2024,6,0,P|454:242|416:171,1,122,6|10,3:2|0:2,0:0:0:0:
361,143,2586,1,2,3:2:0:0:
293,185,2774,2,0,L|216:179,1,61,2|0,3:2|0:0,0:0:0:0:
165,137,3149,1,8,0:0:0:0:
165,137,3336,2,0,P|177:182|144:259,1,122,2|2,3:2|3:2,0:0:0:0:
74,271,3899,2,0,L|66:195,1,61,10|2,0:2|3:2,0:0:0:0:
32,138,4274,2,0,L|40:62,1,61,2|0,0:2|3:2,0:0:0:0:
94,21,4649,1,10,0:2:0:0:
189,147,5024,6,0,B|238:140|238:140|268:153|268:153|326:144,1,122,0|10,3:2|0:2,0:0:0:0:
357,85,5586,1,0,3:2:0:0:
431,113,5774,2,0,P|465:103|506:106,2,61,2|2|10,0:2|3:2|0:2,0:0:0:0:
427,192,6336,2,0,P|450:249|424:323,1,122,2|2,3:2|3:2,0:0:0:0:
373,355,6899,2,0,L|302:342,1,61,10|2,0:2|3:2,0:0:0:0:
281,271,7274,2,0,L|352:258,1,61,2|0,0:0|3:0,0:0:0:0:
379,190,7649,1,10,0:0:0:0:
379,190,7836,1,10,0:2:0:0:
404,114,8024,6,0,P|358:85|286:104,1,122,6|10,3:2|0:2,0:0:0:0:
231,145,8586,1,2,3:2:0:0:
166,98,8774,2,0,L|156:23,1,61,2|0,3:2|0:0,0:0:0:0:
79,25,9149,1,8,0:0:0:0:
79,25,9336,2,0,L|65:154,1,122,2|2,3:2|3:2,0:0:0:0:
98,218,9899,2,0,P|141:223|179:210,1,61,10|2,0:2|3:2,0:0:0:0:
221,171,10274,2,0,P|264:166|302:179,1,61,2|0,0:2|3:2,0:0:0:0:
334,228,10649,1,10,0:2:0:0:
417,363,11024,5,0,3:2:0:0:
417,363,11211,2,0,L|491:352,2,61,8|10|0,0:2|0:2|3:2,0:0:0:0:
343,333,11774,2,0,L|274:325,1,61,10|10,0:2|0:2,0:0:0:0:
204,343,12149,1,10,0:2:0:0:
204,343,12336,1,10,0:2:0:0:
77,247,12711,6,0,P|39:248|10:259,2,61,8|0|0,0:2|3:2|3:2,0:0:0:0:
140,199,13274,2,0,P|181:202|208:196,1,61,0|0,3:2|3:2,0:0:0:0:
264,151,13649,1,8,0:2:0:0:
399,67,14024,5,2,3:2:0:0:
399,67,14211,2,0,B|426:112|426:112|417:199,1,122,0|0,0:0|3:2,0:0:0:0:
390,255,14774,1,2,0:2:0:0:
390,255,14961,2,0,L|316:252,1,61,2|10,3:2|0:2,0:0:0:0:
288,184,15336,2,0,P|226:163|159:203,1,122,2|0,3:2|0:2,0:0:0:0:
126,245,15899,2,0,L|118:312,1,61,10|2,0:2|3:2,0:0:0:0:
184,360,16274,1,2,3:2:0:0:
184,360,16461,1,0,0:0:0:0:
255,325,16649,2,0,P|293:322|331:332,1,61,8|2,0:2|3:2,0:0:0:0:
386,290,17024,5,2,3:2:0:0:
386,290,17211,2,0,P|425:246|415:169,1,122,2|2,0:2|3:2,0:0:0:0:
385,115,17774,1,2,0:2:0:0:
385,115,17961,2,0,L|315:109,1,61,2|8,0:2|0:2,0:0:0:0:
279,43,18336,2,0,P|245:93|262:160,1,122,2|0,3:2|0:2,0:0:0:0:
301,215,18899,2,0,P|306:259|301:282,1,61,10|2,0:2|3:2,0:0:0:0:
252,336,19274,2,0,L|186:334,1,61,2|0,3:2|0:2,0:0:0:0:
111,331,19649,1,8,0:2:0:0:
47,185,20024,5,6,3:2:0:0:
47,185,20211,2,0,B|96:176|96:176|125:186|125:186|168:179,1,122,2|2,0:2|3:2,0:0:0:0:
220,121,20774,1,2,0:2:0:0:
220,121,20961,2,0,P|230:86|232:54,1,61,2|8,0:2|0:2,0:0:0:0:
298,18,21336,2,0,P|339:18|406:67,1,122,2|2,3:2|0:2,0:0:0:0:
458,120,21899,2,0,L|449:203,1,61,10|0,0:2|3:2,0:0:0:0:
486,258,22274,1,2,0:2:0:0:
486,258,22461,1,0,3:2:0:0:
430,314,22649,2,0,L|361:313,1,61,10|0,0:2|0:2,0:0:0:0:
305,265,23024,5,2,3:2:0:0:
305,265,23211,2,0,P|237:241|181:263,1,122,2|2,0:2|3:2,0:0:0:0:
134,310,23774,1,2,0:2:0:0:
134,310,23961,2,0,L|56:299,1,61,0|8,3:2|0:2,0:0:0:0:
24,238,24336,2,0,B|11:186|11:186|39:95,1,122,6|0,3:2|0:2,0:0:0:0:
94,71,24899,1,10,0:2:0:0:
159,116,25086,2,0,B|234:94|220:135|301:112,1,122,6|0,3:2|0:2,0:0:0:0:
349,80,25649,1,10,0:2:0:0:
303,232,26024,6,0,P|336:275|421:282,1,122,6|8,3:2|0:2,0:0:0:0:
468,248,26586,1,0,3:2:0:0:
468,248,26774,2,0,L|466:175,1,61,2|2,0:2|3:2,0:0:0:0:
462,107,27149,1,10,0:2:0:0:
405,52,27336,2,0,B|354:46|354:46|327:62|327:62|280:58,1,122,2|0,3:2|0:2,0:0:0:0:
211,34,27899,2,0,P|166:29|132:42,1,61,8|0,0:2|3:2,0:0:0:0:
101,94,28274,2,0,L|90:167,1,61,0|0,0:2|3:2,0:0:0:0:
108,232,28649,1,10,0:2:0:0:
39,375,29024,6,0,P|92:348|169:367,1,122,2|8,3:2|0:2,0:0:0:0:
220,315,29586,1,0,3:2:0:0:
220,315,29774,2,0,P|256:309|297:317,1,61,2|2,0:2|3:2,0:0:0:0:
347,353,30149,1,10,0:2:0:0:
409,304,30336,2,0,P|432:255|413:185,1,122,2|0,3:2|0:2,0:0:0:0:
370,126,30899,2,0,P|365:89|381:46,1,61,10|2,0:2|3:2,0:0:0:0:
449,61,31274,2,0,P|454:98|438:141,1,61,2|2,0:2|3:2,0:0:0:0:
422,195,31649,1,8,0:2:0:0:
422,195,31836,1,8,0:2:0:0:
455,267,32024,6,0,P|404:295|330:280,1,122,2|8,3:2|0:2,0:0:0:0:
280,238,32586,2,0,B|231:233|231:233|208:248|208:248|157:245,1,122,0|0,3:2|3:2,0:0:0:0:
103,191,33149,2,0,P|98:150|110:115,1,61,8|2,0:2|3:2,0:0:0:0:
151,69,33524,1,0,0:0:0:0:
151,69,33711,1,0,0:2:0:0:
215,114,33899,2,0,L|281:121,1,61,8|0,0:2|3:2,0:0:0:0:
294,197,34274,2,0,L|228:204,1,61,0|0,0:2|3:2,0:0:0:0:
177,259,34649,1,10,0:2:0:0:
302,356,35024,5,10,0:2:0:0:
432,267,35399,1,8,0:2:0:0:
387,115,35774,1,8,0:2:0:0:
230,110,36149,2,0,P|179:98|160:89,1,61,10|0,0:2|3:2,0:0:0:0:
143,20,36524,2,0,P|101:51|102:141,1,122,2|2,3:2|3:2,0:0:0:0:
168,255,37274,2,0,L|175:334,1,61,2|2,0:2|0:2,0:0:0:0:
249,337,37649,2,0,L|254:276,1,61,2|2,0:2|0:2,0:0:0:0:
302,203,38024,6,0,B|378:178|365:232|448:206,1,134.200004095459,6|8,3:2|0:2,0:0:0:0:
489,144,38586,1,2,3:2:0:0:
443,69,38774,2,0,P|397:62|372:66,1,67.1000020477296,2|0,0:2|0:0,0:0:0:0:
303,112,39149,2,0,P|257:119|232:115,1,67.1000020477296,8|2,0:2|3:2,0:0:0:0:
183,46,39524,2,0,P|149:98|170:176,1,134.200004095459,2|8,3:2|0:2,0:0:0:0:
228,221,40086,2,0,P|260:214|294:216,2,67.1000020477296,0|0|0,3:2|0:2|3:2,0:0:0:0:
147,250,40649,1,8,0:2:0:0:
147,250,40836,1,0,3:2:0:0:
68,211,41024,6,0,B|33:182|33:182|17:127|61:77,1,134.200004095459,2|8,3:2|0:2,0:0:0:0:
116,46,41586,1,2,3:2:0:0:
192,88,41774,2,0,P|238:92|276:83,1,67.1000020477296,2|0,0:2|0:0,0:0:0:0:
326,34,42149,2,0,L|413:37,1,67.1000020477296,8|2,0:2|3:2,0:0:0:0:
457,95,42524,2,0,B|464:153|464:153|452:179|452:179|461:235,1,134.200004095459,2|8,3:2|0:2,0:0:0:0:
422,304,43086,2,0,P|444:343|452:373,2,67.1000020477296,0|0|0,3:2|0:2|3:2,0:0:0:0:
342,265,43649,1,8,0:2:0:0:
342,265,43836,1,8,0:2:0:0:
263,304,44024,6,0,P|199:291|131:320,2,134.200004095459,6|8|0,3:2|0:2|0:2,0:0:0:0:
336,352,44961,1,0,3:2:0:0:
415,313,45149,2,0,L|498:301,1,67.1000020477296,10|2,0:2|3:2,0:0:0:0:
506,219,45524,2,0,P|499:187|474:141,1,67.1000020477296,2|2,3:2|0:2,0:0:0:0:
429,87,45899,2,0,P|436:54|450:23,2,67.1000020477296,10|2|2,0:2|3:2|0:2,0:0:0:0:
360,140,46461,1,0,3:2:0:0:
285,93,46649,1,10,0:2:0:0:
285,93,46836,1,2,0:2:0:0:
204,126,47024,6,0,B|147:119|147:119|119:134|119:134|53:127,1,134.200004095459,2|8,3:2|0:2,0:0:0:0:
16,194,47586,2,0,P|8:233|18:278,1,67.1000020477296,0|0,3:2|0:2,0:0:0:0:
69,325,47961,1,2,3:2:0:0:
151,294,48149,1,10,0:2:0:0:
212,355,48336,2,0,L|278:346,1,67.1000020477296,2|0,3:2|0:0,0:0:0:0:
444,288,48899,2,0,L|448:220,1,67.1000020477296,8|0,0:2|3:2,0:0:0:0:
455,133,49274,1,0,3:2:0:0:
326,14,49649,1,0,0:0:0:0:
326,14,49836,1,0,0:0:0:0:
326,14,50024,6,0,P|266:-4|195:49,1,134.200004095459,6|8,3:2|0:2,0:0:0:0:
275,81,50586,1,2,3:2:0:0:
252,165,50774,2,0,L|249:244,1,67.1000020477296,2|0,0:2|0:0,0:0:0:0:
279,314,51149,2,0,P|239:318|199:306,1,67.1000020477296,8|2,0:2|3:2,0:0:0:0:
148,253,51524,2,0,L|137:115,1,134.200004095459,2|8,3:2|0:2,0:0:0:0:
84,49,52086,2,0,P|41:53|9:44,2,67.1000020477296,0|0|0,3:2|0:2|3:2,0:0:0:0:
167,16,52649,1,8,0:2:0:0:
167,16,52836,1,0,3:2:0:0:
242,59,53024,6,0,B|322:37|305:85|394:60,1,134.200004095459,2|8,3:2|0:2,0:0:0:0:
441,119,53586,1,2,3:2:0:0:
456,205,53774,2,0,L|452:289,1,67.1000020477296,2|0,0:2|0:0,0:0:0:0:
368,294,54149,2,0,L|371:226,1,67.1000020477296,8|2,0:2|3:2,0:0:0:0:
302,172,54524,2,0,B|249:161|249:161|219:176|219:176|159:166,1,134.200004095459,2|8,3:2|0:2,0:0:0:0:
123,96,55086,2,0,L|138:10,2,67.1000020477296,0|0|0,3:2|0:2|3:2,0:0:0:0:
65,162,55649,1,8,0:2:0:0:
65,162,55836,1,8,0:2:0:0:
112,234,56024,6,0,P|116:304|69:368,2,134.200004095459,6|8|0,3:2|0:2|0:2,0:0:0:0:
185,185,56961,1,0,3:2:0:0:
257,233,57149,2,0,P|301:236|334:223,1,67.1000020477296,10|2,0:2|0:2,0:0:0:0:
380,163,57524,2,0,L|385:82,1,67.1000020477296,2|2,3:2|0:2,0:0:0:0:
327,29,57899,2,0,L|260:24,2,67.1000020477296,10|2|2,0:2|3:2|0:2,0:0:0:0:
413,13,58461,1,0,3:2:0:0:
470,80,58649,1,10,0:2:0:0:
470,80,58836,1,2,3:2:0:0:
421,152,59024,6,0,P|400:201|426:296,1,134.200004095459,2|8,3:2|0:2,0:0:0:0:
372,355,59586,2,0,L|291:349,1,67.1000020477296,0|0,3:2|0:2,0:0:0:0:
237,294,59961,1,2,3:2:0:0:
157,331,60149,1,10,0:2:0:0:
93,271,60336,2,0,P|49:264|18:271,1,67.1000020477296,2|0,3:2|0:0,0:0:0:0:
94,106,60899,2,0,P|138:99|169:106,1,67.1000020477296,8|0,0:2|3:2,0:0:0:0:
237,143,61274,1,0,3:2:0:0:
373,40,61649,1,0,0:0:0:0:
373,40,61836,1,0,0:0:0:0:
373,40,62024,6,0,L|364:189,1,122,6|10,3:2|0:2,0:0:0:0:
424,215,62586,1,2,3:2:0:0:
387,285,62774,2,0,L|310:280,1,61,2|0,3:2|0:0,0:0:0:0:
264,330,63149,1,8,0:0:0:0:
264,330,63336,2,0,P|245:277|280:213,1,122,2|2,3:2|3:2,0:0:0:0:
332,168,63899,2,0,P|338:132|327:89,1,61,10|2,0:2|3:2,0:0:0:0:
281,48,64274,2,0,L|214:52,1,61,2|0,0:2|3:2,0:0:0:0:
161,105,64649,2,0,L|100:101,1,61,10|0,0:2|0:2,0:0:0:0:
54,35,65024,6,0,L|65:176,1,122,0|10,3:2|0:2,0:0:0:0:
13,217,65586,1,0,3:2:0:0:
56,283,65774,2,0,P|42:332|29:358,2,61,2|2|10,0:2|3:2|0:2,0:0:0:0:
132,262,66336,2,0,P|193:262|242:307,1,122,2|2,3:2|3:2,0:0:0:0:
301,348,66899,2,0,P|341:341|371:323,1,61,10|2,0:2|3:2,0:0:0:0:
415,276,67274,2,0,L|413:202,1,61,2|0,0:2|3:2,0:0:0:0:
411,136,67649,1,10,0:0:0:0:
411,136,67836,1,10,0:2:0:0:
463,75,68024,6,0,P|409:52|337:95,1,122,6|10,3:2|0:2,0:0:0:0:
297,131,68586,1,2,3:2:0:0:
231,85,68774,2,0,L|148:83,1,61,2|0,3:2|0:0,0:0:0:0:
90,83,69149,1,8,0:0:0:0:
90,83,69336,2,0,L|81:215,1,122,2|2,3:2|3:2,0:0:0:0:
132,266,69899,2,0,P|164:273|207:263,1,61,10|2,0:2|3:2,0:0:0:0:
248,213,70274,2,0,L|256:139,1,61,2|0,0:2|3:2,0:0:0:0:
306,91,70649,2,0,P|338:84|381:94,1,61,10|0,0:2|3:2,0:0:0:0:
427,146,71024,5,0,3:2:0:0:
427,146,71211,2,0,L|496:139,2,61,8|10|0,0:2|0:2|3:2,0:0:0:0:
380,210,71774,2,0,L|372:288,1,61,10|10,0:2|0:2,0:0:0:0:
366,353,72149,1,10,0:2:0:0:
366,353,72336,1,10,0:2:0:0:
230,249,72711,1,8,0:2:0:0:
230,249,72899,2,0,L|152:240,1,61,0|0,3:2|3:2,0:0:0:0:
121,170,73274,2,0,L|130:92,1,61,0|0,3:2|3:2,0:0:0:0:
136,24,73649,1,8,0:2:0:0:
300,70,74024,5,6,3:2:0:0:
256,192,74117,12,0,76930,3:2:0:0:
