osu file format v14

[General]
AudioFilename: audio.mp3
AudioLeadIn: 0
PreviewTime: 37274
Countdown: 0
SampleSet: Soft
StackLeniency: 0.4
Mode: 0
LetterboxInBreaks: 0
WidescreenStoryboard: 1

[Editor]
Bookmarks: 62399,64274,76649
DistanceSpacing: 1.2
BeatDivisor: 4
GridSize: 32
TimelineZoom: 3.499999

[Metadata]
Title:Miracle Hinacle
TitleUnicode:Miracle∞Hinacle
Artist:IOSYS
ArtistUnicode:IOSYS
Creator:Elcheer
Version:Insane
Source:東方風神録 ~ Mountain of Faith.
Tags:ZUN 3L 鍵山 雛 かぎやま ひな Hina Kagiyama Touhou Such A Mystery doujin toho 厄神様の通り道 ~ Dark Road Stage 2 Theme IO-0146 東方想幽森雛 Soyu Shinpi comiket 74 ぼいど void 夕野ヨシミ Yoshimi Younopop The of the Apotropaic God Side Fate Fuujinroku japanese cut short version ver ver. vocal remix c79 pop j-pop jpop glaceon nightmare night mare xehn xen xenon- jval jval93700
BeatmapID:2402671
BeatmapSetID:980713

[Difficulty]
HPDrainRate:5
CircleSize:3.7
OverallDifficulty:8
ApproachRate:9
SliderMultiplier:1.8
SliderTickRate:1

[Events]
//Background and Video events
0,0,"bg.jpg",0,0
//Break Periods
//Storyboard Layer 0 (Background)
//Storyboard Layer 1 (Fail)
//Storyboard Layer 2 (Pass)
//Storyboard Layer 3 (Foreground)
//Storyboard Layer 4 (Overlay)
//Storyboard Sound Samples

[TimingPoints]
524,375,4,2,1,100,1,0
2305,-100,4,2,1,5,0,0
2399,-100,4,2,1,100,0,0
2961,-100,4,2,1,5,0,0
3055,-100,4,2,1,100,0,0
3242,-100,4,2,1,5,0,0
3336,-100,4,2,1,100,0,0
8305,-100,4,2,1,5,0,0
8399,-100,4,2,1,100,0,0
8961,-100,4,2,1,5,0,0
9055,-100,4,2,1,100,0,0
9242,-100,4,2,1,5,0,0
9336,-100,4,2,1,100,0,0
37274,-142.857142857143,4,2,1,100,0,0
38024,-83.3333333333333,4,2,1,100,0,1
62024,-100,4,2,1,100,0,0
62305,-100,4,2,1,5,0,0
62399,-100,4,2,1,50,0,0
62961,-100,4,2,1,5,0,0
63055,-100,4,2,1,50,0,0
63242,-100,4,2,1,5,0,0
63336,-100,4,2,1,50,0,0
68305,-100,4,2,1,5,0,0
68399,-100,4,2,1,50,0,0
68961,-100,4,2,1,5,0,0
69055,-100,4,2,1,50,0,0
69242,-100,4,2,1,5,0,0
69336,-100,4,2,1,50,0,0
76367,-100,4,2,1,5,0,0
76555,-100,4,2,1,50,0,0

[Colours]
Combo1 : 119,187,255
Combo2 : 0,255,128
Combo3 : 255,128,128

[HitObjects]
23,372,524,5,0,3:2:0:0:
0,181,711,1,8,0:2:0:0:
107,287,899,2,0,L|203:297,1,90,8|0,0:2|3:2,0:0:0:0:
312,315,1274,1,8,0:2:0:0:
145,384,1461,1,8,0:2:0:0:
102,209,1649,1,8,0:2:0:0:
90,166,1742,1,8,0:2:0:0:
100,122,1836,1,8,0:2:0:0:
130,90,1930,1,8,0:2:0:0:
172,75,2024,6,0,L|314:98,1,135,6|0,3:2|0:2,0:0:0:0:
350,101,2399,1,10,0:2:0:0:
255,1,2586,1,2,3:2:0:0:
235,172,2774,2,0,L|225:262,1,90,2|0,3:2|0:0,0:0:0:0:
196,296,3055,2,0,P|250:273|300:275,1,90,2|0,3:2|0:0,0:0:0:0:
317,297,3336,2,0,P|361:292|401:272,1,90,2|0,3:2|0:0,0:0:0:0:
430,188,3711,5,2,3:2:0:0:
457,353,3899,1,10,0:2:0:0:
334,213,4086,1,2,3:2:0:0:
490,257,4274,2,0,L|389:274,1,90,2|0,0:2|3:2,0:0:0:0:
245,198,4649,2,0,L|346:215,1,90,10|0,0:2|0:2,0:0:0:0:
411,137,5024,1,0,3:2:0:0:
411,137,5399,5,10,0:2:0:0:
325,291,5586,1,0,3:2:0:0:
300,122,5774,1,2,0:2:0:0:
453,284,5961,1,2,3:2:0:0:
422,90,6149,1,10,0:2:0:0:
255,216,6336,6,0,B|159:246|170:192|74:220,1,180,2|2,3:2|3:2,0:0:0:0:
108,382,6899,2,0,L|125:283,1,90,10|2,0:2|3:2,0:0:0:0:
0,187,7274,2,0,L|8:289,1,90,2|0,0:0|3:0,0:0:0:0:
142,187,7649,1,10,0:0:0:0:
189,346,7836,1,10,0:2:0:0:
189,346,7930,1,10,0:2:0:0:
189,346,8024,6,0,L|327:337,1,135,6|0,3:2|0:2,0:0:0:0:
368,334,8399,1,10,0:2:0:0:
211,235,8586,1,2,3:2:0:0:
359,137,8774,2,0,P|379:193|376:233,1,90,2|0,3:2|0:0,0:0:0:0:
340,248,9055,2,0,L|439:228,1,90,2|0,3:2|0:0,0:0:0:0:
473,224,9336,2,0,P|493:280|490:320,1,90,2|0,3:2|0:0,0:0:0:0:
424,369,9711,5,2,3:2:0:0:
340,248,9899,1,10,0:2:0:0:
492,309,10086,1,2,3:2:0:0:
295,322,10274,2,0,P|257:279|251:247,1,90,2|0,0:2|3:2,0:0:0:0:
348,158,10649,2,0,L|339:258,1,90,10|0,0:2|3:2,0:0:0:0:
256,131,11024,5,0,3:2:0:0:
429,219,11211,1,8,0:2:0:0:
429,219,11399,1,10,0:2:0:0:
317,62,11586,1,0,3:2:0:0:
276,268,11774,1,10,0:2:0:0:
276,268,11961,1,10,0:2:0:0:
154,140,12149,1,10,0:2:0:0:
150,184,12242,1,8,0:2:0:0:
147,229,12336,1,10,0:2:0:0:
144,274,12430,1,8,0:2:0:0:
140,319,12524,5,0,3:2:0:0:
260,175,12711,1,8,0:2:0:0:
42,227,12899,1,0,3:2:0:0:
42,227,13086,1,0,3:2:0:0:
140,319,13274,1,0,3:2:0:0:
154,140,13461,1,0,3:2:0:0:
138,349,13649,1,8,0:2:0:0:
180,361,13742,1,8,0:2:0:0:
225,361,13836,1,8,0:2:0:0:
267,345,13930,1,8,0:2:0:0:
308,326,14024,6,0,P|380:295|455:313,1,135,2|0,3:2|0:2,0:0:0:0:
480,330,14399,2,0,P|475:260|487:228,1,90,10|0,0:2|3:2,0:0:0:0:
409,128,14774,2,0,P|411:172|397:214,2,90,2|2|10,0:2|3:2|0:2,0:0:0:0:
302,59,15336,6,0,L|104:82,1,180,2|0,3:2|0:2,0:0:0:0:
199,233,15899,2,0,L|219:129,1,90,10|2,0:2|3:2,0:0:0:0:
109,185,16274,1,2,3:2:0:0:
283,237,16461,1,0,0:0:0:0:
149,324,16649,2,0,P|97:336|45:334,1,90,8|2,0:2|3:2,0:0:0:0:
199,233,17024,5,2,3:2:0:0:
231,367,17211,1,2,0:2:0:0:
97,254,17399,1,10,0:2:0:0:
276,286,17586,1,2,3:2:0:0:
236,150,17774,2,0,L|198:232,1,90,2|2,0:2|0:2,0:0:0:0:
153,330,18149,1,8,0:2:0:0:
327,212,18336,6,0,P|364:273|299:368,1,180,2|0,3:2|0:2,0:0:0:0:
240,207,18899,1,10,0:2:0:0:
153,330,19086,1,2,3:2:0:0:
95,190,19274,2,0,P|88:128|97:87,1,90,2|0,3:2|0:2,0:0:0:0:
178,30,19649,2,0,L|230:39,1,45,8|8,0:2|0:2,0:0:0:0:
316,102,19836,2,0,L|264:111,1,45,8|8,0:2|0:2,0:0:0:0:
181,125,20024,5,6,3:2:0:0:
320,194,20211,1,2,0:2:0:0:
178,30,20399,1,10,0:2:0:0:
247,238,20586,1,2,3:2:0:0:
372,40,20774,2,0,P|399:88|385:151,1,90,2|2,0:2|0:2,0:0:0:0:
320,194,21149,1,8,0:2:0:0:
181,125,21336,6,0,P|129:109|45:187,1,180,2|2,3:2|0:2,0:0:0:0:
129,289,21899,2,0,L|131:187,1,90,10|0,0:2|3:2,0:0:0:0:
132,31,22274,1,2,0:2:0:0:
45,186,22461,1,0,3:2:0:0:
0,22,22649,2,0,L|64:102,1,90,10|0,0:2|0:2,0:0:0:0:
141,173,23024,5,2,3:2:0:0:
132,31,23211,1,2,0:2:0:0:
45,186,23399,1,8,0:2:0:0:
215,102,23586,1,2,3:2:0:0:
131,262,23774,2,0,L|143:149,1,90,2|0,0:2|3:2,0:0:0:0:
64,94,24149,1,8,0:2:0:0:
55,294,24336,6,0,P|94:338|205:303,1,180,6|0,3:2|0:2,0:0:0:0:
227,224,24899,1,10,0:2:0:0:
46,313,25086,2,0,P|89:354|205:329,1,180,6|0,3:2|0:2,0:0:0:0:
230,196,25649,2,0,L|235:157,7,22.5,10|0|0|0|10|0|0|0,0:2|0:2|0:2|0:2|0:2|0:2|0:2|0:2,0:0:0:0:
236,151,26024,6,0,B|330:120|317:176|421:147,1,180,6|8,3:2|0:2,0:0:0:0:
512,105,26586,1,0,3:2:0:0:
373,65,26774,1,2,0:2:0:0:
484,200,26961,1,2,3:2:0:0:
494,2,27149,1,10,0:2:0:0:
412,149,27336,6,0,P|400:215|485:287,1,180,2|0,3:2|0:2,0:0:0:0:
485,96,27899,1,8,0:2:0:0:
321,135,28086,1,0,3:2:0:0:
484,200,28274,1,0,0:2:0:0:
376,54,28461,1,0,3:2:0:0:
264,202,28649,2,0,P|258:261|263:304,1,90,10|0,0:2|3:2,0:0:0:0:
359,352,29024,6,0,P|315:327|186:322,1,180,2|8,3:2|0:2,0:0:0:0:
98,380,29586,1,0,3:2:0:0:
41,256,29774,2,0,P|28:194|40:153,1,90,2|2,0:2|3:2,0:0:0:0:
92,78,30149,1,10,0:2:0:0:
184,214,30336,6,0,L|374:191,1,180,2|0,3:2|0:2,0:0:0:0:
467,162,30899,1,8,0:2:0:0:
295,108,31086,1,0,3:2:0:0:
455,39,31274,1,0,0:2:0:0:
377,185,31461,1,0,3:2:0:0:
316,23,31649,1,10,0:2:0:0:
511,153,31836,2,0,L|466:162,1,45,8|8,0:2|0:2,0:0:0:0:
343,288,32024,6,0,P|420:268|474:359,1,180,2|8,3:2|0:2,0:0:0:0:
321,371,32586,1,0,3:2:0:0:
261,227,32774,2,0,P|250:166|258:129,1,90,0|0,0:2|3:2,0:0:0:0:
328,60,33149,1,8,0:2:0:0:
261,227,33336,6,0,B|169:255|180:195|84:229,1,180,2|0,3:2|0:2,0:0:0:0:
4,300,33899,1,8,0:2:0:0:
135,333,34086,1,0,3:2:0:0:
65,203,34274,2,0,L|78:100,1,90,0|0,0:2|3:2,0:0:0:0:
205,31,34649,2,0,L|216:120,1,90,10|0,0:2|3:2,0:0:0:0:
233,227,35024,5,10,0:2:0:0:
76,113,35211,1,0,3:2:0:0:
256,245,35399,1,8,0:2:0:0:
38,273,35586,1,0,3:2:0:0:
173,113,35774,5,8,0:2:0:0:
123,325,35961,1,0,3:2:0:0:
190,77,36149,1,10,0:2:0:0:
190,77,36242,1,8,0:2:0:0:
190,77,36336,1,0,3:2:0:0:
17,177,36524,5,2,3:2:0:0:
56,197,36617,1,0,3:2:0:0:
100,205,36711,1,0,3:2:0:0:
145,200,36805,1,0,3:2:0:0:
186,182,36899,1,2,3:2:0:0:
225,161,36992,1,0,3:2:0:0:
269,153,37086,1,0,3:2:0:0:
314,158,37180,1,0,3:2:0:0:
355,176,37274,6,0,L|366:252,1,62.9999980773926,2|2,0:2|0:2,0:0:0:0:
281,356,37649,2,0,L|291:294,1,62.9999980773926,2|2,0:2|0:2,0:0:0:0:
388,167,38024,6,0,L|420:384,1,215.999993408203,6|8,3:2|0:2,0:0:0:0:
476,202,38586,1,2,3:2:0:0:
291,293,38774,2,0,B|238:313|238:313|102:283,1,161.999995056153,2|2,0:2|0:2,0:0:0:0:
108,255,39149,2,0,B|94:127,1,107.999996704102,8|2,0:2|3:2,0:0:0:0:
86,43,39524,1,2,3:2:0:0:
86,43,39899,5,8,0:2:0:0:
195,138,40086,1,0,3:2:0:0:
62,23,40274,1,0,0:2:0:0:
267,89,40461,1,0,3:2:0:0:
18,181,40649,1,8,0:2:0:0:
231,248,40836,1,0,3:2:0:0:
104,105,41024,6,0,B|92:250|92:250|129:324,1,215.999993408203,2|8,3:2|0:2,0:0:0:0:
236,381,41586,1,2,3:2:0:0:
351,191,41774,2,0,P|379:233|347:335,1,161.999995056153,2|2,0:2|0:2,0:0:0:0:
308,343,42149,2,0,P|366:328|417:354,1,107.999996704102,8|2,0:2|3:2,0:0:0:0:
487,202,42524,1,2,3:2:0:0:
487,202,42899,5,8,0:2:0:0:
324,250,43086,1,0,3:2:0:0:
480,79,43274,1,0,0:2:0:0:
439,274,43461,1,0,3:2:0:0:
347,76,43649,1,8,0:2:0:0:
324,250,43836,2,0,P|318:286|329:324,1,53.9999983520508,8|8,0:2|0:2,0:0:0:0:
374,379,44024,6,0,P|314:316|178:336,1,215.999993408203,6|8,3:2|0:2,0:0:0:0:
99,379,44586,1,0,3:2:0:0:
24,244,44774,2,0,B|11:183|11:183|28:120,1,107.999996704102,0|0,0:2|3:2,0:0:0:0:
118,48,45149,1,10,0:2:0:0:
118,48,45336,1,2,3:2:0:0:
140,210,45524,5,2,3:2:0:0:
15,61,45711,1,2,0:2:0:0:
230,158,45899,1,10,0:2:0:0:
42,261,46086,1,2,3:2:0:0:
221,324,46274,2,0,L|353:312,1,107.999996704102,2|0,0:2|3:2,0:0:0:0:
366,143,46649,1,10,0:2:0:0:
278,228,46836,1,2,0:2:0:0:
434,203,47024,6,0,P|457:127|351:47,1,215.999993408203,2|8,3:2|0:2,0:0:0:0:
258,32,47586,1,0,3:2:0:0:
278,228,47774,2,0,P|334:187|350:146,1,107.999996704102,0|2,0:2|3:2,0:0:0:0:
258,32,48149,1,10,0:2:0:0:
138,167,48336,6,0,L|169:382,1,215.999993408203,2|0,3:2|0:2,0:0:0:0:
278,228,48899,1,8,0:2:0:0:
69,324,49086,1,0,3:2:0:0:
69,324,49180,1,0,3:2:0:0:
69,324,49274,1,0,3:2:0:0:
275,341,49461,1,0,3:2:0:0:
138,167,49649,1,0,3:2:0:0:
289,114,49836,1,0,3:2:0:0:
115,250,50024,6,0,P|62:210|112:81,1,215.999993408203,6|8,3:2|0:2,0:0:0:0:
205,54,50586,1,2,3:2:0:0:
310,184,50774,2,0,B|341:231|341:231|324:343,1,161.999995056153,2|2,0:2|0:2,0:0:0:0:
316,364,51149,2,0,L|177:353,1,107.999996704102,8|2,0:2|3:2,0:0:0:0:
23,334,51524,1,2,3:2:0:0:
23,334,51899,5,8,0:2:0:0:
208,256,52086,1,0,3:2:0:0:
18,217,52274,1,0,0:2:0:0:
148,377,52461,1,0,3:2:0:0:
223,174,52649,2,0,P|238:99|226:45,1,107.999996704102,8|0,0:2|3:2,0:0:0:0:
39,38,53024,6,0,P|30:107|151:96,1,215.999993408203,2|8,3:2|0:2,0:0:0:0:
173,5,53586,1,2,3:2:0:0:
276,140,53774,2,0,B|318:174|318:174|454:148,1,161.999995056153,2|2,0:2|0:2,0:0:0:0:
464,141,54149,2,0,P|479:80|470:23,1,107.999996704102,8|2,0:2|3:2,0:0:0:0:
276,140,54524,1,2,3:2:0:0:
276,140,54899,5,8,0:2:0:0:
437,58,55086,1,0,3:2:0:0:
418,265,55274,1,0,0:2:0:0:
296,58,55461,1,0,3:2:0:0:
491,169,55649,1,8,0:2:0:0:
248,235,55836,2,0,P|281:247|319:248,1,53.9999983520508,8|8,0:2|0:2,0:0:0:0:
378,336,56024,6,0,B|263:307|279:368|160:338,1,215.999993408203,6|8,3:2|0:2,0:0:0:0:
83,269,56586,1,0,3:2:0:0:
237,155,56774,2,0,L|226:273,1,107.999996704102,0|0,0:2|3:2,0:0:0:0:
137,141,57149,1,10,0:2:0:0:
137,141,57336,1,2,0:2:0:0:
72,296,57524,5,2,3:2:0:0:
143,98,57711,1,2,0:2:0:0:
236,290,57899,1,10,0:2:0:0:
38,177,58086,1,2,3:2:0:0:
246,86,58274,2,0,P|310:77|362:84,1,107.999996704102,2|0,0:2|3:2,0:0:0:0:
426,212,58649,2,0,P|362:221|310:214,1,107.999996704102,10|2,0:2|3:2,0:0:0:0:
454,130,59024,6,0,P|510:192|451:295,1,215.999993408203,2|8,3:2|0:2,0:0:0:0:
357,307,59586,1,0,3:2:0:0:
286,190,59774,2,0,P|270:111|281:65,1,107.999996704102,0|2,0:2|3:2,0:0:0:0:
352,9,60149,1,10,0:2:0:0:
286,190,60336,6,0,B|174:232|188:166|73:196,1,215.999993408203,2|0,3:2|0:2,0:0:0:0:
12,284,60899,1,8,0:2:0:0:
72,105,61086,1,0,3:2:0:0:
72,105,61180,1,0,3:2:0:0:
72,105,61274,1,0,3:2:0:0:
146,291,61461,1,0,3:2:0:0:
198,68,61649,1,0,3:2:0:0:
52,197,61836,1,0,3:2:0:0:
271,128,62024,6,0,L|421:147,1,135,6|0,3:2|0:2,0:0:0:0:
449,153,62399,1,10,0:2:0:0:
337,49,62586,1,2,3:2:0:0:
274,214,62774,2,0,P|267:270|278:313,1,90,2|0,3:2|0:0,0:0:0:0:
311,327,63055,2,0,L|222:342,1,90,2|0,3:2|0:0,0:0:0:0:
186,370,63336,2,0,P|175:312|154:274,1,90,2|0,3:2|0:0,0:0:0:0:
80,212,63711,5,2,3:2:0:0:
225,145,63899,1,10,0:2:0:0:
161,284,64086,1,2,3:2:0:0:
158,95,64274,2,0,P|206:61|264:67,1,90,2|0,0:2|3:2,0:0:0:0:
272,221,64649,2,0,L|215:128,1,90,10|0,0:2|0:2,0:0:0:0:
362,157,65024,1,0,3:2:0:0:
362,157,65399,5,10,0:2:0:0:
209,278,65586,1,0,3:2:0:0:
387,138,65774,1,2,0:2:0:0:
297,342,65961,1,2,3:2:0:0:
186,150,66149,1,10,0:2:0:0:
128,324,66336,6,0,P|73:338|100:249,1,180,2|2,3:2|3:2,0:0:0:0:
209,278,66899,2,0,L|222:374,1,90,10|2,0:2|3:2,0:0:0:0:
82,249,67274,2,0,L|95:160,1,90,2|0,0:2|3:2,0:0:0:0:
111,48,67649,1,10,0:0:0:0:
181,179,67836,1,10,0:2:0:0:
181,179,67930,1,10,0:2:0:0:
181,179,68024,6,0,B|228:201|228:201|327:188,1,135,6|0,3:2|0:2,0:0:0:0:
354,182,68399,1,10,0:2:0:0:
245,90,68586,1,2,3:2:0:0:
396,14,68774,2,0,L|418:113,1,90,2|0,3:2|0:0,0:0:0:0:
453,125,69055,2,0,L|475:224,1,90,2|0,3:2|0:0,0:0:0:0:
458,255,69336,2,0,P|414:267|345:258,1,90,2|0,3:2|0:0,0:0:0:0:
274,217,69711,5,2,3:2:0:0:
453,125,69899,1,10,0:2:0:0:
370,266,70086,1,2,3:2:0:0:
311,107,70274,2,0,P|259:100|216:107,1,90,2|0,0:2|3:2,0:0:0:0:
141,231,70649,2,0,P|193:238|236:231,1,90,10|0,0:2|3:2,0:0:0:0:
311,107,71024,5,0,3:2:0:0:
104,95,71211,1,8,0:2:0:0:
104,95,71399,1,10,0:2:0:0:
229,232,71586,1,0,3:2:0:0:
249,49,71774,1,10,0:2:0:0:
249,49,71961,1,10,0:2:0:0:
375,181,72149,1,10,0:2:0:0:
379,225,72242,1,8,0:2:0:0:
383,270,72336,1,10,0:2:0:0:
388,315,72430,1,8,0:2:0:0:
392,360,72524,5,0,3:2:0:0:
481,229,72711,1,8,0:2:0:0:
298,307,72899,1,0,3:2:0:0:
298,307,73086,1,0,3:2:0:0:
489,328,73274,1,0,3:2:0:0:
255,303,73461,1,0,3:2:0:0:
495,190,73649,1,8,0:2:0:0:
512,148,73742,1,8,0:2:0:0:
511,104,73836,1,8,0:2:0:0:
490,64,73930,1,8,0:2:0:0:
455,37,74024,5,6,3:2:0:0:
256,192,74117,12,0,76461,0:0:0:0:
191,142,76649,5,8,0:2:0:0:
191,142,76742,1,8,0:2:0:0:
191,142,76836,2,0,L|177:208,1,45,0|0,3:2|3:2,0:0:0:0:
