osu file format v14

[General]
AudioFilename: audio.mp3
AudioLeadIn: 0
PreviewTime: 37227
Countdown: 0
SampleSet: Soft
StackLeniency: 0.7
Mode: 2
LetterboxInBreaks: 0
WidescreenStoryboard: 1

[Editor]
Bookmarks: 8024,26024,31086,38024,50024,62024,76930
DistanceSpacing: 0.6
BeatDivisor: 4
GridSize: 16
TimelineZoom: 1.8

[Metadata]
Title:Miracle Hinacle (Cut Ver.)
TitleUnicode:Miracle∞Hinacle (Cut Ver.)
Artist:IOSYS
ArtistUnicode:IOSYS
Creator:Souvenir
Version:Greaper's Overdose
Source:東方風神録 ~ Mountain of Faith.
Tags:Greaper ZUN 3L 鍵山 雛 かぎやま ひな Hina Kagiyama Touhou Such A Mystery doujin toho 厄神様の通り道 ~ Dark Road Stage 2 Theme IO-0146 東方想幽森雛 Soyu Shinpi comiket 74 ぼいど void 夕野ヨシミ Yoshimi Younopop of the Apotropaic God Side Fate Fuujinroku japanese short version vocal remix c79 pop j-pop jpop video game
BeatmapID:3082045
BeatmapSetID:1502676

[Difficulty]
HPDrainRate:6
CircleSize:4.2
OverallDifficulty:9.2
ApproachRate:9.2
SliderMultiplier:2.32
SliderTickRate:2

[Events]
//Background and Video events
0,0,"miracle hinacle.jpg",0,0
//Break Periods
//Storyboard Layer 0 (Background)
//Storyboard Layer 1 (Fail)
//Storyboard Layer 2 (Pass)
//Storyboard Layer 3 (Foreground)
//Storyboard Layer 4 (Overlay)
//Storyboard Sound Samples

[TimingPoints]
524,375,4,2,1,60,1,0
14024,-100,4,2,1,50,0,0
26024,-100,4,2,1,55,0,0
38024,-100,4,2,1,60,0,1
49274,-100,4,2,1,60,0,0
50024,-100,4,2,1,60,0,1
62024,-100,4,2,1,60,0,0
76461,-100,4,2,1,5,0,0
76617,-100,4,2,1,60,0,0

[Colours]
Combo1 : 130,162,179
Combo2 : 255,108,108
Combo3 : 101,252,233
Combo4 : 241,204,92

[HitObjects]
433,242,524,5,2,0:0:0:0:
148,202,711,1,8,1:0:0:0:
320,232,899,2,0,L|326:110,1,116,8|2,1:0|0:0,0:0:0:0:
46,98,1274,1,8,1:0:0:0:
212,104,1461,1,8,1:0:0:0:
494,98,1649,2,0,L|426:93,1,58,8|8,1:0|1:0,0:0:0:0:
232,168,1836,2,0,L|163:158,1,58,8|8,1:0|1:0,0:0:0:0:
412,266,2024,6,0,P|472:237|383:136,1,232,6|8,0:0|1:0,0:0:0:0:
239,123,2586,1,0,0:0:0:0:
404,128,2774,2,0,L|413:307,1,174,2|0,0:0|0:0,0:0:0:0:
63,298,3336,6,0,P|61:259|217:167,1,232
370,166,3899,2,0,L|372:295,1,116,8|0,1:0|0:0,0:0:0:0:
199,292,4274,2,0,P|146:208|237:145,1,232,2|8,0:0|1:0,0:0:0:0:
353,152,4836,1,0,0:0:0:0:
72,141,5024,5,6,0:0:0:0:
290,110,5399,1,8,1:0:0:0:
395,148,5586,1,0,0:0:0:0:
428,255,5774,1,2,0:0:0:0:
362,345,5961,1,2,0:0:0:0:
250,347,6149,1,8,1:0:0:0:
496,336,6336,6,0,L|487:196,1,116,0|2,0:0|0:0,0:0:0:0:
317,187,6711,2,0,L|201:181,2,116,2|8|0,0:0|1:0|0:0,0:0:0:0:
478,162,7274,2,0,L|358:153,1,116,2|0,0:0|0:0,0:0:0:0:
90,131,7649,1,8,1:0:0:0:
350,106,7836,2,0,L|414:103,1,58,8|8,1:0|1:0,0:0:0:0:
183,272,8024,6,0,P|123:234|207:121,1,232,6|8,0:0|1:0,0:0:0:0:
360,101,8586,1,0,0:0:0:0:
192,84,8774,2,0,L|13:77,1,174,2|0,0:0|0:0,0:0:0:0:
440,278,9336,6,0,P|410:154|310:126,1,232
154,125,9899,2,0,L|152:256,1,116,8|0,1:0|0:0,0:0:0:0:
321,231,10274,2,0,L|448:242,1,116,2|0,0:0|0:0,0:0:0:0:
262,284,10649,2,0,L|142:274,1,116,8|0,1:0|0:0,0:0:0:0:
433,303,11024,5,6,0:0:0:0:
179,208,11211,1,8,1:0:0:0:
346,217,11399,2,0,L|352:93,1,116,8|2,1:0|0:0,0:0:0:0:
73,94,11774,1,8,1:0:0:0:
238,92,11961,1,8,1:0:0:0:
496,48,12149,2,0,L|493:112,1,58,8|8,1:0|1:0,0:0:0:0:
313,189,12336,2,0,L|240:198,1,58,8|8,1:0|1:0,0:0:0:0:
480,208,12524,6,0,L|341:232,1,116,2|8,0:0|0:1,0:0:0:0:
189,293,12899,1,8,0:3:0:0:
282,233,13086,1,8,0:3:0:0:
279,122,13274,1,0,3:0:0:0:
182,68,13461,1,0,3:0:0:0:
475,81,13649,2,0,L|386:72,1,58,0|0,1:3|1:0,0:0:0:0:
213,49,13836,2,0,L|124:40,1,58,8|8,0:3|0:3,0:0:0:0:
366,128,14024,6,0,L|371:262,1,116,6|0,0:0|0:0,0:0:0:0:
198,263,14399,1,0,1:0:0:0:
354,275,14586,1,0,0:0:0:0:
198,263,14774,1,2,0:0:0:0:
465,216,14961,2,0,L|466:95,1,116,0|0,0:0|1:0,0:0:0:0:
176,78,15336,6,0,L|420:86,1,232
243,127,15899,2,0,L|242:252,1,116,0|0,1:0|0:0,0:0:0:0:
400,247,16274,1,2,0:0:0:0:
238,282,16461,1,0,0:0:0:0:
405,285,16649,2,0,L|276:296,1,116,0|2,0:0|0:0,0:0:0:0:
16,288,17024,6,0,L|20:160,1,116,6|0,0:0|0:0,0:0:0:0:
192,172,17399,2,0,L|314:165,1,116,0|0,1:0|0:0,0:0:0:0:
133,83,17774,1,2,0:0:0:0:
377,29,17961,2,0,L|504:31,1,116,0|0,0:0|1:0,0:0:0:0:
199,284,18336,6,0,P|121:247|198:158,1,232
463,155,18899,1,0,1:0:0:0:
307,153,19086,1,0,0:0:0:0:
467,195,19274,2,0,L|470:316,1,116,0|0,1:0|1:0,0:0:0:0:
111,311,19649,2,0,L|53:305,1,58,0|0,1:0|1:0,0:0:0:0:
257,331,19836,2,0,L|331:340,1,58,0|0,1:0|1:0,0:0:0:0:
49,224,20024,6,0,L|46:84,1,116,6|0,0:0|0:0,0:0:0:0:
208,92,20399,2,0,L|330:100,1,116,0|0,1:0|0:0,0:0:0:0:
158,139,20774,2,0,L|154:260,1,116,2|0,0:0|0:0,0:0:0:0:
326,258,21149,1,0,1:0:0:0:
68,284,21336,6,0,L|311:307,1,232
126,220,21899,2,0,L|120:91,1,116,0|0,1:0|0:0,0:0:0:0:
293,114,22274,2,0,L|298:250,1,116,2|0,0:0|0:0,0:0:0:0:
132,84,22649,2,0,L|-5:77,1,116,0|2,0:0|0:0,0:0:0:0:
304,75,23024,6,0,L|433:85,1,116,6|0,0:0|0:0,0:0:0:0:
253,130,23399,1,0,1:0:0:0:
420,145,23586,1,0,0:0:0:0:
253,130,23774,1,2,0:0:0:0:
195,135,23867,1,0,0:0:0:0:
137,141,23961,1,0,0:0:0:0:
302,223,24149,1,0,1:0:0:0:
16,224,24336,6,0,L|263:247,1,232,6|0,0:0|0:0,0:0:0:0:
80,175,24899,1,0,1:0:0:0:
374,150,25086,2,0,L|136:131,1,232,6|0,0:0|0:0,0:0:0:0:
424,307,25649,5,2,0:0:0:0:
451,297,25695,1,2,0:0:0:0:
470,276,25742,1,2,0:0:0:0:
477,248,25789,1,2,0:0:0:0:
470,220,25836,1,2,0:0:0:0:
451,199,25883,1,2,0:0:0:0:
424,189,25930,1,2,0:0:0:0:
190,220,26024,6,0,L|430:197,1,232,6|8,0:0|1:0,0:0:0:0:
421,153,26586,1,0,0:0:0:0:
252,136,26774,2,0,L|248:13,1,116,2|0,0:0|0:0,0:0:0:0:
422,25,27149,1,8,1:0:0:0:
142,23,27336,6,0,P|69:57|156:150,1,232
308,166,27899,2,0,L|314:292,1,116,8|0,1:0|0:0,0:0:0:0:
483,177,28274,2,0,L|488:318,1,116,8|0,1:0|0:0,0:0:0:0:
323,303,28649,2,0,L|206:316,1,116,8|0,1:0|0:0,0:0:0:0:
483,76,29024,6,0,L|234:98,1,232,6|8,0:0|1:0,0:0:0:0:
137,108,29586,1,0,0:0:0:0:
304,145,29774,2,0,L|309:267,1,116,2|0,0:0|0:0,0:0:0:0:
142,260,30149,1,8,1:0:0:0:
421,264,30336,6,0,P|418:197|271:121,1,232,0|2,0:0|0:0,0:0:0:0:
30,122,30899,2,0,L|24:251,1,116,8|2,1:0|0:0,0:0:0:0:
185,215,31274,2,0,L|325:222,1,116,8|2,1:0|0:0,0:0:0:0:
39,70,31649,1,8,1:0:0:0:
321,83,31836,2,0,L|391:87,1,58,8|8,1:0|1:0,0:0:0:0:
147,120,32024,6,0,L|391:140,1,232,6|8,0:0|1:0,0:0:0:0:
385,225,32586,1,0,0:0:0:0:
214,213,32774,2,0,L|208:87,1,116,2|0,0:0|0:0,0:0:0:0:
384,86,33149,1,8,1:0:0:0:
112,75,33336,6,0,P|43:129|112:231,1,232
279,235,33899,2,0,L|291:358,1,116,8|0,1:0|0:0,0:0:0:0:
121,351,34274,2,0,L|129:229,1,116,8|0,1:0|0:0,0:0:0:0:
412,211,34649,2,0,L|412:80,1,116,8|0,1:0|0:0,0:0:0:0:
110,75,35024,5,6,0:0:0:0:
280,81,35211,1,0,0:0:0:0:
110,75,35399,1,8,1:0:0:0:
389,80,35586,1,0,0:0:0:0:
216,86,35774,1,8,1:0:0:0:
389,80,35961,1,0,0:0:0:0:
55,146,36149,2,0,L|127:155,1,58,8|0,1:0|1:0,0:0:0:0:
322,168,36336,1,0,1:0:0:0:
21,288,36524,6,0,L|23:221,1,58,0|0,1:0|1:0,0:0:0:0:
198,211,36711,2,0,L|265:201,1,58,8|8,1:3|1:3,0:0:0:0:
20,147,36899,2,0,L|90:140,1,58,0|0,1:0|1:0,0:0:0:0:
272,98,37086,2,0,L|337:89,1,58,8|8,1:3|1:3,0:0:0:0:
152,71,37274,6,0,L|289:58,1,116,2|2,0:0|0:0,0:0:0:0:
97,158,37649,2,0,L|91:304,1,116,2|2,0:0|0:0,0:0:0:0:
411,295,38024,6,0,P|468:267|399:152,1,232,6|8,1:2|1:1,0:0:0:0:
241,158,38586,1,0,0:0:0:0:
492,175,38774,2,0,L|485:41,1,116,0|0,1:0|0:0,0:0:0:0:
426,47,39055,1,2,1:2:0:0:
247,48,39149,2,0,L|124:41,1,116,0|2,0:0|1:2,0:0:0:0:
412,112,39524,6,0,L|420:235,1,116,2|0,1:1|0:0,0:0:0:0:
139,175,39899,2,0,L|132:49,1,116,8|2,1:0|0:0,0:0:0:0:
299,172,40274,2,0,L|295:52,1,116,8|2,1:0|0:0,0:0:0:0:
120,168,40649,2,0,L|114:49,1,116,8|2,1:0|0:0,0:0:0:0:
404,58,41024,6,0,P|435:172|346:191,1,232,6|8,1:2|1:0,0:0:0:0:
179,174,41586,1,0,0:0:0:0:
341,204,41774,2,0,L|350:324,1,116,2|0,1:2|0:0,0:0:0:0:
180,331,42149,2,0,L|49:340,1,116,0|2,0:0|1:2,0:0:0:0:
347,136,42524,6,0,L|481:124,1,116,2|0,1:0|0:0,0:0:0:0:
197,138,42899,2,0,L|191:259,1,116,8|2,1:0|0:0,0:0:0:0:
352,201,43274,2,0,L|358:322,1,116,8|2,1:0|0:0,0:0:0:0:
75,322,43649,1,8,1:0:0:0:
359,330,43836,2,0,L|427:341,1,58,8|8,1:0|1:0,0:0:0:0:
180,324,44024,6,0,P|116:282|198:182,1,232,6|8,1:2|1:0,0:0:0:0:
307,181,44586,1,0,0:0:0:0:
132,146,44774,2,0,L|124:26,1,116,2|0,1:2|0:0,0:0:0:0:
301,30,45149,2,0,L|433:25,1,116,8|0,1:0|0:0,0:0:0:0:
132,85,45524,6,0,L|124:212,1,116,2|0,1:2|0:0,0:0:0:0:
287,206,45899,1,8,1:0:0:0:
126,226,46086,2,0,L|6:233,2,116,0|2|0,0:0|1:2|0:0,0:0:0:0:
291,230,46649,2,0,L|411:224,1,116,8|0,1:0|0:0,0:0:0:0:
109,209,47024,6,0,P|110:143|260:95,1,232,6|8,1:2|1:0,0:0:0:0:
364,94,47586,2,0,L|132:76,1,232,0|0,0:0|1:0,0:0:0:0:
307,155,48149,1,8,1:0:0:0:
32,136,48336,6,0,L|23:268,1,116,6|0,1:2|0:0,0:0:0:0:
347,294,48899,1,8,1:0:0:0:
103,274,49086,2,0,L|100:203,1,58,0|0,1:0|1:0,0:0:0:0:
280,182,49274,2,0,L|405:171,1,116,0|8,1:3|1:3,0:0:0:0:
227,160,49649,2,0,L|106:152,1,116,0|8,1:3|1:3,0:0:0:0:
434,189,50024,6,0,P|429:139|283:51,1,232,6|8,1:2|1:1,0:0:0:0:
125,50,50586,1,0,0:0:0:0:
396,130,50774,2,0,L|398:259,1,116,0|0,1:0|0:0,0:0:0:0:
339,256,51055,1,2,1:2:0:0:
159,248,51149,2,0,L|33:243,1,116,0|2,0:0|1:2,0:0:0:0:
341,193,51524,6,0,L|341:71,1,116,2|0,1:1|0:0,0:0:0:0:
65,89,51899,2,0,L|70:216,1,116,8|2,1:0|0:0,0:0:0:0:
237,95,52274,2,0,L|246:226,1,116,8|2,1:0|0:0,0:0:0:0:
419,100,52649,2,0,L|435:225,1,116,8|2,1:0|0:0,0:0:0:0:
135,271,53024,6,0,P|120:229|253:140,1,232,6|8,1:2|1:0,0:0:0:0:
412,146,53586,1,0,0:0:0:0:
248,54,53774,2,0,L|106:47,1,116,2|0,1:2|0:0,0:0:0:0:
127,105,54055,1,2,1:2:0:0:
302,301,54149,2,0,L|307:172,1,116,0|2,0:0|1:2,0:0:0:0:
30,170,54524,6,0,L|164:158,1,116,2|0,1:0|0:0,0:0:0:0:
404,116,54899,2,0,L|410:237,1,116,8|2,1:0|0:0,0:0:0:0:
249,179,55274,2,0,L|129:198,1,116,8|2,1:0|0:0,0:0:0:0:
423,289,55649,1,8,1:0:0:0:
148,275,55836,2,0,L|79:268,1,58,8|8,1:0|1:0,0:0:0:0:
328,323,56024,6,0,P|333:275|198:166,1,232,6|8,1:2|1:0,0:0:0:0:
93,169,56586,1,0,0:0:0:0:
268,156,56774,2,0,L|271:36,1,116,2|0,1:2|0:0,0:0:0:0:
103,24,57149,2,0,L|98:139,1,116,8|0,1:0|0:0,0:0:0:0:
377,99,57524,6,0,L|500:108,1,116,2|0,1:2|0:0,0:0:0:0:
320,148,57899,1,8,1:0:0:0:
483,161,58086,1,0,0:0:0:0:
186,225,58274,2,0,L|57:236,1,116,2|0,1:2|0:0,0:0:0:0:
230,300,58649,1,8,1:0:0:0:
68,306,58836,1,0,0:0:0:0:
383,304,59024,6,0,P|425:257|313:185,1,232,6|8,1:2|1:0,0:0:0:0:
149,214,59586,2,0,L|140:92,1,116,0|2,0:0|1:2,0:0:0:0:
394,74,59961,1,0,1:0:0:0:
229,72,60149,1,8,1:0:0:0:
480,136,60336,6,0,L|489:268,1,116,6|0,1:2|0:0,0:0:0:0:
165,250,60899,1,8,1:0:0:0:
426,248,61086,2,0,L|430:179,1,58,0|0,1:0|1:0,0:0:0:0:
222,155,61274,2,0,L|90:144,1,116,0|8,1:3|1:3,0:0:0:0:
274,118,61649,2,0,L|403:122,1,116,0|8,1:3|1:3,0:0:0:0:
98,356,62024,6,0,P|98:291|232:214,1,232,6|8,0:0|1:0,0:0:0:0:
55,179,62586,1,0,0:0:0:0:
223,176,62774,2,0,L|411:165,1,174,2|0,0:0|0:0,0:0:0:0:
38,321,63336,6,0,P|30:277|150:135,1,232
300,137,63899,2,0,L|302:266,1,116,8|0,1:0|0:0,0:0:0:0:
138,162,64274,2,0,L|135:284,1,116,2|0,0:0|0:0,0:0:0:0:
299,282,64649,1,8,1:0:0:0:
152,302,64836,1,0,0:0:0:0:
488,61,65024,5,6,0:0:0:0:
278,49,65399,1,8,1:0:0:0:
169,87,65586,1,0,0:0:0:0:
140,194,65774,1,2,0:0:0:0:
206,284,65961,1,2,0:0:0:0:
318,286,66149,1,8,1:0:0:0:
45,292,66336,6,0,L|54:152,1,116
223,179,66711,2,0,L|230:55,1,116,2|8,0:0|1:0,0:0:0:0:
67,52,67086,2,0,L|321:40,1,232
36,102,67649,1,8,1:0:0:0:
320,110,67836,2,0,L|404:113,1,58,8|8,1:0|1:0,0:0:0:0:
145,257,68024,6,0,L|393:236,1,232,6|8,0:0|1:0,0:0:0:0:
201,189,68586,1,0,0:0:0:0:
376,223,68774,2,0,P|430:142|372:117,1,174,2|0,0:0|0:0,0:0:0:0:
39,248,69336,6,0,L|316:233,1,232
99,201,69899,2,0,L|105:55,1,116,8|0,1:0|0:0,0:0:0:0:
264,81,70274,2,0,L|268:213,1,116,2|0,0:0|0:0,0:0:0:0:
435,82,70649,2,0,L|316:93,1,116,8|0,1:0|0:0,0:0:0:0:
37,138,71024,5,6,0:0:0:0:
293,154,71211,1,8,1:0:0:0:
146,146,71399,2,0,L|151:24,1,116,8|2,1:0|0:0,0:0:0:0:
420,40,71774,1,8,1:0:0:0:
169,28,71961,1,8,1:0:0:0:
450,97,72149,2,0,L|371:108,1,58,8|8,1:0|1:0,0:0:0:0:
164,121,72336,2,0,L|88:124,1,58,8|8,1:0|1:0,0:0:0:0:
375,162,72524,6,0,L|374:296,1,116,2|8,0:0|0:1,0:0:0:0:
120,311,72899,1,8,0:3:0:0:
213,251,73086,1,8,0:3:0:0:
210,140,73274,1,0,3:0:0:0:
113,86,73461,1,0,3:0:0:0:
401,135,73649,2,0,L|490:126,1,58,0|0,1:3|1:0,0:0:0:0:
227,91,73836,2,0,L|138:82,1,58,8|8,0:3|0:3,0:0:0:0:
463,61,74024,5,6,1:2:0:0:
256,192,74211,12,0,76461,0:0:0:0:
245,186,76617,6,0,L|306:182,1,58,0|8,1:0|1:3,0:0:0:0:
95,152,76805,1,0,1:0:0:0:
91,94,76906,1,0,3:0:0:0:
