osu file format v14

[General]
AudioFilename: IOSYS - MiracleHinacle.mp3
AudioLeadIn: 0
PreviewTime: 38108
Countdown: 0
SampleSet: Soft
StackLeniency: 0.7
Mode: 0
LetterboxInBreaks: 0
WidescreenStoryboard: 0

[Editor]
DistanceSpacing: 1
BeatDivisor: 2
GridSize: 4
TimelineZoom: 1

[Metadata]
Title:Miracle Hinacle
TitleUnicode:Miracle∞Hinacle
Artist:IOSYS
ArtistUnicode:IOSYS
Creator:CDFA
Version:Normal
Source:東方風神録 ~ Mountain of Faith.
Tags:Reditum 3L touhou 2hu toho ZUN
BeatmapID:989028
BeatmapSetID:405911

[Difficulty]
HPDrainRate:3
CircleSize:2.6
OverallDifficulty:2
ApproachRate:3.6
SliderMultiplier:1.2
SliderTickRate:2

[Events]
//Background and Video events
0,0,"1920x1080_kagiyama_hina-809055.jpg",0,0
//Break Periods
2,62308,72740
//Storyboard Layer 0 (Background)
//Storyboard Layer 1 (Fail)
//Storyboard Layer 2 (Pass)
//Storyboard Layer 3 (Foreground)
//Storyboard Sound Samples

[TimingPoints]
608,375,4,2,0,65,1,0
38108,-100,4,2,0,65,0,1
62108,-100,4,2,0,65,0,0
98108,-100,4,2,0,65,0,1
122108,-100,4,2,0,65,0,0

[Colours]
Combo1 : 242,206,153
Combo2 : 156,245,168
Combo3 : 128,185,255
Combo4 : 249,136,153

[HitObjects]
60,72,14108,6,0,P|136:56|200:104,1,120,4|0,0:0|1:0,0:0:0:0:
224,180,14858,1,2,0:0:0:0:
224,180,15045,2,0,B|240:236|232:280|232:280|272:288|328:268,1,180,0|2,0:0|0:0,0:0:0:0:
420,228,15983,1,0,1:0:0:0:
464,116,16358,2,0,P|424:72|328:84,1,120,2|0,0:0|1:0,0:0:0:0:
256,108,17108,5,2,0:0:0:0:
140,132,17483,1,0,1:0:0:0:
28,88,17858,2,0,P|16:160|60:264,1,180,2|2,0:0|0:0,0:0:0:0:
168,292,18795,1,2,0:0:0:0:
228,304,18983,2,0,L|356:284,2,120,0|2|0,1:0|0:0|1:0,0:0:0:0:
224,184,20108,5,4,0:0:0:0:
328,124,20483,1,0,1:0:0:0:
416,208,20858,2,0,P|480:184|504:84,1,180,2|2,0:0|0:0,0:0:0:0:
396,28,21795,1,2,0:0:0:0:
336,36,21983,2,0,L|184:48,1,120,0|2,1:0|0:0,0:0:0:0:
172,88,22545,2,0,L|160:148,1,60,0|0,0:0|1:0,0:0:0:0:
148,268,23108,5,2,0:0:0:0:
252,328,23483,1,0,1:0:0:0:
356,268,23858,1,2,0:0:0:0:
356,268,24046,2,0,P|404:228|400:140,1,120,0|4,0:0|0:0,0:0:0:0:
324,96,24795,5,2,0:0:0:0:
272,68,24983,1,0,1:0:0:0:
220,100,25170,2,0,P|144:116|72:24,1,180,4|0,0:0|1:0,0:0:0:0:
188,12,26108,6,0,P|228:136|240:256,1,240,4|2,0:0|0:0,0:0:0:0:
144,316,27233,1,0,1:0:0:0:
40,256,27608,2,0,P|16:188|40:120,2,120,2|0|2,0:0|1:0|0:0,0:0:0:0:
112,352,28733,5,0,1:0:0:0:
232,356,29108,2,0,P|304:336|320:232,1,180,2|0,0:0|0:0,0:0:0:0:
292,192,29858,2,0,P|284:132|304:72,2,120,2|0|2,0:0|1:0|0:0,0:0:0:0:
412,188,30983,1,0,1:0:0:0:
496,104,31358,2,0,L|516:40,2,60,2|0|0,0:0|0:0|1:0,0:0:0:0:
508,224,32108,6,0,P|496:304|392:344,1,180,4|0,0:0|0:0,0:0:0:0:
356,340,32858,2,0,B|292:340|292:340|220:352,1,120,2|0,0:0|1:0,0:0:0:0:
116,360,33608,1,2,0:0:0:0:
52,260,33983,1,0,1:0:0:0:
112,156,34358,2,0,L|88:96,2,60,2|0|0,0:0|0:0|1:0,0:0:0:0:
228,180,35108,6,0,P|296:180|344:148,1,120,0|0,1:0|1:0,0:0:0:0:
240,84,35858,2,0,L|208:316,1,180,0|8,1:0|0:3,0:0:0:0:
208,324,36608,1,4,0:3:0:0:
88,340,36983,1,4,0:3:0:0:
132,28,38108,6,0,P|156:28|240:180,1,180,4|0,0:0|0:0,0:0:0:0:
248,196,38858,2,0,L|228:320,2,120,2|0|2,0:0|1:0|0:0,0:0:0:0:
356,252,39983,6,0,P|420:260|500:212,1,120,0|2,1:0|0:0,0:0:0:0:
504,188,40545,1,0,0:0:0:0:
508,128,40733,1,0,1:0:0:0:
500,4,41108,6,0,P|424:4|348:104,1,180,4|0,0:0|0:0,0:0:0:0:
316,120,41858,2,0,L|168:120,2,120,2|0|2,0:0|1:0|0:0,0:0:0:0:
256,224,42983,5,0,1:0:0:0:
156,288,43358,1,2,0:0:0:0:
108,320,43545,1,0,0:0:0:0:
56,352,43733,2,0,P|36:308|52:236,2,120,0|2|2,1:0|0:1|1:0,0:0:0:0:
156,288,44858,6,0,P|216:280|268:320,1,120,2|2,0:1|1:0,0:0:0:0:
368,368,45608,2,0,L|460:164,1,180,2|0,0:1|0:0,0:0:0:0:
464,148,46358,1,2,0:1:0:0:
452,28,46733,1,2,1:0:0:0:
340,72,47108,6,0,P|272:76|212:44,2,120,2|2|2,0:1|1:0|0:1,0:0:0:0:
452,28,48233,2,0,P|468:112|432:176,1,120,2|2,1:0|0:1,0:0:0:0:
376,232,48983,2,0,P|340:224|296:236,1,60,0|0,1:0|0:0,0:0:0:0:
268,264,49358,2,0,P|200:264|148:200,1,120,8|4,0:3|0:3,0:0:0:0:
244,148,50108,6,0,B|304:116|364:128|364:128|392:148|436:132,1,180,4|0,0:0|0:0,0:0:0:0:
476,128,50858,2,0,B|484:200|484:200|480:276,2,120,2|0|2,0:0|1:0|0:0,0:0:0:0:
416,24,51983,2,0,P|352:12|272:56,1,120,0|2,1:0|0:0,0:0:0:0:
256,68,52545,2,0,L|256:152,1,60,0|0,0:0|1:0,0:0:0:0:
256,248,53108,6,0,B|196:280|136:268|136:268|108:248|64:264,1,180,4|0,0:0|0:0,0:0:0:0:
24,268,53858,2,0,B|16:196|16:196|20:120,2,120,2|0|2,0:0|1:0|0:0,0:0:0:0:
84,372,54983,2,0,P|168:368|224:308,1,120,0|2,1:0|0:0,0:0:0:0:
244,312,55545,2,0,L|244:228,1,60,0|0,0:0|1:0,0:0:0:0:
256,132,56108,6,0,P|324:132|384:196,2,120,2|2|2,0:1|1:0|0:1,0:0:0:0:
144,168,57233,2,0,P|72:176|28:112,1,120,0|2,1:0|0:1,0:0:0:0:
132,72,57983,2,0,B|184:196|184:196|264:208,1,180,2|0,1:0|0:2,0:0:0:0:
288,212,58733,1,0,1:0:0:0:
280,92,59108,1,4,0:0:0:0:
256,192,59483,12,4,62108,0:0:0:0:
64,64,74108,6,0,P|136:48|192:140,1,180,4|2,0:0|0:0,0:0:0:0:
196,184,74858,2,0,B|232:240|232:240|284:260,1,120,0|0,0:0|1:0,0:0:0:0:
400,232,75608,2,0,P|448:248|480:324,1,120,2|0,0:0|1:0,0:0:0:0:
368,352,76358,2,0,B|288:364|256:320|256:320|192:304|188:344,1,180,2|0,0:0|0:0,0:0:0:0:
144,348,77108,6,0,P|80:328|72:256,1,120,2|0,0:0|1:0,0:0:0:0:
108,168,77858,1,2,0:0:0:0:
108,168,78045,2,0,P|120:108|68:40,1,120
212,76,78795,1,2,0:0:0:0:
268,96,78983,2,0,L|392:100,2,120,0|2|0,1:0|0:0|1:0,0:0:0:0:
196,192,80108,6,0,P|228:232|296:228,1,120,4|0,0:0|1:0,0:0:0:0:
396,168,80858,1,2,0:0:0:0:
456,272,81233,2,0,P|428:336|352:344,1,120,0|2,1:0|0:0,0:0:0:0:
276,296,81983,1,0,1:0:0:0:
168,352,82358,2,0,L|48:288,1,120,2|0,0:0|1:0,0:0:0:0:
8,188,83108,5,2,0:0:0:0:
8,188,83295,2,0,P|0:120|48:72,1,120
84,60,83858,2,0,P|156:96|216:64,1,120,2|0,0:0|1:0,0:0:0:0:
300,36,84608,2,0,P|376:32|448:96,2,120,2|0|2,0:0|1:0|0:0,0:0:0:0:
256,148,85733,1,0,1:0:0:0:
256,208,85920,1,0,0:0:0:0:
256,268,86108,6,0,P|184:288|100:216,1,180,4|0,0:0|0:0,0:0:0:0:
120,172,86858,2,0,P|132:120|108:40,1,120,2|0,0:0|1:0,0:0:0:0:
28,140,87608,1,2,0:0:0:0:
20,260,87983,1,0,1:0:0:0:
104,344,88358,2,0,P|176:348|220:296,1,120,2|0,0:0|1:0,0:0:0:0:
256,280,88920,1,0,0:0:0:0:
302,319,89108,6,0,P|350:352|408:344,1,120,2|0,0:0|1:0,0:0:0:0:
460,236,89858,2,0,P|480:184|464:104,1,120,2|0,0:0|1:0,0:0:0:0:
424,84,90420,2,0,P|348:96|320:68,1,120,2|0,0:0|0:0,0:0:0:0:
288,20,90983,1,0,1:0:0:0:
168,20,91358,1,0,0:0:0:0:
132,136,91733,2,0,P|144:176|124:224,1,60,0|0,1:0|0:0,0:0:0:0:
124,252,92108,6,0,P|196:284|256:232,1,120,4|0,0:0|1:0,0:0:0:0:
324,196,92858,2,0,P|392:192|428:256,1,120,2|0,0:0|1:0,0:0:0:0:
432,288,93420,1,2,0:0:0:0:
324,340,93795,1,2,0:0:0:0:
264,328,93983,2,0,L|124:320,2,120,0|2|0,1:0|0:0|1:0,0:0:0:0:
304,216,95108,6,0,P|320:140|284:52,1,120,0|0,1:0|1:0,0:0:0:0:
256,84,95670,1,0,0:0:0:0:
200,99,95858,2,0,P|192:158|208:216,1,120,0|0,1:0|1:0,0:0:0:0:
256,324,96608,2,0,L|316:384,2,60,8|0|4,0:3|0:0|0:3,0:0:0:0:
40,40,98108,6,0,P|108:32|184:128,1,180,4|0,0:0|0:0,0:0:0:0:
196,164,98858,2,0,L|328:164,1,120,2|0,0:0|1:0,0:0:0:0:
436,164,99608,2,0,P|416:240|352:272,1,120,2|0,0:0|1:0,0:0:0:0:
280,324,100358,2,0,L|232:376,2,60,2|0|0,0:0|0:0|1:0,0:0:0:0:
220,220,101108,6,0,P|164:204|68:288,1,180,2|0,0:0|0:0,0:0:0:0:
64,332,101858,1,2,0:0:0:0:
184,332,102233,1,0,1:0:0:0:
220,220,102608,1,2,0:0:0:0:
156,120,102983,2,0,L|92:76,2,60,0|0|2,1:0|0:0|0:0,0:0:0:0:
268,72,103733,5,0,1:0:0:0:
360,152,104108,2,0,P|348:220|296:240,1,120,4|2,0:0|1:0,0:0:0:0:
188,228,104858,2,0,P|132:212|72:264,1,120,2|2,0:1|1:0,0:0:0:0:
176,320,105608,2,0,L|224:96,1,180,2|8,0:1|0:3,0:0:0:0:
228,84,106358,1,4,0:3:0:0:
328,20,106733,1,0,1:0:0:0:
368,132,107108,2,0,P|376:192|420:248,1,120,2|2,0:1|1:0,0:0:0:0:
468,344,107858,1,2,0:1:0:0:
408,360,108045,2,0,L|332:360,2,60,0|2|0,0:0|1:0|0:0,0:0:0:0:
320,280,108795,5,2,0:0:0:0:
272,244,108983,2,0,L|232:108,1,120,0|8,1:0|0:3,0:0:0:0:
248,68,109545,2,0,L|228:0,1,60,0|4,0:0|0:3,0:0:0:0:
112,20,110108,6,0,P|64:64|56:184,1,180,4|0,0:0|0:0,0:0:0:0:
88,220,110858,2,0,P|104:288|68:360,2,120,2|0|2,0:0|1:0|0:0,0:0:0:0:
180,140,111983,2,0,P|232:136|272:160,1,60,0|0,1:0|0:0,0:0:0:0:
284,180,112358,2,0,P|348:192|416:160,1,120,2|0,0:0|1:0,0:0:0:0:
488,96,113108,6,0,P|512:152|464:268,1,180,2|0,0:0|0:0,0:0:0:0:
416,280,113858,2,0,P|348:276|288:304,2,120,2|0|2,0:0|1:0|0:0,0:0:0:0:
340,188,114983,2,0,P|288:144|280:84,1,120,0|2,1:0|0:0,0:0:0:0:
288,36,115545,2,0,B|328:24|328:24|356:32,1,60,0|0,0:0|1:0,0:0:0:0:
465,29,116108,6,0,B|472:92|472:92|460:180,2,120,6|2|2,0:0|1:1|0:1,0:0:0:0:
348,12,117233,2,0,P|268:12|212:76,1,120,2|2,1:0|0:1,0:0:0:0:
188,144,117983,2,0,L|144:188,2,60,2|0|2,1:0|0:0|0:1,0:0:0:0:
304,112,118733,5,2,1:0:0:0:
364,128,118920,1,0,0:0:0:0:
380,188,119108,1,4,0:0:0:0:
256,192,119483,12,4,122108,0:0:0:0:
