osu file format v14

[General]
AudioFilename: IOSYS - MiracleHinacle.mp3
AudioLeadIn: 0
PreviewTime: 38108
Countdown: 0
SampleSet: Soft
StackLeniency: 0.7
Mode: 0
LetterboxInBreaks: 0
WidescreenStoryboard: 0

[Editor]
DistanceSpacing: 1
BeatDivisor: 4
GridSize: 4
TimelineZoom: 1

[Metadata]
Title:Miracle Hinacle
TitleUnicode:Miracle∞Hinacle
Artist:IOSYS
ArtistUnicode:IOSYS
Creator:CDFA
Version:Hard
Source:東方風神録 ~ Mountain of Faith.
Tags:Reditum 3L touhou 2hu toho ZUN
BeatmapID:882184
BeatmapSetID:405911

[Difficulty]
HPDrainRate:5
CircleSize:3.5
OverallDifficulty:5.6
ApproachRate:7
SliderMultiplier:1.7
SliderTickRate:2

[Events]
//Background and Video events
0,0,"1920x1080_kagiyama_hina-809055.jpg",0,0
//Break Periods
2,62308,73208
//Storyboard Layer 0 (Background)
//Storyboard Layer 1 (Fail)
//Storyboard Layer 2 (Pass)
//Storyboard Layer 3 (Foreground)
//Storyboard Sound Samples

[TimingPoints]
608,375,4,2,0,65,1,0
38108,-100,4,2,0,65,0,1
62108,-100,4,2,0,65,0,0
98108,-100,4,2,0,65,0,1
122108,-100,4,2,0,65,0,0

[Colours]
Combo1 : 242,206,153
Combo2 : 156,245,168
Combo3 : 128,185,255
Combo4 : 249,136,153

[HitObjects]
60,48,14108,5,4,0:0:0:0:
40,132,14295,2,0,P|100:152|200:88,1,170
256,52,14858,1,0,0:0:0:0:
321,105,15045,2,0,P|391:150|472:132,1,170,0|2,0:0|0:0,0:0:0:0:
340,24,15795,5,0,0:0:0:0:
256,52,15983,2,0,P|200:60|156:48,1,85,0|0,1:0|0:0,0:0:0:0:
92,28,16358,2,0,P|76:84|96:184,2,127.5,0|2|0,0:0|0:0|0:0,0:0:0:0:
172,54,17108,6,0,P|176:126|264:174,1,170,2|0,0:0|1:0,0:0:0:0:
336,160,17670,1,0,0:0:0:0:
364,240,17858,2,0,B|368:292|368:292|396:336,1,85,2|0,0:0|0:0,0:0:0:0:
468,348,18233,1,0,1:0:0:0:
492,268,18420,2,0,B|464:200|476:168|476:168|448:128|400:136,1,170,2|2,0:0|0:0,0:0:0:0:
336,120,18983,2,0,P|288:124|256:152,1,85,0|0,1:0|0:0,0:0:0:0:
324,204,19358,1,0,0:0:0:0:
348,36,19733,6,0,L|400:24,3,42.5,0|0|0|0,1:0|1:0|1:0|1:0,0:0:0:0:
432,32,20108,6,0,P|444:84|432:148,1,85,4|0,0:0|0:0,0:0:0:0:
372,164,20483,2,0,P|316:160|268:184,1,85,0|0,1:0|0:0,0:0:0:0:
216,212,20858,2,0,P|180:224|128:220,2,85,2|0|0,0:0|0:0|1:0,0:0:0:0:
168,144,21420,2,0,L|192:336,1,170,2|0,0:0|0:0,0:0:0:0:
260,360,21983,2,0,P|316:364|368:344,1,85,0|0,1:0|0:0,0:0:0:0:
376,276,22358,2,0,B|364:216|364:216|376:132,2,127.5,0|2|0,0:0|0:0|0:0,0:0:0:0:
436,336,23108,6,0,P|492:296|508:200,1,170,0|0,0:0|1:0,0:0:0:0:
436,152,23670,1,0,0:0:0:0:
368,100,23858,2,0,B|368:52|368:52|400:12,2,85,2|0|0,0:0|0:0|1:0,0:0:0:0:
292,140,24420,2,0,P|228:160|128:104,1,170,4|0,0:0|0:0,0:0:0:0:
120,36,24983,2,0,B|128:132|128:132|100:228,2,170,0|2|0,1:0|0:0|1:0,0:0:0:0:
12,168,26108,6,0,P|16:228|112:304,1,170,4|0,0:0|1:0,0:0:0:0:
176,284,26670,1,0,0:0:0:0:
260,304,26858,2,0,P|320:292|352:256,2,85,0|0|0,0:0|0:0|1:0,0:0:0:0:
236,224,27420,2,0,P|244:164|200:48,1,170,2|2,0:0|0:0,0:0:0:0:
128,44,27983,2,0,B|204:60|204:60|328:44,2,170,0|2|0,1:0|0:0|1:0,0:0:0:0:
36,188,29108,6,0,P|60:248|172:248,1,170,4|0,0:0|1:0,0:0:0:0:
212,196,29670,1,0,0:0:0:0:
292,220,29858,2,0,P|348:220|392:204,1,85
408,132,30233,1,0,1:0:0:0:
324,140,30420,2,0,P|344:216|336:320,1,170,2|2,0:0|0:0,0:0:0:0:
264,344,30983,2,0,P|344:304|448:332,2,170,0|2|0,1:0|0:0|1:0,0:0:0:0:
180,360,31920,5,0,1:0:0:0:
180,360,32014,1,0,1:0:0:0:
180,360,32108,2,0,P|112:348|68:248,1,170,4|0,0:0|1:0,0:0:0:0:
92,184,32670,1,0,0:0:0:0:
64,104,32858,2,0,B|40:52|40:52|40:0,2,85,2|0|0,0:0|0:0|1:0,0:0:0:0:
148,112,33420,2,0,P|220:104|328:176,1,170,2|2,0:0|0:0,0:0:0:0:
344,224,33983,2,0,P|368:296|464:320,2,170,0|2|0,1:0|0:0|1:0,0:0:0:0:
404,64,35108,6,0,B|352:48|352:48|296:48,1,85,0|0,1:0|0:0,0:0:0:0:
172,160,35483,2,0,B|216:160|216:160|268:128,1,85,0|0,1:0|0:0,0:0:0:0:
104,36,35858,2,0,P|56:68|64:188,1,170,0|0,1:0|1:0,0:0:0:0:
172,292,36608,5,8,3:0:0:0:
212,300,36701,1,8,3:0:0:0:
252,292,36795,1,4,3:0:0:0:
276,256,36889,1,4,3:0:0:0:
276,212,36983,2,0,P|276:188|292:152,4,42.5,4|4|4|4|4,0:3|0:3|0:3|0:3|0:3,0:0:0:0:
32,32,38108,6,0,P|100:32|160:108,1,170,4|0,0:0|1:0,0:0:0:0:
208,176,38670,1,0,0:0:0:0:
256,244,38858,2,0,L|256:376,2,127.5,0|2|0,0:0|0:0|0:0,0:0:0:0:
304,176,39608,1,4,0:3:0:0:
140,132,39983,6,0,P|180:100|244:100,1,85,0|0,1:0|0:0,0:0:0:0:
292,120,40358,2,0,P|336:148|388:152,1,85,2|0,0:0|0:0,0:0:0:0:
452,168,40733,1,0,1:0:0:0:
512,112,40920,1,0,0:0:0:0:
479,31,41108,6,0,P|398:38|352:106,1,170,4|0,0:0|1:0,0:0:0:0:
304,176,41670,1,0,0:0:0:0:
256,244,41858,2,0,L|256:371,2,127.5,0|2|0,0:0|0:0|0:0,0:0:0:0:
208,176,42608,1,4,0:3:0:0:
372,132,42983,6,0,P|340:103|299:93,1,85,0|0,1:0|0:0,0:0:0:0:
220,119,43358,2,0,P|185:144|144:153,1,85,2|0,0:0|0:0,0:0:0:0:
60,132,43733,1,0,1:0:0:0:
8,64,43920,1,0,1:0:0:0:
84,24,44108,2,0,B|148:24|148:24|188:52|260:20,2,170,2|2|2,0:1|1:0|0:1,0:0:0:0:
36,188,45233,5,0,1:0:0:0:
60,268,45420,1,0,0:0:0:0:
144,264,45608,2,0,P|192:256|232:288,1,85,2|0,0:0|0:0,0:0:0:0:
176,348,45983,2,0,L|204:144,1,170,0|0,1:0|0:0,0:0:0:0:
256,20,46733,1,0,1:0:0:0:
268,104,46920,1,0,0:0:0:0:
312,179,47108,6,0,L|336:348,1,170,2|2,0:1|1:0,0:0:0:0:
420,356,47670,1,0,0:0:0:0:
468,284,47858,2,0,P|488:208|448:96,1,170,2|2,0:1|1:0,0:0:0:0:
400,68,48420,1,0,0:0:0:0:
324,104,48608,2,0,B|264:132|220:96|220:96|164:96|152:148,1,170,2|2,0:1|1:0,0:0:0:0:
140,196,49170,1,0,0:0:0:0:
196,260,49358,5,8,0:3:0:0:
320,192,49545,1,2,0:3:0:0:
204,116,49733,1,4,0:3:0:0:
196,260,49920,1,4,0:3:0:0:
324,340,50108,6,0,P|412:348|480:280,1,170,4|0,0:0|1:0,0:0:0:0:
464,212,50670,1,0,0:0:0:0:
416,140,50858,2,0,P|404:100|456:24,2,127.5,0|2|0,0:0|0:0|0:0,0:0:0:0:
380,216,51608,2,0,P|300:220|256:144,1,170,2|0,0:0|1:0,0:0:0:0:
300,76,52170,1,0,0:0:0:0:
364,132,52358,2,0,L|404:332,1,170,0|0,0:0|1:0,0:0:0:0:
336,360,52920,1,0,0:0:0:0:
280,296,53108,6,0,P|216:268|120:312,1,170,2|0,0:0|1:0,0:0:0:0:
56,348,53670,1,0,0:0:0:0:
28,268,53858,2,0,P|40:200|24:120,2,127.5,0|2|0,0:0|0:0|0:0,0:0:0:0:
56,348,54608,2,0,B|144:356|144:356|240:288,1,170,0|0,0:0|1:0,0:0:0:0:
252,236,55170,1,0,0:0:0:0:
301,308,55358,2,0,B|368:356|368:356|456:348,1,170,0|0,0:0|1:0,0:0:0:0:
496,272,55920,1,0,1:0:0:0:
456,196,56108,6,0,P|440:120|488:8,2,170,2|2|2,0:1|1:0|0:1,0:0:0:0:
332,312,57233,1,0,1:0:0:0:
248,324,57420,1,0,0:0:0:0:
188,264,57608,2,0,P|208:200|200:160,1,85
180,104,57983,2,0,B|136:76|136:76|76:68,2,85,0|0|0,1:0|0:0|0:0,0:0:0:0:
336,172,58733,1,0,1:0:0:0:
416,140,58920,1,0,0:0:0:0:
404,56,59108,1,4,0:0:0:0:
236,48,59483,6,0,B|156:40|156:40|56:68,1,170,2|2,1:1|0:1,0:0:0:0:
28,136,60045,1,0,0:0:0:0:
92,192,60233,2,0,P|100:248|88:296,1,85,2|0,1:0|0:0,0:0:0:0:
16,312,60608,2,0,L|184:236,2,170,2|2|2,0:1|1:0|0:1,0:0:0:0:
20,144,61733,1,2,1:1:0:0:
76,80,61920,1,0,0:0:0:0:
148,128,62108,1,4,0:0:0:0:
64,56,74108,5,4,0:0:0:0:
148,44,74295,1,0,0:0:0:0:
120,124,74483,2,0,L|136:224,1,85,0|0,1:0|0:0,0:0:0:0:
200,264,74858,1,2,0:0:0:0:
264,208,75045,2,0,P|312:200|364:224,1,85,0|0,0:0|1:0,0:0:0:0:
304,284,75420,2,0,L|304:84,1,170,0|2,0:0|0:0,0:0:0:0:
348,40,75983,1,0,1:0:0:0:
432,20,76170,1,0,0:0:0:0:
408,100,76358,2,0,B|416:176|416:176|440:196|484:180,2,127.5,0|2|0,0:0|0:0|0:0,0:0:0:0:
348,40,77108,5,2,0:0:0:0:
264,60,77295,2,0,L|264:184,1,85,0|0,0:0|1:0,0:0:0:0:
200,204,77670,1,0,0:0:0:0:
116,192,77858,2,0,P|72:192|24:224,2,85,2|0|0,0:0|0:0|1:0,0:0:0:0:
132,276,78420,2,0,P|152:344|248:360,1,170
300,304,78983,2,0,P|336:280|384:292,1,85,0|0,1:0|0:0,0:0:0:0:
380,372,79358,2,0,L|372:188,1,170,2|0,0:0|1:0,0:0:0:0:
288,184,79920,1,0,1:0:0:0:
272,172,80014,1,0,1:0:0:0:
256,160,80108,5,4,0:0:0:0:
256,76,80295,2,0,P|336:64|412:152,1,170
376,196,80858,1,2,0:0:0:0:
336,272,81045,2,0,P|384:316|504:300,1,170
512,224,81608,1,2,0:0:0:0:
468,60,81983,1,0,1:0:0:0:
300,68,82358,2,0,B|256:64|256:64|216:76|216:76|168:72,2,127.5,0|2|0,0:0|0:0|0:0,0:0:0:0:
384,52,83108,5,0,0:0:0:0:
416,132,83295,2,0,L|428:240,1,85,0|0,0:0|1:0,0:0:0:0:
476,284,83670,1,0,0:0:0:0:
408,336,83858,2,0,B|360:336|360:336|304:312,2,85,0|0|0,0:0|0:0|1:0,0:0:0:0:
376,256,84420,2,0,B|284:356|284:356|244:356|228:324,1,170,4|0,0:0|0:0,0:0:0:0:
196,284,84983,2,0,P|144:264|112:280,1,85,0|0,1:0|0:0,0:0:0:0:
96,356,85358,2,0,L|128:160,1,170,2|4,0:0|1:3,0:0:0:0:
256,80,86108,6,0,P|316:76|384:160,1,170,4|0,0:0|1:0,0:0:0:0:
312,308,86858,2,0,P|256:304|228:288,1,85,2|0,0:0|0:0,0:0:0:0:
172,232,87233,1,0,1:0:0:0:
204,152,87420,2,0,P|216:100|124:16,1,170,2|2,0:0|0:0,0:0:0:0:
132,104,87983,2,0,L|288:212,2,170,0|2|0,1:0|0:0|1:0,0:0:0:0:
32,244,89108,6,0,P|36:292|144:336,1,170,2|0,0:0|1:0,0:0:0:0:
256,216,89858,2,0,P|256:164|356:108,1,170,2|0,0:0|1:0,0:0:0:0:
340,192,90420,2,0,L|140:248,1,170,2|2,0:0|0:0,0:0:0:0:
92,256,90983,2,0,B|76:208|92:168|92:168|52:140|0:172,2,170,0|2|0,1:0|0:0|1:0,0:0:0:0:
232,348,92108,6,0,B|312:360|312:360|400:320,1,170,4|0,0:0|1:0,0:0:0:0:
460,272,92670,1,0,0:0:0:0:
380,244,92858,2,0,P|368:192|404:84,1,170,2|0,0:0|1:0,0:0:0:0:
484,52,93420,2,0,P|396:84|312:56,1,170,2|2,0:0|0:0,0:0:0:0:
244,32,93983,2,0,B|200:32|200:32|112:64|112:64|72:64,2,170,0|2|0,1:0|0:0|1:0,0:0:0:0:
380,136,95108,6,0,B|388:184|388:184|380:248,1,85,0|0,1:0|0:0,0:0:0:0:
188,240,95483,2,0,B|236:228|236:228|288:232,1,85,0|0,1:0|0:0,0:0:0:0:
200,352,95858,2,0,P|112:332|80:236,1,170,0|0,1:0|1:0,0:0:0:0:
60,96,96608,5,8,3:0:0:0:
96,76,96701,1,8,3:0:0:0:
140,76,96795,1,8,3:0:0:0:
176,100,96889,1,8,3:0:0:0:
176,144,96983,2,0,L|160:200,4,42.5,4|4|4|4|4,0:3|0:3|0:3|0:3|0:3,0:0:0:0:
476,152,98108,6,0,B|464:232|464:232|428:264|384:260|384:260|382:259,1,170,4|0,0:0|1:0,0:0:0:0:
304,232,98670,1,0,0:0:0:0:
224,204,98858,2,0,P|168:204|128:264,1,127.5,2|0,0:0|0:0,0:0:0:0:
116,296,99233,2,0,P|56:296|12:192,1,170,0|2,1:0|0:0,0:0:0:0:
36,40,99983,6,0,P|80:36|132:52,1,85,0|0,1:0|0:0,0:0:0:0:
192,92,100358,2,0,P|236:124|276:116,1,85,2|0,0:0|0:0,0:0:0:0:
264,36,100733,2,0,L|184:212,1,170,0|4,1:0|0:0,0:0:0:0:
128,348,101483,5,0,1:0:0:0:
212,352,101670,1,0,0:0:0:0:
296,356,101858,2,0,B|300:296|300:296|288:256|308:200,2,127.5,0|2|0,0:0|0:0|0:0,0:0:0:0:
380,364,102608,2,0,B|436:360|464:320|464:320|436:264|456:224,1,170,0|0,0:0|1:0,0:0:0:0:
484,176,103170,1,0,0:0:0:0:
492,92,103358,2,0,P|452:72|400:80,1,85,2|0,0:0|0:0,0:0:0:0:
344,124,103733,2,0,P|292:136|236:116,1,85,0|0,1:0|0:0,0:0:0:0:
248,44,104108,2,0,L|276:244,2,170,2|2|2,0:1|1:1|0:1,0:0:0:0:
80,36,105233,5,2,1:0:0:0:
52,116,105420,1,0,0:0:0:0:
76,200,105608,2,0,P|88:264|28:368,2,170,2|2|2,0:1|1:0|0:1,0:0:0:0:
188,72,106733,5,0,1:0:0:0:
256,24,106920,1,0,0:0:0:0:
280,104,107108,2,0,B|296:188|296:188|368:256,2,170,2|2|2,0:1|1:0|0:1,0:0:0:0:
436,40,108233,1,2,1:0:0:0:
476,116,108420,1,0,0:0:0:0:
444,196,108608,2,0,B|432:268|432:300|432:300|380:320|344:288,1,170,2|2,0:1|1:0,0:0:0:0:
288,276,109170,1,0,0:0:0:0:
204,292,109358,2,0,P|152:288|120:240,2,85,8|0|4,0:3|0:0|0:3,0:0:0:0:
200,120,110108,6,0,P|276:116|360:180,1,170,4|0,0:0|1:0,0:0:0:0:
380,248,110670,1,0,0:0:0:0:
364,332,110858,2,0,B|424:352|424:352|504:344,2,127.5,0|2|0,0:0|0:0|0:0,0:0:0:0:
288,292,111608,2,0,B|224:284|160:320|164:320|108:304,1,170,0|0,0:0|1:0,0:0:0:0:
68,240,112170,1,0,0:0:0:0:
24,168,112358,2,0,P|16:112|40:80,1,85,2|0,0:0|0:0,0:0:0:0:
112,64,112733,1,0,1:0:0:0:
196,52,112920,1,0,0:0:0:0:
224,132,113108,6,0,P|272:152|392:100,1,170,4|0,2:0|1:0,0:0:0:0:
388,32,113670,1,0,0:0:0:0:
464,68,113858,2,0,L|452:236,2,127.5,2|0|0,0:0|0:0|0:0,0:0:0:0:
388,32,114608,2,0,B|320:24|284:52|284:52|192:52,1,170,2|0,0:0|1:0,0:0:0:0:
136,48,115170,1,0,0:0:0:0:
92,120,115358,2,0,P|76:176|80:224,1,85,2|0,0:0|0:0,0:0:0:0:
136,260,115733,2,0,B|180:252|180:252|240:268,1,85,0|0,1:0|0:0,0:0:0:0:
296,304,116108,6,0,P|360:316|460:256,2,170,2|2|2,0:1|1:0|0:1,0:0:0:0:
256,140,117233,1,0,1:0:0:0:
184,96,117420,1,0,0:0:0:0:
140,168,117608,2,0,P|80:172|32:68,2,170,2|2|2,0:1|1:1|0:1,0:1:0:0:
256,44,118733,5,0,1:0:0:0:
340,32,118920,1,0,0:0:0:0:
424,48,119108,1,4,0:0:0:0:
464,212,119483,6,0,L|272:228,1,170,2|2,1:0|0:1,0:0:0:0:
212,204,120045,1,0,0:0:0:0:
132,172,120233,2,0,B|8:188|8:188|-16:120,2,170,2|2|2,1:0|0:1|1:0,0:0:0:0:
252,52,121358,5,8,0:3:0:0:
336,40,121545,1,0,0:0:0:0:
304,120,121733,2,0,L|316:232,1,85,4|0,0:3|0:0,0:0:0:0:
320,288,122108,1,4,0:0:0:0:
