osu file format v14

[General]
AudioFilename: IOSYS - MiracleHinacle.mp3
AudioLeadIn: 0
PreviewTime: 38108
Countdown: 0
SampleSet: Soft
StackLeniency: 0.7
Mode: 0
LetterboxInBreaks: 0
WidescreenStoryboard: 0

[Editor]
DistanceSpacing: 1
BeatDivisor: 2
GridSize: 4
TimelineZoom: 1

[Metadata]
Title:Miracle Hinacle
TitleUnicode:Miracle∞Hinacle
Artist:IOSYS
ArtistUnicode:IOSYS
Creator:CDFA
Version:Advanced
Source:東方風神録 ~ Mountain of Faith.
Tags:Reditum 3L touhou 2hu toho ZUN
BeatmapID:898890
BeatmapSetID:405911

[Difficulty]
HPDrainRate:4
CircleSize:3.2
OverallDifficulty:3
ApproachRate:5.5
SliderMultiplier:1.55
SliderTickRate:2

[Events]
//Background and Video events
0,0,"1920x1080_kagiyama_hina-809055.jpg",0,0
//Break Periods
2,62308,72983
//Storyboard Layer 0 (Background)
//Storyboard Layer 1 (Fail)
//Storyboard Layer 2 (Pass)
//Storyboard Layer 3 (Foreground)
//Storyboard Sound Samples

[TimingPoints]
608,375,4,2,0,65,1,0
38108,-100,4,2,0,65,0,1
62108,-100,4,2,0,65,0,0
98108,-100,4,2,0,65,0,1
122108,-100,4,2,0,65,0,0

[Colours]
Combo1 : 242,206,153
Combo2 : 156,245,168
Combo3 : 128,185,255
Combo4 : 249,136,153

[HitObjects]
68,60,14108,6,0,P|148:52|224:124,1,155,4|0,0:0|1:0,0:0:0:0:
260,240,14858,2,0,P|328:296|428:260,1,155,0|0,0:0|1:0,0:0:0:0:
456,248,15420,1,0,0:0:0:0:
484,96,15795,1,0,0:0:0:0:
412,68,15983,2,0,L|248:56,2,155,0|0|0,1:0|0:0|1:0,0:0:0:0:
468,212,17108,5,0,0:0:0:0:
360,324,17483,1,0,1:0:0:0:
212,280,17858,2,0,P|144:256|48:280,1,155,0|0,0:0|1:0,0:0:0:0:
64,348,18420,2,0,L|40:168,1,155
20,120,18983,1,0,1:0:0:0:
148,32,19358,1,0,0:0:0:0:
292,88,19733,2,0,L|368:72,1,77.5,0|0,1:0|0:0,0:0:0:0:
444,56,20108,6,0,B|452:124|452:124|424:216,1,155,4|0,0:0|1:0,0:0:0:0:
320,320,20858,1,0,0:0:0:0:
256,280,21045,2,0,P|168:272|96:288,2,155
328,248,21983,1,0,1:0:0:0:
388,104,22358,2,0,P|332:64|264:84,1,116.25
256,88,22733,1,0,1:0:0:0:
212,152,22920,1,0,0:0:0:0:
136,144,23108,5,2,0:0:0:0:
144,300,23483,2,0,P|228:320|320:268,1,155,0|0,1:0|0:0,0:0:0:0:
332,232,24045,2,0,P|324:152|364:76,1,155,0|4,0:0|0:0,0:0:0:0:
500,36,24795,5,0,0:0:0:0:
508,112,24983,1,0,1:0:0:0:
508,188,25170,2,0,B|452:248|392:240|392:240|344:248|324:332,1,232.5,4|0,0:0|1:0,0:0:0:0:
180,356,26108,6,0,P|88:328|64:220,1,155,4|0,0:0|1:0,0:0:0:0:
60,124,26858,1,2,0:0:0:0:
108,64,27045,1,0,0:0:0:0:
184,68,27233,2,0,P|252:84|352:56,2,155,0|2|0,1:0|0:0|1:0,0:0:0:0:
192,224,28358,2,0,L|224:304,2,77.5,2|0|0,0:0|0:0|1:0,0:0:0:0:
256,84,29108,6,0,P|336:80|412:144,1,155,2|0,0:0|1:0,0:0:0:0:
420,192,29670,1,0,0:0:0:0:
432,268,29858,2,0,P|384:332|280:316,1,155,0|0,0:0|1:0,0:0:0:0:
244,304,30420,2,0,P|188:272|76:288,1,155
52,336,30983,2,0,B|88:212|88:212|72:148,2,155,0|2|0,1:0|0:0|1:0,0:0:0:0:
4,188,32108,6,0,P|0:92|80:44,1,155,4|0,0:0|1:0,0:0:0:0:
192,36,32858,2,0,P|272:32|336:72,1,155,2|0,0:0|1:0,0:0:0:0:
360,144,33420,2,0,P|364:224|416:280,1,155,2|2,0:0|0:0,0:0:0:0:
488,264,33983,2,0,L|316:344,2,155,0|0|0,1:0|0:0|1:0,0:0:0:0:
500,108,35108,6,0,P|456:80|424:88,1,77.5,0|0,1:0|0:0,0:0:0:0:
392,148,35483,2,0,B|324:156|324:156|264:84,1,155,0|0,1:0|1:0,0:0:0:0:
236,20,36045,1,0,0:0:0:0:
164,48,36233,2,0,B|112:60|88:44|88:44|76:96|100:144,1,155,0|8,1:0|0:3,0:0:0:0:
196,232,36983,1,4,0:3:0:0:
48,56,38108,6,0,P|132:52|224:80,1,155,4|0,0:0|1:0,0:0:0:0:
268,104,38670,1,0,0:0:0:0:
340,136,38858,2,0,P|408:144|492:32,2,155,2|0|2,0:0|1:0|0:0,0:0:0:0:
260,268,39983,5,0,1:0:0:0:
396,340,40358,1,2,0:0:0:0:
480,208,40733,1,0,1:0:0:0:
464,56,41108,6,0,P|380:52|288:80,1,155,4|0,0:0|1:0,0:0:0:0:
244,104,41670,1,0,0:0:0:0:
172,136,41858,2,0,P|104:144|20:32,2,155,2|0|2,0:0|1:0|0:0,0:0:0:0:
256,264,42983,2,0,P|288:328|368:344,2,155,0|0|0,1:0|0:0|1:0,0:0:0:0:
256,108,44108,6,0,B|172:104|172:104|96:128,2,155,2|2|2,0:1|1:0|0:1,0:0:0:0:
412,124,45233,2,0,P|416:208|360:264,1,155,2|2,1:0|0:1,0:0:0:0:
296,260,45795,1,0,0:0:0:0:
220,256,45983,2,0,P|144:252|72:292,1,155,2|2,1:0|0:1,0:0:0:0:
216,360,46733,6,0,L|300:364,1,77.5,0|0,1:0|0:0,0:0:0:0:
372,364,47108,2,0,B|384:280|384:280|372:160,2,155,2|2|2,0:1|1:0|0:1,0:0:0:0:
256,260,48233,1,2,1:1:0:0:
224,188,48420,1,0,0:0:0:0:
188,120,48608,2,0,P|256:84|348:80,1,155,2|2,0:1|1:0,0:0:0:0:
408,88,49170,1,0,0:0:0:0:
384,160,49358,2,0,P|376:240|424:352,1,155,8|4,0:3|0:3,0:0:0:0:
248,360,50108,6,0,P|152:348|124:288,1,155,4|0,0:0|1:0,0:0:0:0:
120,228,50670,1,0,0:0:0:0:
116,152,50858,2,0,B|112:72|112:72|40:16,2,155,0|0|0,0:0|1:0|0:0,0:0:0:0:
248,236,51983,5,0,1:0:0:0:
324,236,52170,1,0,0:0:0:0:
400,236,52358,2,0,P|412:160|376:72,1,155,2|0,0:0|1:0,0:0:0:0:
232,80,53108,6,0,P|156:120|76:92,1,155,2|0,0:0|1:0,0:0:0:0:
76,28,53670,1,0,0:0:0:0:
152,40,53858,2,0,L|176:232,2,155,2|0|2,0:0|1:0|0:0,0:0:0:0:
308,28,54983,6,0,P|360:36|392:64,1,77.5,0|0,1:0|0:0,0:0:0:0:
404,124,55358,2,0,P|400:176|408:236,1,77.5,2|0,0:0|0:0,0:0:0:0:
424,276,55733,2,0,P|416:328|292:336,1,155,0|4,1:0|0:0,0:0:0:0:
180,316,56483,6,0,L|108:344,2,77.5,2|0|2,1:0|0:0|0:1,0:0:0:0:
288,204,57233,2,0,P|308:136|260:32,1,155,2|2,1:0|0:1,0:0:0:0:
212,24,57795,1,0,0:0:0:0:
180,96,57983,2,0,P|116:120|24:92,2,155,2|2|2,1:0|0:1|1:0,0:0:0:0:
316,24,59108,5,4,0:0:0:0:
256,192,59483,12,4,62108,0:0:0:0:
56,48,74108,6,0,B|128:44|128:44|244:80,1,155,4|0,0:0|1:0,0:0:0:0:
276,100,74670,1,0,0:0:0:0:
288,176,74858,2,0,P|380:188|428:108,2,155,2|0|2,0:0|1:0|0:0,0:0:0:0:
148,104,75983,1,0,1:0:0:0:
48,220,76358,2,0,P|124:240|208:208,1,155,2|0,0:0|1:0,0:0:0:0:
328,140,77108,5,2,0:0:0:0:
404,132,77295,2,0,P|476:168|488:252,1,155
480,312,77858,2,0,B|400:304|400:304|304:320,1,155,0|0,0:0|1:0,0:0:0:0:
248,324,78420,1,0,0:0:0:0:
172,340,78608,2,0,B|88:328|88:328|40:248,2,155,2|0|2,0:0|1:0|0:0,0:0:0:0:
256,208,79733,6,0,L|252:116,1,77.5,0|0,1:0|0:0,0:0:0:0:
248,52,80108,2,0,P|340:40|404:72,1,155,4|0,0:0|1:0,0:0:0:0:
472,200,80858,1,2,0:0:0:0:
424,260,81045,2,0,L|244:280,1,155,0|2,0:0|0:0,0:0:0:0:
124,328,81795,1,0,0:0:0:0:
76,268,81983,2,0,P|72:200|112:128,1,77.5,0|0,1:0|0:0,0:0:0:0:
146,164,82358,2,0,P|66:184|6:136,1,155,2|0,0:0|1:0,0:0:0:0:
96,16,83108,5,2,0:0:0:0:
156,64,83295,2,0,L|344:76,1,155
376,116,83858,1,2,0:0:0:0:
448,252,84233,1,0,1:0:0:0:
372,272,84420,2,0,P|288:264|268:176,1,155,4|0,0:0|0:0,0:0:0:0:
340,200,84983,2,0,L|244:380,2,155,0|2|0,1:0|0:0|1:0,0:0:0:0:
400,56,86108,6,0,P|328:28|248:80,1,155,4|0,0:0|1:0,0:0:0:0:
220,124,86670,1,0,0:0:0:0:
184,192,86858,2,0,P|104:212|44:156,1,155,2|0,0:0|1:0,0:0:0:0:
156,56,87608,2,0,L|360:48,2,155,2|0|2,0:0|1:0|0:0,0:0:0:0:
20,128,88733,5,0,1:0:0:0:
16,284,89108,2,0,P|72:332|184:304,1,155,2|0,0:0|1:0,0:0:0:0:
288,260,89858,2,0,P|360:244|408:312,1,155,2|0,0:0|1:0,0:0:0:0:
332,324,90420,2,0,L|380:160,1,155,2|2,0:0|0:0,0:0:0:0:
400,100,90983,1,0,1:0:0:0:
264,24,91358,1,2,0:0:0:0:
128,100,91733,1,0,1:0:0:0:
124,176,91920,1,0,0:0:0:0:
124,252,92108,6,0,P|224:268|296:212,2,155,4|0|0,0:0|1:0|0:0,0:0:0:0:
228,136,93233,1,0,1:0:0:0:
304,120,93420,1,0,0:0:0:0:
340,188,93608,2,0,P|384:264|364:348,2,155,2|0|2,0:0|1:0|0:0,0:0:0:0:
188,156,94733,2,0,P|100:124|112:48,1,155,0|4,1:0|0:0,0:0:0:0:
244,28,95483,5,0,1:0:0:0:
320,16,95670,1,0,0:0:0:0:
344,92,95858,2,0,P|348:152|272:224,1,155,0|0,1:0|1:0,0:0:0:0:
256,148,96420,1,0,0:0:0:0:
224,219,96608,2,0,P|169:167|168:92,1,155,8|4,0:3|0:3,0:0:0:0:
0,180,98108,6,0,P|60:240|152:216,1,155,4|0,0:0|1:0,0:0:0:0:
156,164,98670,1,0,0:0:0:0:
216,212,98858,2,0,B|280:216|280:216|416:172,2,155,2|0|2,0:0|1:0|0:0,0:0:0:0:
68,260,99983,6,0,P|68:332|172:348,1,155,0|2,1:0|0:0,0:0:0:0:
204,328,100545,1,0,0:0:0:0:
280,340,100733,2,0,B|332:340|344:300|344:300|336:248|376:224,1,155,0|2,1:0|0:0,0:0:0:0:
476,128,101483,6,0,P|476:96|440:48,1,77.5,0|0,1:0|0:0,0:0:0:0:
380,40,101858,2,0,B|308:40|308:40|188:104,2,155,2|0|2,0:0|1:0|0:0,0:0:0:0:
364,196,102983,5,0,1:0:0:0:
216,236,103358,2,0,B|152:240|152:240|68:304,1,155,2|0,0:0|1:0,0:0:0:0:
20,344,103920,1,0,1:0:0:0:
4,268,104108,2,0,L|0:100,2,155,2|2|2,0:1|1:1|0:1,0:0:0:0:
152,312,105233,6,0,P|232:312|332:256,1,155,0|2,1:0|0:1,0:0:0:0:
320,208,105795,1,0,0:0:0:0:
396,224,105983,2,0,P|436:156|388:32,1,155,2|2,1:0|0:1,0:0:0:0:
284,28,106733,6,0,P|216:28|152:84,1,155,0|2,1:0|0:1,0:0:0:0:
148,236,107483,2,0,P|188:296|268:280,1,155,2|2,1:1|0:1,0:0:0:0:
320,236,108045,1,0,0:0:0:0:
376,180,108233,2,0,B|456:192|456:192|508:264,1,155,2|2,1:0|0:1,0:0:0:0:
392,364,108983,6,0,L|184:356,1,155,0|8,1:0|0:3,0:0:0:0:
188,300,109545,1,0,0:0:0:0:
244,248,109733,2,0,P|268:200|240:88,1,155,4|4,0:3|0:0,0:0:0:0:
108,44,110483,5,0,1:0:0:0:
52,188,110858,2,0,P|48:252|120:340,1,155,2|0,0:0|1:0,0:0:0:0:
172,308,111420,2,0,P|200:296|264:320,1,77.5,0|2,0:0|0:0,0:0:0:0:
396,348,111983,5,0,1:0:0:0:
492,228,112358,1,2,0:0:0:0:
492,152,112545,1,0,0:0:0:0:
492,76,112733,2,0,P|412:64|320:132,1,155,0|2,1:0|0:0,0:0:0:0:
228,196,113483,5,0,1:0:0:0:
156,228,113670,1,0,0:0:0:0:
100,172,113858,2,0,B|80:136|80:136|96:56|52:24,2,155,2|0|2,0:0|1:0|0:0,0:0:0:0:
64,324,114983,2,0,P|144:336|240:264,1,155,0|2,1:0|0:0,0:0:0:0:
256,244,115545,1,0,0:0:0:0:
303,305,115733,2,0,P|372:336|448:324,1,155,0|2,1:0|0:1,0:0:0:0:
496,176,116483,5,2,1:0:0:0:
452,28,116858,1,2,0:1:0:0:
376,44,117045,1,0,0:0:0:0:
316,92,117233,2,0,P|196:108|108:80,1,155,2|2,1:0|0:1,0:0:0:0:
28,28,117983,2,0,P|8:104|28:196,1,155,2|2,1:0|0:1,0:0:0:0:
116,300,118733,5,2,1:0:0:0:
188,324,118920,1,0,0:0:0:0:
252,280,119108,1,4,0:0:0:0:
256,192,119483,12,4,122108,0:0:0:0:
