osu file format v14

[General]
AudioFilename: IOSYS - MiracleHinacle.mp3
AudioLeadIn: 0
PreviewTime: 38108
Countdown: 0
SampleSet: Soft
StackLeniency: 0.7
Mode: 0
LetterboxInBreaks: 0
WidescreenStoryboard: 0

[Editor]
DistanceSpacing: 1
BeatDivisor: 4
GridSize: 4
TimelineZoom: 1

[Metadata]
Title:Miracle Hinacle
TitleUnicode:Miracle∞Hinacle
Artist:IOSYS
ArtistUnicode:IOSYS
Creator:CDFA
Version:Insane
Source:東方風神録 ~ Mountain of Faith.
Tags:Reditum 3L touhou 2hu toho ZUN
BeatmapID:882185
BeatmapSetID:405911

[Difficulty]
HPDrainRate:6
CircleSize:4.1
OverallDifficulty:7
ApproachRate:8.4
SliderMultiplier:2
SliderTickRate:2

[Events]
//Background and Video events
0,0,"1920x1080_kagiyama_hina-809055.jpg",0,0
//Break Periods
2,62308,73418
//Storyboard Layer 0 (Background)
//Storyboard Layer 1 (Fail)
//Storyboard Layer 2 (Pass)
//Storyboard Layer 3 (Foreground)
//Storyboard Sound Samples

[TimingPoints]
608,375,4,2,0,65,1,0
38108,-100,4,2,0,65,0,1
62108,-100,4,2,0,65,0,0
98108,-100,4,2,0,65,0,1
122108,-100,4,2,0,65,0,0

[Colours]
Combo1 : 242,206,153
Combo2 : 156,245,168
Combo3 : 128,185,255
Combo4 : 249,136,153

[HitObjects]
56,128,14108,5,4,0:0:0:0:
132,64,14295,2,0,P|212:44|280:144,1,200
256,224,14858,1,2,0:0:0:0:
356,216,15045,1,0,0:0:0:0:
420,140,15233,1,0,1:0:0:0:
500,216,15420,2,0,P|500:276|384:312,1,200,2|0,0:0|0:0,0:0:0:0:
304,252,15983,2,0,P|240:232|140:312,1,200,0|0,1:0|0:0,0:0:0:0:
60,364,16545,1,0,0:0:0:0:
0,284,16733,2,0,P|-4:224|8:168,1,100,0|0,1:0|0:0,0:0:0:0:
84,128,17108,5,0,0:0:0:0:
176,92,17295,1,0,0:0:0:0:
268,52,17483,2,0,P|316:72|380:72,1,100,0|0,1:0|0:0,0:0:0:0:
456,40,17858,1,0,0:0:0:0:
496,132,18045,1,0,0:0:0:0:
444,216,18233,1,0,1:0:0:0:
348,236,18420,2,0,P|296:248|236:380,1,200,2|0,0:0|0:0,0:0:0:0:
336,368,18983,1,0,1:0:0:0:
420,312,19170,1,0,0:0:0:0:
444,216,19358,2,0,P|440:168|328:96,1,150,2|0,0:0|0:0,0:0:0:0:
320,92,19733,5,0,1:0:0:0:
272,88,19826,1,0,1:0:0:0:
220,84,19920,1,0,1:0:0:0:
172,80,20014,1,0,1:0:0:0:
124,76,20108,6,0,L|88:188,1,100,4|0,1:2|0:0,0:0:0:0:
60,264,20483,1,0,1:0:0:0:
136,332,20670,1,0,0:0:0:0:
224,284,20858,2,0,P|276:272|344:308,1,100,2|0,0:0|0:0,0:0:0:0:
408,332,21233,1,0,1:0:0:0:
484,264,21420,2,0,P|496:212|396:84,1,200,2|0,0:0|0:0,0:0:0:0:
328,120,21983,2,0,P|272:136|204:120,1,100,0|0,1:0|0:0,0:0:0:0:
192,40,22358,2,0,B|204:152|204:152|168:188,2,150,0|2|0,0:0|0:0|0:0,0:0:0:0:
92,32,23108,5,4,3:0:0:0:
96,132,23295,2,0,P|100:196|80:232,1,100,0|0,0:0|1:0,0:0:0:0:
8,164,23670,1,0,0:0:0:0:
32,68,23858,1,2,0:0:0:0:
128,36,24045,1,0,0:0:0:0:
204,100,24233,1,0,1:0:0:0:
280,168,24420,2,0,P|300:120|228:0,1,200,4|2,0:0|0:0,0:0:0:0:
204,100,24983,1,0,1:0:0:0:
280,168,25170,2,0,P|364:144|412:24,1,200,4|2,0:0|0:0,0:0:0:0:
212,28,25733,5,8,3:0:0:0:
164,24,25826,1,8,3:0:0:0:
116,36,25920,1,4,3:0:0:0:
84,76,26014,1,4,3:0:0:0:
84,128,26108,6,0,P|72:180|28:216,2,100,4|0|0,0:0|0:0|1:0,0:0:0:0:
180,96,26670,1,0,0:0:0:0:
280,112,26858,2,0,P|328:120|384:112,1,100,2|0,0:0|0:0,0:0:0:0:
469,79,27233,1,0,1:0:0:0:
396,16,27420,2,0,P|472:84|488:192,1,200,2|2,0:0|0:0,0:0:0:0:
504,276,27983,2,0,P|506:194|388:196,2,200,0|2|0,1:0|0:0|1:0,0:0:0:0:
312,364,29108,6,0,P|252:368|144:268,1,200,2|0,0:0|1:0,0:0:0:0:
128,188,29670,1,0,0:0:0:0:
204,124,29858,2,0,B|224:80|224:80|212:16,1,100,2|0,0:0|0:0,0:0:0:0:
116,24,30233,1,0,1:0:0:0:
16,24,30420,2,0,B|16:72|16:72|48:148|48:148|48:224,1,200,2|2,0:0|0:0,0:0:0:0:
4,308,30983,5,2,1:3:0:0:
96,348,31170,1,0,0:0:0:0:
176,284,31358,1,2,1:3:0:0:
252,220,31545,1,0,0:0:0:0:
340,268,31733,1,0,1:0:0:0:
440,252,31920,1,0,1:0:0:0:
456,232,32014,1,0,1:0:0:0:
472,212,32108,6,0,P|492:156|400:32,1,200,4|0,0:0|1:0,0:0:0:0:
328,20,32670,1,0,0:0:0:0:
232,52,32858,2,0,P|184:68|112:48,1,100,2|0,0:0|0:0,0:0:0:0:
44,24,33233,1,0,1:0:0:0:
44,24,33420,2,0,P|20:76|72:224,1,200,2|0,0:0|0:0,0:0:0:0:
136,268,33983,1,0,1:0:0:0:
232,244,34170,1,0,0:0:0:0:
304,172,34358,2,0,P|320:128|300:68,1,100,2|0,0:0|0:0,0:0:0:0:
212,48,34733,2,0,P|304:76|404:20,1,200,0|4,1:0|0:0,0:0:0:0:
432,296,35483,6,0,L|316:284,1,100,4|0,0:0|0:0,0:0:0:0:
220,128,35858,2,0,L|328:140,1,100,4|0,0:0|0:0,0:0:0:0:
112,208,36233,2,0,L|0:192,1,100,4|0,0:0|0:0,0:0:0:0:
336,52,36608,1,8,3:0:0:0:
384,56,36701,1,8,3:0:0:0:
432,72,36795,1,4,3:0:0:0:
464,112,36889,1,4,3:0:0:0:
476,160,36983,1,4,1:3:0:0:
412,304,37170,1,4,0:3:0:0:
256,328,37358,5,2,0:0:0:0:
188,132,37545,1,0,0:0:0:0:
360,236,37733,1,0,0:0:0:0:
152,236,37920,1,0,0:0:0:0:
324,132,38108,6,0,P|348:88|488:104,1,200,4|0,2:1|1:0,0:0:0:0:
496,192,38670,1,0,0:0:0:0:
492,292,38858,2,0,P|468:340|364:344,2,150,0|4|6,0:0|3:0|3:0,0:0:0:0:
412,232,39608,2,0,P|356:212|272:256,1,150,0|8,0:0|0:3,0:0:0:0:
236,280,39983,6,0,P|172:312|120:304,1,100,2|0,1:2|0:0,0:0:0:0:
256,192,40358,2,0,L|256:84,1,100,2|0,0:0|0:0,0:0:0:0:
276,280,40733,2,0,P|340:312|392:304,1,100,2|0,1:2|0:0,0:0:0:0:
464,288,41108,6,0,P|468:232|384:112,1,200,4|0,0:0|1:0,0:0:0:0:
300,80,41670,1,0,0:0:0:0:
220,144,41858,2,0,P|152:156|80:112,2,150,8|4|4,3:0|3:0|3:0,0:0:0:0:
300,80,42608,2,0,P|356:72|444:128,1,150,2|8,0:0|0:3,0:0:0:0:
448,164,42983,6,0,L|460:280,1,100,2|0,1:2|0:0,0:0:0:0:
256,296,43358,2,0,L|248:184,1,100,2|0,0:2|0:0,0:0:0:0:
380,168,43733,2,0,L|396:312,1,100,0|0,1:0|0:0,0:0:0:0:
388,288,44014,1,0,0:0:0:0:
384,312,44108,6,0,B|372:364|372:364|320:380,2,100,6|0|2,0:1|0:0|1:0,0:0:0:0:
316,240,44670,1,0,0:0:0:0:
256,160,44858,2,0,P|248:84|376:44,1,200,2|2,1:0|0:1,0:0:0:0:
444,56,45420,1,0,0:0:0:0:
492,144,45608,5,8,0:3:0:0:
332,268,45795,1,2,0:3:0:0:
400,64,45983,1,0,1:3:0:0:
464,268,46170,1,4,0:3:0:0:
304,144,46358,1,4,0:3:0:0:
464,268,46545,5,2,0:0:0:0:
464,268,46639,1,0,0:0:0:0:
464,268,46733,2,0,P|392:252|364:272,1,100
280,304,47108,2,0,P|216:248|220:124,1,200,2|2,0:1|1:0,0:0:0:0:
308,168,47670,1,0,0:0:0:0:
408,180,47858,2,0,P|416:128|316:16,1,200,2|2,0:1|1:0,0:0:0:0:
236,56,48420,1,0,0:0:0:0:
144,92,48608,2,0,P|104:128|8:92,1,150,2|8,0:1|3:0,0:0:0:0:
76,56,48983,2,0,P|112:20|192:32,1,100,2|0,0:1|1:0,0:0:0:0:
196,28,49264,1,0,1:0:0:0:
216,64,49358,5,2,0:1:0:0:
348,244,49545,1,4,0:3:0:0:
132,172,49733,1,2,0:1:0:0:
332,96,49920,1,0,0:3:0:0:
200,288,50108,6,0,P|172:336|40:312,1,200,4|0,0:0|1:0,0:0:0:0:
24,224,50670,1,0,0:0:0:0:
68,132,50858,2,0,P|80:88|-8:28,2,150,0|10|4,0:0|0:3|0:3,0:0:0:0:
136,208,51608,2,0,P|192:224|260:196,1,100
312,156,51983,6,0,P|344:120|428:128,1,100,0|0,1:0|0:0,0:0:0:0:
460,188,52358,2,0,L|492:300,1,100,2|0,0:0|0:0,0:0:0:0:
312,156,52733,2,0,L|280:48,1,100,0|0,1:0|0:0,0:0:0:0:
460,188,53108,6,0,P|424:228|280:220,1,200,4|0,0:0|1:0,0:0:0:0:
212,160,53670,1,0,0:0:0:0:
132,100,53858,2,0,P|80:88|16:176,2,150,0|2|0,0:0|0:0|0:0,0:0:0:0:
124,200,54608,2,0,P|120:260|200:328,1,150,4|2,3:0|0:0,0:0:0:0:
196,240,54983,6,0,B|208:196|208:196|212:128,1,100,0|0,1:0|0:0,0:0:0:0:
204,40,55358,2,0,L|336:40,1,100
300,141,55733,2,0,B|304:196|304:196|316:240,1,100,0|0,1:0|1:0,0:0:0:0:
340,284,56014,1,0,1:0:0:0:
376,320,56108,6,0,P|428:328|484:288,1,100,2|0,0:1|0:0,0:0:0:0:
472,208,56483,2,0,P|456:160|508:24,1,200,2|2,1:0|0:1,0:0:0:0:
304,28,57233,5,2,1:0:0:0:
204,44,57420,1,0,0:0:0:0:
148,128,57608,2,0,L|112:244,1,100,8|2,0:3|0:3,0:0:0:0:
348,300,57983,2,0,L|380:188,1,100,4|0,0:3|0:3,0:0:0:0:
224,140,58358,2,0,B|192:244|192:244|196:356,1,200,6|0,0:3|1:0,0:0:0:0:
288,376,58920,1,0,0:0:0:0:
388,376,59108,6,0,P|444:348|464:208,1,200,2|2,0:1|1:0,0:0:0:0:
372,232,59670,1,0,0:0:0:0:
272,244,59858,2,0,P|264:180|360:88,1,200,2|2,0:1|1:0,0:0:0:0:
452,80,60420,1,0,0:0:0:0:
484,176,60608,6,0,L|496:312,1,100,2|2,0:1|0:0,0:0:0:0:
468,320,60889,1,0,0:0:0:0:
420,328,60983,2,0,P|368:328|312:376,1,100,2|0,1:0|0:0,0:0:0:0:
284,380,61264,1,0,0:0:0:0:
236,376,61358,5,8,0:3:0:0:
208,176,61545,1,8,0:3:0:0:
108,352,61733,1,4,0:3:0:0:
300,256,61920,1,6,0:3:0:0:
100,224,62108,1,4,1:2:0:0:
32,48,74108,5,4,0:0:0:0:
60,144,74295,1,0,0:0:0:0:
156,176,74483,2,0,P|216:176|276:232,1,100,0|0,1:0|0:0,0:0:0:0:
296,284,74858,1,0,0:0:0:0:
368,352,75045,2,0,P|440:348|476:308,1,100,0|0,0:0|1:0,0:0:0:0:
492,236,75420,2,0,P|500:184|408:72,1,200,2|0,0:0|0:0,0:0:0:0:
324,116,75983,2,0,P|260:136|204:112,1,100,0|0,1:0|0:0,0:0:0:0:
232,28,76358,2,0,P|164:52|128:148,2,150,0|2|0,0:0|0:0|0:0,0:0:0:0:
332,24,77108,5,2,0:0:0:0:
432,24,77295,2,0,L|452:144,1,100,0|0,0:0|1:0,0:0:0:0:
468,220,77670,1,0,0:0:0:0:
392,288,77858,2,0,P|332:288|288:320,1,100
208,352,78233,1,0,1:0:0:0:
108,364,78420,2,0,P|56:336|48:184,1,200,2|0,0:0|0:0,0:0:0:0:
108,140,78983,2,0,P|172:128|200:80,1,100,0|0,1:0|0:0,0:0:0:0:
172,4,79358,2,0,P|204:80|284:84,1,150,2|0,0:0|0:0,0:0:0:0:
312,88,79733,5,0,1:0:0:0:
360,88,79826,1,0,1:0:0:0:
412,88,79920,1,0,1:0:0:0:
464,88,80014,1,0,1:0:0:0:
512,88,80108,6,0,L|516:208,1,100,4|0,1:2|0:0,0:0:0:0:
468,276,80483,1,0,1:0:0:0:
372,304,80670,1,0,0:0:0:0:
272,288,80858,2,0,P|224:280|168:304,1,100
92,352,81233,1,0,1:0:0:0:
24,280,81420,2,0,P|16:224|108:104,1,200,2|0,0:0|0:0,0:0:0:0:
192,116,81983,2,0,P|232:148|308:144,1,100,0|0,1:0|0:0,0:0:0:0:
376,136,82358,2,0,B|392:188|392:188|372:280|372:280,2,150,0|0|4,0:0|3:0|0:3,0:0:0:0:
300,68,83108,5,0,0:0:0:0:
208,32,83295,1,0,0:0:0:0:
112,60,83483,2,0,P|60:76|32:116,1,100,0|0,1:0|0:0,0:0:0:0:
44,212,83858,1,0,0:0:0:0:
124,272,84045,2,0,P|172:292|252:284,1,100,0|0,0:0|1:0,0:0:0:0:
308,244,84420,6,0,P|296:188|376:64,1,200,4|2,0:0|0:0,0:0:0:0:
420,192,84983,1,0,1:0:0:0:
308,244,85170,2,0,P|212:192|220:96,1,200,4|0,0:0|0:0,0:0:0:0:
176,20,85733,5,8,0:3:0:0:
128,24,85826,1,8,0:3:0:0:
84,48,85920,1,4,0:3:0:0:
64,92,86014,1,4,0:3:0:0:
72,140,86108,6,0,P|76:208|24:256,1,100,4|0,0:0|0:0,0:0:0:0:
4,316,86483,1,0,1:0:0:0:
96,356,86670,1,0,0:0:0:0:
180,300,86858,2,0,P|240:284|296:304,1,100,2|0,0:0|0:0,0:0:0:0:
368,332,87233,1,0,1:0:0:0:
464,364,87420,2,0,P|480:312|416:184,1,200,2|2,0:0|0:0,0:0:0:0:
320,200,87983,2,0,P|288:140|348:32,1,200,0|2,1:0|0:0,0:0:0:0:
444,20,88545,1,0,0:0:0:0:
492,108,88733,1,0,1:0:0:0:
368,264,89108,6,0,P|284:320|212:244,1,200,2|0,0:0|1:0,0:0:0:0:
244,172,89670,1,0,0:0:0:0:
196,84,89858,2,0,P|128:76|96:108,1,100,2|0,0:0|0:0,0:0:0:0:
80,192,90233,1,0,1:0:0:0:
120,288,90420,2,0,P|180:320|304:256,1,200,0|2,0:0|0:0,0:0:0:0:
328,176,90983,6,0,L|304:72,1,100,0|0,1:0|0:0,0:0:0:0:
396,124,91358,2,0,L|428:240,1,100,2|0,0:0|0:0,0:0:0:0:
240,152,91733,2,0,L|212:16,1,100,0|0,1:0|1:0,0:0:0:0:
176,32,92014,1,0,1:0:0:0:
148,72,92108,6,0,B|168:176|168:176|124:272,1,200,4|0,0:0|1:0,0:0:0:0:
44,316,92670,1,0,0:0:0:0:
4,224,92858,2,0,P|4:176|40:128,1,100,2|0,0:0|0:0,0:0:0:0:
120,88,93233,1,0,1:0:0:0:
180,168,93420,2,0,P|236:184|356:120,1,200,2|0,0:0|0:0,0:0:0:0:
372,24,93983,2,0,B|356:120|356:120|412:224,2,200,0|2|0,1:0|0:0|1:0,0:0:0:0:
172,44,95108,6,0,L|116:164,1,100,0|0,1:0|0:0,0:0:0:0:
256,216,95483,2,0,L|256:316,1,100,0|0,1:0|0:0,0:0:0:0:
340,44,95858,2,0,L|382:134,1,100,0|0,1:0|0:0,0:0:0:0:
256,216,96233,1,0,1:0:0:0:
168,260,96420,1,0,0:0:0:0:
84,208,96608,1,8,3:0:0:0:
72,160,96701,1,8,3:0:0:0:
84,112,96795,1,0,3:0:0:0:
116,76,96889,1,0,3:0:0:0:
164,60,96983,1,0,1:0:0:0:
292,28,97170,1,0,0:0:0:0:
352,128,97358,6,0,L|428:228,1,100,2|0,0:0|0:0,0:0:0:0:
144,208,97733,2,0,L|64:92,1,100,2|0,0:0|0:0,0:0:0:0:
288,168,98108,6,0,B|360:260|360:260|392:300|448:280,1,200,4|0,0:0|1:0,0:0:0:0:
484,196,98670,1,0,0:0:0:0:
412,128,98858,2,0,P|392:76|472:24,2,150,0|8|4,0:0|0:3|0:3,0:0:0:0:
380,224,99608,2,0,P|328:268|236:244,1,150,4|0,0:3|0:0,0:0:0:0:
208,232,99983,6,0,P|156:208|104:216,1,100,0|0,1:1|0:0,0:0:0:0:
256,180,100358,2,0,L|256:72,1,100,2|0,0:0|0:0,0:0:0:0:
304,232,100733,2,0,P|356:208|408:216,1,100,0|0,1:1|0:0,0:0:0:0:
452,296,101108,6,0,P|396:204|424:100,1,200,2|0,0:0|1:0,0:0:0:0:
464,36,101670,1,0,0:0:0:0:
364,28,101858,2,0,P|304:40|216:28,2,150,0|8|4,0:0|0:3|3:0,0:0:0:0:
408,120,102608,2,0,P|380:164|392:292,1,150,4|0,3:0|0:0,0:0:0:0:
384,308,102983,6,0,L|276:332,1,100,0|0,1:0|0:0,0:0:0:0:
156,236,103358,2,0,L|280:212,1,100,2|0,0:0|3:0,0:0:0:0:
384,308,103733,2,0,L|272:304,1,100,0|0,1:0|1:1,0:0:0:0:
248,268,104014,1,0,1:0:0:0:
208,240,104108,6,0,L|72:240,1,100,2|0,0:1|0:0,0:0:0:0:
32,172,104483,2,0,P|80:120|32:8,2,200,2|2|2,1:1|0:1|1:1,0:0:0:0:
20,272,105420,1,0,0:0:0:0:
108,320,105608,6,0,P|160:304|224:316,1,100,8|2,0:3|0:3,0:0:0:0:
300,344,105983,2,0,P|352:360|400:340,1,100,0|8,0:3|0:3,0:0:0:0:
452,264,106358,2,0,P|440:212|488:100,1,150,4|0,0:3|0:0,0:0:0:0:
492,80,106733,2,0,P|448:48|392:48,1,100,0|0,1:0|0:0,0:0:0:0:
312,84,107108,6,0,P|260:104|92:60,1,200,2|2,0:1|1:1,0:0:0:0:
40,20,107670,1,0,0:0:0:0:
4,112,107858,2,0,B|8:164|8:164|76:240|76:240|80:300,1,200,2|2,0:1|1:1,0:0:0:0:
136,368,108420,1,0,0:0:0:0:
224,320,108608,2,0,P|272:312|340:324,1,100,2|0,0:1|0:0,0:0:0:0:
372,332,108889,1,0,0:0:0:0:
420,344,108983,2,0,P|472:352|512:304,1,100,2|0,1:0|0:0,0:0:0:0:
508,272,109264,1,0,0:0:0:0:
472,236,109358,5,8,3:0:0:0:
264,92,109545,1,8,3:0:0:0:
236,308,109733,1,0,0:0:0:0:
472,236,109920,1,0,0:0:0:0:
264,92,110108,6,0,P|196:112|88:36,1,200,4|0,0:0|1:0,0:0:0:0:
192,28,110670,1,0,0:0:0:0:
292,20,110858,2,0,P|336:64|312:152,2,150,0|8|4,0:0|0:3|0:3,0:0:0:0:
252,112,111608,2,0,P|248:172|356:204,1,150,4|2,3:0|0:0,0:0:0:0:
368,216,111983,6,0,L|416:312,1,100,0|0,1:0|0:0,0:0:0:0:
176,280,112358,2,0,L|128:144,1,100,2|0,0:0|0:0,0:0:0:0:
328,124,112733,2,0,L|375:228,1,100,0|0,1:0|0:0,0:0:0:0:
176,280,113108,6,0,B|132:160|132:160|164:84,1,200,4|0,0:0|1:0,0:0:0:0:
260,76,113670,1,0,0:0:0:0:
340,140,113858,2,0,P|348:200|436:224,2,150,8|4|4,0:3|0:3|0:3,0:0:0:0:
440,152,114608,2,0,B|424:260|424:260|452:332,1,150,4|2,0:3|0:0,0:0:0:0:
456,344,114983,6,0,P|396:368|352:352,1,100,0|0,1:0|0:0,0:0:0:0:
208,256,115358,2,0,L|336:256,1,100,2|0,0:0|0:0,0:0:0:0:
148,359,115733,2,0,P|99:366|55:344,1,100,0|0,1:0|1:0,0:0:0:0:
24,308,116014,1,0,1:0:0:0:
8,260,116108,6,0,P|0:208|16:148,1,100,2|0,0:1|0:0,0:0:0:0:
92,104,116483,2,0,P|184:108|264:8,2,200,2|2|2,1:0|0:1|1:0,0:0:0:0:
28,28,117420,1,0,0:0:0:0:
128,24,117608,6,0,P|184:32|232:60,1,100,8|2,0:3|0:3,0:0:0:0:
300,116,117983,2,0,P|352:144|396:148,1,100,0|4,1:0|3:0,0:0:0:0:
460,76,118358,2,0,B|392:148|392:148|392:268,1,200,4|0,3:0|1:0,0:0:0:0:
336,332,118920,1,0,0:0:0:0:
244,296,119108,6,0,P|184:292|68:376,2,200,2|2|2,0:1|1:0|0:1,0:0:0:0:
336,332,120045,1,0,0:0:0:0:
424,284,120233,2,0,P|396:240|400:160,1,100,2|0,1:0|0:0,0:0:0:0:
416,96,120608,6,0,B|360:76|360:76|284:92,1,100,2|0,0:1|0:0,0:0:0:0:
272,100,120889,1,2,0:0:0:0:
224,116,120983,2,0,B|172:136|172:136|100:108,1,100,2|2,1:0|0:0,0:0:0:0:
88,96,121264,1,0,0:0:0:0:
44,72,121358,5,8,3:0:0:0:
256,24,121545,1,8,3:0:0:0:
196,212,121733,1,4,3:0:0:0:
148,36,121920,1,4,3:0:0:0:
356,76,122108,1,4,0:0:0:0:
