osu file format v14

[General]
AudioFilename: IOSYS - MiracleHinacle.mp3
AudioLeadIn: 0
PreviewTime: 38108
Countdown: 0
SampleSet: Soft
StackLeniency: 0.7
Mode: 0
LetterboxInBreaks: 0
WidescreenStoryboard: 0

[Editor]
DistanceSpacing: 1
BeatDivisor: 4
GridSize: 4
TimelineZoom: 1

[Metadata]
Title:Miracle Hinacle
TitleUnicode:Miracle∞Hinacle
Artist:IOSYS
ArtistUnicode:IOSYS
Creator:CDFA
Version:Easy
Source:東方風神録 ~ Mountain of Faith.
Tags:Reditum 3L touhou 2hu toho ZUN
BeatmapID:913444
BeatmapSetID:405911

[Difficulty]
HPDrainRate:2
CircleSize:2
OverallDifficulty:2
ApproachRate:2
SliderMultiplier:0.9
SliderTickRate:2

[Events]
//Background and Video events
0,0,"1920x1080_kagiyama_hina-809055.jpg",0,0
//Break Periods
2,62308,72548
//Storyboard Layer 0 (Background)
//Storyboard Layer 1 (Fail)
//Storyboard Layer 2 (Pass)
//Storyboard Layer 3 (Foreground)
//Storyboard Sound Samples

[TimingPoints]
608,375,4,2,0,65,1,0
38108,-100,4,2,0,65,0,1
62108,-100,4,2,0,65,0,0
98108,-100,4,2,0,65,0,1
122108,-100,4,2,0,65,0,0

[Colours]
Combo1 : 242,206,153
Combo2 : 156,245,168
Combo3 : 128,185,255
Combo4 : 249,136,153

[HitObjects]
64,60,14108,6,0,P|144:48|200:136,1,180,4|2,0:0|0:0,0:0:0:0:
216,208,15233,2,0,P|268:224|360:136,1,180,0|0,1:0|1:0,0:0:0:0:
348,60,16358,1,2,0:0:0:0:
168,40,17108,6,0,B|80:56|80:56|16:152,1,180,2|2,0:0|0:0,0:0:0:0:
32,220,18233,1,0,1:0:0:0:
120,236,18608,2,0,P|184:224|272:312,1,180,2|2,0:0|0:0,0:0:0:0:
344,340,19733,2,0,L|444:340,1,90,0|4,1:0|0:0,0:0:0:0:
480,168,20858,6,0,P|448:104|316:76,1,180,2|2,0:0|0:0,0:0:0:0:
272,108,21983,2,0,P|172:144|104:80,1,180,0|0,1:0|1:0,0:0:0:0:
68,32,23108,5,0,0:0:0:0:
32,208,23858,1,2,0:0:0:0:
88,280,24233,1,0,1:0:0:0:
176,256,24608,2,0,P|256:248|328:284,2,135,0|4|0,0:0|0:0|1:0,0:0:0:0:
88,280,26108,6,0,B|32:204|68:120|68:120|132:156|176:108,1,270,4|0,0:0|1:0,0:0:0:0:
228,60,27608,2,0,P|292:48|328:72,2,90,2|0|2,0:0|1:0|0:0,0:0:0:0:
344,200,29108,6,0,P|344:256|220:320,1,180,4|2,0:0|0:0,0:0:0:0:
168,288,30233,2,0,P|104:264|40:356,2,180,0|0|0,1:0|1:0|1:0,0:0:0:0:
252,320,32108,5,4,0:0:0:0:
312,252,32483,2,0,B|312:188|312:188|340:144|340:144|340:60,1,180,0|0,1:0|1:0,0:0:0:0:
260,40,33608,1,2,0:0:0:0:
188,96,33983,1,0,1:0:0:0:
100,84,34358,2,0,P|48:92|12:144,1,90,2|0,0:0|1:0,0:0:0:0:
12,208,35108,5,4,0:0:0:0:
88,260,35483,2,0,B|176:264|176:264|272:224,1,180,0|0,1:0|1:0,0:0:0:0:
312,156,36608,1,8,0:3:0:0:
268,76,36983,1,4,0:3:0:0:
52,68,38108,6,0,P|148:68|188:164,2,180,4|2|2,0:0|0:0|0:0,0:0:0:0:
28,156,39983,1,0,1:0:0:0:
100,212,40358,2,0,P|132:252|128:300,1,90,2|0,0:0|1:0,0:0:0:0:
52,328,41108,6,0,P|136:304|244:340,2,180,6|2|2,0:0|0:0|0:0,0:0:0:0:
192,216,43358,1,2,0:0:0:0:
255,152,43733,1,0,1:0:0:0:
318,215,44108,6,0,B|360:216|360:216|440:196,2,90,2|2|2,0:1|1:0|0:1,0:0:0:0:
196,84,45608,2,0,P|148:72|100:120,1,90,2|2,0:1|1:0,0:0:0:0:
76,172,46358,2,0,B|72:192|72:192|72:236|72:236|64:284,1,90,2|0,0:1|1:0,0:0:0:0:
36,344,47108,6,0,B|100:372|144:312|144:312|216:332|296:280,1,270,2|0,0:1|1:0,0:0:0:0:
348,224,48608,5,2,0:1:0:0:
420,168,48983,2,0,P|444:132|432:64,1,90,0|8,1:0|0:3,0:0:0:0:
376,24,49733,1,4,0:3:0:0:
288,16,50108,6,0,P|212:20|172:116,1,180,4|2,0:0|0:0,0:0:0:0:
180,196,51233,2,0,P|184:248|172:308,1,90,0|2,1:0|0:0,0:0:0:0:
104,332,51983,2,0,P|184:288|288:336,1,180,0|0,1:0|1:0,0:0:0:0:
348,348,53108,5,0,0:0:0:0:
484,232,53858,1,2,0:0:0:0:
436,156,54233,1,0,1:0:0:0:
440,68,54608,2,0,P|384:44|332:60,1,90,2|0,0:0|1:0,0:0:0:0:
284,100,55358,2,0,B|196:112|196:112|88:56,1,180,2|4,0:0|0:0,0:0:0:0:
44,236,56858,5,2,0:1:0:0:
68,324,57233,1,0,1:0:0:0:
156,308,57608,2,0,P|240:296|320:360,2,180,2|2|4,0:1|0:1|0:2,0:0:0:0:
256,192,59483,12,4,62108,0:0:0:0:
44,56,74108,5,4,0:0:0:0:
92,132,74483,2,0,L|292:112,1,180,0|0,1:0|1:0,0:0:0:0:
356,148,75608,1,2,0:0:0:0:
392,232,75983,2,0,P|376:296|400:356,2,90,0|0|0,1:0|0:0|1:0,0:0:0:0:
468,184,77108,6,0,P|484:120|392:28,1,180,2|2,0:0|0:0,0:0:0:0:
332,56,78233,1,0,1:0:0:0:
280,128,78608,2,0,L|72:148,1,180,2|2,0:0|0:0,0:0:0:0:
64,320,80108,5,4,0:0:0:0:
148,288,80483,2,0,B|216:284|256:320|256:320|324:324|340:296,1,180,0|0,1:0|1:0,0:0:0:0:
364,232,81608,1,2,0:0:0:0:
452,224,81983,2,0,P|484:164|460:36,1,180,0|0,1:0|1:0,0:0:0:0:
388,20,83108,5,0,0:0:0:0:
260,144,83858,1,2,0:0:0:0:
180,184,84233,1,0,1:0:0:0:
92,164,84608,2,0,P|80:256|112:348,2,180,2|2|4,0:0|0:0|0:0,0:0:0:0:
256,88,86858,5,2,0:0:0:0:
344,92,87233,1,0,1:0:0:0:
352,180,87608,2,0,P|364:244|400:268,2,90,2|0|2,0:0|1:0|0:0,0:0:0:0:
476,48,89108,6,0,P|400:24|304:56,1,180,2|2,0:0|0:0,0:0:0:0:
256,128,90233,1,0,1:0:0:0:
204,52,90608,2,0,P|120:22|35:46,1,180,2|2,0:0|0:0,0:0:0:0:
48,228,92108,6,0,P|108:232|148:272,1,90,4|0,0:0|1:0,0:0:0:0:
180,324,92858,2,0,P|264:344|324:268,1,180,2|2,0:0|0:0,0:0:0:0:
300,196,93983,2,0,B|300:144|300:144|380:116|360:20,1,180,0|0,1:0|1:0,0:0:0:0:
280,12,95108,5,4,0:0:0:0:
200,48,95483,2,0,B|124:72|124:72|136:156|196:152,1,180,0|0,1:0|1:0,0:0:0:0:
256,192,96608,2,0,L|256:288,1,90,8|4,0:3|0:3,0:0:0:0:
56,84,98108,6,0,L|264:72,1,180,4|2,0:0|0:0,0:0:0:0:
324,88,99233,1,0,1:0:0:0:
368,168,99608,2,0,P|356:240|400:348,1,180,2|0,0:0|0:0,0:0:0:0:
476,368,100733,1,0,1:0:0:0:
492,280,101108,5,2,0:0:0:0:
320,224,101858,2,0,P|240:220|204:104,1,180
256,72,102983,1,0,1:0:0:0:
320,136,103358,2,0,L|332:344,1,180,2|6,0:0|0:0,0:0:0:0:
152,340,104858,5,2,0:1:0:0:
76,296,105233,1,0,1:0:0:0:
40,212,105608,2,0,P|64:156|28:40,1,180,2|2,0:1|0:1,0:0:0:0:
212,28,107108,5,2,0:1:0:0:
280,84,107483,1,0,1:0:0:0:
364,56,107858,2,0,P|392:104|372:240,1,180,2|2,0:1|0:1,0:0:0:0:
292,240,108983,1,0,1:0:0:0:
208,212,109358,2,0,P|120:224|92:332,1,180,8|4,0:3|0:2,0:0:0:0:
256,360,110858,5,2,0:0:0:0:
344,356,111233,1,0,1:0:0:0:
400,288,111608,2,0,P|424:248|388:92,1,180,2|2,0:0|0:0,0:0:0:0:
252,32,113108,6,0,L|48:72,1,180,2|2,0:0|0:0,0:0:0:0:
32,144,114233,1,0,1:0:0:0:
76,224,114608,2,0,P|80:296|56:344,2,90,2|0|2,0:0|1:0|0:0,0:0:0:0:
196,88,116108,6,0,P|260:84|336:200,1,180,2|2,0:1|0:1,0:0:0:0:
304,248,117233,1,0,1:0:0:0:
280,336,117608,2,0,B|360:352|360:352|488:312,1,180,2|2,0:1|0:1,0:0:0:0:
468,232,118733,2,0,P|468:172|500:120,1,90,0|4,1:0|0:0,0:0:0:0:
256,192,119295,12,4,122108,0:0:0:0:
