osu file format v14

[General]
AudioFilename: audio.mp3
AudioLeadIn: 0
PreviewTime: 68084
Countdown: 0
SampleSet: Normal
StackLeniency: 0.7
Mode: 3
LetterboxInBreaks: 0
SpecialStyle: 0
WidescreenStoryboard: 1

[Editor]
DistanceSpacing: 1
BeatDivisor: 4
GridSize: 16
TimelineZoom: 2.799999

[Metadata]
Title:Marisa wa Taihen na Mono wo Nusunde Ikimashita
TitleUnicode:魔理沙は大変なものを盗んでいきました
Artist:IOSYS
ArtistUnicode:IOSYS
Creator:notapplicable
Version:Shanghai Doll
Source:東方Project
Tags:stole the precious thing アリス・マーガトロイド japanese video game pop Jpop J-pop touhou team shanghai alice margatroid zun 東方妖々夢 ~ perfect cherry blossom. pcb ghostly dream 人形裁判 ~ 人の形弄びし少女 doll judgement th7 東方怪綺談 ~ mystic square ms kaikidan bizarre romantic children story th5 東方乙女囃子 otome bayashi comiket 70 c70 miko 霧雨 grimoire of kirisame best album vol.1 meigetsusai 2 arm with "loving" youno 藤咲かりん
BeatmapID:2224393
BeatmapSetID:1062298

[Difficulty]
HPDrainRate:5
CircleSize:4
OverallDifficulty:8
ApproachRate:5
SliderMultiplier:1.4
SliderTickRate:1

[Events]
//Background and Video events
0,0,"bg.jpg",0,0
//Break Periods
//Storyboard Layer 0 (Background)
//Storyboard Layer 1 (Fail)
//Storyboard Layer 2 (Pass)
//Storyboard Layer 3 (Foreground)
//Storyboard Layer 4 (Overlay)
//Storyboard Sound Samples

[TimingPoints]
319,352.941176470588,4,1,0,25,1,0

[HitObjects]
320,192,319,5,0,0:0:0:0:
448,192,319,1,0,0:0:0:0:
64,192,583,1,0,0:0:0:0:
192,192,583,1,0,0:0:0:0:
320,192,848,1,0,0:0:0:0:
448,192,848,1,0,0:0:0:0:
192,192,1024,1,0,0:0:0:0:
320,192,1024,1,0,0:0:0:0:
192,192,1377,1,0,0:0:0:0:
320,192,1377,1,0,0:0:0:0:
64,192,1730,1,0,0:0:0:0:
448,192,1730,1,0,0:0:0:0:
64,192,1995,1,0,0:0:0:0:
448,192,1995,1,0,0:0:0:0:
192,192,2260,1,0,0:0:0:0:
320,192,2260,1,0,0:0:0:0:
64,192,2436,1,0,0:0:0:0:
192,192,2436,1,0,0:0:0:0:
320,192,2613,1,0,0:0:0:0:
448,192,2613,1,0,0:0:0:0:
192,192,2789,1,0,0:0:0:0:
64,192,2789,1,0,0:0:0:0:
192,192,3142,1,0,0:0:0:0:
448,192,3142,1,0,0:0:0:0:
192,192,3407,1,0,0:0:0:0:
448,192,3407,1,0,0:0:0:0:
192,192,3671,1,0,0:0:0:0:
448,192,3671,1,0,0:0:0:0:
320,192,3848,1,0,0:0:0:0:
64,192,3848,1,0,0:0:0:0:
64,192,4201,1,0,0:0:0:0:
320,192,4201,1,0,0:0:0:0:
64,192,4554,1,0,0:0:0:0:
448,192,4554,1,0,0:0:0:0:
192,192,4818,1,0,0:0:0:0:
320,192,4818,1,0,0:0:0:0:
64,192,5083,1,0,0:0:0:0:
448,192,5083,1,0,0:0:0:0:
320,192,5260,1,0,0:0:0:0:
448,192,5260,1,0,0:0:0:0:
192,192,5436,1,0,0:0:0:0:
320,192,5436,1,0,0:0:0:0:
64,192,5613,1,0,0:0:0:0:
448,192,5613,1,0,0:0:0:0:
192,192,5789,1,0,0:0:0:0:
320,192,5789,1,0,0:0:0:0:
64,192,5966,1,0,0:0:0:0:
192,192,5966,1,0,0:0:0:0:
64,192,6230,1,0,0:0:0:0:
192,192,6230,1,0,0:0:0:0:
448,192,6318,1,0,0:0:0:0:
64,192,6495,1,0,0:0:0:0:
192,192,6495,1,0,0:0:0:0:
64,192,6671,1,0,0:0:0:0:
448,192,6671,1,0,0:0:0:0:
320,192,6760,1,0,0:0:0:0:
192,192,6848,1,0,0:0:0:0:
320,192,7024,1,0,0:0:0:0:
64,192,7024,1,0,0:0:0:0:
448,192,7113,1,0,0:0:0:0:
192,192,7201,1,0,0:0:0:0:
448,192,7289,1,0,0:0:0:0:
320,192,7377,1,0,0:0:0:0:
192,192,7377,1,0,0:0:0:0:
192,192,7642,1,0,0:0:0:0:
320,192,7642,1,0,0:0:0:0:
64,192,7730,1,0,0:0:0:0:
448,192,7907,1,0,0:0:0:0:
320,192,7907,1,0,0:0:0:0:
64,192,8083,1,0,0:0:0:0:
320,192,8083,1,0,0:0:0:0:
192,192,8171,1,0,0:0:0:0:
448,192,8260,1,0,0:0:0:0:
64,192,8260,1,0,0:0:0:0:
448,192,8436,1,0,0:0:0:0:
192,192,8436,1,0,0:0:0:0:
320,192,8524,1,0,0:0:0:0:
64,192,8613,1,0,0:0:0:0:
320,192,8701,1,0,0:0:0:0:
64,192,8789,1,0,0:0:0:0:
192,192,8789,1,0,0:0:0:0:
320,192,9054,1,0,0:0:0:0:
448,192,9054,1,0,0:0:0:0:
192,192,9142,1,0,0:0:0:0:
192,192,9318,1,0,0:0:0:0:
64,192,9318,1,0,0:0:0:0:
320,192,9495,1,0,0:0:0:0:
448,192,9495,1,0,0:0:0:0:
64,192,9583,1,0,0:0:0:0:
320,192,9671,1,0,0:0:0:0:
448,192,9848,1,0,0:0:0:0:
192,192,9848,1,0,0:0:0:0:
320,192,9936,1,0,0:0:0:0:
64,192,10024,1,0,0:0:0:0:
320,192,10113,1,0,0:0:0:0:
448,192,10201,1,0,0:0:0:0:
64,192,10201,1,0,0:0:0:0:
192,192,10245,1,0,0:0:0:0:
320,192,10289,1,0,0:0:0:0:
448,192,10333,1,0,0:0:0:0:
192,192,10377,1,0,0:0:0:0:
64,192,10377,1,0,0:0:0:0:
320,192,10466,1,0,0:0:0:0:
448,192,10554,1,0,0:0:0:0:
64,192,10554,1,0,0:0:0:0:
192,192,10642,1,0,0:0:0:0:
64,192,10730,1,0,0:0:0:0:
448,192,10730,1,0,0:0:0:0:
320,192,10774,1,0,0:0:0:0:
192,192,10818,1,0,0:0:0:0:
64,192,10863,1,0,0:0:0:0:
320,192,10907,1,0,0:0:0:0:
448,192,10907,1,0,0:0:0:0:
192,192,10995,1,0,0:0:0:0:
64,192,10995,1,0,0:0:0:0:
320,192,11083,1,0,0:0:0:0:
192,192,11171,1,0,0:0:0:0:
448,192,11171,1,0,0:0:0:0:
320,192,11260,1,0,0:0:0:0:
64,192,11260,1,0,0:0:0:0:
192,192,11348,1,0,0:0:0:0:
320,192,11436,1,0,0:0:0:0:
448,192,11524,1,0,0:0:0:0:
64,192,11613,1,0,0:0:0:0:
192,192,11613,1,0,0:0:0:0:
320,192,11613,1,0,0:0:0:0:
448,192,11789,1,0,0:0:0:0:
192,192,11966,1,0,0:0:0:0:
320,192,11966,1,0,0:0:0:0:
64,192,12142,1,0,0:0:0:0:
320,192,12318,1,0,0:0:0:0:
448,192,12318,1,0,0:0:0:0:
64,192,12495,1,0,0:0:0:0:
192,192,12671,1,0,0:0:0:0:
448,192,12671,1,0,0:0:0:0:
320,192,12848,1,0,0:0:0:0:
64,192,13024,1,0,0:0:0:0:
192,192,13024,1,0,0:0:0:0:
320,192,13201,1,0,0:0:0:0:
64,192,13377,1,0,0:0:0:0:
448,192,13377,1,0,0:0:0:0:
192,192,13554,1,0,0:0:0:0:
320,192,13730,1,0,0:0:0:0:
448,192,13730,1,0,0:0:0:0:
64,192,13907,1,0,0:0:0:0:
448,192,14083,1,0,0:0:0:0:
192,192,14083,128,0,14436:0:0:0:0:
448,192,14436,1,0,0:0:0:0:
64,192,14436,1,0,0:0:0:0:
192,192,14613,1,0,0:0:0:0:
320,192,14789,1,0,0:0:0:0:
448,192,14789,1,0,0:0:0:0:
64,192,14966,1,0,0:0:0:0:
192,192,15142,1,0,0:0:0:0:
320,192,15142,1,0,0:0:0:0:
448,192,15318,1,0,0:0:0:0:
192,192,15495,1,0,0:0:0:0:
64,192,15495,1,0,0:0:0:0:
448,192,15671,1,0,0:0:0:0:
64,192,15848,1,0,0:0:0:0:
320,192,15848,1,0,0:0:0:0:
192,192,16024,1,0,0:0:0:0:
64,192,16201,1,0,0:0:0:0:
448,192,16201,1,0,0:0:0:0:
320,192,16377,1,0,0:0:0:0:
192,192,16554,1,0,0:0:0:0:
64,192,16554,1,0,0:0:0:0:
448,192,16730,1,0,0:0:0:0:
64,192,16907,1,0,0:0:0:0:
320,192,16907,128,0,17260:0:0:0:0:
64,192,17260,1,0,0:0:0:0:
192,192,17260,1,0,0:0:0:0:
320,192,17436,1,0,0:0:0:0:
64,192,17613,1,0,0:0:0:0:
448,192,17613,1,0,0:0:0:0:
320,192,17789,1,0,0:0:0:0:
192,192,17966,1,0,0:0:0:0:
64,192,17966,1,0,0:0:0:0:
448,192,18142,1,0,0:0:0:0:
320,192,18318,1,0,0:0:0:0:
64,192,18318,1,0,0:0:0:0:
192,192,18495,1,0,0:0:0:0:
320,192,18671,1,0,0:0:0:0:
448,192,18671,1,0,0:0:0:0:
192,192,18848,1,0,0:0:0:0:
64,192,19024,1,0,0:0:0:0:
448,192,19024,1,0,0:0:0:0:
320,192,19201,1,0,0:0:0:0:
64,192,19377,1,0,0:0:0:0:
192,192,19377,1,0,0:0:0:0:
320,192,19554,1,0,0:0:0:0:
448,192,19730,1,0,0:0:0:0:
64,192,19730,128,0,20083:0:0:0:0:
448,192,20083,1,0,0:0:0:0:
320,192,20083,1,0,0:0:0:0:
192,192,20436,1,0,0:0:0:0:
448,192,20436,1,0,0:0:0:0:
64,192,20789,1,0,0:0:0:0:
192,192,20789,1,0,0:0:0:0:
320,192,20966,1,0,0:0:0:0:
64,192,21142,1,0,0:0:0:0:
448,192,21142,1,0,0:0:0:0:
320,192,21230,1,0,0:0:0:0:
192,192,21318,1,0,0:0:0:0:
64,192,21495,1,0,0:0:0:0:
320,192,21495,1,0,0:0:0:0:
448,192,21671,1,0,0:0:0:0:
192,192,21760,1,0,0:0:0:0:
64,192,21848,1,0,0:0:0:0:
320,192,21848,1,0,0:0:0:0:
448,192,22024,1,0,0:0:0:0:
192,192,22113,1,0,0:0:0:0:
64,192,22201,1,0,0:0:0:0:
320,192,22333,1,0,0:0:0:0:
64,192,22377,1,0,0:0:0:0:
320,192,22510,1,0,0:0:0:0:
64,192,22554,1,0,0:0:0:0:
320,192,22686,1,0,0:0:0:0:
64,192,22730,1,0,0:0:0:0:
320,192,22863,1,0,0:0:0:0:
64,192,22907,1,0,0:0:0:0:
448,192,22907,1,0,0:0:0:0:
192,192,22995,1,0,0:0:0:0:
320,192,23083,1,0,0:0:0:0:
448,192,23171,1,0,0:0:0:0:
192,192,23260,1,0,0:0:0:0:
64,192,23260,1,0,0:0:0:0:
320,192,23348,1,0,0:0:0:0:
64,192,23436,1,0,0:0:0:0:
448,192,23524,1,0,0:0:0:0:
192,192,23613,1,0,0:0:0:0:
320,192,23613,1,0,0:0:0:0:
64,192,23701,1,0,0:0:0:0:
448,192,23789,1,0,0:0:0:0:
192,192,23877,1,0,0:0:0:0:
320,192,23966,1,0,0:0:0:0:
448,192,23966,1,0,0:0:0:0:
64,192,24054,1,0,0:0:0:0:
192,192,24142,1,0,0:0:0:0:
448,192,24230,1,0,0:0:0:0:
192,192,24318,1,0,0:0:0:0:
320,192,24318,1,0,0:0:0:0:
64,192,24407,1,0,0:0:0:0:
192,192,24495,1,0,0:0:0:0:
320,192,24583,1,0,0:0:0:0:
64,192,24671,1,0,0:0:0:0:
448,192,24671,1,0,0:0:0:0:
320,192,24760,1,0,0:0:0:0:
192,192,24848,1,0,0:0:0:0:
64,192,24936,1,0,0:0:0:0:
192,192,25024,1,0,0:0:0:0:
320,192,25024,1,0,0:0:0:0:
448,192,25113,1,0,0:0:0:0:
192,192,25201,1,0,0:0:0:0:
448,192,25289,1,0,0:0:0:0:
64,192,25377,1,0,0:0:0:0:
192,192,25377,1,0,0:0:0:0:
320,192,25466,1,0,0:0:0:0:
64,192,25554,1,0,0:0:0:0:
192,192,25642,1,0,0:0:0:0:
448,192,25730,1,0,0:0:0:0:
64,192,25730,1,0,0:0:0:0:
320,192,25818,1,0,0:0:0:0:
448,192,25907,1,0,0:0:0:0:
320,192,25995,1,0,0:0:0:0:
64,192,26083,1,0,0:0:0:0:
192,192,26083,1,0,0:0:0:0:
448,192,26171,1,0,0:0:0:0:
192,192,26260,1,0,0:0:0:0:
448,192,26348,1,0,0:0:0:0:
64,192,26436,1,0,0:0:0:0:
192,192,26436,1,0,0:0:0:0:
320,192,26524,1,0,0:0:0:0:
64,192,26613,1,0,0:0:0:0:
320,192,26701,1,0,0:0:0:0:
448,192,26789,1,0,0:0:0:0:
192,192,26789,1,0,0:0:0:0:
64,192,26877,1,0,0:0:0:0:
192,192,26966,1,0,0:0:0:0:
64,192,27054,1,0,0:0:0:0:
320,192,27142,1,0,0:0:0:0:
448,192,27142,1,0,0:0:0:0:
192,192,27230,1,0,0:0:0:0:
320,192,27318,1,0,0:0:0:0:
448,192,27407,1,0,0:0:0:0:
192,192,27495,1,0,0:0:0:0:
64,192,27495,1,0,0:0:0:0:
320,192,27583,1,0,0:0:0:0:
64,192,27671,1,0,0:0:0:0:
192,192,27760,1,0,0:0:0:0:
64,192,27848,1,0,0:0:0:0:
448,192,27848,1,0,0:0:0:0:
320,192,27936,1,0,0:0:0:0:
192,192,28024,1,0,0:0:0:0:
64,192,28113,1,0,0:0:0:0:
320,192,28201,1,0,0:0:0:0:
448,192,28201,1,0,0:0:0:0:
192,192,28289,1,0,0:0:0:0:
448,192,28377,1,0,0:0:0:0:
320,192,28466,1,0,0:0:0:0:
64,192,28554,1,0,0:0:0:0:
192,192,28554,1,0,0:0:0:0:
320,192,28642,1,0,0:0:0:0:
448,192,28730,1,0,0:0:0:0:
64,192,28818,1,0,0:0:0:0:
192,192,28907,1,0,0:0:0:0:
448,192,28907,1,0,0:0:0:0:
64,192,28995,1,0,0:0:0:0:
320,192,29083,1,0,0:0:0:0:
192,192,29171,1,0,0:0:0:0:
64,192,29260,1,0,0:0:0:0:
448,192,29260,1,0,0:0:0:0:
192,192,29348,1,0,0:0:0:0:
320,192,29436,1,0,0:0:0:0:
64,192,29524,1,0,0:0:0:0:
192,192,29613,1,0,0:0:0:0:
448,192,29613,1,0,0:0:0:0:
320,192,29701,1,0,0:0:0:0:
448,192,29789,1,0,0:0:0:0:
64,192,29877,1,0,0:0:0:0:
192,192,29966,1,0,0:0:0:0:
320,192,29966,1,0,0:0:0:0:
448,192,30054,1,0,0:0:0:0:
64,192,30142,1,0,0:0:0:0:
192,192,30230,1,0,0:0:0:0:
320,192,30318,1,0,0:0:0:0:
448,192,30318,1,0,0:0:0:0:
64,192,30407,1,0,0:0:0:0:
192,192,30495,1,0,0:0:0:0:
320,192,30583,1,0,0:0:0:0:
64,192,30671,1,0,0:0:0:0:
448,192,30671,1,0,0:0:0:0:
320,192,30760,1,0,0:0:0:0:
192,192,30848,1,0,0:0:0:0:
320,192,30936,1,0,0:0:0:0:
64,192,31024,1,0,0:0:0:0:
192,192,31024,1,0,0:0:0:0:
448,192,31113,1,0,0:0:0:0:
64,192,31201,1,0,0:0:0:0:
448,192,31289,1,0,0:0:0:0:
192,192,31377,1,0,0:0:0:0:
64,192,31377,1,0,0:0:0:0:
320,192,31466,1,0,0:0:0:0:
192,192,31554,1,0,0:0:0:0:
320,192,31642,1,0,0:0:0:0:
192,192,31730,1,0,0:0:0:0:
448,192,31730,1,0,0:0:0:0:
320,192,31818,1,0,0:0:0:0:
192,192,31907,1,0,0:0:0:0:
320,192,31995,1,0,0:0:0:0:
64,192,32083,1,0,0:0:0:0:
192,192,32083,1,0,0:0:0:0:
320,192,32171,1,0,0:0:0:0:
192,192,32260,1,0,0:0:0:0:
320,192,32348,1,0,0:0:0:0:
192,192,32436,1,0,0:0:0:0:
448,192,32436,1,0,0:0:0:0:
320,192,32524,1,0,0:0:0:0:
192,192,32613,1,0,0:0:0:0:
320,192,32701,1,0,0:0:0:0:
192,192,32789,1,0,0:0:0:0:
64,192,32789,1,0,0:0:0:0:
320,192,32877,1,0,0:0:0:0:
192,192,32966,1,0,0:0:0:0:
320,192,33054,1,0,0:0:0:0:
192,192,33142,1,0,0:0:0:0:
448,192,33142,1,0,0:0:0:0:
320,192,33230,1,0,0:0:0:0:
192,192,33318,1,0,0:0:0:0:
320,192,33407,1,0,0:0:0:0:
192,192,33495,1,0,0:0:0:0:
64,192,33495,1,0,0:0:0:0:
448,192,33583,1,0,0:0:0:0:
320,192,33671,1,0,0:0:0:0:
64,192,33760,1,0,0:0:0:0:
192,192,33848,1,0,0:0:0:0:
448,192,33848,1,0,0:0:0:0:
320,192,33936,1,0,0:0:0:0:
448,192,34024,1,0,0:0:0:0:
192,192,34113,1,0,0:0:0:0:
320,192,34201,1,0,0:0:0:0:
448,192,34201,1,0,0:0:0:0:
64,192,34201,1,0,0:0:0:0:
192,192,34377,1,0,0:0:0:0:
192,192,34730,1,0,0:0:0:0:
192,192,35083,1,0,0:0:0:0:
192,192,35436,1,0,0:0:0:0:
320,192,35789,1,0,0:0:0:0:
320,192,36142,1,0,0:0:0:0:
320,192,36495,1,0,0:0:0:0:
320,192,36848,1,0,0:0:0:0:
448,192,37201,1,0,0:0:0:0:
448,192,37554,1,0,0:0:0:0:
448,192,37907,1,0,0:0:0:0:
448,192,38260,1,0,0:0:0:0:
64,192,38613,1,0,0:0:0:0:
64,192,38966,1,0,0:0:0:0:
64,192,39318,1,0,0:0:0:0:
64,192,39671,1,0,0:0:0:0:
192,192,39848,1,0,0:0:0:0:
192,192,40113,1,0,0:0:0:0:
448,192,40201,1,0,0:0:0:0:
64,192,40377,1,0,0:0:0:0:
64,192,40554,1,0,0:0:0:0:
320,192,40730,1,0,0:0:0:0:
192,192,40907,1,0,0:0:0:0:
448,192,40995,1,0,0:0:0:0:
192,192,41083,1,0,0:0:0:0:
448,192,41171,1,0,0:0:0:0:
64,192,41260,1,0,0:0:0:0:
64,192,41524,1,0,0:0:0:0:
448,192,41613,1,0,0:0:0:0:
192,192,41789,1,0,0:0:0:0:
192,192,41966,1,0,0:0:0:0:
320,192,42142,1,0,0:0:0:0:
64,192,42318,1,0,0:0:0:0:
448,192,42407,1,0,0:0:0:0:
64,192,42495,1,0,0:0:0:0:
448,192,42583,1,0,0:0:0:0:
192,192,42671,1,0,0:0:0:0:
192,192,42936,1,0,0:0:0:0:
448,192,43024,1,0,0:0:0:0:
64,192,43201,1,0,0:0:0:0:
64,192,43377,1,0,0:0:0:0:
448,192,43554,1,0,0:0:0:0:
192,192,43730,1,0,0:0:0:0:
320,192,43818,1,0,0:0:0:0:
192,192,43907,1,0,0:0:0:0:
320,192,43995,1,0,0:0:0:0:
64,192,44083,1,0,0:0:0:0:
448,192,44083,1,0,0:0:0:0:
320,192,44127,1,0,0:0:0:0:
192,192,44171,1,0,0:0:0:0:
64,192,44216,1,0,0:0:0:0:
320,192,44260,1,0,0:0:0:0:
448,192,44260,1,0,0:0:0:0:
192,192,44348,1,0,0:0:0:0:
64,192,44348,1,0,0:0:0:0:
320,192,44436,1,0,0:0:0:0:
448,192,44436,1,0,0:0:0:0:
192,192,44524,1,0,0:0:0:0:
64,192,44613,1,0,0:0:0:0:
448,192,44613,1,0,0:0:0:0:
192,192,44657,1,0,0:0:0:0:
320,192,44701,1,0,0:0:0:0:
448,192,44745,1,0,0:0:0:0:
192,192,44789,1,0,0:0:0:0:
64,192,44789,1,0,0:0:0:0:
320,192,44877,1,0,0:0:0:0:
448,192,44877,1,0,0:0:0:0:
64,192,44966,1,0,0:0:0:0:
320,192,45054,1,0,0:0:0:0:
192,192,45142,1,0,0:0:0:0:
448,192,45142,1,0,0:0:0:0:
64,192,45230,1,0,0:0:0:0:
320,192,45230,1,0,0:0:0:0:
192,192,45318,1,0,0:0:0:0:
64,192,45407,1,0,0:0:0:0:
320,192,45495,1,0,0:0:0:0:
448,192,45495,1,0,0:0:0:0:
192,192,45671,1,0,0:0:0:0:
448,192,45848,1,0,0:0:0:0:
64,192,45848,1,0,0:0:0:0:
320,192,46024,1,0,0:0:0:0:
192,192,46201,1,0,0:0:0:0:
448,192,46201,1,0,0:0:0:0:
64,192,46377,1,0,0:0:0:0:
320,192,46554,1,0,0:0:0:0:
448,192,46554,1,0,0:0:0:0:
64,192,46730,1,0,0:0:0:0:
192,192,46907,1,0,0:0:0:0:
320,192,46907,1,0,0:0:0:0:
448,192,47083,1,0,0:0:0:0:
64,192,47260,1,0,0:0:0:0:
320,192,47260,1,0,0:0:0:0:
192,192,47436,1,0,0:0:0:0:
64,192,47613,1,0,0:0:0:0:
448,192,47613,1,0,0:0:0:0:
320,192,47789,1,0,0:0:0:0:
192,192,47966,1,0,0:0:0:0:
64,192,47966,1,0,0:0:0:0:
320,192,48142,1,0,0:0:0:0:
192,192,48318,1,0,0:0:0:0:
448,192,48318,1,0,0:0:0:0:
64,192,48495,1,0,0:0:0:0:
192,192,48671,1,0,0:0:0:0:
320,192,48671,1,0,0:0:0:0:
448,192,48848,1,0,0:0:0:0:
64,192,49024,1,0,0:0:0:0:
320,192,49024,1,0,0:0:0:0:
192,192,49201,1,0,0:0:0:0:
320,192,49377,1,0,0:0:0:0:
448,192,49377,1,0,0:0:0:0:
192,192,49554,1,0,0:0:0:0:
64,192,49730,1,0,0:0:0:0:
448,192,49730,1,0,0:0:0:0:
320,192,49907,1,0,0:0:0:0:
192,192,50083,1,0,0:0:0:0:
64,192,50083,1,0,0:0:0:0:
320,192,50260,1,0,0:0:0:0:
192,192,50436,1,0,0:0:0:0:
448,192,50436,1,0,0:0:0:0:
320,192,51142,1,0,0:0:0:0:
64,192,51142,1,0,0:0:0:0:
448,192,51318,1,0,0:0:0:0:
320,192,51495,1,0,0:0:0:0:
192,192,51495,1,0,0:0:0:0:
64,192,51671,1,0,0:0:0:0:
192,192,51848,1,0,0:0:0:0:
448,192,51848,1,0,0:0:0:0:
320,192,52024,1,0,0:0:0:0:
192,192,52201,1,0,0:0:0:0:
64,192,52201,1,0,0:0:0:0:
320,192,52377,1,0,0:0:0:0:
448,192,52554,1,0,0:0:0:0:
64,192,52554,1,0,0:0:0:0:
192,192,52730,1,0,0:0:0:0:
64,192,52907,1,0,0:0:0:0:
320,192,52907,1,0,0:0:0:0:
192,192,53083,1,0,0:0:0:0:
320,192,53260,1,0,0:0:0:0:
448,192,53260,1,0,0:0:0:0:
64,192,53436,1,0,0:0:0:0:
192,192,53613,1,0,0:0:0:0:
448,192,53613,1,0,0:0:0:0:
320,192,53789,1,0,0:0:0:0:
192,192,53966,1,0,0:0:0:0:
64,192,53966,1,0,0:0:0:0:
448,192,54142,1,0,0:0:0:0:
64,192,54318,1,0,0:0:0:0:
320,192,54318,1,0,0:0:0:0:
192,192,54495,1,0,0:0:0:0:
320,192,54671,1,0,0:0:0:0:
448,192,54671,1,0,0:0:0:0:
192,192,54848,1,0,0:0:0:0:
64,192,55024,1,0,0:0:0:0:
448,192,55024,1,0,0:0:0:0:
320,192,55201,1,0,0:0:0:0:
448,192,55377,1,0,0:0:0:0:
192,192,55377,1,0,0:0:0:0:
64,192,55554,1,0,0:0:0:0:
192,192,55730,1,0,0:0:0:0:
320,192,55730,1,0,0:0:0:0:
448,192,55907,1,0,0:0:0:0:
320,192,56083,1,0,0:0:0:0:
64,192,56083,1,0,0:0:0:0:
192,192,56789,1,0,0:0:0:0:
448,192,56789,1,0,0:0:0:0:
320,192,56877,1,0,0:0:0:0:
64,192,56966,1,0,0:0:0:0:
192,192,57142,1,0,0:0:0:0:
320,192,57142,1,0,0:0:0:0:
64,192,57230,1,0,0:0:0:0:
448,192,57318,1,0,0:0:0:0:
64,192,57495,1,0,0:0:0:0:
320,192,57495,1,0,0:0:0:0:
192,192,57583,1,0,0:0:0:0:
448,192,57671,1,0,0:0:0:0:
64,192,57848,1,0,0:0:0:0:
192,192,57848,1,0,0:0:0:0:
320,192,57936,1,0,0:0:0:0:
448,192,58024,1,0,0:0:0:0:
64,192,58201,1,0,0:0:0:0:
320,192,58201,1,0,0:0:0:0:
448,192,58289,1,0,0:0:0:0:
192,192,58377,1,0,0:0:0:0:
320,192,58554,1,0,0:0:0:0:
448,192,58554,1,0,0:0:0:0:
64,192,58642,1,0,0:0:0:0:
192,192,58730,1,0,0:0:0:0:
64,192,58907,1,0,0:0:0:0:
320,192,58907,1,0,0:0:0:0:
448,192,58995,1,0,0:0:0:0:
192,192,59083,1,0,0:0:0:0:
64,192,59260,1,0,0:0:0:0:
448,192,59260,1,0,0:0:0:0:
320,192,59348,1,0,0:0:0:0:
192,192,59436,1,0,0:0:0:0:
320,192,59613,1,0,0:0:0:0:
64,192,59613,1,0,0:0:0:0:
448,192,59701,1,0,0:0:0:0:
192,192,59789,1,0,0:0:0:0:
64,192,59966,1,0,0:0:0:0:
448,192,59966,1,0,0:0:0:0:
192,192,60054,1,0,0:0:0:0:
320,192,60142,1,0,0:0:0:0:
192,192,60318,1,0,0:0:0:0:
448,192,60318,1,0,0:0:0:0:
320,192,60407,1,0,0:0:0:0:
64,192,60495,1,0,0:0:0:0:
320,192,60671,1,0,0:0:0:0:
448,192,60671,1,0,0:0:0:0:
192,192,60760,1,0,0:0:0:0:
64,192,60848,1,0,0:0:0:0:
192,192,61024,1,0,0:0:0:0:
320,192,61024,1,0,0:0:0:0:
64,192,61113,1,0,0:0:0:0:
448,192,61201,1,0,0:0:0:0:
64,192,61377,1,0,0:0:0:0:
320,192,61377,1,0,0:0:0:0:
192,192,61466,1,0,0:0:0:0:
448,192,61554,1,0,0:0:0:0:
448,192,61730,1,0,0:0:0:0:
64,192,61730,1,0,0:0:0:0:
320,192,61818,1,0,0:0:0:0:
192,192,61907,1,0,0:0:0:0:
192,192,62083,1,0,0:0:0:0:
448,192,62083,1,0,0:0:0:0:
64,192,62171,1,0,0:0:0:0:
320,192,62260,1,0,0:0:0:0:
192,192,62436,128,0,62613:0:0:0:0:
448,192,62436,128,0,62613:0:0:0:0:
64,192,62613,1,0,0:0:0:0:
320,192,62613,1,0,0:0:0:0:
192,192,62789,128,0,62966:0:0:0:0:
320,192,62789,128,0,62966:0:0:0:0:
64,192,62966,1,0,0:0:0:0:
448,192,62966,1,0,0:0:0:0:
64,192,63142,128,0,63318:0:0:0:0:
320,192,63142,128,0,63318:0:0:0:0:
192,192,63318,1,0,0:0:0:0:
448,192,63318,1,0,0:0:0:0:
64,192,63495,128,0,63671:0:0:0:0:
448,192,63495,128,0,63671:0:0:0:0:
192,192,63671,1,0,0:0:0:0:
320,192,63671,1,0,0:0:0:0:
192,192,63848,128,0,64024:0:0:0:0:
448,192,63848,128,0,64024:0:0:0:0:
320,192,64024,1,0,0:0:0:0:
64,192,64024,1,0,0:0:0:0:
64,192,64201,128,0,64377:0:0:0:0:
320,192,64201,128,0,64377:0:0:0:0:
192,192,64377,1,0,0:0:0:0:
448,192,64377,1,0,0:0:0:0:
320,192,64554,128,0,64730:0:0:0:0:
192,192,64554,128,0,64730:0:0:0:0:
64,192,64730,1,0,0:0:0:0:
448,192,64730,1,0,0:0:0:0:
64,192,64907,128,0,65083:0:0:0:0:
448,192,64907,128,0,65083:0:0:0:0:
192,192,65083,1,0,0:0:0:0:
320,192,65083,1,0,0:0:0:0:
64,192,65260,1,0,0:0:0:0:
448,192,65260,1,0,0:0:0:0:
192,192,65436,1,0,0:0:0:0:
64,192,65613,1,0,0:0:0:0:
320,192,65613,1,0,0:0:0:0:
448,192,65789,1,0,0:0:0:0:
64,192,65966,1,0,0:0:0:0:
192,192,65966,1,0,0:0:0:0:
320,192,66054,1,0,0:0:0:0:
448,192,66142,1,0,0:0:0:0:
320,192,66318,1,0,0:0:0:0:
192,192,66318,1,0,0:0:0:0:
64,192,66495,1,0,0:0:0:0:
448,192,66671,1,0,0:0:0:0:
320,192,66671,1,0,0:0:0:0:
192,192,66760,1,0,0:0:0:0:
448,192,66848,1,0,0:0:0:0:
320,192,66848,1,0,0:0:0:0:
192,192,66936,1,0,0:0:0:0:
448,192,67024,1,0,0:0:0:0:
320,192,67024,1,0,0:0:0:0:
192,192,67113,1,0,0:0:0:0:
64,192,67113,1,0,0:0:0:0:
448,192,67201,1,0,0:0:0:0:
320,192,67201,1,0,0:0:0:0:
192,192,67289,1,0,0:0:0:0:
448,192,67377,1,0,0:0:0:0:
320,192,67377,1,0,0:0:0:0:
64,192,67466,1,0,0:0:0:0:
192,192,67466,1,0,0:0:0:0:
448,192,67554,1,0,0:0:0:0:
320,192,67554,1,0,0:0:0:0:
64,192,67642,1,0,0:0:0:0:
192,192,67642,1,0,0:0:0:0:
448,192,67730,1,0,0:0:0:0:
64,192,67818,1,0,0:0:0:0:
448,192,67907,1,0,0:0:0:0:
320,192,67907,1,0,0:0:0:0:
64,192,67995,1,0,0:0:0:0:
448,192,68083,1,0,0:0:0:0:
320,192,68083,1,0,0:0:0:0:
192,192,68083,1,0,0:0:0:0:
64,192,68260,1,0,0:0:0:0:
320,192,68260,1,0,0:0:0:0:
192,192,68436,1,0,0:0:0:0:
448,192,68436,1,0,0:0:0:0:
320,192,68524,1,0,0:0:0:0:
64,192,68613,1,0,0:0:0:0:
192,192,68789,1,0,0:0:0:0:
320,192,68789,1,0,0:0:0:0:
320,192,68966,1,0,0:0:0:0:
192,192,69054,1,0,0:0:0:0:
64,192,69142,1,0,0:0:0:0:
448,192,69142,1,0,0:0:0:0:
64,192,69318,1,0,0:0:0:0:
192,192,69318,1,0,0:0:0:0:
320,192,69495,1,0,0:0:0:0:
448,192,69495,1,0,0:0:0:0:
192,192,69671,1,0,0:0:0:0:
320,192,69671,1,0,0:0:0:0:
64,192,69848,1,0,0:0:0:0:
448,192,69848,1,0,0:0:0:0:
192,192,69936,1,0,0:0:0:0:
320,192,70024,1,0,0:0:0:0:
192,192,70201,1,0,0:0:0:0:
448,192,70201,1,0,0:0:0:0:
64,192,70377,1,0,0:0:0:0:
192,192,70466,1,0,0:0:0:0:
448,192,70554,1,0,0:0:0:0:
320,192,70554,1,0,0:0:0:0:
192,192,70730,1,0,0:0:0:0:
320,192,70730,1,0,0:0:0:0:
192,192,70907,1,0,0:0:0:0:
64,192,70907,1,0,0:0:0:0:
448,192,71083,1,0,0:0:0:0:
64,192,71083,1,0,0:0:0:0:
448,192,71260,1,0,0:0:0:0:
192,192,71260,1,0,0:0:0:0:
320,192,71436,1,0,0:0:0:0:
448,192,71613,1,0,0:0:0:0:
64,192,71613,1,0,0:0:0:0:
320,192,71789,1,0,0:0:0:0:
64,192,71877,1,0,0:0:0:0:
192,192,71966,1,0,0:0:0:0:
448,192,71966,1,0,0:0:0:0:
64,192,72142,1,0,0:0:0:0:
320,192,72142,1,0,0:0:0:0:
64,192,72318,1,0,0:0:0:0:
192,192,72318,1,0,0:0:0:0:
320,192,72495,1,0,0:0:0:0:
448,192,72495,1,0,0:0:0:0:
320,192,72671,1,0,0:0:0:0:
192,192,72671,1,0,0:0:0:0:
448,192,72760,1,0,0:0:0:0:
64,192,72848,1,0,0:0:0:0:
448,192,73024,1,0,0:0:0:0:
192,192,73024,1,0,0:0:0:0:
64,192,73201,1,0,0:0:0:0:
192,192,73289,1,0,0:0:0:0:
448,192,73377,1,0,0:0:0:0:
320,192,73377,1,0,0:0:0:0:
192,192,73554,1,0,0:0:0:0:
448,192,73554,1,0,0:0:0:0:
64,192,73730,1,0,0:0:0:0:
192,192,73730,1,0,0:0:0:0:
320,192,73907,1,0,0:0:0:0:
192,192,73907,1,0,0:0:0:0:
448,192,74083,1,0,0:0:0:0:
64,192,74083,1,0,0:0:0:0:
320,192,74260,1,0,0:0:0:0:
192,192,74436,1,0,0:0:0:0:
448,192,74436,1,0,0:0:0:0:
320,192,74613,1,0,0:0:0:0:
64,192,74701,1,0,0:0:0:0:
448,192,74789,1,0,0:0:0:0:
192,192,74789,1,0,0:0:0:0:
64,192,74966,1,0,0:0:0:0:
320,192,74966,1,0,0:0:0:0:
64,192,75142,1,0,0:0:0:0:
192,192,75142,1,0,0:0:0:0:
320,192,75318,1,0,0:0:0:0:
448,192,75318,1,0,0:0:0:0:
320,192,75495,1,0,0:0:0:0:
64,192,75495,1,0,0:0:0:0:
448,192,75671,1,0,0:0:0:0:
320,192,75848,1,0,0:0:0:0:
192,192,75848,1,0,0:0:0:0:
64,192,76024,1,0,0:0:0:0:
192,192,76024,1,0,0:0:0:0:
320,192,76113,1,0,0:0:0:0:
448,192,76113,1,0,0:0:0:0:
64,192,76201,1,0,0:0:0:0:
192,192,76201,1,0,0:0:0:0:
448,192,76377,1,0,0:0:0:0:
320,192,76377,1,0,0:0:0:0:
64,192,76554,1,0,0:0:0:0:
320,192,76554,1,0,0:0:0:0:
192,192,76730,1,0,0:0:0:0:
448,192,76730,1,0,0:0:0:0:
64,192,76907,1,0,0:0:0:0:
448,192,76907,1,0,0:0:0:0:
64,192,77083,1,0,0:0:0:0:
320,192,77083,1,0,0:0:0:0:
192,192,77260,1,0,0:0:0:0:
320,192,77260,1,0,0:0:0:0:
448,192,77436,1,0,0:0:0:0:
64,192,77436,1,0,0:0:0:0:
192,192,77524,1,0,0:0:0:0:
320,192,77613,1,0,0:0:0:0:
448,192,77613,1,0,0:0:0:0:
64,192,77789,1,0,0:0:0:0:
320,192,77789,1,0,0:0:0:0:
192,192,78142,1,0,0:0:0:0:
448,192,78142,1,0,0:0:0:0:
320,192,78318,1,0,0:0:0:0:
448,192,78318,1,0,0:0:0:0:
64,192,78495,1,0,0:0:0:0:
192,192,78495,1,0,0:0:0:0:
64,192,78671,1,0,0:0:0:0:
320,192,78671,1,0,0:0:0:0:
448,192,78848,1,0,0:0:0:0:
320,192,78936,1,0,0:0:0:0:
64,192,78936,1,0,0:0:0:0:
448,192,79024,1,0,0:0:0:0:
192,192,79024,1,0,0:0:0:0:
320,192,79201,1,0,0:0:0:0:
192,192,79201,1,0,0:0:0:0:
448,192,79377,1,0,0:0:0:0:
64,192,79377,1,0,0:0:0:0:
320,192,79377,1,0,0:0:0:0:
192,192,79554,1,0,0:0:0:0:
64,192,79554,1,0,0:0:0:0:
192,192,79730,1,0,0:0:0:0:
448,192,79730,1,0,0:0:0:0:
320,192,79818,1,0,0:0:0:0:
64,192,79907,1,0,0:0:0:0:
192,192,80083,1,0,0:0:0:0:
320,192,80083,1,0,0:0:0:0:
448,192,80260,1,0,0:0:0:0:
192,192,80348,1,0,0:0:0:0:
64,192,80436,1,0,0:0:0:0:
320,192,80436,1,0,0:0:0:0:
320,192,80613,1,0,0:0:0:0:
448,192,80613,1,0,0:0:0:0:
192,192,80789,1,0,0:0:0:0:
448,192,80789,1,0,0:0:0:0:
64,192,80966,1,0,0:0:0:0:
192,192,80966,1,0,0:0:0:0:
64,192,81142,1,0,0:0:0:0:
448,192,81142,1,0,0:0:0:0:
320,192,81230,1,0,0:0:0:0:
192,192,81318,1,0,0:0:0:0:
320,192,81495,1,0,0:0:0:0:
64,192,81495,1,0,0:0:0:0:
448,192,81671,1,0,0:0:0:0:
320,192,81760,1,0,0:0:0:0:
64,192,81848,1,0,0:0:0:0:
192,192,81848,1,0,0:0:0:0:
192,192,82024,1,0,0:0:0:0:
448,192,82024,1,0,0:0:0:0:
64,192,82201,1,0,0:0:0:0:
448,192,82201,1,0,0:0:0:0:
192,192,82377,1,0,0:0:0:0:
320,192,82377,1,0,0:0:0:0:
64,192,82554,1,0,0:0:0:0:
320,192,82554,1,0,0:0:0:0:
448,192,82730,1,0,0:0:0:0:
192,192,82907,1,0,0:0:0:0:
320,192,82907,1,0,0:0:0:0:
64,192,83083,1,0,0:0:0:0:
320,192,83171,1,0,0:0:0:0:
448,192,83260,1,0,0:0:0:0:
192,192,83260,1,0,0:0:0:0:
320,192,83436,1,0,0:0:0:0:
448,192,83436,1,0,0:0:0:0:
192,192,83613,1,0,0:0:0:0:
64,192,83613,1,0,0:0:0:0:
64,192,83789,1,0,0:0:0:0:
320,192,83789,1,0,0:0:0:0:
192,192,83966,1,0,0:0:0:0:
448,192,83966,1,0,0:0:0:0:
64,192,84054,1,0,0:0:0:0:
320,192,84142,1,0,0:0:0:0:
64,192,84318,1,0,0:0:0:0:
192,192,84318,1,0,0:0:0:0:
64,192,84495,1,0,0:0:0:0:
320,192,84583,1,0,0:0:0:0:
448,192,84671,1,0,0:0:0:0:
192,192,84671,1,0,0:0:0:0:
320,192,84848,1,0,0:0:0:0:
64,192,84848,1,0,0:0:0:0:
320,192,85024,1,0,0:0:0:0:
448,192,85024,128,0,85554:0:0:0:0:
64,192,85201,1,0,0:0:0:0:
192,192,85201,1,0,0:0:0:0:
320,192,85377,1,0,0:0:0:0:
192,192,85377,1,0,0:0:0:0:
64,192,85466,1,0,0:0:0:0:
320,192,85554,128,0,86083:0:0:0:0:
64,192,85730,1,0,0:0:0:0:
192,192,85730,1,0,0:0:0:0:
448,192,85907,1,0,0:0:0:0:
192,192,85995,1,0,0:0:0:0:
64,192,86083,128,0,86436:0:0:0:0:
448,192,86083,1,0,0:0:0:0:
192,192,86260,1,0,0:0:0:0:
320,192,86260,1,0,0:0:0:0:
192,192,86436,128,0,86966:0:0:0:0:
448,192,86436,1,0,0:0:0:0:
64,192,86613,1,0,0:0:0:0:
448,192,86613,1,0,0:0:0:0:
320,192,86789,1,0,0:0:0:0:
64,192,86789,1,0,0:0:0:0:
448,192,86877,1,0,0:0:0:0:
320,192,86966,128,0,87495:0:0:0:0:
192,192,87142,1,0,0:0:0:0:
64,192,87142,1,0,0:0:0:0:
448,192,87318,1,0,0:0:0:0:
192,192,87407,1,0,0:0:0:0:
448,192,87495,128,0,87848:0:0:0:0:
64,192,87495,1,0,0:0:0:0:
320,192,87671,1,0,0:0:0:0:
192,192,87671,1,0,0:0:0:0:
192,192,87848,128,0,88377:0:0:0:0:
64,192,87848,1,0,0:0:0:0:
448,192,88024,1,0,0:0:0:0:
320,192,88024,1,0,0:0:0:0:
64,192,88201,1,0,0:0:0:0:
448,192,88201,1,0,0:0:0:0:
320,192,88289,1,0,0:0:0:0:
64,192,88377,128,0,89260:0:0:0:0:
448,192,88554,1,0,0:0:0:0:
320,192,88554,1,0,0:0:0:0:
192,192,88730,1,0,0:0:0:0:
448,192,88818,1,0,0:0:0:0:
192,192,88907,1,0,0:0:0:0:
320,192,88907,1,0,0:0:0:0:
320,192,89083,1,0,0:0:0:0:
448,192,89083,1,0,0:0:0:0:
192,192,89260,1,0,0:0:0:0:
448,192,89260,1,0,0:0:0:0:
320,192,89348,1,0,0:0:0:0:
64,192,89436,1,0,0:0:0:0:
192,192,89436,1,0,0:0:0:0:
448,192,89524,1,0,0:0:0:0:
192,192,89613,1,0,0:0:0:0:
64,192,89701,1,0,0:0:0:0:
320,192,89701,1,0,0:0:0:0:
448,192,89789,1,0,0:0:0:0:
64,192,89877,1,0,0:0:0:0:
192,192,89966,1,0,0:0:0:0:
320,192,89966,1,0,0:0:0:0:
448,192,90054,1,0,0:0:0:0:
64,192,90142,1,0,0:0:0:0:
192,192,90230,1,0,0:0:0:0:
448,192,90230,1,0,0:0:0:0:
320,192,90318,1,0,0:0:0:0:
192,192,90407,1,0,0:0:0:0:
64,192,90407,1,0,0:0:0:0:
320,192,90495,1,0,0:0:0:0:
448,192,90495,1,0,0:0:0:0:
64,192,90583,1,0,0:0:0:0:
192,192,90671,1,0,0:0:0:0:
320,192,90671,1,0,0:0:0:0:
448,192,90671,1,0,0:0:0:0:
64,192,91024,1,0,0:0:0:0:
320,192,91024,1,0,0:0:0:0:
448,192,91024,1,0,0:0:0:0:
192,192,91377,1,0,0:0:0:0:
64,192,91377,1,0,0:0:0:0:
448,192,91377,1,0,0:0:0:0:
64,192,91642,1,0,0:0:0:0:
192,192,91642,1,0,0:0:0:0:
320,192,91642,1,0,0:0:0:0:
192,192,91907,1,0,0:0:0:0:
320,192,91907,1,0,0:0:0:0:
448,192,91907,1,0,0:0:0:0:
448,192,92083,1,0,0:0:0:0:
64,192,92260,1,0,0:0:0:0:
320,192,92348,1,0,0:0:0:0:
192,192,92436,1,0,0:0:0:0:
64,192,92524,1,0,0:0:0:0:
448,192,92613,1,0,0:0:0:0:
192,192,92701,1,0,0:0:0:0:
320,192,92789,1,0,0:0:0:0:
448,192,92877,1,0,0:0:0:0:
64,192,92966,1,0,0:0:0:0:
192,192,93054,1,0,0:0:0:0:
320,192,93142,1,0,0:0:0:0:
448,192,93318,1,0,0:0:0:0:
64,192,93495,1,0,0:0:0:0:
192,192,93495,1,0,0:0:0:0:
320,192,93495,1,0,0:0:0:0:
64,192,93848,1,0,0:0:0:0:
448,192,93848,1,0,0:0:0:0:
192,192,93848,1,0,0:0:0:0:
192,192,94201,1,0,0:0:0:0:
320,192,94201,1,0,0:0:0:0:
448,192,94201,1,0,0:0:0:0:
448,192,94466,1,0,0:0:0:0:
64,192,94466,1,0,0:0:0:0:
192,192,94466,1,0,0:0:0:0:
320,192,94730,1,0,0:0:0:0:
192,192,94730,1,0,0:0:0:0:
64,192,94730,1,0,0:0:0:0:
192,192,94907,1,0,0:0:0:0:
320,192,94995,1,0,0:0:0:0:
448,192,95083,1,0,0:0:0:0:
64,192,95260,1,0,0:0:0:0:
320,192,95348,1,0,0:0:0:0:
448,192,95436,1,0,0:0:0:0:
64,192,95524,1,0,0:0:0:0:
192,192,95613,1,0,0:0:0:0:
448,192,95701,1,0,0:0:0:0:
64,192,95789,1,0,0:0:0:0:
320,192,95877,1,0,0:0:0:0:
448,192,95966,1,0,0:0:0:0:
64,192,96054,1,0,0:0:0:0:
192,192,96142,1,0,0:0:0:0:
448,192,96230,1,0,0:0:0:0:
320,192,96318,128,0,96671:0:0:0:0:
64,192,96318,1,0,0:0:0:0:
192,192,96495,1,0,0:0:0:0:
64,192,96671,128,0,97024:0:0:0:0:
448,192,96671,1,0,0:0:0:0:
320,192,96848,1,0,0:0:0:0:
448,192,97024,128,0,97289:0:0:0:0:
192,192,97024,1,0,0:0:0:0:
64,192,97201,1,0,0:0:0:0:
192,192,97289,128,0,97554:0:0:0:0:
448,192,97377,1,0,0:0:0:0:
320,192,97377,1,0,0:0:0:0:
64,192,97554,128,0,97907:0:0:0:0:
192,192,97730,1,0,0:0:0:0:
448,192,97730,1,0,0:0:0:0:
320,192,97907,128,0,98260:0:0:0:0:
64,192,98083,1,0,0:0:0:0:
192,192,98083,1,0,0:0:0:0:
448,192,98260,128,0,98436:0:0:0:0:
192,192,98436,128,0,98789:0:0:0:0:
64,192,98436,1,0,0:0:0:0:
448,192,98613,1,0,0:0:0:0:
64,192,98789,128,0,99142:0:0:0:0:
320,192,98789,1,0,0:0:0:0:
448,192,98966,1,0,0:0:0:0:
192,192,99142,128,0,99495:0:0:0:0:
320,192,99142,1,0,0:0:0:0:
448,192,99318,1,0,0:0:0:0:
320,192,99495,128,0,99848:0:0:0:0:
64,192,99495,1,0,0:0:0:0:
448,192,99671,1,0,0:0:0:0:
64,192,99848,128,0,100113:0:0:0:0:
192,192,99848,1,0,0:0:0:0:
448,192,100024,1,0,0:0:0:0:
320,192,100113,128,0,100377:0:0:0:0:
192,192,100201,1,0,0:0:0:0:
64,192,100201,1,0,0:0:0:0:
448,192,100377,128,0,100554:0:0:0:0:
192,192,100554,1,0,0:0:0:0:
64,192,100642,1,0,0:0:0:0:
320,192,100730,1,0,0:0:0:0:
192,192,100818,1,0,0:0:0:0:
64,192,100907,1,0,0:0:0:0:
448,192,100995,1,0,0:0:0:0:
320,192,101083,1,0,0:0:0:0:
192,192,101171,1,0,0:0:0:0:
448,192,101260,1,0,0:0:0:0:
64,192,101348,1,0,0:0:0:0:
320,192,101436,1,0,0:0:0:0:
192,192,101524,1,0,0:0:0:0:
448,192,101613,1,0,0:0:0:0:
320,192,101701,1,0,0:0:0:0:
192,192,101789,1,0,0:0:0:0:
64,192,101877,1,0,0:0:0:0:
192,192,101966,1,0,0:0:0:0:
320,192,101966,1,0,0:0:0:0:
448,192,101966,1,0,0:0:0:0:
64,192,102318,1,0,0:0:0:0:
448,192,102318,1,0,0:0:0:0:
320,192,102318,1,0,0:0:0:0:
64,192,102671,1,0,0:0:0:0:
192,192,102671,1,0,0:0:0:0:
448,192,102671,1,0,0:0:0:0:
64,192,102936,1,0,0:0:0:0:
192,192,102936,1,0,0:0:0:0:
320,192,102936,1,0,0:0:0:0:
192,192,103201,1,0,0:0:0:0:
320,192,103201,1,0,0:0:0:0:
448,192,103201,1,0,0:0:0:0:
320,192,103377,1,0,0:0:0:0:
64,192,103553,1,0,0:0:0:0:
448,192,103641,1,0,0:0:0:0:
192,192,103729,1,0,0:0:0:0:
320,192,103818,1,0,0:0:0:0:
448,192,103906,1,0,0:0:0:0:
64,192,103994,1,0,0:0:0:0:
320,192,104082,1,0,0:0:0:0:
192,192,104171,1,0,0:0:0:0:
448,192,104259,1,0,0:0:0:0:
64,192,104347,1,0,0:0:0:0:
320,192,104435,1,0,0:0:0:0:
448,192,104612,1,0,0:0:0:0:
64,192,104789,1,0,0:0:0:0:
192,192,104789,1,0,0:0:0:0:
320,192,104789,1,0,0:0:0:0:
64,192,105142,1,0,0:0:0:0:
448,192,105142,1,0,0:0:0:0:
192,192,105142,1,0,0:0:0:0:
192,192,105495,1,0,0:0:0:0:
320,192,105495,1,0,0:0:0:0:
448,192,105495,1,0,0:0:0:0:
448,192,105760,1,0,0:0:0:0:
64,192,105760,1,0,0:0:0:0:
192,192,105760,1,0,0:0:0:0:
320,192,106025,1,0,0:0:0:0:
192,192,106025,1,0,0:0:0:0:
64,192,106025,1,0,0:0:0:0:
192,192,106201,1,0,0:0:0:0:
320,192,106289,1,0,0:0:0:0:
448,192,106377,1,0,0:0:0:0:
64,192,106553,1,0,0:0:0:0:
192,192,106642,1,0,0:0:0:0:
448,192,106730,1,0,0:0:0:0:
64,192,106818,1,0,0:0:0:0:
320,192,106906,1,0,0:0:0:0:
448,192,106995,1,0,0:0:0:0:
64,192,107083,1,0,0:0:0:0:
192,192,107171,1,0,0:0:0:0:
448,192,107259,1,0,0:0:0:0:
64,192,107348,1,0,0:0:0:0:
320,192,107436,1,0,0:0:0:0:
448,192,107524,1,0,0:0:0:0:
192,192,107612,128,0,107965:0:0:0:0:
64,192,107612,1,0,0:0:0:0:
320,192,107789,1,0,0:0:0:0:
448,192,107965,128,0,108318:0:0:0:0:
64,192,107965,1,0,0:0:0:0:
192,192,108142,1,0,0:0:0:0:
64,192,108318,128,0,108583:0:0:0:0:
320,192,108318,1,0,0:0:0:0:
192,192,108495,1,0,0:0:0:0:
320,192,108583,128,0,108848:0:0:0:0:
64,192,108671,1,0,0:0:0:0:
448,192,108671,1,0,0:0:0:0:
192,192,108848,128,0,109201:0:0:0:0:
64,192,109024,1,0,0:0:0:0:
320,192,109024,1,0,0:0:0:0:
448,192,109201,128,0,109553:0:0:0:0:
192,192,109377,1,0,0:0:0:0:
64,192,109377,1,0,0:0:0:0:
320,192,109553,128,0,109730:0:0:0:0:
192,192,109730,128,0,110083:0:0:0:0:
448,192,109730,1,0,0:0:0:0:
320,192,109906,1,0,0:0:0:0:
64,192,110083,128,0,110436:0:0:0:0:
448,192,110083,1,0,0:0:0:0:
192,192,110259,1,0,0:0:0:0:
448,192,110436,1,0,0:0:0:0:
320,192,110524,1,0,0:0:0:0:
192,192,110612,1,0,0:0:0:0:
64,192,110701,1,0,0:0:0:0:
320,192,110789,1,0,0:0:0:0:
192,192,110877,1,0,0:0:0:0:
448,192,110965,1,0,0:0:0:0:
64,192,111053,1,0,0:0:0:0:
320,192,111142,1,0,0:0:0:0:
448,192,111230,1,0,0:0:0:0:
192,192,111318,1,0,0:0:0:0:
64,192,111406,1,0,0:0:0:0:
448,192,111495,1,0,0:0:0:0:
192,192,111583,1,0,0:0:0:0:
320,192,111671,1,0,0:0:0:0:
64,192,111759,1,0,0:0:0:0:
448,192,111848,1,0,0:0:0:0:
320,192,111936,1,0,0:0:0:0:
192,192,112024,1,0,0:0:0:0:
64,192,112112,1,0,0:0:0:0:
448,192,112201,1,0,0:0:0:0:
192,192,112289,1,0,0:0:0:0:
320,192,112377,1,0,0:0:0:0:
64,192,112465,1,0,0:0:0:0:
192,192,112553,1,0,0:0:0:0:
448,192,112642,1,0,0:0:0:0:
64,192,112730,1,0,0:0:0:0:
320,192,112818,1,0,0:0:0:0:
448,192,112906,1,0,0:0:0:0:
64,192,112995,1,0,0:0:0:0:
320,192,113083,1,0,0:0:0:0:
192,192,113171,1,0,0:0:0:0:
64,192,113259,1,0,0:0:0:0:
448,192,113348,1,0,0:0:0:0:
192,192,113436,1,0,0:0:0:0:
320,192,113524,1,0,0:0:0:0:
64,192,113612,1,0,0:0:0:0:
192,192,113701,1,0,0:0:0:0:
448,192,113789,1,0,0:0:0:0:
64,192,113877,1,0,0:0:0:0:
320,192,113965,1,0,0:0:0:0:
448,192,114053,1,0,0:0:0:0:
64,192,114142,1,0,0:0:0:0:
320,192,114230,1,0,0:0:0:0:
192,192,114318,1,0,0:0:0:0:
64,192,114406,1,0,0:0:0:0:
320,192,114495,1,0,0:0:0:0:
448,192,114583,1,0,0:0:0:0:
64,192,114671,1,0,0:0:0:0:
192,192,114671,1,0,0:0:0:0:
448,192,114848,1,0,0:0:0:0:
448,192,114936,1,0,0:0:0:0:
448,192,115024,1,0,0:0:0:0:
320,192,115201,1,0,0:0:0:0:
320,192,115289,1,0,0:0:0:0:
320,192,115377,1,0,0:0:0:0:
192,192,115553,1,0,0:0:0:0:
192,192,115642,1,0,0:0:0:0:
192,192,115730,1,0,0:0:0:0:
64,192,115906,1,0,0:0:0:0:
64,192,116083,1,0,0:0:0:0:
192,192,116083,1,0,0:0:0:0:
320,192,116083,1,0,0:0:0:0:
448,192,116083,1,0,0:0:0:0:
