osu file format v14

[General]
AudioFilename: audio.mp3
AudioLeadIn: 0
PreviewTime: 12729
Countdown: 1
SampleSet: Normal
StackLeniency: 0.7
Mode: 0
LetterboxInBreaks: 0
WidescreenStoryboard: 0

[Editor]
Bookmarks: 12729,50847
DistanceSpacing: 1.5
BeatDivisor: 4
GridSize: 8
TimelineZoom: 2.2

[Metadata]
Title:Marisa wa Taihen na Mono wo Nusunde Ikimashita
TitleUnicode:Marisa wa Taihen na Mono wo Nusunde Ikimashita
Artist:IOSYS
ArtistUnicode:IOSYS
Creator:JiruPiru
Version:Insane
Source:Touhou
Tags:touhou marisa stole the precious thing streams old djpop
BeatmapID:1820092
BeatmapSetID:871063

[Difficulty]
HPDrainRate:6
CircleSize:4
OverallDifficulty:7
ApproachRate:9
SliderMultiplier:1.4
SliderTickRate:1

[Events]
//Background and Video events
0,0,"idkanythingabouttouhoulol.jpg",0,0
//Break Periods
2,35518,46012
//Storyboard Layer 0 (Background)
//Storyboard Layer 1 (Fail)
//Storyboard Layer 2 (Pass)
//Storyboard Layer 3 (Foreground)
//Storyboard Sound Samples

[TimingPoints]
24,352.941176470588,4,1,1,100,1,0
12729,-100,4,1,1,50,0,0
51553,-100,4,1,1,30,0,0
52259,-100,4,1,1,50,0,0
80053,-83.3333333333333,4,1,1,100,0,0
80318,-66.6666666666667,4,1,1,100,0,0
80494,-100,4,1,1,50,0,0
91788,-100,4,1,1,50,0,1
117200,-100,4,1,1,50,0,0

[Colours]
Combo1 : 255,128,128
Combo2 : 255,255,128
Combo3 : 128,128,255

[HitObjects]
216,152,12729,5,4,0:0:0:0:
296,152,12906,1,0,0:0:0:0:
256,221,13082,1,8,0:0:0:0:
230,129,13259,5,0,0:0:0:0:
320,171,13436,1,0,0:0:0:0:
238,228,13612,1,8,0:0:0:0:
256,110,13788,5,0,0:0:0:0:
336,205,13965,1,0,0:0:0:0:
213,227,14141,1,8,0:0:0:0:
295,91,14318,5,0,0:0:0:0:
335,242,14495,1,0,0:0:0:0:
185,201,14671,1,8,0:0:0:0:
353,98,14847,5,0,0:0:0:0:
319,291,15024,1,0,0:0:0:0:
171,165,15200,1,8,0:0:0:0:
171,165,15553,5,0,0:0:0:0:
319,291,15729,1,0,0:0:0:0:
353,98,15906,1,8,0:0:0:0:
185,201,16082,5,0,0:0:0:0:
335,242,16258,1,0,0:0:0:0:
295,91,16435,1,8,0:0:0:0:
213,227,16612,5,0,0:0:0:0:
336,205,16788,1,0,0:0:0:0:
256,110,16965,1,8,0:0:0:0:
238,228,17141,5,0,0:0:0:0:
320,171,17317,1,0,0:0:0:0:
230,129,17494,1,8,0:0:0:0:
256,221,17671,5,0,0:0:0:0:
296,152,17847,1,0,0:0:0:0:
216,152,18024,1,8,0:0:0:0:
152,192,18376,6,8,L|72:192,2,70,0|0|8,0:0|0:0|0:0,0:0:0:0:
360,192,18906,2,0,L|440:192,2,70,0|0|8,0:0|0:0|0:0,0:0:0:0:
161,148,19435,6,0,L|88:112,2,70,0|0|8,0:0|0:0|0:0,0:0:0:0:
350,235,19965,2,0,L|424:272,2,70,0|0|8,0:0|0:0|0:0,0:0:0:0:
189,112,20494,5,0,0:0:0:0:
322,271,20671,1,0,0:0:0:0:
256,192,20847,1,8,0:0:0:0:
32,32,21200,6,0,P|96:32|120:48,1,70
406,35,21553,2,0,P|442:27|480:32,1,70,8|0,0:0|0:0,0:0:0:0:
512,192,21906,1,8,0:0:0:0:
432,192,22082,5,0,0:0:0:0:
432,192,22171,1,0,0:0:0:0:
432,192,22259,1,8,0:0:0:0:
432,192,22347,1,0,0:0:0:0:
432,192,22435,1,0,0:0:0:0:
208,192,22612,6,0,L|168:280,1,70,2|0,0:0|0:0,0:0:0:0:
176,296,22876,1,0,0:0:0:0:
176,336,22965,2,0,L|256:336,1,70,2|0,0:0|0:0,0:0:0:0:
256,296,23229,1,0,0:0:0:0:
256,256,23318,5,2,0:0:0:0:
320,192,23494,5,2,0:0:0:0:
256,128,23671,5,2,0:0:0:0:
192,192,23847,5,2,0:0:0:0:
96,192,24023,6,0,P|64:152|64:128,1,70,4|0,0:0|0:0,0:0:0:0:
136,128,24376,1,8,0:0:0:0:
176,192,24553,6,0,P|208:152|208:128,1,70
136,128,24906,1,8,0:0:0:0:
96,67,25082,6,0,P|64:107|64:136,1,70
136,128,25435,1,8,0:0:0:0:
176,67,25612,6,0,P|208:107|208:136,1,70
136,128,25965,1,8,0:0:0:0:
80,192,26141,6,0,L|80:272,2,70,0|8|8,0:0|0:0|0:0,0:0:0:0:
416,192,26847,6,0,P|448:152|448:128,1,70
376,128,27200,1,8,0:0:0:0:
336,192,27377,6,0,P|304:152|304:128,1,70
376,128,27730,1,8,0:0:0:0:
416,67,27906,6,0,P|448:107|448:136,1,70
376,128,28259,1,8,0:0:0:0:
336,67,28436,6,0,P|304:107|304:136,1,70
376,128,28789,1,8,0:0:0:0:
432,192,28965,6,0,L|432:272,2,70,0|8|8,0:0|0:0|0:0,0:0:0:0:
168,192,29671,6,0,L|96:208,2,70,0|0|8,0:0|0:0|0:0,0:0:0:0:
240,176,30200,1,0,0:0:0:0:
312,192,30376,2,0,L|384:208,1,70
416,272,30729,6,0,L|484:256,2,70
344,288,31257,1,0,0:0:0:0:
272,288,31435,2,0,L|203:272,1,70
136,256,31788,5,0,0:0:0:0:
88,200,31965,1,8,0:0:0:0:
88,128,32141,1,8,0:0:0:0:
256,184,32494,5,0,0:0:0:0:
264,192,32582,1,0,0:0:0:0:
256,200,32671,1,0,0:0:0:0:
248,192,32759,1,0,0:0:0:0:
258,176,32847,5,8,0:0:0:0:
271,194,32935,1,0,0:0:0:0:
253,207,33024,1,0,0:0:0:0:
240,189,33112,1,0,0:0:0:0:
264,169,33200,5,0,0:0:0:0:
278,200,33288,1,0,0:0:0:0:
247,214,33377,1,0,0:0:0:0:
233,183,33465,1,0,0:0:0:0:
271,166,33553,5,8,0:0:0:0:
281,207,33641,1,0,0:0:0:0:
241,217,33730,1,0,0:0:0:0:
230,177,33818,1,0,0:0:0:0:
280,162,33906,5,0,0:0:0:0:
284,215,33994,1,0,0:0:0:0:
232,220,34083,1,0,0:0:0:0:
226,167,34171,1,0,0:0:0:0:
292,161,34259,5,8,0:0:0:0:
285,227,34347,1,0,0:0:0:0:
220,221,34436,1,0,0:0:0:0:
225,155,34524,1,0,0:0:0:0:
224,88,34612,6,0,L|168:88,3,35,10|0|10|0,0:0|0:0|0:0|0:0,0:0:0:0:
152,160,34965,1,10,0:0:0:0:
152,216,35053,1,0,0:0:0:0:
152,272,35141,1,10,0:0:0:0:
152,328,35229,1,0,0:0:0:0:
224,328,35318,5,4,0:0:0:0:
32,32,46612,6,0,L|32:112,1,70,4|0,0:0|0:0,0:0:0:0:
104,32,46965,2,0,L|104:112,1,70
104,176,47318,2,0,L|176:176,1,70,8|0,0:0|0:0,0:0:0:0:
104,248,47671,2,0,L|176:248,1,70
240,248,48023,6,0,L|240:160,1,70
312,248,48376,2,0,L|312:160,1,70
312,104,48729,2,0,L|384:104,1,70,8|0,0:0|0:0,0:0:0:0:
312,32,49082,2,0,L|384:32,1,70,8|0,0:0|0:0,0:0:0:0:
456,32,49435,6,0,P|480:72|480:112,3,70
480,168,50141,2,0,P|473:202|453:230,3,70,8|0|0|0,0:0|0:0|0:0|0:0,0:0:0:0:
384,232,50847,2,0,P|360:192|360:152,3,70
360,96,51553,6,0,L|264:96,1,70
256,96,51818,1,0,0:0:0:0:
224,96,51906,1,0,0:0:0:0:
224,96,52259,6,0,L|144:96,1,70
224,168,52612,2,0,L|144:168,1,70
80,168,52965,2,0,L|80:248,1,70,8|0,0:0|0:0,0:0:0:0:
8,168,53318,2,0,L|8:248,1,70
8,312,53671,6,0,L|96:312,1,70
8,384,54023,2,0,L|96:384,1,70
152,384,54376,2,0,L|152:296,1,70,8|0,0:0|0:0,0:0:0:0:
224,384,54729,2,0,L|224:296,1,70
224,240,55082,6,0,P|240:200|240:160,3,70
240,104,55788,2,0,P|236:69|222:37,3,70
152,40,56494,2,0,P|137:71|134:106,3,70
128,176,57200,5,0,0:0:0:0:
200,176,57376,1,0,0:0:0:0:
200,176,57465,1,0,0:0:0:0:
200,176,57553,2,0,P|232:232|216:256,1,70
152,272,57906,6,0,L|112:272,2,35,0|0|2,0:0|0:0|0:0,0:0:0:0:
152,200,58259,2,0,L|112:200,2,35,0|0|2,0:0|0:0|0:0,0:0:0:0:
152,128,58612,2,0,L|112:128,2,35,0|0|2,0:0|0:0|0:0,0:0:0:0:
152,56,58965,2,0,L|112:56,2,35,0|0|2,0:0|0:0|0:0,0:0:0:0:
224,56,59318,6,0,L|224:16,2,35,0|0|2,0:0|0:0|0:0,0:0:0:0:
296,56,59671,2,0,L|296:16,2,35,0|0|2,0:0|0:0|0:0,0:0:0:0:
368,56,60024,2,0,L|368:16,2,35,0|0|2,0:0|0:0|0:0,0:0:0:0:
440,56,60377,2,0,L|440:16,2,35,0|0|2,0:0|0:0|0:0,0:0:0:0:
440,128,60729,5,0,0:0:0:0:
440,128,60818,1,0,0:0:0:0:
440,128,60906,1,2,0:0:0:0:
440,200,61082,5,0,0:0:0:0:
440,200,61171,1,0,0:0:0:0:
440,200,61259,1,2,0:0:0:0:
440,272,61435,5,0,0:0:0:0:
440,272,61523,1,0,0:0:0:0:
440,272,61612,1,2,0:0:0:0:
440,344,61788,5,0,0:0:0:0:
440,344,61876,1,0,0:0:0:0:
440,344,61965,1,2,0:0:0:0:
368,352,62141,5,0,0:0:0:0:
368,352,62230,1,0,0:0:0:0:
368,352,62318,1,2,0:0:0:0:
296,352,62494,5,0,0:0:0:0:
296,352,62583,1,0,0:0:0:0:
296,352,62671,1,2,0:0:0:0:
224,352,62847,5,0,0:0:0:0:
224,352,62935,1,0,0:0:0:0:
224,352,63023,1,2,0:0:0:0:
152,352,63200,5,0,0:0:0:0:
152,352,63288,1,0,0:0:0:0:
152,352,63377,1,2,0:0:0:0:
80,352,63553,5,2,0:0:0:0:
8,352,63729,1,2,0:0:0:0:
80,352,63906,1,2,0:0:0:0:
8,352,64082,1,2,0:0:0:0:
8,280,64259,5,2,0:0:0:0:
80,280,64435,1,2,0:0:0:0:
8,280,64612,1,2,0:0:0:0:
80,280,64788,1,2,0:0:0:0:
80,208,64965,5,2,0:0:0:0:
80,136,65141,1,2,0:0:0:0:
80,208,65318,1,2,0:0:0:0:
80,136,65494,1,2,0:0:0:0:
152,136,65671,5,2,0:0:0:0:
152,208,65847,1,2,0:0:0:0:
152,136,66023,1,2,0:0:0:0:
152,208,66200,1,2,0:0:0:0:
152,280,66376,6,0,L|208:336,1,70,0|8,0:0|0:0,0:0:0:0:
310,329,66729,2,0,L|360:280,1,70,0|8,0:0|0:0,0:0:0:0:
360,104,67082,2,0,L|310:54,1,70,0|8,0:0|0:0,0:0:0:0:
201,54,67435,2,0,L|152:104,1,70,0|8,0:0|0:0,0:0:0:0:
152,280,67788,6,0,L|208:280,1,35
360,280,67965,2,0,L|360:240,1,35
360,104,68141,2,0,L|320:104,1,35
152,104,68318,2,0,L|152:160,1,35
256,192,68494,5,4,0:0:0:0:
256,192,68582,1,4,0:0:0:0:
288,248,68671,2,0,L|344:280,1,35
224,136,68847,2,0,L|168:104,1,35
32,32,69023,5,0,0:0:0:0:
32,32,69112,1,0,0:0:0:0:
32,32,69200,2,0,P|52:62|104:80,1,70,0|2,0:0|0:0,0:0:0:0:
184,80,69641,5,2,0:0:0:0:
288,80,69906,5,2,0:0:0:0:
392,80,70171,5,2,0:0:0:0:
392,184,70435,1,0,0:0:0:0:
392,184,70612,2,2,P|360:232|320:184,1,140,0|0,0:0|0:0,0:0:0:0:
320,112,71141,1,0,0:0:0:0:
320,40,71318,6,2,P|288:-8|248:40,1,140,0|0,0:0|0:0,0:0:0:0:
248,112,71847,1,0,0:0:0:0:
248,184,72023,1,0,0:0:0:0:
384,192,72376,5,2,0:0:0:0:
256,192,72729,1,2,0:0:0:0:
256,192,72906,1,2,0:0:0:0:
384,192,73259,5,2,0:0:0:0:
256,192,73612,1,2,0:0:0:0:
256,192,73788,1,2,0:0:0:0:
128,192,74141,5,2,0:0:0:0:
208,304,74494,5,0,0:0:0:0:
304,304,74671,1,0,0:0:0:0:
256,224,74847,2,2,B|288:160|224:160|256:80,1,140,0|0,0:0|0:0,0:0:0:0:
296,32,75376,5,0,0:0:0:0:
360,72,75553,2,2,P|392:112|360:200,2,140,0|0|0,0:0|0:0|0:0,0:0:0:0:
216,32,76612,5,0,0:0:0:0:
152,72,76788,2,2,P|120:112|152:200,1,140,0|0,0:0|0:0,0:0:0:0:
176,192,77229,1,0,0:0:0:0:
208,192,77318,1,8,0:0:0:0:
208,264,77494,1,0,0:0:0:0:
280,264,77671,6,2,B|344:312|408:264,1,140,0|0,0:0|0:0,0:0:0:0:
408,192,78200,2,2,B|344:144|280:192,1,140,0|0,0:0|0:0,0:0:0:0:
256,216,78641,1,0,0:0:0:0:
224,240,78729,1,8,0:0:0:0:
224,312,78906,5,0,0:0:0:0:
168,360,79082,2,0,L|32:280,1,140
48,216,79612,1,0,0:0:0:0:
184,168,79788,6,0,L|256:136,1,70,4|0,0:0|0:0,0:0:0:0:
256,184,80053,2,0,L|336:152,1,83.9999974365235,4|0,0:0|0:0,0:0:0:0:
344,192,80318,2,0,L|424:160,2,52.5000020027161,4|0|0,0:0|0:0|0:0,0:0:0:0:
344,264,80671,5,2,0:0:0:0:
272,264,80847,1,2,0:0:0:0:
128,264,81200,5,2,0:0:0:0:
24,264,81465,5,2,0:0:0:0:
24,160,81729,5,0,0:0:0:0:
24,128,81818,1,0,0:0:0:0:
48,104,81906,2,2,P|96:72|176:72,1,140,0|0,0:0|0:0,0:0:0:0:
176,144,82435,1,0,0:0:0:0:
176,216,82612,6,2,B|256:248|256:248|320:248,1,140,0|0,0:0|0:0,0:0:0:0:
312,176,83141,1,0,0:0:0:0:
312,104,83318,1,2,0:0:0:0:
128,48,83670,5,2,0:0:0:0:
256,48,84023,1,2,0:0:0:0:
256,48,84200,1,2,0:0:0:0:
128,48,84553,5,2,0:0:0:0:
256,48,84906,5,2,0:0:0:0:
256,120,85082,2,0,L|208:192,1,70,2|0,0:0|0:0,0:0:0:0:
176,240,85435,2,0,P|192:288|272:328,1,140,2|2,0:0|0:0,0:0:0:0:
512,192,85965,6,2,B|408:96|408:96|296:192,1,280
408,272,87200,1,2,0:0:0:0:
0,192,87553,6,2,B|79:118|79:118|160:192,2,210
80,288,88965,2,2,L|304:288,2,210
80,184,90200,1,8,0:0:0:0:
256,184,90376,5,4,0:0:0:0:
264,192,90464,1,0,0:0:0:0:
256,200,90553,1,0,0:0:0:0:
248,192,90641,1,0,0:0:0:0:
261,176,90729,5,4,0:0:0:0:
271,197,90817,1,0,0:0:0:0:
250,207,90906,1,0,0:0:0:0:
240,186,90994,1,0,0:0:0:0:
276,167,91082,5,4,0:0:0:0:
280,212,91170,1,0,0:0:0:0:
235,216,91259,1,0,0:0:0:0:
231,171,91347,1,0,0:0:0:0:
297,167,91435,5,4,0:0:0:0:
280,233,91523,1,0,0:0:0:0:
214,215,91612,1,0,0:0:0:0:
231,150,91700,1,0,0:0:0:0:
232,80,91788,6,2,L|384:40,2,140
104,136,92671,5,2,0:0:0:0:
104,272,93023,5,2,0:0:0:0:
232,336,93200,2,0,L|320:336,1,70
352,336,93465,1,0,0:0:0:0:
408,336,93553,1,8,0:0:0:0:
464,336,93641,1,0,0:0:0:0:
464,280,93729,1,0,0:0:0:0:
464,224,93818,1,0,0:0:0:0:
408,224,93906,1,0,0:0:0:0:
352,224,93994,1,0,0:0:0:0:
352,168,94082,1,0,0:0:0:0:
352,112,94171,1,0,0:0:0:0:
352,56,94259,5,8,0:0:0:0:
248,56,94435,1,2,0:0:0:0:
168,128,94612,6,2,L|56:224,2,140
256,64,95494,5,2,0:0:0:0:
256,208,95847,5,2,0:0:0:0:
200,256,96023,2,0,L|160:288,2,35,0|0|2,0:0|0:0|0:0,0:0:0:0:
312,256,96376,2,0,L|352:288,3,35,0|0|2|0,0:0|0:0|0:0|0:0,0:0:0:0:
312,224,96729,2,0,L|344:184,3,35,2|0|2|0,0:0|0:0|0:0|0:0,0:0:0:0:
352,168,97082,2,0,L|312:136,3,35,2|0|2|2,0:0|0:0|0:0|0:0,0:0:0:0:
320,96,97435,6,0,P|256:72|256:144,2,140,2|2|2,0:0|0:0|0:0,0:0:0:0:
328,200,98318,1,0,0:0:0:0:
328,200,98671,2,0,P|256:208|168:200,2,140,0|2|0,0:0|0:0|0:0,0:0:0:0:
328,96,99553,2,0,P|400:88|488:96,1,140,2|0,0:0|0:0,0:0:0:0:
472,200,100082,5,8,0:0:0:0:
416,288,100259,2,0,P|336:328|320:376,2,140,0|2|0,0:0|0:0|0:0,0:0:0:0:
512,288,101141,5,2,0:0:0:0:
512,80,101494,5,2,0:0:0:0:
432,16,101671,5,0,0:0:0:0:
360,16,101847,1,0,0:0:0:0:
219,16,102200,5,8,0:0:0:0:
219,156,102553,5,8,0:0:0:0:
232,304,102906,1,8,0:0:0:0:
232,304,103082,6,2,L|384:344,2,140
104,248,103965,5,2,0:0:0:0:
104,112,104318,5,2,0:0:0:0:
232,48,104494,2,0,L|320:48,1,70
352,48,104759,1,0,0:0:0:0:
408,48,104847,1,8,0:0:0:0:
464,48,104935,1,0,0:0:0:0:
464,104,105023,1,0,0:0:0:0:
464,160,105112,1,0,0:0:0:0:
408,160,105200,1,0,0:0:0:0:
352,160,105288,1,0,0:0:0:0:
352,216,105376,1,0,0:0:0:0:
352,272,105465,1,0,0:0:0:0:
352,328,105553,5,8,0:0:0:0:
248,328,105729,1,2,0:0:0:0:
168,256,105906,6,2,L|56:160,2,140
256,320,106788,5,2,0:0:0:0:
256,176,107141,5,2,0:0:0:0:
312,128,107317,2,0,L|352:96,2,35,0|0|2,0:0|0:0|0:0,0:0:0:0:
200,128,107670,2,0,L|160:96,3,35,0|0|2|0,0:0|0:0|0:0|0:0,0:0:0:0:
200,160,108023,2,0,L|168:200,3,35,2|0|2|0,0:0|0:0|0:0|0:0,0:0:0:0:
160,216,108376,2,0,L|200:248,3,35,2|0|2|2,0:0|0:0|0:0|0:0,0:0:0:0:
192,288,108729,6,0,P|256:312|256:240,2,140,2|2|2,0:0|0:0|0:0,0:0:0:0:
184,184,109612,1,0,0:0:0:0:
184,184,109965,2,0,P|256:176|344:184,2,140,0|2|0,0:0|0:0|0:0,0:0:0:0:
184,288,110847,2,0,P|112:296|24:288,1,140,2|0,0:0|0:0,0:0:0:0:
40,184,111376,5,8,0:0:0:0:
40,80,111553,2,0,L|176:40,1,140
176,248,112259,2,0,L|312:208,1,140
304,104,112788,1,8,0:0:0:0:
408,104,112965,6,8,P|424:168|408:248,1,140,0|0,0:0|0:0,0:0:0:0:
344,320,113494,1,0,0:0:0:0:
240,320,113671,6,0,L|104:320,2,105
344,320,114376,1,0,0:0:0:0:
480,160,115965,5,8,0:0:0:0:
480,192,116053,1,0,0:0:0:0:
480,224,116141,1,0,0:0:0:0:
409,152,116318,5,8,0:0:0:0:
409,192,116406,1,0,0:0:0:0:
409,232,116494,1,0,0:0:0:0:
336,132,116671,5,8,0:0:0:0:
336,192,116759,1,0,0:0:0:0:
336,252,116847,1,0,0:0:0:0:
268,95,117023,5,8,0:0:0:0:
268,192,117111,1,0,0:0:0:0:
268,288,117199,1,4,0:0:0:0:
