osu file format v14

[General]
AudioFilename: audio.ogg
AudioLeadIn: 0
PreviewTime: 91346
Countdown: 0
SampleSet: Normal
StackLeniency: 0.4
Mode: 0
LetterboxInBreaks: 0
SkinPreference:Default
WidescreenStoryboard: 1

[Editor]
Bookmarks: 9993,201464
DistanceSpacing: 0.9
BeatDivisor: 4
GridSize: 8
TimelineZoom: 3.079999

[Metadata]
Title:Marisa ni Taihen na Yaku de Hako ni Saremashita
TitleUnicode:魔理沙に大変な役でハコにされました
Artist:IOSYS
ArtistUnicode:IOSYS
Creator:Bloxi
Version:xidorn's Hard
Source:東方Project
Tags:tanked my score with an incredible hand kirisame Alice Margatroid アリス・マーガトロイド stole the precious thing japanese electronic video game pop touhou project team shanghai zun 東方妖々夢 ~ perfect cherry blossom. pcb Youyoumu ghostly dream 人形裁判 ~ 人の形弄びし少女 doll judgement the Girl Who Played with People's Peoples Shapes Ningyou Saiban Hito no Katachi Moteasobishi Shoujo Shojo th7 東方怪綺談 ~ mystic square ms kaikidan bizarre romantic children story th5 miko 霧雨 魔理沙 arm "cheating" youno 藤咲かりん 東方永雀峰 Eijanhou Eternal Sparrow Peak fluxie31 flux3on fluxies len fast xidorn sstari perchance stz stzur
BeatmapID:4367569
BeatmapSetID:2068755

[Difficulty]
HPDrainRate:5
CircleSize:4
OverallDifficulty:5
ApproachRate:8
SliderMultiplier:1.4
SliderTickRate:1

[Events]
//Background and Video events
0,0,"bg.jpg",0,0
Video,840,"video.avi"
//Break Periods
2,35076,38767
2,187546,189120
2,190370,191943
//Storyboard Layer 0 (Background)
//Storyboard Layer 1 (Fail)
//Storyboard Layer 2 (Pass)
//Storyboard Layer 3 (Foreground)
//Storyboard Layer 4 (Overlay)
//Storyboard Sound Samples

[TimingPoints]
994,352.941176470588,4,1,1,70,1,0
10876,-100,4,2,1,55,0,0
12288,-100,4,1,1,60,0,0
23582,-100,4,1,1,65,0,0
34964,-100,4,1,1,60,0,0
40523,-83.3333333333333,4,1,1,60,0,0
46170,-100,4,1,1,65,0,0
68758,-100,4,1,1,60,0,0
91346,-90.9090909090909,4,1,1,70,0,0
111111,-100,4,1,1,70,0,0
114288,-100,4,1,1,65,0,0
114641,-100,4,1,1,60,0,0
114993,-100,4,1,1,55,0,0
116758,-83.3333333333333,4,1,1,65,0,1
139346,-111.111111111111,4,1,1,60,0,0
149229,-100,4,1,1,60,0,0
160523,-100,4,1,1,55,0,0
161052,-100,4,1,1,60,0,0
161935,-90.9090909090909,4,1,1,70,0,0
181699,-100,4,1,1,70,0,0
184876,-100,4,1,1,65,0,0
185229,-100,4,1,1,60,0,0
185582,-100,4,1,1,55,0,0
187346,-100,4,1,1,60,0,0
198641,-100,4,1,1,65,0,0
204288,-100,4,1,1,70,0,0
209935,-100,4,1,2,70,0,0

[Colours]
Combo1 : 237,221,156
Combo2 : 167,254,198
Combo3 : 153,162,240
Combo4 : 224,116,116

[HitObjects]
64,80,993,5,6,0:0:0:0:
64,304,2405,1,6,0:0:0:0:
448,304,3817,1,6,0:0:0:0:
448,80,4523,1,6,0:0:0:0:
224,80,5229,1,6,0:0:0:0:
256,224,5582,1,6,0:0:0:0:
288,368,5935,2,0,L|344:351,3,35,6|2|2|2,0:0|0:0|0:0|0:0,0:0:0:0:
341,349,6288,1,6,0:0:0:0:
407,302,6464,1,2,0:0:0:0:
394,223,6641,6,0,L|418:132,1,70,6|0,0:0|0:0,0:0:0:0:
321,170,6993,2,0,L|345:79,1,70
275,38,7346,6,0,P|240:58|187:62,3,70
120,47,8052,6,0,L|144:138,1,70,6|0,0:0|0:0,0:0:0:0:
47,100,8404,2,0,L|71:191,1,70
7,231,8758,6,0,P|40:243|71:259,3,70
129,318,9464,6,0,L|171:298,3,35,6|0|0|0,0:0|0:0|0:0|0:0,0:0:0:0:
195,322,9817,2,0,L|237:302,3,35
258,294,10170,2,0,P|276:255|290:211,1,70,2|0,0:0|0:0,0:0:0:0:
365,267,10523,2,0,P|347:306|333:350,1,70
88,130,12288,6,0,P|57:95|11:78,2,70,4|0|8,0:0|0:0|0:0,0:0:0:0:
171,130,12817,2,0,P|161:84|130:46,2,70
241,170,13346,2,0,P|255:137|256:103,2,70,8|0|0,0:0|0:0|0:0,0:0:0:0:
281,241,13876,2,0,P|308:219|327:190,2,70,0|8|0,0:0|0:0|0:0,0:0:0:0:
263,318,14405,2,0,P|285:321|315:309,2,35
195,362,14758,1,8,0:0:0:0:
456,360,15111,6,0,P|487:333|507:297,2,70,0|0|8,0:0|0:0|0:0,0:0:0:0:
422,288,15641,2,0,P|435:249|434:207,2,70
356,242,16170,2,0,P|348:201|326:166,2,70,8|0|0,0:0|0:0|0:0,0:0:0:0:
275,235,16699,2,0,P|247:203|211:184,2,70,0|8|0,0:0|0:0|0:0,0:0:0:0:
255,316,17229,1,0,0:0:0:0:
255,316,17317,1,0,0:0:0:0:
255,316,17405,1,0,0:0:0:0:
194,370,17582,2,0,P|148:340|113:298,1,105,8|0,0:0|0:0,0:0:0:0:
93,296,17935,6,0,L|12:309,2,70,0|0|8,0:0|0:0|0:0,0:0:0:0:
108,210,18464,2,0,L|27:223,2,70
189,164,18994,2,0,L|270:177,2,70,8|0|0,0:0|0:0|0:0,0:0:0:0:
174,78,19523,2,0,L|255:91,2,70,0|8|0,0:0|0:0|0:0,0:0:0:0:
103,35,20052,2,0,L|109:-5,2,35
34,93,20405,1,8,0:0:0:0:
23,269,20758,6,0,L|111:257,1,70
170,250,21111,2,0,L|258:238,1,70,8|0,0:0|0:0,0:0:0:0:
319,229,21464,1,0,0:0:0:0:
400,218,21640,1,0,0:0:0:0:
389,136,21817,1,8,0:0:0:0:
389,136,21905,1,0,0:0:0:0:
389,136,21993,1,0,0:0:0:0:
472,125,22170,6,0,L|464:64,2,35
481,207,22523,2,0,L|488:264,2,35,8|0|0,0:0|0:0|0:0,0:0:0:0:
400,218,22876,6,0,L|408:287,3,70,0|0|8|0,0:0|0:0|0:0|0:0,0:0:0:0:
333,341,23582,5,4,0:0:0:0:
333,341,23758,2,0,P|284:322|268:290,1,70,0|8,0:0|0:0,0:0:0:0:
212,352,24112,1,0,0:0:0:0:
212,352,24288,2,0,P|190:303|202:269,1,70
118,274,24641,1,8,0:0:0:0:
118,274,24817,2,0,P|137:224|169:208,1,70
106,152,25170,1,0,0:0:0:0:
106,152,25346,2,0,P|154:130|188:142,1,70,8|0,0:0|0:0,0:0:0:0:
251,151,25699,1,0,0:0:0:0:
287,74,25876,1,0,0:0:0:0:
236,7,26052,1,8,0:0:0:0:
14,80,26405,6,0,L|0:3,2,70,0|0|8,0:0|0:0|0:0,0:0:0:0:
89,130,26935,2,0,L|102:52,2,70
142,202,27464,2,0,L|180:134,2,70,8|0|0,0:0|0:0|0:0,0:0:0:0:
167,287,27993,2,0,L|226:236,2,70,0|8|0,0:0|0:0|0:0,0:0:0:0:
116,351,28523,1,0,0:0:0:0:
116,351,28699,1,0,0:0:0:0:
116,351,28876,1,8,0:0:0:0:
363,362,29229,5,0,0:0:0:0:
363,362,29405,2,0,L|442:346,1,70,0|8,0:0|0:0,0:0:0:0:
440,267,29758,1,0,0:0:0:0:
440,267,29934,2,0,L|372:281,1,70
381,200,30288,1,8,0:0:0:0:
381,200,30464,2,0,L|460:184,1,70
458,105,30817,1,0,0:0:0:0:
458,105,30993,2,0,L|390:119,1,70,8|0,0:0|0:0,0:0:0:0:
388,38,31346,5,0,0:0:0:0:
309,52,31523,1,0,0:0:0:0:
233,24,31699,1,8,0:0:0:0:
256,192,32052,12,4,34876,0:0:0:0:
82,112,39817,6,0,L|106:203,1,70
80,260,40170,1,0,0:0:0:0:
80,260,40346,1,0,0:0:0:0:
165,320,40523,6,0,B|226:266|226:266|317:296,1,167.999994873047,4|0,0:0|0:0,0:0:0:0:
372,355,41052,2,0,B|394:286|394:286|381:252|381:252|401:176,1,167.999994873047,4|0,0:0|0:0,0:0:0:0:
403,14,41758,1,4,0:0:0:0:
331,65,41935,6,0,B|211:76|211:76|265:126,1,167.999994873047,4|0,0:0|0:0,0:0:0:0:
153,129,42464,2,0,B|187:161|187:161|67:172,1,167.999994873047,4|0,0:0|0:0,0:0:0:0:
0,224,42993,1,4,0:0:0:0:
69,267,43170,1,4,0:0:0:0:
5,319,43346,6,0,B|73:312|73:312|93:332|93:332|186:323,1,167.999994873047,4|0,0:0|0:0,0:0:0:0:
230,372,43876,2,0,B|298:379|298:379|318:359|318:359|411:368,1,167.999994873047,4|0,0:0|0:0,0:0:0:0:
217,199,44582,1,4,0:0:0:0:
140,187,44758,6,0,L|129:144,4,41.9999987182618,4|0|0|0|0,0:0|0:0|0:0|0:0|0:0,0:0:0:0:
77,237,45288,2,0,L|87:277,4,41.9999987182618,4|0|0|0|0,0:0|0:0|0:0|0:0|0:0,0:0:0:0:
10,202,45817,2,0,L|0:161,3,41.9999987182618,4|0|0|0,0:0|0:0|0:0|0:0,0:0:0:0:
5,130,46170,6,0,P|51:88|64:52,15,70,0|0|8|0|0|0|8|0|0|0|8|0|0|0|8|0,0:0|0:0|0:0|0:0|0:0|0:0|0:0|0:0|0:0|0:0|0:0|0:0|0:0|0:0|0:0|0:0,0:0:0:0:
99,0,48993,2,0,P|141:46|177:59,11,70,0|0|8|0|0|0|8|0|0|0|8|0,0:0|0:0|0:0|0:0|0:0|0:0|0:0|0:0|0:0|0:0|0:0|0:0,0:0:0:0:
209,109,51111,5,0,0:0:0:0:
282,58,51288,1,0,0:0:0:0:
282,58,51376,1,0,0:0:0:0:
282,58,51464,1,8,0:0:0:0:
333,131,51641,1,0,0:0:0:0:
402,69,51817,6,0,L|480:85,15,70,0|0|8|0|0|0|8|0|0|0|8|0|0|0|8|0,0:0|0:0|0:0|0:0|0:0|0:0|0:0|0:0|0:0|0:0|0:0|0:0|0:0|0:0|0:0|0:0,0:0:0:0:
512,155,54641,2,0,P|476:185|462:228,7,70,0|0|8|0|0|0|8|0,0:0|0:0|0:0|0:0|0:0|0:0|0:0|0:0,0:0:0:0:
389,246,56052,2,0,L|355:254,3,35,0|0|0|0,0:0|0:0|0:0|0:0,0:0:0:0:
348,270,56405,2,0,L|359:312,2,35,8|0|0,0:0|0:0|0:0,0:0:0:0:
262,212,56758,5,0,0:0:0:0:
262,212,56846,1,0,0:0:0:0:
262,212,56935,1,0,0:0:0:0:
202,273,57111,1,8,0:0:0:0:
116,273,57288,1,0,0:0:0:0:
57,333,57464,6,0,P|15:328|0:289,15,70,4|0|8|0|0|0|8|0|0|0|8|0|0|0|8|0,0:0|0:0|0:0|0:0|0:0|0:0|0:0|0:0|0:0|0:0|0:0|0:0|0:0|0:0|0:0|0:0,0:0:0:0:
34,231,60288,2,0,P|76:236|91:275,7,70,0|0|8|0|0|0|8|0,0:0|0:0|0:0|0:0|0:0|0:0|0:0|0:0,0:0:0:0:
57,333,61699,2,0,P|15:328|0:289,7,70,0|0|8|0|0|0|8|0,0:0|0:0|0:0|0:0|0:0|0:0|0:0|0:0,0:0:0:0:
34,231,63111,6,0,L|17:139,7,70,0|0|8|0|0|0|8|0,0:0|0:0|0:0|0:0|0:0|0:0|0:0|0:0,0:0:0:0:
99,138,64523,2,0,L|116:46,7,70,0|0|8|0|0|0|8|0,0:0|0:0|0:0|0:0|0:0|0:0|0:0|0:0,0:0:0:0:
191,72,65935,6,0,L|238:-8,1,70
291,73,66288,2,0,L|243:153,1,70,8|0,0:0|0:0,0:0:0:0:
208,202,66641,1,0,0:0:0:0:
208,202,66817,1,0,0:0:0:0:
281,244,66993,1,8,0:0:0:0:
281,244,67170,1,0,0:0:0:0:
235,312,67346,6,0,L|229:350,3,35
243,366,67699,2,0,L|281:372,3,35,8|0|0|0,0:0|0:0|0:0|0:0,0:0:0:0:
294,368,68052,2,0,L|332:374,3,35
353,365,68405,1,8,0:0:0:0:
408,296,68582,5,0,0:0:0:0:
408,296,68670,1,0,0:0:0:0:
408,296,68758,2,0,L|408:136,1,140,4|8,0:0|0:0,0:0:0:0:
296,48,69464,1,0,0:0:0:0:
184,48,69729,1,0,0:0:0:0:
80,56,69993,5,0,0:0:0:0:
80,56,70082,1,0,0:0:0:0:
80,56,70170,2,0,L|80:208,1,140,0|8,0:0|0:0,0:0:0:0:
32,344,70876,2,0,L|172:344,1,140,0|8,0:0|0:0,0:0:0:0:
336,352,71582,5,0,0:0:0:0:
430,213,71935,1,10,0:0:0:0:
356,62,72288,1,2,0:0:0:0:
356,62,72464,1,2,0:0:0:0:
188,50,72817,1,2,0:0:0:0:
93,189,73170,1,2,0:0:0:0:
93,189,73346,1,10,0:0:0:0:
165,340,73699,1,2,0:0:0:0:
256,192,74052,5,8,0:0:0:0:
256,112,74229,1,0,0:0:0:0:
256,32,74405,2,0,L|400:32,1,140,0|8,0:0|0:0,0:0:0:0:
400,184,75111,5,0,0:0:0:0:
248,184,75464,1,8,0:0:0:0:
96,184,75817,2,0,L|96:352,1,140,0|8,0:0|0:0,0:0:0:0:
20,324,76346,2,0,L|20:132,1,175
20,136,76876,1,8,0:0:0:0:
140,40,77229,6,0,L|284:40,1,140,0|8,0:0|0:0,0:0:0:0:
276,116,77758,2,0,L|136:116,1,140
60,116,78288,1,8,0:0:0:0:
132,252,78641,2,0,L|196:252,3,35
204,252,78993,2,0,L|268:252,3,35,8|0|0|0,0:0|0:0|0:0|0:0,0:0:0:0:
276,252,79346,5,0,0:0:0:0:
276,140,79611,1,0,0:0:0:0:
276,28,79876,1,0,0:0:0:0:
200,28,80052,2,0,L|48:28,1,140,0|8,0:0|0:0,0:0:0:0:
16,176,80758,1,0,0:0:0:0:
132,176,81023,1,0,0:0:0:0:
256,184,81288,1,0,0:0:0:0:
256,184,81376,1,0,0:0:0:0:
256,184,81464,6,0,L|396:184,1,140,0|8,0:0|0:0,0:0:0:0:
324,320,82170,2,0,L|184:320,1,140,0|8,0:0|0:0,0:0:0:0:
32,192,82876,5,0,0:0:0:0:
192,192,83229,1,10,0:0:0:0:
352,192,83582,1,2,0:0:0:0:
352,192,83758,1,2,0:0:0:0:
512,192,84111,1,2,0:0:0:0:
512,352,84464,5,0,0:0:0:0:
432,352,84641,1,8,0:0:0:0:
272,352,84993,5,0,0:0:0:0:
160,352,85258,1,0,0:0:0:0:
48,352,85523,2,0,L|48:128,1,210,0|8,0:0|0:0,0:0:0:0:
48,64,86229,2,0,L|264:80,1,210,0|8,0:0|0:0,0:0:0:0:
400,24,87111,6,0,L|400:248,2,210,0|0|8,0:0|0:0|0:0,0:0:0:0:
488,288,88523,2,0,L|488:148,1,140,0|8,0:0|0:0,0:0:0:0:
432,340,89052,2,0,L|216:340,1,210,0|8,0:0|0:0,0:0:0:0:
257,200,89935,6,0,P|254:184|242:166,3,35
222,143,90288,2,0,P|225:127|237:109,3,35,8|0|0|0,0:0|0:0|0:0|0:0,0:0:0:0:
245,79,90641,2,0,L|305:77,3,35
302,46,90993,2,0,L|362:44,3,35,8|0|0|0,0:0|0:0|0:0|0:0,0:0:0:0:
368,30,91346,6,0,P|417:23|462:6,1,77.0000023498536,4|0,0:0|0:0,0:0:0:0:
487,100,91699,2,0,P|438:107|393:124,1,77.0000023498536,8|0,0:0|0:0,0:0:0:0:
342,152,92052,1,0,0:0:0:0:
412,194,92229,2,0,P|420:245|421:354,1,154.000004699707
334,384,92758,5,0,0:0:0:0:
272,335,92935,1,0,0:0:0:0:
272,335,93023,1,0,0:0:0:0:
272,335,93111,2,0,L|283:285,2,38.5000011749268,10|0|0,0:0|0:0|0:0,0:0:0:0:
189,368,93464,1,2,0:0:0:0:
189,368,93552,1,0,0:0:0:0:
109,323,93729,1,0,0:0:0:0:
109,323,93817,2,0,P|69:338|18:348,1,77.0000023498536,10|0,0:0|0:0,0:0:0:0:
7,264,94170,6,0,P|14:217|15:173,1,77.0000023498536
0,100,94523,2,0,P|47:107|91:108,1,77.0000023498536,8|0,0:0|0:0,0:0:0:0:
152,146,94876,2,0,P|173:95|210:27,2,115.50000352478
164,254,95582,5,0,0:0:0:0:
164,254,95670,1,0,0:0:0:0:
164,254,95758,1,0,0:0:0:0:
236,307,95935,2,0,L|218:364,3,38.5000011749268,10|0|0|0,0:0|0:0|0:0|0:0,0:0:0:0:
228,365,96288,2,0,L|285:383,3,38.5000011749268,2|0|2|0,0:0|0:0|0:0|0:0,0:0:0:0:
299,373,96641,2,0,L|356:391,3,38.5000011749268,8|0|0|0,0:0|0:0|0:0|0:0,0:0:0:0:
370,371,96993,6,0,P|421:353|469:346,1,77.0000023498536
497,283,97346,2,0,P|459:274|423:260,1,77.0000023498536,8|0,0:0|0:0,0:0:0:0:
345,279,97699,2,0,L|342:178,1,77.0000023498536
332,194,97964,2,0,L|335:93,1,77.0000023498536
335,96,98229,6,0,P|410:78|507:50,2,154.000004699707
277,38,99111,2,0,P|234:49|190:50,1,77.0000023498536
111,25,99464,2,0,P|122:68|123:112,1,77.0000023498536,8|0,0:0|0:0,0:0:0:0:
200,160,99817,6,0,P|139:178|95:279,2,154.000004699707,0|8|0,0:0|0:0|0:0,0:0:0:0:
277,110,100699,2,0,L|286:196,1,77.0000023498536,0|8,0:0|0:0,0:0:0:0:
263,264,101052,1,0,0:0:0:0:
334,338,101229,5,0,0:0:0:0:
334,338,101317,1,0,0:0:0:0:
334,338,101405,1,0,0:0:0:0:
334,338,101493,1,0,0:0:0:0:
334,338,101582,2,0,L|395:312,3,38.5000011749268,10|0|0|0,0:0|0:0|0:0|0:0,0:0:0:0:
397,329,101935,2,0,L|458:303,3,38.5000011749268,2|0|2|0,0:0|0:0|0:0|0:0,0:0:0:0:
449,280,102288,2,0,L|510:254,3,38.5000011749268,8|0|0|0,0:0|0:0|0:0|0:0,0:0:0:0:
486,233,102641,6,0,P|499:185|521:150,1,77.0000023498536,4|0,0:0|0:0,0:0:0:0:
408,181,102993,2,0,P|425:146|434:109,1,77.0000023498536,8|0,0:0|0:0,0:0:0:0:
423,34,103346,2,0,P|471:23|533:-8,2,115.50000352478
327,18,104052,5,0,0:0:0:0:
269,67,104229,1,0,0:0:0:0:
269,67,104317,1,0,0:0:0:0:
269,67,104405,2,0,L|276:112,2,38.5000011749268,10|0|0,0:0|0:0|0:0,0:0:0:0:
186,33,104758,1,2,0:0:0:0:
186,33,104846,1,0,0:0:0:0:
114,81,105023,1,0,0:0:0:0:
114,81,105111,2,0,P|94:130|93:167,1,77.0000023498536,10|0,0:0|0:0,0:0:0:0:
67,254,105464,6,0,P|138:228|173:225,1,77.0000023498536
203,287,105817,2,0,P|240:277|274:260,1,77.0000023498536,8|0,0:0|0:0,0:0:0:0:
362,255,106170,2,0,P|352:217|335:183,1,77.0000023498536
319,179,106435,2,0,P|309:141|292:107,1,77.0000023498536
281,91,106699,1,0,0:0:0:0:
352,23,106876,5,0,0:0:0:0:
352,23,106964,1,0,0:0:0:0:
352,23,107052,1,0,0:0:0:0:
431,57,107229,2,0,L|471:49,3,38.5000011749268,10|0|0|0,0:0|0:0|0:0|0:0,0:0:0:0:
489,60,107582,2,0,L|497:100,3,38.5000011749268,2|0|2|0,0:0|0:0|0:0|0:0,0:0:0:0:
488,117,107935,2,0,L|480:157,3,38.5000011749268,8|0|0|0,0:0|0:0|0:0|0:0,0:0:0:0:
461,170,108288,6,0,P|432:221|424:259,1,77.0000023498536
428,331,108641,2,0,P|377:302|339:294,1,77.0000023498536,8|0,0:0|0:0,0:0:0:0:
271,277,108993,1,0,0:0:0:0:
223,345,109170,2,0,P|172:374|134:382,1,77.0000023498536,0|8,0:0|0:0,0:0:0:0:
82,328,109523,6,0,P|46:262|-22:182,2,154.000004699707
154,378,110405,2,0,P|190:366|223:345,1,77.0000023498536
313,341,110758,2,0,P|300:304|279:272,1,77.0000023498536,8|0,0:0|0:0,0:0:0:0:
260,188,111111,6,0,L|52:68,1,210
21,12,111817,2,0,L|37:164,1,140,0|8,0:0|0:0,0:0:0:0:
107,196,112346,1,0,0:0:0:0:
40,244,112523,2,0,L|40:392,1,140,0|8,0:0|0:0,0:0:0:0:
128,384,113052,2,0,L|210:351,1,70
296,312,113493,1,0,0:0:0:0:
412,260,113758,1,0,0:0:0:0:
364,192,113935,5,0,0:0:0:0:
398,116,114111,1,0,0:0:0:0:
246,144,114464,1,0,0:0:0:0:
274,296,114817,1,0,0:0:0:0:
426,268,115170,1,0,0:0:0:0:
240,159,115523,6,0,L|247:115,2,35,0|0|8,0:0|0:0|0:0,0:0:0:0:
180,211,115876,2,0,L|187:255,2,35
128,146,116229,1,0,0:0:0:0:
128,146,116317,1,0,0:0:0:0:
128,146,116405,2,0,L|44:163,1,70,8|0,0:0|0:0,0:0:0:0:
3,226,116758,6,0,P|-2:267|6:308,5,83.9999974365235,4|0|8|0|0|0,0:0|0:0|0:0|0:0|0:0|0:0,0:0:0:0:
73,361,117817,2,0,L|157:344,1,83.9999974365235,10|0,0:0|0:0,0:0:0:0:
237,309,118170,6,0,P|242:267|233:226,5,83.9999974365235,0|0|8|0|0|0,0:0|0:0|0:0|0:0|0:0|0:0,0:0:0:0:
264,155,119229,2,0,L|348:172,1,83.9999974365235,10|0,0:0|0:0,0:0:0:0:
427,164,119582,6,0,P|432:122|423:81,5,83.9999974365235,0|0|8|0|0|0,0:0|0:0|0:0|0:0|0:0|0:0,0:0:0:0:
368,28,120641,2,0,L|285:11,1,83.9999974365235,10|0,0:0|0:0,0:0:0:0:
217,62,120993,6,0,P|176:71|134:65,3,83.9999974365235,0|0|8|0,0:0|0:0|0:0|0:0,0:0:0:0:
69,120,121699,1,0,0:0:0:0:
69,120,121788,1,0,0:0:0:0:
69,120,121876,1,0,0:0:0:0:
69,120,121964,1,0,0:0:0:0:
69,120,122052,2,0,L|85:202,1,83.9999974365235,10|0,0:0|0:0,0:0:0:0:
43,270,122405,6,0,B|74:292|74:292|146:268,5,83.9999974365235,0|0|8|0|0|0,0:0|0:0|0:0|0:0|0:0|0:0,0:0:0:0:
189,205,123464,1,10,0:0:0:0:
279,232,123641,1,0,0:0:0:0:
369,259,123817,6,0,B|391:228|391:228|367:156,2,83.9999974365235,0|0|8,0:0|0:0|0:0,0:0:0:0:
303,317,124346,1,0,0:0:0:0:
387,350,124523,2,0,B|430:364|430:364|461:342,1,83.9999974365235
487,267,124876,2,0,L|504:183,1,83.9999974365235,10|0,0:0|0:0,0:0:0:0:
492,98,125229,5,0,0:0:0:0:
492,98,125317,1,0,0:0:0:0:
492,98,125405,1,0,0:0:0:0:
492,98,125493,1,0,0:0:0:0:
492,98,125582,2,0,B|449:84|449:84|418:106,3,83.9999974365235,10|0|0|0,0:0|0:0|0:0|0:0,0:0:0:0:
345,45,126288,2,0,L|328:127,1,83.9999974365235,10|0,0:0|0:0,0:0:0:0:
254,176,126641,6,0,B|244:195|244:195|260:231,4,41.9999987182618,0|0|0|0|10,0:0|0:0|0:0|0:0|0:0,0:0:0:0:
188,125,127170,1,0,0:0:0:0:
188,125,127258,1,0,0:0:0:0:
188,125,127346,2,0,B|198:106|198:106|182:70,3,41.9999987182618,2|2|2|2,0:0|0:0|0:0|0:0,0:0:0:0:
178,62,127699,2,0,B|135:48|135:48|104:70,1,83.9999974365235,10|0,0:0|0:0,0:0:0:0:
14,104,128052,6,0,P|45:130|53:170,5,83.9999974365235,4|0|8|0|0|0,0:0|0:0|0:0|0:0|0:0|0:0,0:0:0:0:
16,260,129111,2,0,L|98:243,1,83.9999974365235,10|0,0:0|0:0,0:0:0:0:
145,172,129464,6,0,P|176:198|184:238,1,83.9999974365235
248,289,129817,2,0,P|274:257|314:249,3,83.9999974365235,8|0|0|0,0:0|0:0|0:0|0:0,0:0:0:0:
406,275,130523,2,0,L|389:192,1,83.9999974365235,10|0,0:0|0:0,0:0:0:0:
405,111,130876,6,0,P|364:103|338:71,1,83.9999974365235
276,16,131229,1,8,0:0:0:0:
248,92,131405,1,0,0:0:0:0:
169,70,131582,2,0,P|128:77|102:109,1,83.9999974365235
53,176,131935,2,0,L|69:258,1,83.9999974365235,10|0,0:0|0:0,0:0:0:0:
0,305,132288,6,0,P|26:336|67:343,3,83.9999974365235,0|0|8|0,0:0|0:0|0:0|0:0,0:0:0:0:
156,382,132993,1,0,0:0:0:0:
156,382,133082,1,0,0:0:0:0:
156,382,133170,1,0,0:0:0:0:
156,382,133258,1,0,0:0:0:0:
156,382,133346,2,0,L|172:299,1,83.9999974365235,10|0,0:0|0:0,0:0:0:0:
152,217,133699,6,0,P|190:200|233:176,5,83.9999974365235,0|0|8|0|0|0,0:0|0:0|0:0|0:0|0:0|0:0,0:0:0:0:
296,122,134758,2,0,L|318:224,1,83.9999974365235,10|0,0:0|0:0,0:0:0:0:
319,286,135111,6,0,P|360:294|403:314,3,83.9999974365235,0|0|8|0,0:0|0:0|0:0|0:0,0:0:0:0:
472,350,135817,2,0,P|480:308|497:270,1,83.9999974365235
459,205,136170,2,0,L|441:122,1,83.9999974365235,10|0,0:0|0:0,0:0:0:0:
399,36,136523,6,0,L|301:61,1,83.9999974365235
285,130,136876,2,0,L|187:105,1,83.9999974365235,8|0,0:0|0:0,0:0:0:0:
145,54,137229,1,0,0:0:0:0:
145,54,137405,1,0,0:0:0:0:
89,113,137582,1,8,0:0:0:0:
89,113,137758,1,0,0:0:0:0:
146,166,137935,6,0,L|137:226,3,41.9999987182618
121,222,138288,2,0,L|112:282,3,41.9999987182618,8|0|0|0,0:0|0:0|0:0|0:0,0:0:0:0:
83,290,138641,1,0,0:0:0:0:
83,290,138729,1,0,0:0:0:0:
83,290,138817,1,0,0:0:0:0:
83,290,138905,1,0,0:0:0:0:
83,290,138993,1,8,0:0:0:0:
160,352,139170,5,0,0:0:0:0:
160,352,139258,1,0,0:0:0:0:
160,352,139346,2,0,L|288:352,1,125.999996154785,4|8,0:0|0:0,0:0:0:0:
416,296,140052,1,0,0:0:0:0:
416,192,140317,1,0,0:0:0:0:
416,88,140582,1,0,0:0:0:0:
416,88,140670,1,0,0:0:0:0:
416,88,140758,2,0,L|288:88,1,125.999996154785,0|8,0:0|0:0,0:0:0:0:
152,88,141464,2,0,L|24:88,1,125.999996154785,0|8,0:0|0:0,0:0:0:0:
64,232,142170,5,0,0:0:0:0:
152,344,142523,1,10,0:0:0:0:
256,256,142876,1,2,0:0:0:0:
256,256,143052,1,2,0:0:0:0:
360,344,143405,1,2,0:0:0:0:
448,232,143758,1,2,0:0:0:0:
448,232,143935,1,10,0:0:0:0:
256,192,144288,5,2,0:0:0:0:
256,56,144641,1,8,0:0:0:0:
184,56,144817,1,0,0:0:0:0:
112,56,144993,2,0,L|112:184,1,125.999996154785,0|8,0:0|0:0,0:0:0:0:
48,304,145699,1,0,0:0:0:0:
176,304,146052,1,8,0:0:0:0:
112,182,146405,2,0,L|112:56,1,125.999996154785,0|8,0:0|0:0,0:0:0:0:
192,32,146935,2,0,L|192:198,1,157.499995193482
192,200,147464,1,8,0:0:0:0:
296,104,147817,6,0,L|440:104,1,125.999996154785,4|8,0:0|0:0,0:0:0:0:
424,184,148346,2,0,L|298:184,1,125.999996154785
224,184,148876,1,8,0:0:0:0:
288,328,149229,6,0,L|336:328,3,35
360,328,149582,2,0,L|408:328,3,35,8|0|0|0,0:0|0:0|0:0|0:0,0:0:0:0:
432,328,149935,5,0,0:0:0:0:
432,216,150199,1,0,0:0:0:0:
432,104,150464,1,0,0:0:0:0:
352,104,150641,6,0,L|200:104,1,140,4|8,0:0|0:0,0:0:0:0:
112,224,151346,1,0,0:0:0:0:
224,224,151611,1,0,0:0:0:0:
336,224,151876,1,0,0:0:0:0:
336,224,151964,1,0,0:0:0:0:
336,224,152052,2,0,L|480:224,1,140,0|8,0:0|0:0,0:0:0:0:
464,304,152758,2,0,L|324:304,1,140,0|8,0:0|0:0,0:0:0:0:
488,192,153464,5,0,0:0:0:0:
336,192,153817,1,10,0:0:0:0:
184,192,154170,1,2,0:0:0:0:
184,192,154346,1,2,0:0:0:0:
32,192,154699,1,2,0:0:0:0:
24,344,155052,5,0,0:0:0:0:
104,344,155229,1,8,0:0:0:0:
256,344,155582,5,0,0:0:0:0:
371,347,155846,1,0,0:0:0:0:
488,352,156111,2,0,L|488:128,1,210,0|8,0:0|0:0,0:0:0:0:
488,64,156817,2,0,L|272:88,1,210,0|8,0:0|0:0,0:0:0:0:
128,56,157699,6,0,L|128:272,2,210,0|0|8,0:0|0:0|0:0,0:0:0:0:
24,308,159111,2,0,L|24:168,1,140,0|8,0:0|0:0,0:0:0:0:
88,352,159641,2,0,L|312:352,1,210,0|8,0:0|0:0,0:0:0:0:
256,192,160523,5,4,0:0:0:0:
140,131,161052,5,0,0:0:0:0:
140,131,161141,1,0,0:0:0:0:
140,131,161229,2,0,L|122:77,3,35
112,73,161582,2,0,L|58:91,3,35
50,94,161935,6,0,P|8:93|-29:83,1,77.0000023498536,4|0,0:0|0:0,0:0:0:0:
0,181,162288,2,0,P|42:182|79:192,1,77.0000023498536,8|0,0:0|0:0,0:0:0:0:
162,163,162641,2,0,P|152:200|152:238,1,77.0000023498536
176,256,162905,2,0,P|166:293|166:331,1,77.0000023498536
180,344,163170,1,0,0:0:0:0:
280,310,163346,5,0,0:0:0:0:
362,347,163523,1,0,0:0:0:0:
362,347,163611,1,0,0:0:0:0:
362,347,163699,2,0,L|346:403,2,38.5000011749268,10|0|0,0:0|0:0|0:0,0:0:0:0:
448,341,164052,1,2,0:0:0:0:
448,341,164141,1,0,0:0:0:0:
447,341,164229,2,0,P|462:306|462:267,1,77.0000023498536,2|0,0:0|0:0,0:0:0:0:
465,186,164582,5,0,0:0:0:0:
512,121,164758,2,0,P|503:81|503:38,1,77.0000023498536
415,11,165111,2,0,P|424:51|424:94,1,77.0000023498536,8|0,0:0|0:0,0:0:0:0:
348,114,165464,2,0,P|269:76|225:63,2,115.50000352478
370,199,166170,5,0,0:0:0:0:
370,199,166258,1,0,0:0:0:0:
370,199,166346,1,0,0:0:0:0:
310,254,166523,2,0,L|265:260,3,38.5000011749268,10|0|0|0,0:0|0:0|0:0|0:0,0:0:0:0:
262,278,166876,2,0,L|217:284,3,38.5000011749268,2|0|2|0,0:0|0:0|0:0|0:0,0:0:0:0:
208,297,167229,2,0,L|163:303,3,38.5000011749268,8|0|0|0,0:0|0:0|0:0|0:0,0:0:0:0:
144,300,167582,6,0,P|121:339|106:380,1,77.0000023498536
42,302,167935,2,0,P|65:263|80:222,1,77.0000023498536,8|0,0:0|0:0,0:0:0:0:
56,157,168288,1,0,0:0:0:0:
117,108,168464,2,0,P|156:131|197:146,1,77.0000023498536,0|8,0:0|0:0,0:0:0:0:
267,119,168817,6,0,P|295:69|388:44,2,154.000004699707
330,180,169699,2,0,P|341:217|350:266,1,77.0000023498536
384,329,170052,2,0,P|420:318|458:310,1,77.0000023498536,8|0,0:0|0:0,0:0:0:0:
481,229,170405,6,0,P|494:168|532:60,2,154.000004699707,0|8|0,0:0|0:0|0:0,0:0:0:0:
400,234,171288,2,0,P|362:241|325:252,1,77.0000023498536,0|8,0:0|0:0,0:0:0:0:
260,294,171641,1,0,0:0:0:0:
187,270,171817,5,0,0:0:0:0:
187,270,171905,1,0,0:0:0:0:
187,270,171993,1,0,0:0:0:0:
187,270,172082,1,0,0:0:0:0:
187,270,172170,2,0,L|131:284,3,38.5000011749268,10|0|0|0,0:0|0:0|0:0|0:0,0:0:0:0:
138,298,172523,2,0,L|82:312,3,38.5000011749268,2|0|2|0,0:0|0:0|0:0|0:0,0:0:0:0:
85,306,172876,2,0,L|71:250,3,38.5000011749268,8|0|0|0,0:0|0:0|0:0|0:0,0:0:0:0:
64,254,173229,6,0,P|78:204|80:168,1,77.0000023498536,4|0,0:0|0:0,0:0:0:0:
164,192,173582,2,0,P|168:153|180:117,1,77.0000023498536,8|0,0:0|0:0,0:0:0:0:
121,63,173935,2,0,P|75:50|16:19,2,115.50000352478
217,20,174641,5,0,0:0:0:0:
285,78,174817,1,0,0:0:0:0:
285,78,174905,1,0,0:0:0:0:
285,78,174993,2,0,L|264:124,2,38.5000011749268,10|0|0,0:0|0:0|0:0,0:0:0:0:
367,68,175346,1,2,0:0:0:0:
367,68,175435,1,0,0:0:0:0:
431,120,175611,1,0,0:0:0:0:
431,120,175699,2,0,P|410:171|403:217,1,77.0000023498536,10|0,0:0|0:0,0:0:0:0:
415,284,176052,6,0,P|377:274|342:258,1,77.0000023498536
309,334,176405,2,0,P|271:343|236:359,1,77.0000023498536,8|0,0:0|0:0,0:0:0:0:
156,337,176758,2,0,P|146:299|130:264,1,77.0000023498536
112,262,177023,2,0,P|102:224|86:189,1,77.0000023498536
62,181,177288,1,0,0:0:0:0:
92,95,177464,5,0,0:0:0:0:
92,95,177552,1,0,0:0:0:0:
92,95,177641,1,0,0:0:0:0:
176,109,177817,2,0,L|218:89,3,38.5000011749268,10|0|0|0,0:0|0:0|0:0|0:0,0:0:0:0:
220,57,178170,2,0,L|262:37,3,38.5000011749268,2|0|2|0,0:0|0:0|0:0|0:0,0:0:0:0:
278,25,178523,2,0,L|298:67,3,38.5000011749268,8|0|0|0,0:0|0:0|0:0|0:0,0:0:0:0:
320,80,178876,6,0,P|366:93|415:104,1,77.0000023498536
417,195,179229,2,0,P|371:182|322:171,1,77.0000023498536,8|0,0:0|0:0,0:0:0:0:
261,199,179582,1,0,0:0:0:0:
288,275,179758,2,0,P|275:321|264:370,1,77.0000023498536,0|8,0:0|0:0,0:0:0:0:
339,384,180111,6,0,P|416:344|496:333,2,154.000004699707
268,349,180993,2,0,P|277:311|288:275,1,77.0000023498536
206,259,181346,2,0,P|195:295|186:333,1,77.0000023498536,8|0,0:0|0:0,0:0:0:0:
252,188,181699,6,0,L|460:68,1,210
488,0,182405,2,0,L|472:152,1,140,0|8,0:0|0:0,0:0:0:0:
404,192,182934,1,0,0:0:0:0:
472,244,183111,2,0,L|472:392,1,140,0|8,0:0|0:0,0:0:0:0:
384,384,183640,2,0,L|302:351,1,70
216,312,184081,1,0,0:0:0:0:
100,260,184346,1,0,0:0:0:0:
148,192,184523,5,0,0:0:0:0:
114,116,184699,1,0,0:0:0:0:
258,130,185052,1,0,0:0:0:0:
244,274,185405,1,0,0:0:0:0:
100,260,185758,1,0,0:0:0:0:
229,114,186111,6,0,L|218:66,2,35,0|0|8,0:0|0:0|0:0,0:0:0:0:
315,107,186464,2,0,L|329:59,2,35
360,184,186817,1,0,0:0:0:0:
360,184,186905,1,0,0:0:0:0:
360,184,186993,2,0,L|396:150,2,35,8|0|0,0:0|0:0|0:0,0:0:0:0:
256,192,187346,5,2,0:0:0:0:
256,192,190170,5,2,0:0:0:0:
256,192,192993,5,2,0:0:0:0:
256,192,194405,5,2,0:0:0:0:
256,192,195817,5,2,0:0:0:0:
256,192,196523,5,2,0:0:0:0:
256,192,197229,5,2,0:0:0:0:
256,192,197935,5,2,0:0:0:0:
512,192,198641,5,2,0:0:0:0:
384,192,198993,1,2,0:0:0:0:
256,192,199346,1,2,0:0:0:0:
128,192,199699,1,2,0:0:0:0:
0,192,200052,5,2,0:0:0:0:
128,192,200405,1,2,0:0:0:0:
256,192,200758,1,2,0:0:0:0:
384,192,201111,1,2,0:0:0:0:
512,192,201463,5,2,0:0:0:0:
512,192,201641,1,2,0:0:0:0:
432,192,201817,2,0,L|344:192,1,70,2|2,0:0|0:0,0:0:0:0:
288,192,202170,1,2,0:0:0:0:
288,192,202346,1,2,0:0:0:0:
208,192,202524,2,0,L|120:192,1,70,2|2,0:0|0:0,0:0:0:0:
56,192,202876,5,2,0:0:0:0:
56,192,203052,1,2,0:0:0:0:
8,272,203229,2,0,L|78:272,1,70,2|2,0:0|0:0,0:0:0:0:
160,272,203582,5,2,0:0:0:0:
160,272,203758,1,2,0:0:0:0:
138,192,203935,2,0,L|208:192,1,70,2|2,0:0|0:0,0:0:0:0:
288,192,204288,6,0,L|328:192,7,35
344,192,204993,2,0,L|384:192,7,35
400,192,205699,2,0,L|440:192,7,35
448,192,206405,2,0,L|488:192,7,35
504,192,207111,6,0,L|528:192,60,17.5
436,142,209935,5,4,0:0:0:0:
