osu file format v14

[General]
AudioFilename: audio.mp3
AudioLeadIn: 0
PreviewTime: 115349
Countdown: 0
SampleSet: Normal
StackLeniency: 0
Mode: 0
LetterboxInBreaks: 0
WidescreenStoryboard: 0

[Editor]
Bookmarks: 988,12283,23577,34871,46165,57459,68753,80047,91341,102644,113938,116761,128055,139349,150644,161938,173232,187341,198644,207114
DistanceSpacing: 0.6
BeatDivisor: 4
GridSize: 4
TimelineZoom: 1.8

[Metadata]
Title:Marisa Tanked My Score With an Incredible Hand
TitleUnicode:魔理沙に大変な役でハコにされました
Artist:IOSYS
ArtistUnicode:IOSYS
Creator:Yauxo
Version:Special
Source:
Tags:ARM 藤咲かりん Parody
BeatmapID:2017787
BeatmapSetID:963766

[Difficulty]
HPDrainRate:4.8
CircleSize:4.2
OverallDifficulty:8.8
ApproachRate:8.3
SliderMultiplier:1.6
SliderTickRate:1

[Events]
//Background and Video events
0,0,"iosys^marisa.png",0,0
//Break Periods
2,35079,44003
2,139549,147100
//Storyboard Layer 0 (Background)
//Storyboard Layer 1 (Fail)
//Storyboard Layer 2 (Pass)
//Storyboard Layer 3 (Foreground)
//Storyboard Layer 4 (Overlay)
//Storyboard Sound Samples

[TimingPoints]
997,352.941176470588,4,1,1,50,1,0
15026,-100,4,1,1,5,0,0
15114,-100,4,1,1,50,0,0
17849,-100,4,1,1,5,0,0
17938,-100,4,1,1,50,0,0
20673,-100,4,1,1,5,0,0
20761,-100,4,1,1,50,0,0
46173,-100,4,1,1,50,0,1
68761,-100,4,1,1,50,0,0
69644,-100,4,1,1,5,0,0
69732,-100,4,1,1,50,0,0
69908,-100,4,1,1,5,0,0
69996,-100,4,1,1,50,0,0
71055,-100,4,1,1,5,0,0
71144,-100,4,1,1,50,0,0
71320,-100,4,1,1,5,0,0
71408,-100,4,1,1,50,0,0
71849,-100,4,1,1,5,0,0
71938,-100,4,1,1,50,0,0
75379,-100,4,1,1,5,0,0
75467,-100,4,1,1,50,0,0
75732,-100,4,1,1,5,0,0
75820,-100,4,1,1,50,0,0
80938,-100,4,1,1,5,0,0
81026,-100,4,1,1,50,0,0
81202,-100,4,1,1,5,0,0
81291,-100,4,1,1,50,0,0
82349,-100,4,1,1,5,0,0
82438,-100,4,1,1,50,0,0
82614,-100,4,1,1,5,0,0
82702,-100,4,1,1,50,0,0
83144,-100,4,1,1,5,0,0
83232,-100,4,1,1,50,0,0
84908,-100,4,1,1,5,0,0
84996,-100,4,1,1,50,0,0
91614,-100,4,1,1,5,0,0
91702,-100,4,1,1,50,0,0
91967,-100,4,1,1,5,0,0
92055,-100,4,1,1,50,0,0
94438,-100,4,1,1,5,0,0
94526,-100,4,1,1,50,0,0
94791,-100,4,1,1,5,0,0
94879,-100,4,1,1,50,0,0
97261,-100,4,1,1,5,0,0
97349,-100,4,1,1,50,0,0
97614,-100,4,1,1,5,0,0
97702,-100,4,1,1,50,0,0
98496,-100,4,1,1,5,0,0
98585,-100,4,1,1,50,0,0
98849,-100,4,1,1,5,0,0
98938,-100,4,1,1,50,0,0
102908,-100,4,1,1,5,0,0
102996,-100,4,1,1,50,0,0
103261,-100,4,1,1,5,0,0
103349,-100,4,1,1,50,0,0
105732,-100,4,1,1,5,0,0
105820,-100,4,1,1,50,0,0
106085,-100,4,1,1,5,0,0
106173,-100,4,1,1,50,0,0
108555,-100,4,1,1,5,0,0
108644,-100,4,1,1,50,0,0
108908,-100,4,1,1,5,0,0
108996,-100,4,1,1,50,0,0
109791,-100,4,1,1,5,0,0
109879,-100,4,1,1,50,0,0
110144,-100,4,1,1,5,0,0
110232,-100,4,1,1,50,0,0
112526,-166.666666666667,4,1,1,50,0,0
113232,-125,4,1,1,50,0,0
113938,-100,4,1,1,50,0,0
113938,-100,4,1,1,50,0,0
116761,-100,4,1,1,50,0,1
126555,-100,4,1,1,5,0,1
126644,-100,4,1,1,50,0,1
139349,-100,4,1,1,50,0,0
151526,-100,4,1,1,5,0,0
151614,-100,4,1,1,50,0,0
151791,-100,4,1,1,5,0,0
151879,-100,4,1,1,50,0,0
152938,-100,4,1,1,5,0,0
153026,-100,4,1,1,50,0,0
153202,-100,4,1,1,5,0,0
153291,-100,4,1,1,50,0,0
153732,-100,4,1,1,5,0,0
153820,-100,4,1,1,50,0,0
154261,-100,4,1,1,5,0,0
154349,-100,4,1,1,50,0,0
155496,-100,4,1,1,5,0,0
155585,-100,4,1,1,50,0,0
162202,-100,4,1,1,5,0,0
162291,-100,4,1,1,50,0,0
162555,-100,4,1,1,5,0,0
162644,-100,4,1,1,50,0,0
165026,-100,4,1,1,5,0,0
165114,-100,4,1,1,50,0,0
165379,-100,4,1,1,5,0,0
165467,-100,4,1,1,50,0,0
167849,-100,4,1,1,5,0,0
167938,-100,4,1,1,50,0,0
168202,-100,4,1,1,5,0,0
168291,-100,4,1,1,50,0,0
169085,-100,4,1,1,5,0,0
169173,-100,4,1,1,50,0,0
169438,-100,4,1,1,5,0,0
169526,-100,4,1,1,50,0,0
173496,-100,4,1,1,5,0,0
173585,-100,4,1,1,50,0,0
173849,-100,4,1,1,5,0,0
173938,-100,4,1,1,50,0,0
176320,-100,4,1,1,5,0,0
176408,-100,4,1,1,50,0,0
176673,-100,4,1,1,5,0,0
176761,-100,4,1,1,50,0,0
179144,-100,4,1,1,5,0,0
179232,-100,4,1,1,50,0,0
179496,-100,4,1,1,5,0,0
179585,-100,4,1,1,50,0,0
180379,-100,4,1,1,5,0,0
180467,-100,4,1,1,50,0,0
180732,-100,4,1,1,5,0,0
180820,-100,4,1,1,50,0,0
183114,-166.666666666667,4,1,1,50,0,0
183820,-125,4,1,1,50,0,0
184526,-100,4,1,1,50,0,0
187349,-166.666666666667,4,1,1,50,0,0
190173,-111.111111111111,4,1,1,50,0,0
192996,-166.666666666667,4,1,1,50,0,0
195820,-250,4,1,1,50,0,0
197232,-142.857142857143,4,1,1,50,0,0
198644,-100,4,1,1,50,0,0
207114,-59.1715976331361,4,1,1,50,0,1
209938,-100,4,1,1,50,0,0
210644,-100,4,1,1,40,0,0
211349,-100,4,1,1,30,0,0
212055,-100,4,1,1,20,0,0
212761,-100,4,1,1,5,0,0

[Colours]
Combo1 : 220,82,82
Combo2 : 218,167,97
Combo3 : 249,254,150

[HitObjects]
292,240,997,5,6,0:2:0:0:
296,244,1085,2,0,L|388:228,1,80,0|0,0:0|0:0,0:0:0:0:
483,195,1349,2,0,L|454:269,1,80,0|0,0:0|0:0,0:0:0:0:
431,381,1614,2,0,L|380:319,1,80,0|0,0:0|0:0,0:0:0:0:
296,244,1879,1,0,0:0:0:0:
340,128,2055,5,2,0:3:0:0:
253,112,2232,1,0,0:0:0:0:
196,196,2408,5,6,0:2:0:0:
200,200,2496,2,0,L|108:216,1,80,0|0,0:0|0:0,0:0:0:0:
13,249,2761,2,0,L|41:175,1,80,0|0,0:0|0:0,0:0:0:0:
65,63,3026,2,0,L|115:125,1,80,0|0,0:0|0:0,0:0:0:0:
200,200,3291,1,0,0:0:0:0:
268,92,3467,5,2,0:3:0:0:
355,76,3644,1,0,0:0:0:0:
420,220,3820,5,6,0:2:0:0:
424,224,3908,2,0,L|408:316,1,80,0|0,0:0|0:0,0:0:0:0:
328,268,4173,2,0,L|312:360,1,80,2|0,0:3|0:0,0:0:0:0:
232,304,4438,1,0,0:0:0:0:
240,312,4526,5,6,0:2:0:0:
208,317,4614,1,0,0:0:0:0:
176,322,4702,1,0,0:0:0:0:
68,204,4879,5,2,0:3:0:0:
155,220,5055,1,0,0:0:0:0:
40,304,5232,6,0,L|-8:312,3,40,6|0|0|0,0:2|0:0|0:0|0:0,0:0:0:0:
68,204,5585,2,0,L|116:212,3,40,6|0|0|0,0:2|0:0|0:0|0:0,0:0:0:0:
176,322,5938,5,6,0:2:0:0:
208,317,6026,1,0,0:0:0:0:
240,312,6114,1,2,0:3:0:0:
272,307,6202,1,0,0:0:0:0:
304,302,6291,1,2,0:3:0:0:
400,288,6467,1,2,0:3:0:0:
272,212,6644,5,6,0:2:0:0:
276,216,6732,2,0,L|292:124,1,80,0|0,0:0|0:0,0:0:0:0:
296,104,6996,1,0,0:0:0:0:
196,12,7173,1,0,0:0:0:0:
200,16,7261,2,0,L|184:108,1,80,0|0,0:0|0:0,0:0:0:0:
180,128,7526,1,0,0:0:0:0:
100,268,7702,5,2,0:3:0:0:
187,252,7879,1,0,0:0:0:0:
280,316,8055,5,6,0:2:0:0:
284,320,8144,2,0,L|376:336,1,80,0|0,0:0|0:0,0:0:0:0:
396,340,8408,1,0,0:0:0:0:
480,240,8585,1,0,0:0:0:0:
484,244,8673,2,0,L|392:228,1,80,0|0,0:0|0:0,0:0:0:0:
372,224,8938,1,0,0:0:0:0:
232,144,9114,5,2,0:3:0:0:
248,231,9291,1,0,0:0:0:0:
140,332,9467,6,0,L|132:380,7,40,6|0|0|0|0|0|0|0,0:2|0:0|0:0|0:0|0:0|0:0|0:0|0:0,0:0:0:0:
48,240,10173,6,0,L|56:288,3,40,6|0|0|0,0:2|0:0|0:0|0:0,0:0:0:0:
124,176,10526,2,0,L|130:136,3,40,0|0|0|0,0:0|0:0|0:0|0:0,0:0:0:0:
132,196,10879,5,0,0:0:0:0:
132,196,11585,5,2,0:3:0:0:
134,200,11673,1,0,0:0:0:0:
136,205,11761,1,0,0:0:0:0:
139,210,11849,1,0,0:0:0:0:
141,215,11938,1,2,0:3:0:0:
143,219,12026,1,0,0:0:0:0:
146,224,12114,1,0,0:0:0:0:
148,229,12202,1,0,0:0:0:0:
168,249,12291,6,0,L|154:327,2,80,4|0|8,0:2|0:0|2:0,0:0:0:0:
274,271,12820,2,0,L|260:193,2,80,0|2|0,0:0|0:3|0:0,0:0:0:0:
162,137,13349,5,8,2:0:0:0:
240,68,13526,1,0,0:0:0:0:
140,33,13702,1,2,0:3:0:0:
149,118,13879,5,0,0:0:0:0:
230,87,14055,1,8,2:0:0:0:
162,31,14232,1,0,0:0:0:0:
311,56,14408,5,2,0:3:0:0:
315,60,14496,1,0,0:0:0:0:
319,64,14585,1,0,0:0:0:0:
162,31,14761,2,0,L|184:149,1,120,8|0,2:0|0:0,0:0:0:0:
204,184,15114,6,0,L|190:262,2,80,2|0|8,0:3|0:0|2:0,0:0:0:0:
310,206,15644,2,0,L|296:128,2,80,0|2|0,0:0|0:3|0:0,0:0:0:0:
412,360,16173,5,8,2:0:0:0:
315,321,16349,1,0,0:0:0:0:
397,254,16526,1,2,0:3:0:0:
417,337,16702,5,0,0:0:0:0:
330,336,16879,1,8,2:0:0:0:
375,260,17055,1,0,0:0:0:0:
244,356,17232,5,2,0:3:0:0:
248,360,17320,1,0,0:0:0:0:
252,364,17408,1,0,0:0:0:0:
375,260,17585,2,0,L|257:238,1,120,8|0,2:0|0:0,0:0:0:0:
222,218,17938,6,0,L|144:232,2,80,2|0|8,0:3|0:0|2:0,0:0:0:0:
200,112,18467,2,0,L|278:126,2,80,0|2|0,0:0|0:3|0:0,0:0:0:0:
334,224,18996,5,8,2:0:0:0:
403,146,19173,1,0,0:0:0:0:
438,246,19349,1,2,0:3:0:0:
353,237,19526,5,0,0:0:0:0:
384,156,19702,1,8,2:0:0:0:
440,224,19879,1,0,0:0:0:0:
266,250,20055,5,2,0:3:0:0:
270,254,20144,1,0,0:0:0:0:
274,258,20232,1,0,0:0:0:0:
228,128,20408,2,0,L|346:150,1,120,8|0,2:0|0:0,0:0:0:0:
384,156,20761,5,2,0:3:0:0:
136,108,21114,1,8,2:0:0:0:
312,104,21467,5,2,0:3:0:0:
208,160,21644,1,0,0:0:0:0:
288,212,21820,2,0,L|274:290,1,80,8|0,2:0|0:0,0:0:0:0:
270,310,22085,1,0,0:0:0:0:
266,329,22173,5,2,0:3:0:0:
156,344,22349,1,0,0:0:0:0:
80,284,22526,5,8,2:0:0:0:
248,312,22702,1,0,0:0:0:0:
324,252,22879,5,2,0:3:0:0:
324,252,23055,1,0,0:0:0:0:
324,252,23232,1,8,2:0:0:0:
324,252,23408,1,0,0:0:0:0:
324,252,23585,5,4,0:2:0:0:
274,160,23761,1,0,0:0:0:0:
380,161,23938,1,8,2:0:0:0:
344,249,24114,5,0,0:0:0:0:
366,144,24291,1,2,0:3:0:0:
266,179,24467,1,0,0:0:0:0:
363,239,24644,5,8,2:0:0:0:
266,200,24820,1,0,0:0:0:0:
348,133,24996,1,2,0:3:0:0:
377,223,25173,5,0,0:0:0:0:
327,129,25349,1,8,2:0:0:0:
273,220,25526,1,0,0:0:0:0:
432,132,25702,5,2,0:3:0:0:
432,132,25879,1,0,0:0:0:0:
216,84,26055,1,8,2:0:0:0:
216,84,26408,5,2,0:3:0:0:
266,176,26585,1,0,0:0:0:0:
160,175,26761,1,8,2:0:0:0:
196,86,26938,5,0,0:0:0:0:
174,191,27114,1,2,0:3:0:0:
274,156,27291,1,0,0:0:0:0:
177,96,27467,5,8,2:0:0:0:
274,135,27644,1,0,0:0:0:0:
192,202,27820,1,2,0:3:0:0:
163,112,27996,5,0,0:0:0:0:
213,206,28173,1,8,2:0:0:0:
267,115,28349,1,0,0:0:0:0:
108,204,28526,5,2,0:3:0:0:
324,252,28702,1,0,0:0:0:0:
324,252,28879,1,8,2:0:0:0:
324,252,29232,5,2,0:3:0:0:
269,162,29408,1,0,0:0:0:0:
217,254,29585,1,8,2:0:0:0:
312,268,29761,5,0,0:0:0:0:
210,234,29938,1,2,0:3:0:0:
290,165,30114,1,0,0:0:0:0:
294,279,30291,5,8,2:0:0:0:
308,176,30467,1,0,0:0:0:0:
209,213,30644,1,2,0:3:0:0:
273,283,30820,5,0,0:0:0:0:
216,193,30996,1,8,2:0:0:0:
322,192,31173,1,0,0:0:0:0:
166,285,31349,5,2,0:3:0:0:
166,285,31526,1,0,0:0:0:0:
232,74,31702,1,8,2:0:0:0:
232,74,32055,6,0,L|192:68,3,40,2|0|0|0,0:3|0:0|0:0|0:0,0:0:0:0:
320,20,32408,2,0,L|360:14,3,40,8|0|0|0,2:0|0:0|0:0|0:0,0:0:0:0:
332,120,32761,5,2,0:3:0:0:
337,152,32849,1,0,0:0:0:0:
342,184,32938,1,0,0:0:0:0:
347,216,33026,1,0,0:0:0:0:
352,248,33114,2,0,L|346:288,3,40,8|0|0|0,2:0|0:0|0:0|0:0,0:0:0:0:
447,223,33467,5,2,0:3:0:0:
436,194,33555,1,0,0:0:0:0:
415,170,33644,1,0,0:0:0:0:
387,154,33732,1,0,0:0:0:0:
356,148,33820,1,8,2:0:0:0:
324,152,33908,1,0,0:0:0:0:
296,166,33996,1,0,0:0:0:0:
268,182,34085,1,0,0:0:0:0:
237,189,34173,1,2,0:3:0:0:
205,185,34261,1,0,0:0:0:0:
177,171,34349,1,0,0:0:0:0:
154,149,34438,1,0,0:0:0:0:
140,121,34526,2,0,L|146:81,3,40,8|0|0|0,2:0|0:0|0:0|0:0,0:0:0:0:
96,212,34879,5,4,0:2:0:0:
256,192,44761,12,4,45820,0:2:0:0:
452,152,46173,5,4,0:2:0:0:
436,65,46349,1,0,0:0:0:0:
452,152,46526,1,8,2:0:0:0:
436,65,46702,1,0,0:0:0:0:
452,152,46879,1,2,0:3:0:0:
436,65,47055,1,0,0:0:0:0:
452,152,47232,1,8,2:0:0:0:
436,65,47408,1,0,0:0:0:0:
452,152,47585,1,2,0:3:0:0:
436,65,47761,1,0,0:0:0:0:
452,152,47938,1,8,2:0:0:0:
436,65,48114,1,0,0:0:0:0:
452,152,48291,1,2,0:3:0:0:
436,65,48467,1,0,0:0:0:0:
452,152,48644,1,8,2:0:0:0:
436,65,48820,1,0,0:0:0:0:
320,240,48996,5,4,0:2:0:0:
338,130,49173,1,0,0:0:0:0:
320,240,49349,1,8,2:0:0:0:
338,130,49526,1,0,0:0:0:0:
320,240,49702,1,2,0:3:0:0:
338,130,49879,1,0,0:0:0:0:
320,240,50055,1,8,2:0:0:0:
338,130,50232,1,0,0:0:0:0:
320,240,50408,1,2,0:3:0:0:
338,130,50585,1,0,0:0:0:0:
320,240,50761,1,8,2:0:0:0:
338,130,50938,1,0,0:0:0:0:
416,292,51114,5,2,0:3:0:0:
242,78,51467,1,8,2:0:0:0:
184,172,51644,5,0,0:0:0:0:
195,170,51732,1,0,0:0:0:0:
207,168,51820,1,4,0:2:0:0:
72,136,51996,5,0,0:0:0:0:
166,153,52173,1,8,2:0:0:0:
72,136,52349,1,0,0:0:0:0:
166,153,52526,1,2,0:3:0:0:
72,136,52702,1,0,0:0:0:0:
166,153,52879,1,8,2:0:0:0:
72,136,53055,1,0,0:0:0:0:
166,153,53232,1,2,0:3:0:0:
72,136,53408,1,0,0:0:0:0:
166,153,53585,1,8,2:0:0:0:
72,136,53761,1,0,0:0:0:0:
166,153,53938,1,2,0:3:0:0:
72,136,54114,1,0,0:0:0:0:
166,153,54291,1,8,2:0:0:0:
72,136,54467,1,0,0:0:0:0:
296,116,54644,6,0,L|282:194,1,80,4|0,0:2|0:0,0:0:0:0:
267,305,54996,2,0,L|253:227,1,80,8|0,2:0|0:0,0:0:0:0:
192,49,55349,2,0,L|178:127,1,80,2|0,0:3|0:0,0:0:0:0:
174,147,55614,1,0,0:0:0:0:
170,166,55702,5,8,2:0:0:0:
296,116,55879,1,0,0:0:0:0:
107,259,56055,5,4,0:2:0:0:
109,270,56144,1,0,0:0:0:0:
111,282,56232,1,0,0:0:0:0:
113,294,56320,1,0,0:0:0:0:
115,306,56408,1,8,2:0:0:0:
117,317,56496,1,0,0:0:0:0:
120,329,56585,1,0,0:0:0:0:
122,341,56673,1,0,0:0:0:0:
124,353,56761,6,0,L|76:345,3,40,2|0|0|0,0:3|0:0|0:0|0:0,0:0:0:0:
219,319,57114,2,0,L|267:327,3,40,8|0|0|0,2:0|0:0|0:0|0:0,0:0:0:0:
116,144,57467,5,4,0:2:0:0:
134,254,57644,1,0,0:0:0:0:
116,144,57820,1,8,2:0:0:0:
134,254,57996,1,0,0:0:0:0:
116,144,58173,1,2,0:3:0:0:
134,254,58349,1,0,0:0:0:0:
116,144,58526,1,8,2:0:0:0:
134,254,58702,1,0,0:0:0:0:
116,144,58879,1,2,0:3:0:0:
134,254,59055,1,0,0:0:0:0:
116,144,59232,1,8,2:0:0:0:
134,254,59408,1,0,0:0:0:0:
116,144,59585,1,2,0:3:0:0:
134,254,59761,1,0,0:0:0:0:
116,144,59938,1,8,2:0:0:0:
134,254,60114,1,0,0:0:0:0:
200,60,60291,5,4,0:2:0:0:
86,41,60467,1,0,0:0:0:0:
200,60,60644,1,8,2:0:0:0:
86,41,60820,1,0,0:0:0:0:
200,60,60996,1,2,0:3:0:0:
86,41,61173,1,0,0:0:0:0:
200,60,61349,1,8,2:0:0:0:
86,41,61526,1,0,0:0:0:0:
256,160,61702,5,2,0:3:0:0:
370,141,61879,1,0,0:0:0:0:
256,160,62055,1,8,2:0:0:0:
370,141,62232,1,0,0:0:0:0:
256,160,62408,1,2,0:3:0:0:
370,141,62585,1,0,0:0:0:0:
256,160,62761,1,8,2:0:0:0:
370,141,62938,1,0,0:0:0:0:
160,100,63114,5,4,0:2:0:0:
138,241,63291,1,0,0:0:0:0:
160,100,63467,1,8,2:0:0:0:
138,241,63644,1,0,0:0:0:0:
160,100,63820,1,2,0:3:0:0:
138,241,63996,1,0,0:0:0:0:
160,100,64173,1,8,2:0:0:0:
138,241,64349,1,0,0:0:0:0:
82,25,64526,5,2,0:3:0:0:
342,213,64879,1,8,2:0:0:0:
50,341,65232,1,2,0:3:0:0:
82,25,65585,1,8,2:0:0:0:
8,108,65761,5,0,0:0:0:0:
12,112,65849,1,0,0:0:0:0:
16,116,65938,1,4,0:2:0:0:
104,136,66114,1,0,0:0:0:0:
264,40,66291,5,8,2:0:0:0:
172,64,66467,1,0,0:0:0:0:
84,228,66644,5,2,0:3:0:0:
176,204,66820,1,0,0:0:0:0:
12,112,66996,1,8,2:0:0:0:
88,208,67173,1,0,0:0:0:0:
92,212,67261,1,0,0:0:0:0:
96,216,67349,6,0,L|110:294,1,80,4|0,0:2|0:0,0:0:0:0:
60,380,67614,1,0,0:0:0:0:
64,384,67702,2,0,L|78:306,1,80,2|0,0:3|0:0,0:0:0:0:
196,240,68055,5,2,0:3:0:0:
228,245,68144,1,0,0:0:0:0:
260,250,68232,1,2,0:3:0:0:
292,255,68320,1,0,0:0:0:0:
324,260,68408,2,0,L|364:254,3,40,2|0|2|0,0:3|0:0|0:3|0:0,0:0:0:0:
214,323,68761,6,0,L|228:245,1,80,4|0,0:2|0:0,0:0:0:0:
237,151,69026,1,0,0:0:0:0:
241,155,69114,2,0,L|255:233,1,80,8|0,2:0|0:0,0:0:0:0:
428,315,69467,2,0,L|350:329,1,80,2|0,0:3|0:0,0:0:0:0:
312,319,69732,2,0,L|390:305,1,80,0|0,0:0|0:0,0:0:0:0:
472,291,69996,1,0,0:0:0:0:
417,173,70173,6,0,L|403:95,1,80,2|0,0:3|0:0,0:0:0:0:
386,1,70438,1,0,0:0:0:0:
390,5,70526,2,0,L|376:83,1,80,8|0,2:0|0:0,0:0:0:0:
203,165,70879,2,0,L|281:179,1,80,2|0,0:3|0:0,0:0:0:0:
319,169,71144,2,0,L|241:155,1,80,0|0,0:0|0:0,0:0:0:0:
159,141,71408,1,0,0:0:0:0:
65,228,71585,6,0,L|43:109,1,120,2|0,0:3|0:0,0:0:0:0:
17,88,71938,1,8,2:0:0:0:
281,40,72291,5,2,0:3:0:0:
281,40,72467,1,0,0:0:0:0:
17,88,72820,5,0,0:0:0:0:
281,40,73173,5,0,0:0:0:0:
281,40,73349,1,8,2:0:0:0:
17,88,73702,5,2,0:3:0:0:
69,8,73879,5,0,0:0:0:0:
73,12,73967,1,0,0:0:0:0:
77,16,74055,1,8,2:0:0:0:
121,112,74232,1,0,0:0:0:0:
165,208,74408,6,0,L|243:194,1,80,2|0,0:3|0:0,0:0:0:0:
329,177,74673,1,0,0:0:0:0:
333,181,74761,2,0,L|255:167,1,80,8|0,2:0|0:0,0:0:0:0:
281,384,75114,6,0,L|302:266,1,120,2|0,0:3|0:0,0:0:0:0:
254,166,75467,2,0,L|275:283,1,120,8|0,2:0|0:0,0:0:0:0:
256,312,75820,5,2,0:3:0:0:
408,360,75996,1,0,0:0:0:0:
408,360,76173,1,8,2:0:0:0:
376,204,76349,1,0,0:0:0:0:
380,208,76438,1,0,0:0:0:0:
384,212,76526,6,0,L|405:94,2,120,2|0|0,0:3|0:0|0:0,0:0:0:0:
276,148,77232,6,0,L|26:192,2,240,2|2|8,0:3|0:3|2:0,0:0:0:0:
276,148,78644,6,0,L|282:108,3,40,2|0|2|0,0:3|0:0|0:3|0:0,0:0:0:0:
330,236,78996,2,0,L|336:276,3,40,8|0|2|0,2:0|0:0|0:3|0:0,0:0:0:0:
230,248,79349,5,2,0:3:0:0:
198,253,79438,1,0,0:0:0:0:
166,258,79526,1,2,0:3:0:0:
134,263,79614,1,0,0:0:0:0:
102,268,79702,2,0,L|62:262,3,40,8|0|2|0,2:0|0:0|0:3|0:0,0:0:0:0:
225,352,80055,6,0,L|303:338,1,80,4|0,0:2|0:0,0:0:0:0:
389,321,80320,1,0,0:0:0:0:
393,325,80408,2,0,L|315:311,1,80,8|0,2:0|0:0,0:0:0:0:
243,140,80761,2,0,L|229:218,1,80,2|0,0:3|0:0,0:0:0:0:
239,256,81026,2,0,L|253:178,1,80,0|0,0:0|0:0,0:0:0:0:
267,96,81291,1,0,0:0:0:0:
512,200,81467,6,0,L|434:214,1,80,2|0,0:3|0:0,0:0:0:0:
340,223,81732,1,0,0:0:0:0:
344,227,81820,2,0,L|422:241,1,80,8|0,2:0|0:0,0:0:0:0:
340,110,82173,2,0,L|262:96,1,80,2|0,0:3|0:0,0:0:0:0:
224,106,82438,2,0,L|302:120,1,80,0|0,0:0|0:0,0:0:0:0:
384,134,82702,1,0,0:0:0:0:
220,204,82879,6,0,L|101:182,1,120,2|0,0:3|0:0,0:0:0:0:
72,196,83232,1,8,2:0:0:0:
336,244,83585,5,2,0:3:0:0:
336,244,83761,1,0,0:0:0:0:
72,196,84114,5,0,0:0:0:0:
260,132,84467,5,0,0:0:0:0:
260,132,84644,2,0,L|239:250,1,120,8|0,2:0|0:0,0:0:0:0:
220,336,84996,2,0,L|199:218,2,120,2|0|0,0:3|0:0|0:0,0:0:0:0:
112,312,85702,5,2,0:3:0:0:
208,352,85879,1,0,0:0:0:0:
298,296,86055,1,8,2:0:0:0:
223,365,86232,5,0,0:0:0:0:
287,281,86408,1,2,0:3:0:0:
392,286,86585,1,0,0:0:0:0:
208,352,86761,5,8,2:0:0:0:
402,302,86938,1,0,0:0:0:0:
232,152,87114,5,2,0:3:0:0:
192,248,87291,1,0,0:0:0:0:
140,120,87467,1,8,2:0:0:0:
177,232,87644,5,0,0:0:0:0:
248,156,87820,1,2,0:3:0:0:
376,204,87996,1,0,0:0:0:0:
192,248,88173,5,8,2:0:0:0:
367,183,88349,1,0,0:0:0:0:
132,104,88526,5,2,0:3:0:0:
132,104,88702,1,2,0:3:0:0:
224,112,88879,2,0,L|146:126,1,80,8|2,2:0|0:3,0:0:0:0:
376,204,89232,5,2,0:3:0:0:
376,204,89408,1,2,0:3:0:0:
284,212,89585,2,0,L|362:226,1,80,8|2,2:0|0:3,0:0:0:0:
485,201,89938,5,2,0:3:0:0:
483,212,90026,1,0,0:0:0:0:
481,224,90114,1,0,0:0:0:0:
479,236,90202,1,0,0:0:0:0:
477,248,90291,1,2,0:3:0:0:
475,259,90379,1,0,0:0:0:0:
472,271,90467,1,0,0:0:0:0:
470,283,90555,1,0,0:0:0:0:
477,309,90644,5,2,0:3:0:0:
451,290,90732,1,0,0:0:0:0:
421,281,90820,1,2,0:3:0:0:
388,283,90908,1,0,0:0:0:0:
359,294,90996,1,2,0:3:0:0:
330,308,91085,1,0,0:0:0:0:
299,312,91173,1,2,0:3:0:0:
267,305,91261,1,0,0:0:0:0:
240,289,91349,6,0,L|262:170,1,120,4|0,0:2|0:0,0:0:0:0:
202,86,91702,2,0,L|293:163,1,120,8|0,2:0|0:0,0:0:0:0:
396,154,92055,2,0,L|282:194,2,120,2|0|0,0:3|0:0|0:0,0:0:0:0:
156,184,92761,6,0,L|142:262,1,80,2|0,0:3|0:0,0:0:0:0:
137,295,93026,1,0,0:0:0:0:
131,326,93114,1,8,2:0:0:0:
263,301,93291,1,0,0:0:0:0:
294,295,93379,1,0,0:0:0:0:
325,289,93468,1,2,0:3:0:0:
356,283,93555,1,0,0:0:0:0:
387,277,93644,1,0,0:0:0:0:
418,271,93731,1,0,0:0:0:0:
449,265,93820,1,8,2:0:0:0:
384,375,93996,1,0,0:0:0:0:
260,207,94173,6,0,L|238:88,1,120,2|0,0:3|0:0,0:0:0:0:
298,4,94526,2,0,L|207:81,1,120,8|0,2:0|0:0,0:0:0:0:
104,72,94879,2,0,L|218:112,2,120,2|0|0,0:3|0:0|0:0,0:0:0:0:
345,98,95585,5,2,0:3:0:0:
351,129,95673,1,0,0:0:0:0:
357,160,95762,1,0,0:0:0:0:
375,285,95938,1,8,2:0:0:0:
344,279,96026,1,0,0:0:0:0:
313,273,96115,1,0,0:0:0:0:
282,267,96202,1,0,0:0:0:0:
251,261,96291,2,0,L|245:221,3,40,2|0|0|0,0:3|0:0|0:0|0:0,0:0:0:0:
181,345,96644,2,0,L|187:385,3,40,8|0|0|0,2:0|0:0|0:0|0:0,0:0:0:0:
111,227,96996,6,0,L|132:109,1,120,2|0,0:3|0:0,0:0:0:0:
84,9,97349,2,0,L|105:126,1,120,8|0,2:0|0:0,0:0:0:0:
83,155,97702,1,2,0:3:0:0:
231,104,97879,1,0,0:0:0:0:
235,108,97967,1,0,0:0:0:0:
239,112,98055,1,8,2:0:0:0:
344,239,98232,6,0,L|226:260,1,120,0|0,0:0|0:0,0:0:0:0:
444,287,98585,2,0,L|327:266,1,120,0|0,0:0|0:0,0:0:0:0:
298,284,98938,1,0,0:0:0:0:
422,172,99114,6,0,L|436:94,1,80,2|0,0:3|0:0,0:0:0:0:
445,0,99379,1,0,0:0:0:0:
449,4,99467,2,0,L|463:82,1,80,8|0,2:0|0:0,0:0:0:0:
325,99,99820,2,0,L|168:70,2,160,2|8|2,0:3|2:0|0:3,0:0:0:0:
283,205,100702,2,0,L|297:283,2,80,0|8|0,0:0|2:0|0:0,0:0:0:0:
325,99,101232,6,0,L|285:93,3,40,2|0|0|0,0:3|0:0|0:0|0:0,0:0:0:0:
185,153,101584,2,0,L|145:159,3,40,8|0|0|0,2:0|0:0|0:0|0:0,0:0:0:0:
283,205,101937,5,2,0:3:0:0:
315,210,102026,1,0,0:0:0:0:
347,215,102114,1,0,0:0:0:0:
379,220,102202,1,0,0:0:0:0:
411,225,102290,2,0,L|451:219,3,40,8|0|0|0,2:0|0:0|0:0|0:0,0:0:0:0:
312,319,102644,6,0,L|193:297,1,120,4|0,0:2|0:0,0:0:0:0:
109,357,102997,2,0,L|186:266,1,120,8|0,2:0|0:0,0:0:0:0:
177,163,103350,2,0,L|217:277,2,120,2|0|0,0:3|0:0|0:0,0:0:0:0:
62,32,104055,6,0,L|140:46,1,80,2|0,0:3|0:0,0:0:0:0:
173,51,104320,1,0,0:0:0:0:
204,57,104408,1,8,2:0:0:0:
319,124,104585,1,0,0:0:0:0:
350,118,104673,1,0,0:0:0:0:
381,112,104762,1,2,0:3:0:0:
412,106,104849,1,0,0:0:0:0:
443,100,104938,1,0,0:0:0:0:
474,94,105025,1,0,0:0:0:0:
505,88,105114,1,8,2:0:0:0:
405,0,105290,1,0,0:0:0:0:
319,231,105467,6,0,L|200:209,1,120,2|0,0:3|0:0,0:0:0:0:
116,269,105820,2,0,L|193:178,1,120,8|0,2:0|0:0,0:0:0:0:
184,75,106173,2,0,L|224:189,2,120,2|0|0,0:3|0:0|0:0,0:0:0:0:
213,310,106879,5,2,0:3:0:0:
244,316,106967,1,0,0:0:0:0:
275,322,107056,1,0,0:0:0:0:
411,384,107232,1,8,2:0:0:0:
405,353,107320,1,0,0:0:0:0:
399,322,107409,1,0,0:0:0:0:
393,291,107496,1,0,0:0:0:0:
387,260,107585,2,0,L|347:254,3,40,2|0|0|0,0:3|0:0|0:0|0:0,0:0:0:0:
471,190,107938,2,0,L|511:196,3,40,8|0|0|0,2:0|0:0|0:0|0:0,0:0:0:0:
361,140,108291,6,0,L|243:119,1,120,2|0,0:3|0:0,0:0:0:0:
143,167,108644,2,0,L|260:146,1,120,8|0,2:0|0:0,0:0:0:0:
289,168,108997,1,2,0:3:0:0:
168,60,109173,1,0,0:0:0:0:
172,64,109261,1,0,0:0:0:0:
176,68,109349,1,8,2:0:0:0:
54,100,109526,6,0,L|33:218,1,120,0|0,0:0|0:0,0:0:0:0:
6,0,109879,2,0,L|27:117,1,120,0|0,0:0|0:0,0:0:0:0:
9,146,110232,1,0,0:0:0:0:
141,171,110408,6,0,L|219:185,1,80,2|0,0:3|0:0,0:0:0:0:
305,194,110673,1,0,0:0:0:0:
309,198,110761,2,0,L|231:212,1,80,8|0,2:0|0:0,0:0:0:0:
134,282,111114,5,2,0:3:0:0:
134,282,111291,1,2,0:3:0:0:
237,332,111467,5,8,2:0:0:0:
243,352,111644,1,2,0:3:0:0:
82,368,111820,5,2,0:3:0:0:
82,368,111997,1,2,0:3:0:0:
224,232,112173,5,8,2:0:0:0:
230,212,112350,1,2,0:3:0:0:
281,358,112526,6,0,L|294:397,3,23.9999992675781,2|0|2|0,0:3|0:0|0:3|0:0,0:0:0:0:
201,313,112879,2,0,L|188:352,3,23.9999992675781,8|0|2|0,2:0|0:0|0:3|0:0,0:0:0:0:
97,344,113232,6,0,L|110:383,3,32,2|0|2|0,0:3|0:0|0:3|0:0,0:0:0:0:
17,299,113585,2,0,L|4:338,3,32,8|0|2|0,2:0|0:0|0:3|0:0,0:0:0:0:
51,200,113938,5,2,0:3:0:0:
75,200,114026,1,0,0:0:0:0:
99,200,114114,1,0,0:0:0:0:
123,200,114202,1,0,0:0:0:0:
147,200,114291,1,8,2:0:0:0:
171,200,114379,1,0,0:0:0:0:
195,200,114467,1,0,0:0:0:0:
219,200,114555,1,0,0:0:0:0:
243,200,114644,1,0,0:0:0:0:
267,200,114732,1,0,0:0:0:0:
291,200,114820,1,2,0:3:0:0:
315,200,114908,1,0,0:0:0:0:
339,200,114996,1,8,2:0:0:0:
363,200,115085,1,0,0:0:0:0:
387,200,115173,1,0,0:0:0:0:
411,200,115261,1,0,0:0:0:0:
435,200,115349,6,0,L|447:280,1,80,2|0,0:3|0:0,0:0:0:0:
435,312,115614,1,0,0:0:0:0:
439,316,115702,1,8,2:0:0:0:
347,284,115879,5,0,0:0:0:0:
351,288,115967,1,0,0:0:0:0:
355,292,116055,1,0,0:0:0:0:
259,256,116232,5,2,0:3:0:0:
263,260,116320,1,0,0:0:0:0:
267,264,116408,1,8,2:0:0:0:
155,328,116585,1,0,0:0:0:0:
60,179,116761,5,4,0:2:0:0:
170,197,116938,1,0,0:0:0:0:
60,179,117114,1,8,2:0:0:0:
170,197,117291,1,0,0:0:0:0:
60,179,117467,1,2,0:3:0:0:
170,197,117644,1,0,0:0:0:0:
60,179,117820,1,8,2:0:0:0:
170,197,117997,1,0,0:0:0:0:
60,179,118173,1,2,0:3:0:0:
170,197,118350,1,0,0:0:0:0:
60,179,118526,1,8,2:0:0:0:
170,197,118703,1,0,0:0:0:0:
60,179,118879,1,2,0:3:0:0:
170,197,119056,1,0,0:0:0:0:
60,179,119232,1,8,2:0:0:0:
170,197,119409,1,0,0:0:0:0:
60,179,119585,1,2,0:3:0:0:
170,197,119762,1,0,0:0:0:0:
60,179,119938,1,8,2:0:0:0:
170,197,120115,1,0,0:0:0:0:
60,179,120291,1,2,0:3:0:0:
170,197,120468,1,0,0:0:0:0:
60,179,120644,1,8,2:0:0:0:
170,197,120821,1,0,0:0:0:0:
60,179,120996,1,2,0:3:0:0:
170,197,121173,1,0,0:0:0:0:
60,179,121349,1,8,2:0:0:0:
170,197,121526,1,0,0:0:0:0:
60,179,121702,1,2,0:3:0:0:
60,179,121791,1,0,0:0:0:0:
60,179,121879,1,0,0:0:0:0:
60,179,121967,1,0,0:0:0:0:
60,179,122055,1,8,2:0:0:0:
170,197,122232,1,0,0:0:0:0:
362,79,122408,5,4,0:2:0:0:
234,99,122585,1,0,0:0:0:0:
362,79,122761,1,8,2:0:0:0:
234,99,122938,1,0,0:0:0:0:
362,79,123114,1,2,0:3:0:0:
234,99,123291,1,0,0:0:0:0:
362,79,123467,1,8,2:0:0:0:
362,79,123644,1,0,0:0:0:0:
362,79,123820,1,2,0:3:0:0:
234,99,123996,1,0,0:0:0:0:
362,79,124173,1,8,2:0:0:0:
362,79,124349,1,0,0:0:0:0:
362,79,124526,1,2,0:3:0:0:
234,99,124702,1,0,0:0:0:0:
362,79,124879,1,8,2:0:0:0:
234,99,125055,1,0,0:0:0:0:
362,79,125232,1,2,0:3:0:0:
362,79,125320,1,0,0:0:0:0:
362,79,125408,1,0,0:0:0:0:
362,79,125496,1,0,0:0:0:0:
362,79,125585,1,8,2:0:0:0:
234,99,125761,1,0,0:0:0:0:
362,79,125938,1,2,0:3:0:0:
234,99,126114,1,0,0:0:0:0:
362,79,126291,1,8,2:0:0:0:
234,99,126467,2,0,L|297:89,1,40,0|0,0:0|0:0,0:0:0:0:
362,79,126644,1,2,0:3:0:0:
362,79,126732,1,0,0:0:0:0:
362,79,126820,1,0,0:0:0:0:
362,79,126908,1,0,0:0:0:0:
362,79,126997,1,8,2:0:0:0:
362,79,127173,1,0,0:0:0:0:
362,79,127261,1,0,0:0:0:0:
362,79,127349,1,2,0:3:0:0:
362,79,127437,1,0,0:0:0:0:
362,79,127526,1,0,0:0:0:0:
362,79,127614,1,0,0:0:0:0:
362,79,127702,1,8,2:0:0:0:
234,99,127879,1,0,0:0:0:0:
448,224,128055,5,4,0:2:0:0:
314,203,128232,1,0,0:0:0:0:
448,224,128408,1,8,2:0:0:0:
314,203,128585,1,0,0:0:0:0:
448,224,128761,1,2,0:3:0:0:
314,203,128938,1,0,0:0:0:0:
448,224,129114,1,8,2:0:0:0:
314,203,129291,1,0,0:0:0:0:
448,224,129467,1,2,0:3:0:0:
314,203,129644,1,0,0:0:0:0:
448,224,129820,1,8,2:0:0:0:
448,224,129996,1,0,0:0:0:0:
448,224,130173,1,2,0:3:0:0:
448,224,130349,1,0,0:0:0:0:
448,224,130526,1,8,2:0:0:0:
314,203,130702,1,0,0:0:0:0:
448,224,130879,1,2,0:3:0:0:
314,203,131055,1,0,0:0:0:0:
448,224,131232,1,8,2:0:0:0:
448,224,131408,1,0,0:0:0:0:
448,224,131585,1,2,0:3:0:0:
314,203,131761,1,0,0:0:0:0:
448,224,131938,1,8,2:0:0:0:
314,203,132114,1,0,0:0:0:0:
448,224,132291,1,2,0:3:0:0:
314,203,132467,1,0,0:0:0:0:
448,224,132644,1,8,2:0:0:0:
314,203,132820,1,0,0:0:0:0:
448,224,132996,1,2,0:3:0:0:
448,224,133085,1,0,0:0:0:0:
448,224,133173,1,0,0:0:0:0:
448,224,133261,1,0,0:0:0:0:
448,224,133349,1,8,2:0:0:0:
314,203,133526,1,0,0:0:0:0:
432,8,133702,5,4,0:2:0:0:
414,118,133879,1,0,0:0:0:0:
432,8,134055,1,8,2:0:0:0:
414,118,134232,1,0,0:0:0:0:
432,8,134408,1,2,0:3:0:0:
414,118,134585,1,0,0:0:0:0:
432,8,134761,1,8,2:0:0:0:
414,118,134938,1,0,0:0:0:0:
296,93,135114,5,2,0:3:0:0:
314,203,135291,1,0,0:0:0:0:
296,93,135467,1,8,2:0:0:0:
314,203,135644,1,0,0:0:0:0:
296,93,135820,1,2,0:3:0:0:
314,203,135997,1,0,0:0:0:0:
316,76,136173,5,8,2:0:0:0:
232,240,136349,1,0,0:0:0:0:
124,148,136526,6,0,L|202:134,1,80,2|0,0:3|0:0,0:0:0:0:
392,217,136879,2,0,L|314:203,1,80,2|0,0:3|0:0,0:0:0:0:
120,348,137232,5,2,0:3:0:0:
104,252,137409,1,0,0:0:0:0:
200,232,137585,1,2,0:3:0:0:
216,328,137762,1,0,0:0:0:0:
296,212,137938,6,0,L|374:198,1,80,2|2,0:3|0:3,0:0:0:0:
460,240,138203,1,0,0:0:0:0:
464,244,138291,2,0,L|386:230,1,80,2|2,0:3|0:3,0:0:0:0:
304,112,138644,5,2,0:3:0:0:
272,117,138733,1,0,0:0:0:0:
240,122,138821,1,2,0:3:0:0:
208,127,138909,1,0,0:0:0:0:
176,132,138997,1,2,0:3:0:0:
144,137,139085,1,0,0:0:0:0:
112,142,139173,1,2,0:3:0:0:
80,147,139261,1,0,0:0:0:0:
48,152,139349,5,4,0:2:0:0:
96,272,147820,6,0,L|140:22,2,240,4|2|8,0:2|0:3|2:0,0:0:0:0:
96,272,149232,6,0,L|56:278,3,40,2|0|0|0,0:3|0:0|0:0|0:0,0:0:0:0:
184,326,149585,2,0,L|224:332,3,40,8|0|2|0,2:0|0:0|0:3|0:0,0:0:0:0:
264,220,149938,5,2,0:3:0:0:
296,215,150027,1,0,0:0:0:0:
328,210,150115,1,2,0:3:0:0:
360,205,150203,1,0,0:0:0:0:
392,200,150291,2,0,L|386:240,3,40,8|0|2|0,2:0|0:0|0:3|0:0,0:0:0:0:
268,108,150644,6,0,L|190:122,1,80,4|0,0:2|0:0,0:0:0:0:
96,131,150908,1,0,0:0:0:0:
100,135,150997,2,0,L|178:149,1,80,8|0,2:0|0:0,0:0:0:0:
256,324,151349,2,0,L|270:246,1,80,2|0,0:3|0:0,0:0:0:0:
260,208,151614,2,0,L|246:286,1,80,0|0,0:0|0:0,0:0:0:0:
232,368,151879,1,0,0:0:0:0:
366,255,152055,6,0,L|380:177,1,80,2|0,0:3|0:0,0:0:0:0:
389,83,152320,1,0,0:0:0:0:
393,87,152408,2,0,L|407:165,1,80,8|0,2:0|0:0,0:0:0:0:
445,345,152761,2,0,L|367:359,1,80,2|0,0:3|0:0,0:0:0:0:
329,349,153026,2,0,L|407:335,1,80,0|0,0:0|0:0,0:0:0:0:
488,320,153291,1,0,0:0:0:0:
355,239,153467,6,0,L|377:120,1,120,2|0,0:3|0:0,0:0:0:0:
403,99,153820,2,0,L|389:177,1,80,8|0,2:0|0:0,0:0:0:0:
269,38,154173,2,0,L|278:90,1,40,2|0,0:3|0:0,0:0:0:0:
255,32,154349,2,0,L|269:110,1,80,0|8,0:0|2:0,0:0:0:0:
403,99,154702,2,0,L|389:177,1,80,0|2,0:0|0:3,0:0:0:0:
364,328,155055,5,0,0:0:0:0:
364,328,155231,2,0,L|246:307,1,120,8|0,2:0|0:0,0:0:0:0:
160,288,155585,2,0,L|278:267,2,120,2|0|0,0:3|0:0|0:0,0:0:0:0:
104,372,156290,5,2,0:3:0:0:
144,276,156467,1,0,0:0:0:0:
88,186,156643,1,8,2:0:0:0:
208,40,156820,6,0,L|222:118,2,80,0|2|0,0:0|0:3|0:0,0:0:0:0:
244,124,157349,1,8,2:0:0:0:
120,88,157526,1,0,0:0:0:0:
196,284,157702,5,2,0:3:0:0:
292,244,157879,1,0,0:0:0:0:
164,192,158055,1,8,2:0:0:0:
276,229,158232,1,0,0:0:0:0:
408,120,158408,1,2,0:3:0:0:
472,288,158673,5,2,0:3:0:0:
476,292,158761,1,8,2:0:0:0:
384,232,158938,1,2,0:3:0:0:
248,336,159114,5,2,0:3:0:0:
216,248,159291,1,2,0:3:0:0:
248,336,159467,1,8,2:0:0:0:
216,248,159644,1,2,0:3:0:0:
136,368,159820,5,2,0:3:0:0:
136,368,159997,1,2,0:3:0:0:
216,248,160173,5,8,2:0:0:0:
288,308,160349,1,2,0:3:0:0:
299,306,160438,1,2,0:3:0:0:
311,304,160526,1,4,0:2:0:0:
337,315,161055,5,0,0:0:0:0:
325,317,161143,1,0,0:0:0:0:
314,319,161232,1,0,0:0:0:0:
302,321,161319,1,0,0:0:0:0:
291,323,161408,1,0,0:0:0:0:
279,325,161496,1,0,0:0:0:0:
268,327,161585,1,2,0:3:0:0:
256,329,161672,1,2,0:3:0:0:
245,331,161761,1,2,0:3:0:0:
233,333,161849,1,2,0:3:0:0:
222,335,161938,6,0,L|200:216,1,120,4|0,0:2|0:0,0:0:0:0:
260,132,162291,2,0,L|169:209,1,120,8|0,2:0|0:0,0:0:0:0:
66,200,162644,2,0,L|180:240,2,120,2|0|0,0:3|0:0|0:0,0:0:0:0:
303,218,163349,6,0,L|317:296,1,80,2|0,0:3|0:0,0:0:0:0:
322,329,163614,1,0,0:0:0:0:
328,360,163702,1,8,2:0:0:0:
434,271,163879,1,0,0:0:0:0:
428,240,163967,1,0,0:0:0:0:
422,209,164056,1,2,0:3:0:0:
416,178,164143,1,0,0:0:0:0:
410,147,164232,1,0,0:0:0:0:
404,116,164319,1,0,0:0:0:0:
398,85,164408,1,8,2:0:0:0:
508,150,164584,1,0,0:0:0:0:
288,122,164761,6,0,L|169:144,1,120,2|0,0:3|0:0,0:0:0:0:
85,84,165114,2,0,L|162:175,1,120,8|0,2:0|0:0,0:0:0:0:
153,278,165467,2,0,L|193:164,2,120,2|0|0,0:3|0:0|0:0,0:0:0:0:
188,45,166173,5,2,0:3:0:0:
219,39,166261,1,0,0:0:0:0:
250,33,166350,1,0,0:0:0:0:
390,7,166526,1,8,2:0:0:0:
384,38,166614,1,0,0:0:0:0:
378,69,166703,1,0,0:0:0:0:
372,100,166790,1,0,0:0:0:0:
366,131,166879,2,0,L|326:137,3,40,2|0|0|0,0:3|0:0|0:0|0:0,0:0:0:0:
450,201,167232,2,0,L|490:195,3,40,8|0|0|0,2:0|0:0|0:0|0:0,0:0:0:0:
335,267,167585,6,0,L|217:288,1,120,2|0,0:3|0:0,0:0:0:0:
117,240,167938,2,0,L|234:261,1,120,8|0,2:0|0:0,0:0:0:0:
263,239,168291,1,2,0:3:0:0:
130,348,168467,1,0,0:0:0:0:
134,352,168555,1,0,0:0:0:0:
138,356,168643,1,8,2:0:0:0:
16,187,168820,6,0,L|37:305,1,120,0|0,0:0|0:0,0:0:0:0:
64,87,169173,2,0,L|43:204,1,120,0|0,0:0|0:0,0:0:0:0:
61,233,169526,1,0,0:0:0:0:
190,142,169702,6,0,L|268:156,1,80,2|0,0:3|0:0,0:0:0:0:
354,165,169967,1,0,0:0:0:0:
358,169,170055,2,0,L|280:183,1,80,8|0,2:0|0:0,0:0:0:0:
316,63,170408,2,0,L|473:34,2,160,2|8|2,0:3|2:0|0:3,0:0:0:0:
358,169,171290,2,0,L|344:247,2,80,0|8|0,0:0|2:0|0:0,0:0:0:0:
316,63,171820,6,0,L|356:57,3,40,2|0|2|0,0:3|0:0|0:3|0:0,0:0:0:0:
456,117,172172,2,0,L|496:123,3,40,8|0|2|0,2:0|0:0|0:3|0:0,0:0:0:0:
358,169,172525,5,2,0:3:0:0:
326,174,172614,1,0,0:0:0:0:
294,179,172702,1,2,0:3:0:0:
262,184,172790,1,0,0:0:0:0:
230,189,172878,2,0,L|190:183,3,40,8|0|2|0,2:0|0:0|0:3|0:0,0:0:0:0:
309,283,173232,6,0,L|428:261,1,120,4|0,0:2|0:0,0:0:0:0:
512,321,173585,2,0,L|435:230,1,120,8|0,2:0|0:0,0:0:0:0:
444,127,173938,2,0,L|404:241,2,120,2|0|0,0:3|0:0|0:0,0:0:0:0:
417,359,174644,6,0,L|339:373,1,80,2|0,0:3|0:0,0:0:0:0:
306,378,174909,1,0,0:0:0:0:
275,384,174997,1,8,2:0:0:0:
208,282,175174,1,0,0:0:0:0:
177,276,175262,1,0,0:0:0:0:
146,270,175351,1,0,0:0:0:0:
115,264,175438,1,0,0:0:0:0:
84,258,175527,1,0,0:0:0:0:
53,252,175614,1,0,0:0:0:0:
22,246,175703,1,8,2:0:0:0:
87,356,175879,1,0,0:0:0:0:
213,182,176055,6,0,L|332:160,1,120,2|0,0:3|0:0,0:0:0:0:
416,220,176408,2,0,L|339:129,1,120,8|0,2:0|0:0,0:0:0:0:
348,26,176761,2,0,L|308:140,2,120,2|0|0,0:3|0:0|0:0,0:0:0:0:
327,260,177467,5,2,0:3:0:0:
296,266,177555,1,0,0:0:0:0:
265,272,177644,1,0,0:0:0:0:
160,190,177820,1,8,2:0:0:0:
154,221,177908,1,0,0:0:0:0:
148,252,177997,1,0,0:0:0:0:
142,283,178084,1,0,0:0:0:0:
136,314,178173,2,0,L|96:320,3,40,2|0|0|0,0:3|0:0|0:0|0:0,0:0:0:0:
220,384,178526,2,0,L|260:378,3,40,8|0|0|0,2:0|0:0|0:0|0:0,0:0:0:0:
257,256,178879,6,0,L|278:138,1,120,2|0,0:3|0:0,0:0:0:0:
230,38,179232,2,0,L|251:155,1,120,8|0,2:0|0:0,0:0:0:0:
229,184,179585,1,2,0:3:0:0:
338,51,179761,1,0,0:0:0:0:
342,55,179849,1,0,0:0:0:0:
346,59,179937,1,8,2:0:0:0:
137,29,180114,6,0,L|19:50,1,120,0|0,0:0|0:0,0:0:0:0:
237,77,180467,2,0,L|120:56,1,120,0|0,0:0|0:0,0:0:0:0:
91,74,180820,1,0,0:0:0:0:
173,195,180996,6,0,L|187:273,1,80,2|0,0:3|0:0,0:0:0:0:
196,359,181261,1,0,0:0:0:0:
200,363,181349,2,0,L|214:285,1,80,8|0,2:0|0:0,0:0:0:0:
385,147,181702,5,2,0:3:0:0:
385,147,181879,1,2,0:3:0:0:
282,97,182055,5,8,2:0:0:0:
276,77,182232,1,2,0:3:0:0:
437,61,182408,5,2,0:3:0:0:
437,61,182585,1,2,0:3:0:0:
295,197,182761,5,8,2:0:0:0:
289,217,182938,1,2,0:3:0:0:
238,71,183114,6,0,L|225:32,3,23.9999992675781,2|0|2|0,0:3|0:0|0:3|0:0,0:0:0:0:
318,116,183467,2,0,L|331:77,3,23.9999992675781,8|0|2|0,2:0|0:0|0:3|0:0,0:0:0:0:
422,85,183820,6,0,L|409:46,3,32,2|0|2|0,0:3|0:0|0:3|0:0,0:0:0:0:
502,130,184173,2,0,L|515:91,3,32,8|0|2|0,2:0|0:0|0:3|0:0,0:0:0:0:
465,229,184526,5,2,0:3:0:0:
441,229,184614,1,0,0:0:0:0:
417,229,184702,1,0,0:0:0:0:
393,229,184790,1,0,0:0:0:0:
369,229,184879,1,8,2:0:0:0:
345,229,184967,1,0,0:0:0:0:
321,229,185055,1,0,0:0:0:0:
297,229,185143,1,0,0:0:0:0:
273,229,185232,1,0,0:0:0:0:
249,229,185320,1,0,0:0:0:0:
225,229,185408,1,2,0:3:0:0:
201,229,185496,1,0,0:0:0:0:
177,229,185585,2,0,L|166:161,3,40,8|0|0|0,2:0|0:0|0:0|0:0,0:0:0:0:
299,24,185938,6,0,L|287:104,1,80,2|0,0:3|0:0,0:0:0:0:
260,133,186203,1,0,0:0:0:0:
264,137,186291,1,8,2:0:0:0:
360,223,186467,5,0,0:0:0:0:
364,227,186555,1,0,0:0:0:0:
368,231,186643,1,0,0:0:0:0:
191,256,186820,5,2,0:3:0:0:
195,260,186908,1,0,0:0:0:0:
199,264,186996,1,8,2:0:0:0:
203,268,187085,1,0,0:0:0:0:
207,272,187173,1,2,0:3:0:0:
211,276,187261,1,0,0:0:0:0:
215,280,187349,6,0,L|204:336,15,47.9999985351563,4|0|0|0|0|0|0|0|0|0|0|0|0|0|0|2,0:2|0:0|0:0|0:0|0:0|0:0|0:0|0:0|0:0|0:0|0:0|0:0|0:0|0:0|0:0|0:3,0:0:0:0:
310,215,190173,6,0,L|322:286,15,71.9999978027344,4|0|0|0|0|0|0|0|0|0|0|0|0|0|0|2,0:2|0:0|0:0|0:0|0:0|0:0|0:0|0:0|0:0|0:0|0:0|0:0|0:0|0:0|0:0|0:3,0:0:0:0:
215,280,192996,6,0,L|204:336,7,47.9999985351563,4|0|0|0|0|0|0|2,0:2|0:0|0:0|0:0|0:0|0:0|0:0|0:3,0:0:0:0:
237,319,194408,2,0,L|248:375,7,47.9999985351563,4|0|0|0|0|0|0|2,0:2|0:0|0:0|0:0|0:0|0:0|0:0|0:3,0:0:0:0:
146,217,195820,6,0,L|154:174,3,32,4|0|0|2,0:2|0:0|0:0|0:3,0:0:0:0:
117,188,196526,2,0,L|110:145,3,32,4|0|0|2,0:2|0:0|0:0|0:3,0:0:0:0:
243,91,197232,6,0,L|188:80,3,55.9999982910157,4|0|0|2,0:2|0:0|0:0|0:3,0:0:0:0:
112,55,197938,2,0,L|166:44,3,55.9999982910157,4|0|0|2,0:2|0:0|0:0|0:3,0:0:0:0:
337,26,198644,5,4,0:2:0:0:
324,103,198996,1,4,0:2:0:0:
401,119,199349,1,4,0:2:0:0:
414,42,199702,1,4,0:2:0:0:
337,26,200055,1,4,0:2:0:0:
324,103,200407,1,4,0:2:0:0:
401,119,200760,1,4,0:2:0:0:
414,42,201113,1,4,0:2:0:0:
247,214,201467,5,4,0:2:0:0:
232,122,201644,1,4,0:2:0:0:
324,103,201820,1,4,0:2:0:0:
339,194,201997,1,4,0:2:0:0:
247,214,202173,1,4,0:2:0:0:
232,122,202350,1,4,0:2:0:0:
324,103,202526,1,4,0:2:0:0:
339,194,202703,1,4,0:2:0:0:
247,214,202879,1,4,0:2:0:0:
232,122,203056,1,4,0:2:0:0:
324,103,203232,1,4,0:2:0:0:
339,194,203409,1,4,0:2:0:0:
247,214,203585,1,4,0:2:0:0:
232,122,203762,1,4,0:2:0:0:
324,103,203938,1,4,0:2:0:0:
339,194,204115,1,4,0:2:0:0:
463,163,204291,5,4,0:2:0:0:
453,174,204379,1,0,0:0:0:0:
459,186,204467,1,2,0:3:0:0:
449,198,204555,1,0,0:0:0:0:
455,210,204644,1,2,0:3:0:0:
445,221,204732,1,0,0:0:0:0:
450,233,204820,1,2,0:3:0:0:
440,245,204908,1,0,0:0:0:0:
446,256,204997,1,2,0:3:0:0:
436,268,205085,1,0,0:0:0:0:
442,280,205173,1,2,0:3:0:0:
432,292,205262,1,0,0:0:0:0:
438,303,205350,1,2,0:3:0:0:
427,315,205438,1,0,0:0:0:0:
433,327,205526,1,2,0:3:0:0:
422,339,205614,1,0,0:0:0:0:
428,351,205703,5,2,0:3:0:0:
438,340,205791,1,0,0:0:0:0:
432,328,205879,1,2,0:3:0:0:
442,316,205967,1,0,0:0:0:0:
436,304,206056,1,2,0:3:0:0:
446,293,206144,1,0,0:0:0:0:
441,281,206232,1,2,0:3:0:0:
451,269,206320,1,0,0:0:0:0:
445,258,206409,1,2,0:3:0:0:
455,246,206497,1,0,0:0:0:0:
449,234,206585,1,2,0:3:0:0:
459,222,206674,1,0,0:0:0:0:
453,211,206762,1,2,0:3:0:0:
464,199,206850,1,0,0:0:0:0:
458,187,206938,1,2,0:3:0:0:
469,175,207026,1,0,0:0:0:0:
440,152,207114,6,0,L|433:117,64,33.8000006317902,4|0|0|0|0|0|0|0|0|0|0|0|0|0|0|0|0|0|0|0|0|0|0|0|0|0|0|0|0|0|0|0|0|0|0|0|0|0|0|0|0|0|0|0|0|0|0|0|0|0|0|0|0|0|0|0|0|0|0|0|2|0|2|0|4,0:2|0:0|0:0|0:0|0:0|0:0|0:0|0:0|0:0|0:0|0:0|0:0|0:0|0:0|0:0|0:0|0:0|0:0|0:0|0:0|0:0|0:0|0:0|0:0|0:0|0:0|0:0|0:0|0:0|0:0|0:0|0:0|0:0|0:0|0:0|0:0|0:0|0:0|0:0|0:0|0:0|0:0|0:0|0:0|0:0|0:0|0:0|0:0|0:0|0:0|0:0|0:0|0:0|0:0|0:0|0:0|0:0|0:0|0:0|0:0|0:3|0:0|0:3|0:0|0:2,0:0:0:0:
256,192,209982,12,0,212761,0:0:0:0:
