osu file format v14

[General]
AudioFilename: audio.mp3
AudioLeadIn: 0
PreviewTime: 115349
Countdown: 0
SampleSet: None
StackLeniency: 0.2
Mode: 0
LetterboxInBreaks: 0
WidescreenStoryboard: 1

[Editor]
Bookmarks: 77232
DistanceSpacing: 0.6
BeatDivisor: 4
GridSize: 4
TimelineZoom: 1.8

[Metadata]
Title:Marisa Tanked My Score With an Incredible Hand
TitleUnicode:魔理沙に大変な役でハコにされました
Artist:IOSYS
ArtistUnicode:IOSYS
Creator:Yauxo
Version:Simple Hitsounds
Source:
Tags:ARM 藤咲かりん Parody
BeatmapID:2017786
BeatmapSetID:963766

[Difficulty]
HPDrainRate:4.8
CircleSize:3.8
OverallDifficulty:7.8
ApproachRate:8.6
SliderMultiplier:1.6
SliderTickRate:1

[Events]
//Background and Video events
0,0,"iosys^marisa.png",0,0
//Break Periods
2,35079,39867
//Storyboard Layer 0 (Background)
//Storyboard Layer 1 (Fail)
//Storyboard Layer 2 (Pass)
//Storyboard Layer 3 (Foreground)
//Storyboard Sound Samples

[TimingPoints]
997,352.941176470588,4,2,1,50,1,0
15026,-100,4,2,1,5,0,0
15114,-100,4,2,1,50,0,0
17849,-100,4,2,1,5,0,0
17938,-100,4,2,1,50,0,0
20673,-100,4,2,1,5,0,0
20761,-100,4,2,1,50,0,0
46173,-100,4,2,1,50,0,1
68761,-100,4,2,1,50,0,0
69644,-100,4,2,1,5,0,0
69732,-100,4,2,1,50,0,0
69908,-100,4,2,1,5,0,0
69996,-100,4,2,1,50,0,0
71055,-100,4,2,1,5,0,0
71144,-100,4,2,1,50,0,0
71320,-100,4,2,1,5,0,0
71408,-100,4,2,1,50,0,0
71849,-100,4,2,1,5,0,0
71938,-100,4,2,1,50,0,0
75379,-100,4,2,1,5,0,0
75467,-100,4,2,1,50,0,0
75732,-100,4,2,1,5,0,0
75820,-100,4,2,1,50,0,0
80938,-100,4,2,1,5,0,0
81026,-100,4,2,1,50,0,0
81202,-100,4,2,1,5,0,0
81291,-100,4,2,1,50,0,0
82349,-100,4,2,1,5,0,0
82438,-100,4,2,1,50,0,0
82614,-100,4,2,1,5,0,0
82702,-100,4,2,1,50,0,0
83144,-100,4,2,1,5,0,0
83232,-100,4,2,1,50,0,0
84908,-100,4,2,1,5,0,0
84996,-100,4,2,1,50,0,0
91614,-100,4,2,1,5,0,0
91702,-100,4,2,1,50,0,0
91967,-100,4,2,1,5,0,0
92055,-100,4,2,1,50,0,0
94438,-100,4,2,1,5,0,0
94526,-100,4,2,1,50,0,0
94791,-100,4,2,1,5,0,0
94879,-100,4,2,1,50,0,0
97261,-100,4,2,1,5,0,0
97349,-100,4,2,1,50,0,0
97614,-100,4,2,1,5,0,0
97702,-100,4,2,1,50,0,0
98496,-100,4,2,1,5,0,0
98585,-100,4,2,1,50,0,0
98849,-100,4,2,1,5,0,0
98938,-100,4,2,1,50,0,0
102908,-100,4,2,1,5,0,0
102996,-100,4,2,1,50,0,0
103261,-100,4,2,1,5,0,0
103349,-100,4,2,1,50,0,0
105732,-100,4,2,1,5,0,0
105820,-100,4,2,1,50,0,0
106085,-100,4,2,1,5,0,0
106173,-100,4,2,1,50,0,0
108555,-100,4,2,1,5,0,0
108644,-100,4,2,1,50,0,0
108908,-100,4,2,1,5,0,0
108996,-100,4,2,1,50,0,0
109791,-100,4,2,1,5,0,0
109879,-100,4,2,1,50,0,0
110144,-100,4,2,1,5,0,0
110232,-100,4,2,1,50,0,0
112526,-166.666666666667,4,2,1,50,0,0
113232,-125,4,2,1,50,0,0
113938,-100,4,2,1,50,0,0
113938,-100,4,2,1,50,0,0
116761,-100,4,2,1,50,0,1
126555,-100,4,2,1,5,0,1
126644,-100,4,2,1,50,0,1
139349,-100,4,2,1,50,0,0
151526,-100,4,2,1,5,0,0
151614,-100,4,2,1,50,0,0
151791,-100,4,2,1,5,0,0
151879,-100,4,2,1,50,0,0
152938,-100,4,2,1,5,0,0
153026,-100,4,2,1,50,0,0
153202,-100,4,2,1,5,0,0
153291,-100,4,2,1,50,0,0
153732,-100,4,2,1,5,0,0
153820,-100,4,2,1,50,0,0
154261,-100,4,2,1,5,0,0
154349,-100,4,2,1,50,0,0
155496,-100,4,2,1,5,0,0
155585,-100,4,2,1,50,0,0
162202,-100,4,2,1,5,0,0
162291,-100,4,2,1,50,0,0
162555,-100,4,2,1,5,0,0
162644,-100,4,2,1,50,0,0
165026,-100,4,2,1,5,0,0
165114,-100,4,2,1,50,0,0
165379,-100,4,2,1,5,0,0
165467,-100,4,2,1,50,0,0
167849,-100,4,2,1,5,0,0
167938,-100,4,2,1,50,0,0
168202,-100,4,2,1,5,0,0
168291,-100,4,2,1,50,0,0
169085,-100,4,2,1,5,0,0
169173,-100,4,2,1,50,0,0
169438,-100,4,2,1,5,0,0
169526,-100,4,2,1,50,0,0
173496,-100,4,2,1,5,0,0
173585,-100,4,2,1,50,0,0
173849,-100,4,2,1,5,0,0
173938,-100,4,2,1,50,0,0
176320,-100,4,2,1,5,0,0
176408,-100,4,2,1,50,0,0
176673,-100,4,2,1,5,0,0
176761,-100,4,2,1,50,0,0
179144,-100,4,2,1,5,0,0
179232,-100,4,2,1,50,0,0
179496,-100,4,2,1,5,0,0
179585,-100,4,2,1,50,0,0
180379,-100,4,2,1,5,0,0
180467,-100,4,2,1,50,0,0
180732,-100,4,2,1,5,0,0
180820,-100,4,2,1,50,0,0
183114,-166.666666666667,4,2,1,50,0,0
183820,-125,4,2,1,50,0,0
184526,-100,4,2,1,50,0,0
187349,-166.666666666667,4,2,1,50,0,0
190173,-111.111111111111,4,2,1,50,0,0
192996,-166.666666666667,4,2,1,50,0,0
195820,-250,4,2,1,50,0,0
197232,-142.857142857143,4,2,1,50,0,0
198644,-100,4,2,1,50,0,0
207114,-59.1715976331361,4,2,1,50,0,1
209938,-100,4,2,1,50,0,0
210644,-100,4,2,1,40,0,0
211349,-100,4,2,1,30,0,0
212055,-100,4,2,1,20,0,0
212761,-100,4,2,1,5,0,0

[Colours]
Combo1 : 220,82,82
Combo2 : 218,167,97
Combo3 : 249,254,150

[HitObjects]
256,56,996,5,6,0:2:0:0:
144,120,2055,1,2,0:3:0:0:
256,56,2408,1,6,0:2:0:0:
144,120,3467,1,2,0:3:0:0:
256,56,3820,1,6,0:2:0:0:
144,120,4173,1,2,0:3:0:0:
256,56,4526,1,6,0:2:0:0:
144,120,4879,1,2,0:3:0:0:
256,56,5232,1,6,0:2:0:0:
256,56,5585,1,6,0:2:0:0:
256,56,5938,1,6,0:2:0:0:
144,120,6114,1,2,0:3:0:0:
144,120,6291,1,2,0:3:0:0:
144,120,6467,1,2,0:3:0:0:
256,56,6644,5,6,0:2:0:0:
144,120,7702,1,2,0:3:0:0:
256,56,8055,1,6,0:2:0:0:
144,120,9114,1,2,0:3:0:0:
256,56,9467,1,6,0:2:0:0:
256,56,10173,1,6,0:2:0:0:
144,120,11585,1,2,0:3:0:0:
144,120,11938,1,2,0:3:0:0:
256,56,12291,5,4,0:2:0:0:
368,120,12644,1,8,2:0:0:0:
144,120,12996,1,2,0:3:0:0:
368,120,13349,1,8,2:0:0:0:
144,120,13702,1,2,0:3:0:0:
368,120,14055,1,8,2:0:0:0:
144,120,14408,1,2,0:3:0:0:
368,120,14761,1,8,2:0:0:0:
144,120,15114,1,2,0:3:0:0:
368,120,15467,1,8,2:0:0:0:
144,120,15820,1,2,0:3:0:0:
368,120,16173,1,8,2:0:0:0:
144,120,16526,1,2,0:3:0:0:
368,120,16879,1,8,2:0:0:0:
144,120,17232,1,2,0:3:0:0:
368,120,17585,1,8,2:0:0:0:
144,120,17938,1,2,0:3:0:0:
368,120,18291,1,8,2:0:0:0:
144,120,18644,1,2,0:3:0:0:
368,120,18996,1,8,2:0:0:0:
144,120,19349,1,2,0:3:0:0:
368,120,19702,1,8,2:0:0:0:
144,120,20055,1,2,0:3:0:0:
368,120,20408,1,8,2:0:0:0:
144,120,20761,1,2,0:3:0:0:
368,120,21114,1,8,2:0:0:0:
144,120,21467,1,2,0:3:0:0:
368,120,21820,1,8,2:0:0:0:
144,120,22173,1,2,0:3:0:0:
368,120,22526,1,8,2:0:0:0:
144,120,22879,1,2,0:3:0:0:
368,120,23232,1,8,2:0:0:0:
256,56,23585,5,4,0:2:0:0:
368,120,23938,1,8,2:0:0:0:
144,120,24291,1,2,0:3:0:0:
368,120,24644,1,8,2:0:0:0:
144,120,24996,1,2,0:3:0:0:
368,120,25349,1,8,2:0:0:0:
144,120,25702,1,2,0:3:0:0:
368,120,26055,1,8,2:0:0:0:
144,120,26408,1,2,0:3:0:0:
368,120,26761,1,8,2:0:0:0:
144,120,27114,1,2,0:3:0:0:
368,120,27467,1,8,2:0:0:0:
144,120,27820,1,2,0:3:0:0:
368,120,28173,1,8,2:0:0:0:
144,120,28526,1,2,0:3:0:0:
368,120,28879,1,8,2:0:0:0:
144,120,29232,1,2,0:3:0:0:
368,120,29585,1,8,2:0:0:0:
144,120,29938,1,2,0:3:0:0:
368,120,30291,1,8,2:0:0:0:
144,120,30644,1,2,0:3:0:0:
368,120,30996,1,8,2:0:0:0:
144,120,31349,1,2,0:3:0:0:
368,120,31702,1,8,2:0:0:0:
144,120,32055,1,2,0:3:0:0:
368,120,32408,1,8,2:0:0:0:
144,120,32761,1,2,0:3:0:0:
368,120,33114,1,8,2:0:0:0:
144,120,33467,1,2,0:3:0:0:
368,120,33820,1,8,2:0:0:0:
144,120,34173,1,2,0:3:0:0:
368,120,34526,1,8,2:0:0:0:
256,56,34879,5,4,0:2:0:0:
256,56,40526,5,4,0:2:0:0:
144,120,41055,1,2,0:3:0:0:
144,120,41761,1,2,0:3:0:0:
256,56,41938,1,4,0:2:0:0:
144,120,42467,1,2,0:3:0:0:
144,120,42996,1,2,0:3:0:0:
144,120,43173,1,2,0:3:0:0:
256,56,43349,1,4,0:2:0:0:
144,120,43879,1,2,0:3:0:0:
144,120,44585,1,2,0:3:0:0:
256,56,44761,1,4,0:2:0:0:
256,56,45291,1,4,0:2:0:0:
256,56,45820,1,4,0:2:0:0:
256,56,46173,5,4,0:2:0:0:
368,120,46526,1,8,2:0:0:0:
144,120,46879,1,2,0:3:0:0:
368,120,47232,1,8,2:0:0:0:
144,120,47585,1,2,0:3:0:0:
368,120,47938,1,8,2:0:0:0:
144,120,48291,1,2,0:3:0:0:
368,120,48644,1,8,2:0:0:0:
256,56,48996,5,4,0:2:0:0:
368,120,49349,1,8,2:0:0:0:
144,120,49702,1,2,0:3:0:0:
368,120,50055,1,8,2:0:0:0:
144,120,50408,1,2,0:3:0:0:
368,120,50761,1,8,2:0:0:0:
144,120,51114,1,2,0:3:0:0:
368,120,51467,1,8,2:0:0:0:
256,56,51820,1,4,0:2:0:0:
368,120,52173,1,8,2:0:0:0:
144,120,52526,1,2,0:3:0:0:
368,120,52879,1,8,2:0:0:0:
144,120,53232,1,2,0:3:0:0:
368,120,53585,1,8,2:0:0:0:
144,120,53938,1,2,0:3:0:0:
368,120,54291,1,8,2:0:0:0:
256,56,54644,1,4,0:2:0:0:
368,120,54996,1,8,2:0:0:0:
144,120,55349,1,2,0:3:0:0:
368,120,55702,1,8,2:0:0:0:
256,56,56055,1,4,0:2:0:0:
368,120,56408,1,8,2:0:0:0:
144,120,56761,1,2,0:3:0:0:
368,120,57114,1,8,2:0:0:0:
256,56,57467,5,4,0:2:0:0:
368,120,57820,1,8,2:0:0:0:
144,120,58173,1,2,0:3:0:0:
368,120,58526,1,8,2:0:0:0:
144,120,58879,1,2,0:3:0:0:
368,120,59232,1,8,2:0:0:0:
144,120,59585,1,2,0:3:0:0:
368,120,59938,1,8,2:0:0:0:
256,56,60291,1,4,0:2:0:0:
368,120,60644,1,8,2:0:0:0:
144,120,60996,1,2,0:3:0:0:
368,120,61349,1,8,2:0:0:0:
144,120,61702,1,2,0:3:0:0:
368,120,62055,1,8,2:0:0:0:
144,120,62408,1,2,0:3:0:0:
368,120,62761,1,8,2:0:0:0:
256,56,63114,1,4,0:2:0:0:
368,120,63467,1,8,2:0:0:0:
144,120,63820,1,2,0:3:0:0:
368,120,64173,1,8,2:0:0:0:
144,120,64526,1,2,0:3:0:0:
368,120,64879,1,8,2:0:0:0:
144,120,65232,1,2,0:3:0:0:
368,120,65585,1,8,2:0:0:0:
256,56,65938,5,4,0:2:0:0:
368,120,66291,1,8,2:0:0:0:
144,120,66644,1,2,0:3:0:0:
368,120,66996,1,8,2:0:0:0:
256,56,67349,1,4,0:2:0:0:
144,120,67702,1,2,0:3:0:0:
144,120,68055,1,2,0:3:0:0:
144,120,68232,1,2,0:3:0:0:
144,120,68408,1,2,0:3:0:0:
144,120,68585,1,2,0:3:0:0:
256,56,68761,5,4,0:2:0:0:
368,120,69114,1,8,2:0:0:0:
144,120,69467,1,2,0:3:0:0:
368,120,69820,1,8,2:0:0:0:
144,120,70173,1,2,0:3:0:0:
368,120,70526,1,8,2:0:0:0:
144,120,70879,1,2,0:3:0:0:
368,120,71232,1,8,2:0:0:0:
144,120,71585,1,2,0:3:0:0:
368,120,71938,1,8,2:0:0:0:
144,120,72291,1,2,0:3:0:0:
368,120,72644,1,8,2:0:0:0:
144,120,72996,1,2,0:3:0:0:
368,120,73349,1,8,2:0:0:0:
144,120,73702,1,2,0:3:0:0:
368,120,74055,1,8,2:0:0:0:
144,120,74408,1,2,0:3:0:0:
368,120,74761,1,8,2:0:0:0:
144,120,75114,1,2,0:3:0:0:
368,120,75467,1,8,2:0:0:0:
144,120,75820,1,2,0:3:0:0:
368,120,76173,1,8,2:0:0:0:
144,120,76526,1,2,0:3:0:0:
368,120,76879,1,8,2:0:0:0:
144,120,77232,1,2,0:3:0:0:
368,120,77585,1,8,2:0:0:0:
144,120,77761,1,2,0:3:0:0:
144,120,77938,1,2,0:3:0:0:
368,120,78291,1,8,2:0:0:0:
144,120,78644,1,2,0:3:0:0:
144,120,78820,1,2,0:3:0:0:
368,120,78996,1,8,2:0:0:0:
144,120,79173,1,2,0:3:0:0:
144,120,79349,1,2,0:3:0:0:
144,120,79526,1,2,0:3:0:0:
368,120,79702,1,8,2:0:0:0:
144,120,79879,1,2,0:3:0:0:
256,56,80055,5,4,0:2:0:0:
368,120,80408,1,8,2:0:0:0:
144,120,80761,1,2,0:3:0:0:
368,120,81114,1,8,2:0:0:0:
144,120,81467,1,2,0:3:0:0:
368,120,81820,1,8,2:0:0:0:
144,120,82173,1,2,0:3:0:0:
368,120,82526,1,8,2:0:0:0:
144,120,82879,1,2,0:3:0:0:
368,120,83232,1,8,2:0:0:0:
144,120,83585,1,2,0:3:0:0:
368,120,83938,1,8,2:0:0:0:
144,120,84291,1,2,0:3:0:0:
368,120,84644,1,8,2:0:0:0:
144,120,84996,1,2,0:3:0:0:
368,120,85349,1,8,2:0:0:0:
144,120,85702,1,2,0:3:0:0:
368,120,86055,1,8,2:0:0:0:
144,120,86408,1,2,0:3:0:0:
368,120,86761,1,8,2:0:0:0:
144,120,87114,1,2,0:3:0:0:
368,120,87467,1,8,2:0:0:0:
144,120,87820,1,2,0:3:0:0:
368,120,88173,1,8,2:0:0:0:
144,120,88526,1,2,0:3:0:0:
144,120,88702,1,2,0:3:0:0:
368,120,88879,1,8,2:0:0:0:
144,120,89055,1,2,0:3:0:0:
144,120,89232,1,2,0:3:0:0:
144,120,89408,1,2,0:3:0:0:
368,120,89585,1,8,2:0:0:0:
144,120,89761,1,2,0:3:0:0:
144,120,89938,1,2,0:3:0:0:
144,120,90291,1,2,0:3:0:0:
144,120,90644,1,2,0:3:0:0:
144,120,90820,1,2,0:3:0:0:
144,120,90996,1,2,0:3:0:0:
144,120,91173,1,2,0:3:0:0:
256,56,91349,5,4,0:2:0:0:
368,120,91702,1,8,2:0:0:0:
144,120,92055,1,2,0:3:0:0:
368,120,92408,1,8,2:0:0:0:
144,120,92761,1,2,0:3:0:0:
368,120,93114,1,8,2:0:0:0:
144,120,93467,1,2,0:3:0:0:
368,120,93820,1,8,2:0:0:0:
144,120,94173,1,2,0:3:0:0:
368,120,94526,1,8,2:0:0:0:
144,120,94879,1,2,0:3:0:0:
368,120,95232,1,8,2:0:0:0:
144,120,95585,1,2,0:3:0:0:
368,120,95938,1,8,2:0:0:0:
144,120,96291,1,2,0:3:0:0:
368,120,96644,1,8,2:0:0:0:
144,120,96996,1,2,0:3:0:0:
368,120,97349,1,8,2:0:0:0:
144,120,97702,1,2,0:3:0:0:
368,120,98055,1,8,2:0:0:0:
144,120,98408,1,2,0:3:0:0:
368,120,98761,1,8,2:0:0:0:
144,120,99114,1,2,0:3:0:0:
368,120,99467,1,8,2:0:0:0:
144,120,99820,1,2,0:3:0:0:
368,120,100173,1,8,2:0:0:0:
144,120,100526,1,2,0:3:0:0:
368,120,100879,1,8,2:0:0:0:
144,120,101232,1,2,0:3:0:0:
368,120,101585,1,8,2:0:0:0:
144,120,101938,1,2,0:3:0:0:
368,120,102291,1,8,2:0:0:0:
256,56,102644,5,4,0:2:0:0:
368,120,102996,1,8,2:0:0:0:
144,120,103349,1,2,0:3:0:0:
368,120,103702,1,8,2:0:0:0:
144,120,104055,1,2,0:3:0:0:
368,120,104408,1,8,2:0:0:0:
144,120,104761,1,2,0:3:0:0:
368,120,105114,1,8,2:0:0:0:
144,120,105467,1,2,0:3:0:0:
368,120,105820,1,8,2:0:0:0:
144,120,106173,1,2,0:3:0:0:
368,120,106526,1,8,2:0:0:0:
144,120,106879,1,2,0:3:0:0:
368,120,107232,1,8,2:0:0:0:
144,120,107585,1,2,0:3:0:0:
368,120,107938,1,8,2:0:0:0:
144,120,108291,1,2,0:3:0:0:
368,120,108644,1,8,2:0:0:0:
144,120,108996,1,2,0:3:0:0:
368,120,109349,1,8,2:0:0:0:
144,120,109702,1,2,0:3:0:0:
368,120,110055,1,8,2:0:0:0:
144,120,110408,1,2,0:3:0:0:
368,120,110761,1,8,2:0:0:0:
144,120,111114,1,2,0:3:0:0:
144,120,111291,1,2,0:3:0:0:
368,120,111467,1,8,2:0:0:0:
144,120,111644,1,2,0:3:0:0:
144,120,111820,1,2,0:3:0:0:
144,120,111996,1,2,0:3:0:0:
368,120,112173,1,8,2:0:0:0:
144,120,112349,1,2,0:3:0:0:
144,120,112526,1,2,0:3:0:0:
144,120,112702,1,2,0:3:0:0:
368,120,112879,1,8,2:0:0:0:
144,120,113055,1,2,0:3:0:0:
144,120,113232,1,2,0:3:0:0:
144,120,113408,1,2,0:3:0:0:
368,120,113585,1,8,2:0:0:0:
144,120,113761,1,2,0:3:0:0:
144,120,113938,1,2,0:3:0:0:
368,120,114291,1,8,2:0:0:0:
144,120,114820,1,2,0:3:0:0:
368,120,114996,1,8,2:0:0:0:
144,120,115349,1,2,0:3:0:0:
368,120,115702,1,8,2:0:0:0:
144,120,116232,1,2,0:3:0:0:
368,120,116408,1,8,2:0:0:0:
256,56,116761,5,4,0:2:0:0:
368,120,117114,1,8,2:0:0:0:
144,120,117467,1,2,0:3:0:0:
368,120,117820,1,8,2:0:0:0:
144,120,118173,1,2,0:3:0:0:
368,120,118526,1,8,2:0:0:0:
144,120,118879,1,2,0:3:0:0:
368,120,119232,1,8,2:0:0:0:
144,120,119585,1,2,0:3:0:0:
368,120,119938,1,8,2:0:0:0:
144,120,120291,1,2,0:3:0:0:
368,120,120644,1,8,2:0:0:0:
144,120,120996,1,2,0:3:0:0:
368,120,121349,1,8,2:0:0:0:
144,120,121702,1,2,0:3:0:0:
368,120,122055,1,8,2:0:0:0:
256,56,122408,5,4,0:2:0:0:
368,120,122761,1,8,2:0:0:0:
144,120,123114,1,2,0:3:0:0:
368,120,123467,1,8,2:0:0:0:
144,120,123820,1,2,0:3:0:0:
368,120,124173,1,8,2:0:0:0:
144,120,124526,1,2,0:3:0:0:
368,120,124879,1,8,2:0:0:0:
144,120,125232,1,2,0:3:0:0:
368,120,125585,1,8,2:0:0:0:
144,120,125938,1,2,0:3:0:0:
368,120,126291,1,8,2:0:0:0:
144,120,126644,1,2,0:3:0:0:
368,120,126996,1,8,2:0:0:0:
144,120,127349,1,2,0:3:0:0:
368,120,127702,1,8,2:0:0:0:
256,56,128055,5,4,0:2:0:0:
368,120,128408,1,8,2:0:0:0:
144,120,128761,1,2,0:3:0:0:
368,120,129114,1,8,2:0:0:0:
144,120,129467,1,2,0:3:0:0:
368,120,129820,1,8,2:0:0:0:
144,120,130173,1,2,0:3:0:0:
368,120,130526,1,8,2:0:0:0:
144,120,130879,1,2,0:3:0:0:
368,120,131232,1,8,2:0:0:0:
144,120,131585,1,2,0:3:0:0:
368,120,131938,1,8,2:0:0:0:
144,120,132291,1,2,0:3:0:0:
368,120,132644,1,8,2:0:0:0:
144,120,132996,1,2,0:3:0:0:
368,120,133349,1,8,2:0:0:0:
256,56,133702,5,4,0:2:0:0:
368,120,134055,1,8,2:0:0:0:
144,120,134408,1,2,0:3:0:0:
368,120,134761,1,8,2:0:0:0:
144,120,135114,1,2,0:3:0:0:
368,120,135467,1,8,2:0:0:0:
144,120,135820,1,2,0:3:0:0:
368,120,136173,1,8,2:0:0:0:
144,120,136526,1,2,0:3:0:0:
144,120,136879,1,2,0:3:0:0:
144,120,137232,1,2,0:3:0:0:
144,120,137585,1,2,0:3:0:0:
144,120,137938,1,2,0:3:0:0:
144,120,138114,1,2,0:3:0:0:
144,120,138291,1,2,0:3:0:0:
144,120,138467,1,2,0:3:0:0:
144,120,138644,1,2,0:3:0:0:
144,120,138820,1,2,0:3:0:0:
144,120,138996,1,2,0:3:0:0:
144,120,139173,1,2,0:3:0:0:
256,56,139349,5,4,0:2:0:0:
368,120,139702,1,8,2:0:0:0:
368,120,140408,1,8,2:0:0:0:
368,120,141114,1,8,2:0:0:0:
368,120,141820,1,8,2:0:0:0:
368,120,142526,1,8,2:0:0:0:
368,120,143232,1,8,2:0:0:0:
368,120,143938,1,8,2:0:0:0:
368,120,144644,1,8,2:0:0:0:
368,120,145349,1,8,2:0:0:0:
368,120,146055,1,8,2:0:0:0:
368,120,146761,1,8,2:0:0:0:
368,120,147467,1,8,2:0:0:0:
256,56,147820,5,4,0:2:0:0:
368,120,148173,1,8,2:0:0:0:
144,120,148349,1,2,0:3:0:0:
368,120,148879,1,8,2:0:0:0:
144,120,149232,1,2,0:3:0:0:
368,120,149585,1,8,2:0:0:0:
144,120,149761,1,2,0:3:0:0:
144,120,149938,1,2,0:3:0:0:
144,120,150114,1,2,0:3:0:0:
368,120,150291,1,8,2:0:0:0:
144,120,150467,1,2,0:3:0:0:
256,56,150644,1,4,0:2:0:0:
368,120,150996,1,8,2:0:0:0:
144,120,151349,1,2,0:3:0:0:
368,120,151702,1,8,2:0:0:0:
144,120,152055,1,2,0:3:0:0:
368,120,152408,1,8,2:0:0:0:
144,120,152761,1,2,0:3:0:0:
368,120,153114,1,8,2:0:0:0:
144,120,153467,1,2,0:3:0:0:
368,120,153820,1,8,2:0:0:0:
144,120,154173,1,2,0:3:0:0:
368,120,154526,1,8,2:0:0:0:
144,120,154879,1,2,0:3:0:0:
368,120,155232,1,8,2:0:0:0:
144,120,155585,1,2,0:3:0:0:
368,120,155938,1,8,2:0:0:0:
144,120,156291,1,2,0:3:0:0:
368,120,156644,1,8,2:0:0:0:
144,120,156996,1,2,0:3:0:0:
368,120,157349,1,8,2:0:0:0:
144,120,157702,1,2,0:3:0:0:
368,120,158055,1,8,2:0:0:0:
144,120,158408,1,2,0:3:0:0:
144,120,158673,1,2,0:3:0:0:
368,120,158761,1,8,2:0:0:0:
144,120,158938,1,2,0:3:0:0:
144,120,159114,1,2,0:3:0:0:
144,120,159291,1,2,0:3:0:0:
368,120,159467,1,8,2:0:0:0:
144,120,159644,1,2,0:3:0:0:
144,120,159820,1,2,0:3:0:0:
144,120,159996,1,2,0:3:0:0:
368,120,160173,1,8,2:0:0:0:
144,120,160349,1,2,0:3:0:0:
144,120,160438,1,2,0:3:0:0:
256,56,160526,5,4,0:2:0:0:
144,120,161585,1,2,0:3:0:0:
144,120,161673,1,2,0:3:0:0:
144,120,161761,1,2,0:3:0:0:
144,120,161849,1,2,0:3:0:0:
256,56,161938,1,4,0:2:0:0:
368,120,162291,1,8,2:0:0:0:
144,120,162644,1,2,0:3:0:0:
368,120,162996,1,8,2:0:0:0:
144,120,163349,1,2,0:3:0:0:
368,120,163702,1,8,2:0:0:0:
144,120,164055,1,2,0:3:0:0:
368,120,164408,1,8,2:0:0:0:
144,120,164761,1,2,0:3:0:0:
368,120,165114,1,8,2:0:0:0:
144,120,165467,1,2,0:3:0:0:
368,120,165820,1,8,2:0:0:0:
144,120,166173,1,2,0:3:0:0:
368,120,166526,1,8,2:0:0:0:
144,120,166879,1,2,0:3:0:0:
368,120,167232,1,8,2:0:0:0:
144,120,167585,1,2,0:3:0:0:
368,120,167938,1,8,2:0:0:0:
144,120,168291,1,2,0:3:0:0:
368,120,168644,1,8,2:0:0:0:
144,120,168996,1,2,0:3:0:0:
368,120,169349,1,8,2:0:0:0:
144,120,169702,1,2,0:3:0:0:
368,120,170055,1,8,2:0:0:0:
144,120,170408,1,2,0:3:0:0:
368,120,170761,1,8,2:0:0:0:
144,120,171114,1,2,0:3:0:0:
368,120,171467,1,8,2:0:0:0:
144,120,171820,1,2,0:3:0:0:
144,120,171996,1,2,0:3:0:0:
368,120,172173,1,8,2:0:0:0:
144,120,172349,1,2,0:3:0:0:
144,120,172526,1,2,0:3:0:0:
144,120,172702,1,2,0:3:0:0:
368,120,172879,1,8,2:0:0:0:
144,120,173055,1,2,0:3:0:0:
256,56,173232,5,4,0:2:0:0:
368,120,173585,1,8,2:0:0:0:
144,120,173938,1,2,0:3:0:0:
368,120,174291,1,8,2:0:0:0:
144,120,174644,1,2,0:3:0:0:
368,120,174996,1,8,2:0:0:0:
144,120,175349,1,2,0:3:0:0:
368,120,175702,1,8,2:0:0:0:
144,120,176055,1,2,0:3:0:0:
368,120,176408,1,8,2:0:0:0:
144,120,176761,1,2,0:3:0:0:
368,120,177114,1,8,2:0:0:0:
144,120,177467,1,2,0:3:0:0:
368,120,177820,1,8,2:0:0:0:
144,120,178173,1,2,0:3:0:0:
368,120,178526,1,8,2:0:0:0:
144,120,178879,1,2,0:3:0:0:
368,120,179232,1,8,2:0:0:0:
144,120,179585,1,2,0:3:0:0:
368,120,179938,1,8,2:0:0:0:
144,120,180291,1,2,0:3:0:0:
368,120,180644,1,8,2:0:0:0:
144,120,180996,1,2,0:3:0:0:
368,120,181349,1,8,2:0:0:0:
144,120,181702,1,2,0:3:0:0:
144,120,181879,1,2,0:3:0:0:
368,120,182055,1,8,2:0:0:0:
144,120,182232,1,2,0:3:0:0:
144,120,182408,1,2,0:3:0:0:
144,120,182585,1,2,0:3:0:0:
368,120,182761,1,8,2:0:0:0:
144,120,182938,1,2,0:3:0:0:
144,120,183114,1,2,0:3:0:0:
144,120,183291,1,2,0:3:0:0:
368,120,183467,1,8,2:0:0:0:
144,120,183644,1,2,0:3:0:0:
144,120,183820,1,2,0:3:0:0:
144,120,183996,1,2,0:3:0:0:
368,120,184173,1,8,2:0:0:0:
144,120,184349,1,2,0:3:0:0:
144,120,184526,1,2,0:3:0:0:
368,120,184879,1,8,2:0:0:0:
144,120,185408,1,2,0:3:0:0:
368,120,185585,1,8,2:0:0:0:
144,120,185938,1,2,0:3:0:0:
368,120,186291,1,8,2:0:0:0:
144,120,186820,1,2,0:3:0:0:
368,120,186996,1,8,2:0:0:0:
144,120,187173,1,2,0:3:0:0:
256,56,187349,5,4,0:2:0:0:
144,120,189996,1,2,0:3:0:0:
256,56,190173,1,4,0:2:0:0:
144,120,192820,1,2,0:3:0:0:
256,56,192996,1,4,0:2:0:0:
144,120,194232,1,2,0:3:0:0:
256,56,194408,1,4,0:2:0:0:
144,120,195644,1,2,0:3:0:0:
256,56,195820,1,4,0:2:0:0:
144,120,196349,1,2,0:3:0:0:
256,56,196526,1,4,0:2:0:0:
144,120,197055,1,2,0:3:0:0:
256,56,197232,1,4,0:2:0:0:
144,120,197761,1,2,0:3:0:0:
256,56,197938,1,4,0:2:0:0:
144,120,198467,1,2,0:3:0:0:
256,56,198644,1,4,0:2:0:0:
256,56,198996,1,4,0:2:0:0:
256,56,199349,1,4,0:2:0:0:
256,56,199702,1,4,0:2:0:0:
256,56,200055,1,4,0:2:0:0:
256,56,200408,1,4,0:2:0:0:
256,56,200761,1,4,0:2:0:0:
256,56,201114,1,4,0:2:0:0:
144,120,201291,1,2,0:3:0:0:
256,56,201467,1,4,0:2:0:0:
256,56,201644,1,4,0:2:0:0:
256,56,201820,1,4,0:2:0:0:
256,56,201996,1,4,0:2:0:0:
256,56,202173,1,4,0:2:0:0:
256,56,202349,1,4,0:2:0:0:
256,56,202526,1,4,0:2:0:0:
256,56,202702,1,4,0:2:0:0:
256,56,202879,1,4,0:2:0:0:
256,56,203055,1,4,0:2:0:0:
256,56,203232,1,4,0:2:0:0:
256,56,203408,1,4,0:2:0:0:
256,56,203585,1,4,0:2:0:0:
256,56,203761,1,4,0:2:0:0:
256,56,203938,1,4,0:2:0:0:
256,56,204114,1,4,0:2:0:0:
256,56,204291,1,4,0:2:0:0:
144,120,204467,1,2,0:3:0:0:
144,120,204644,1,2,0:3:0:0:
144,120,204820,1,2,0:3:0:0:
144,120,204996,1,2,0:3:0:0:
144,120,205173,1,2,0:3:0:0:
144,120,205349,1,2,0:3:0:0:
144,120,205526,1,2,0:3:0:0:
144,120,205702,1,2,0:3:0:0:
144,120,205879,1,2,0:3:0:0:
144,120,206055,1,2,0:3:0:0:
144,120,206232,1,2,0:3:0:0:
144,120,206408,1,2,0:3:0:0:
144,120,206585,1,2,0:3:0:0:
144,120,206761,1,2,0:3:0:0:
144,120,206938,1,2,0:3:0:0:
256,56,207114,1,4,0:2:0:0:
144,120,209761,1,2,0:3:0:0:
144,120,209849,1,2,0:3:0:0:
256,56,209938,1,4,0:2:0:0:
