osu file format v14

[General]
AudioFilename: 03 Kanjo Jikken.mp3
AudioLeadIn: 0
PreviewTime: 248746
Countdown: 0
SampleSet: Normal
StackLeniency: 0.7
Mode: 3
LetterboxInBreaks: 0
SpecialStyle: 0
WidescreenStoryboard: 0

[Editor]
DistanceSpacing: 1.2
BeatDivisor: 8
GridSize: 4
TimelineZoom: 1.5

[Metadata]
Title:Kanjou Jikken
TitleUnicode:かんじょう じっけん
Artist:IOSYS
ArtistUnicode:IOSYS
Creator:- ID9 -
Version:Hard
Source:東方Project
Tags:黒魔, Touhou, 感情の摩天楼 ~ Cosmic Mind, Kanjou no Matenrou, SEAWAVES, etc.
BeatmapID:700592
BeatmapSetID:313875

[Difficulty]
HPDrainRate:7
CircleSize:4
OverallDifficulty:8
ApproachRate:5
SliderMultiplier:1.4
SliderTickRate:1

[Events]
//Background and Video events
0,0,"BG.jpg",0,0
//Break Periods
//Storyboard Layer 0 (Background)
//Storyboard Layer 1 (Fail)
//Storyboard Layer 2 (Pass)
//Storyboard Layer 3 (Foreground)
//Storyboard Sound Samples

[TimingPoints]
629,352.941176470588,4,1,0,5,1,0
57099,-100,4,1,0,5,0,1
79687,-100,4,1,0,5,0,0
96628,-100,4,1,0,5,0,1
107570,-100,4,1,0,5,0,0
153099,-100,4,1,0,5,0,1
175687,-100,4,1,0,5,0,0
203746,-100,4,1,0,5,0,1
226511,-100,4,1,0,5,0,0
248746,-100,4,1,0,5,0,1
271687,-100,4,1,0,5,0,0

[HitObjects]
64,192,629,5,0,0:0:0:0:
448,192,629,1,0,0:0:0:0:
192,192,981,1,0,0:0:0:0:
320,192,1334,1,0,0:0:0:0:
448,192,1687,1,0,0:0:0:0:
192,192,1687,1,0,0:0:0:0:
64,192,2040,1,0,0:0:0:0:
320,192,2040,1,0,0:0:0:0:
192,192,2393,1,0,0:0:0:0:
320,192,2746,1,0,0:0:0:0:
448,192,3099,1,0,0:0:0:0:
64,192,3099,1,0,0:0:0:0:
192,192,3452,1,0,0:0:0:0:
320,192,3452,1,0,0:0:0:0:
64,192,3805,1,0,0:0:0:0:
192,192,4158,1,0,0:0:0:0:
64,192,4511,1,0,0:0:0:0:
320,192,4511,1,0,0:0:0:0:
448,192,4864,1,0,0:0:0:0:
192,192,4864,1,0,0:0:0:0:
64,192,5217,1,0,0:0:0:0:
320,192,5570,1,0,0:0:0:0:
192,192,5923,1,0,0:0:0:0:
448,192,6099,1,0,0:0:0:0:
64,192,6276,1,0,0:0:0:0:
192,192,6276,1,0,0:0:0:0:
320,192,6628,1,0,0:0:0:0:
192,192,6981,1,0,0:0:0:0:
448,192,7334,1,0,0:0:0:0:
64,192,7334,1,0,0:0:0:0:
320,192,7687,1,0,0:0:0:0:
192,192,7687,1,0,0:0:0:0:
64,192,8040,1,0,0:0:0:0:
448,192,8393,1,0,0:0:0:0:
64,192,8746,1,0,0:0:0:0:
320,192,8746,1,0,0:0:0:0:
448,192,9099,1,0,0:0:0:0:
64,192,9099,1,0,0:0:0:0:
192,192,9452,1,0,0:0:0:0:
320,192,9805,1,0,0:0:0:0:
64,192,10158,1,0,0:0:0:0:
448,192,10158,1,0,0:0:0:0:
320,192,10511,1,0,0:0:0:0:
448,192,10511,1,0,0:0:0:0:
192,192,10864,1,0,0:0:0:0:
320,192,11217,1,0,0:0:0:0:
448,192,11570,1,0,0:0:0:0:
192,192,11923,1,0,0:0:0:0:
64,192,11923,1,0,0:0:0:0:
320,192,12099,1,0,0:0:0:0:
64,192,12276,1,0,0:0:0:0:
448,192,12452,1,0,0:0:0:0:
320,192,12628,1,0,0:0:0:0:
192,192,12805,1,0,0:0:0:0:
64,192,12981,1,0,0:0:0:0:
448,192,12981,1,0,0:0:0:0:
64,192,13334,1,0,0:0:0:0:
192,192,13334,1,0,0:0:0:0:
320,192,13511,1,0,0:0:0:0:
448,192,13687,1,0,0:0:0:0:
64,192,13864,1,0,0:0:0:0:
192,192,14040,1,0,0:0:0:0:
320,192,14217,1,0,0:0:0:0:
448,192,14393,1,0,0:0:0:0:
64,192,14393,1,0,0:0:0:0:
448,192,14746,1,0,0:0:0:0:
320,192,14746,1,0,0:0:0:0:
192,192,14923,1,0,0:0:0:0:
64,192,15099,1,0,0:0:0:0:
448,192,15276,1,0,0:0:0:0:
320,192,15452,1,0,0:0:0:0:
192,192,15628,1,0,0:0:0:0:
320,192,15805,1,0,0:0:0:0:
64,192,15805,1,0,0:0:0:0:
64,192,16158,1,0,0:0:0:0:
192,192,16158,1,0,0:0:0:0:
320,192,16246,1,0,0:0:0:0:
448,192,16334,1,0,0:0:0:0:
64,192,16423,1,0,0:0:0:0:
192,192,16511,1,0,0:0:0:0:
320,192,16599,1,0,0:0:0:0:
448,192,16687,1,0,0:0:0:0:
64,192,16776,1,0,0:0:0:0:
192,192,16864,1,0,0:0:0:0:
448,192,16952,1,0,0:0:0:0:
320,192,17040,1,0,0:0:0:0:
192,192,17128,1,0,0:0:0:0:
64,192,17217,1,0,0:0:0:0:
448,192,17393,1,0,0:0:0:0:
64,192,17570,128,0,17923:0:0:0:0:
320,192,17570,1,0,0:0:0:0:
192,192,17923,128,0,18276:0:0:0:0:
320,192,18276,128,0,18628:0:0:0:0:
64,192,18628,1,0,0:0:0:0:
448,192,18981,128,0,19334:0:0:0:0:
192,192,18981,1,0,0:0:0:0:
320,192,19334,128,0,19687:0:0:0:0:
192,192,19687,128,0,20040:0:0:0:0:
448,192,20040,1,0,0:0:0:0:
320,192,20393,128,0,20746:0:0:0:0:
64,192,20393,1,0,0:0:0:0:
448,192,20746,128,0,21099:0:0:0:0:
192,192,21099,128,0,21452:0:0:0:0:
64,192,21452,1,0,0:0:0:0:
448,192,21452,1,0,0:0:0:0:
192,192,21805,1,0,0:0:0:0:
64,192,21805,1,0,0:0:0:0:
320,192,21893,1,0,0:0:0:0:
448,192,21981,1,0,0:0:0:0:
64,192,22070,1,0,0:0:0:0:
192,192,22158,1,0,0:0:0:0:
320,192,22246,1,0,0:0:0:0:
448,192,22334,1,0,0:0:0:0:
64,192,22423,1,0,0:0:0:0:
192,192,22511,1,0,0:0:0:0:
448,192,22599,1,0,0:0:0:0:
320,192,22687,1,0,0:0:0:0:
192,192,22776,1,0,0:0:0:0:
64,192,22864,1,0,0:0:0:0:
192,192,23040,1,0,0:0:0:0:
448,192,23217,128,0,23746:0:0:0:0:
192,192,23217,1,0,0:0:0:0:
320,192,23746,1,0,0:0:0:0:
64,192,23923,1,0,0:0:0:0:
192,192,24099,1,0,0:0:0:0:
320,192,24276,1,0,0:0:0:0:
448,192,24276,1,0,0:0:0:0:
192,192,24628,1,0,0:0:0:0:
64,192,24628,1,0,0:0:0:0:
320,192,24805,1,0,0:0:0:0:
448,192,24981,1,0,0:0:0:0:
320,192,25158,1,0,0:0:0:0:
192,192,25334,1,0,0:0:0:0:
320,192,25511,1,0,0:0:0:0:
64,192,25687,1,0,0:0:0:0:
192,192,25687,1,0,0:0:0:0:
320,192,26040,1,0,0:0:0:0:
448,192,26040,1,0,0:0:0:0:
192,192,26217,1,0,0:0:0:0:
64,192,26393,1,0,0:0:0:0:
192,192,26570,1,0,0:0:0:0:
320,192,26746,1,0,0:0:0:0:
192,192,26923,1,0,0:0:0:0:
320,192,27099,1,0,0:0:0:0:
448,192,27099,1,0,0:0:0:0:
192,192,27452,1,0,0:0:0:0:
64,192,27452,1,0,0:0:0:0:
320,192,27540,1,0,0:0:0:0:
448,192,27628,1,0,0:0:0:0:
64,192,27717,1,0,0:0:0:0:
192,192,27805,1,0,0:0:0:0:
320,192,27893,1,0,0:0:0:0:
448,192,27981,1,0,0:0:0:0:
64,192,28070,1,0,0:0:0:0:
192,192,28158,1,0,0:0:0:0:
448,192,28246,1,0,0:0:0:0:
320,192,28334,1,0,0:0:0:0:
192,192,28423,1,0,0:0:0:0:
64,192,28511,1,0,0:0:0:0:
448,192,28687,1,0,0:0:0:0:
192,192,28864,1,0,0:0:0:0:
320,192,28864,1,0,0:0:0:0:
448,192,29217,1,0,0:0:0:0:
64,192,29217,1,0,0:0:0:0:
192,192,29570,1,0,0:0:0:0:
448,192,29570,1,0,0:0:0:0:
320,192,29923,1,0,0:0:0:0:
64,192,29923,1,0,0:0:0:0:
320,192,30276,1,0,0:0:0:0:
448,192,30276,1,0,0:0:0:0:
64,192,30628,1,0,0:0:0:0:
192,192,30628,1,0,0:0:0:0:
320,192,30981,1,0,0:0:0:0:
192,192,30981,1,0,0:0:0:0:
192,192,31334,1,0,0:0:0:0:
448,192,31334,1,0,0:0:0:0:
64,192,31687,1,0,0:0:0:0:
320,192,31687,1,0,0:0:0:0:
192,192,32040,1,0,0:0:0:0:
448,192,32040,1,0,0:0:0:0:
320,192,32393,1,0,0:0:0:0:
192,192,32393,1,0,0:0:0:0:
64,192,32746,1,0,0:0:0:0:
448,192,32746,1,0,0:0:0:0:
448,192,33099,1,0,0:0:0:0:
320,192,33187,1,0,0:0:0:0:
64,192,33276,1,0,0:0:0:0:
192,192,33364,1,0,0:0:0:0:
448,192,33452,1,0,0:0:0:0:
320,192,33540,1,0,0:0:0:0:
64,192,33628,1,0,0:0:0:0:
192,192,33717,1,0,0:0:0:0:
448,192,33805,128,0,34334:0:0:0:0:
448,192,34511,1,0,0:0:0:0:
64,192,34687,128,0,35040:0:0:0:0:
448,192,35040,1,0,0:0:0:0:
448,192,35305,1,0,0:0:0:0:
320,192,35393,1,0,0:0:0:0:
192,192,35481,1,0,0:0:0:0:
64,192,35570,1,0,0:0:0:0:
448,192,35570,1,0,0:0:0:0:
448,192,35923,128,0,36276:0:0:0:0:
64,192,35923,1,0,0:0:0:0:
320,192,36276,128,0,36628:0:0:0:0:
64,192,36628,128,0,36981:0:0:0:0:
448,192,36981,1,0,0:0:0:0:
192,192,37334,1,0,0:0:0:0:
64,192,37511,1,0,0:0:0:0:
192,192,37687,1,0,0:0:0:0:
448,192,37864,1,0,0:0:0:0:
320,192,38040,1,0,0:0:0:0:
192,192,38217,1,0,0:0:0:0:
320,192,38393,1,0,0:0:0:0:
448,192,38393,1,0,0:0:0:0:
64,192,38746,1,0,0:0:0:0:
192,192,38746,1,0,0:0:0:0:
320,192,38834,1,0,0:0:0:0:
448,192,38923,1,0,0:0:0:0:
64,192,39011,1,0,0:0:0:0:
192,192,39099,1,0,0:0:0:0:
320,192,39099,1,0,0:0:0:0:
448,192,39187,1,0,0:0:0:0:
64,192,39276,1,0,0:0:0:0:
192,192,39364,1,0,0:0:0:0:
320,192,39452,1,0,0:0:0:0:
448,192,39452,1,0,0:0:0:0:
192,192,39540,1,0,0:0:0:0:
64,192,39628,1,0,0:0:0:0:
192,192,39717,1,0,0:0:0:0:
320,192,39805,1,0,0:0:0:0:
448,192,39805,1,0,0:0:0:0:
64,192,39981,128,0,40334:0:0:0:0:
448,192,40511,1,0,0:0:0:0:
320,192,40687,1,0,0:0:0:0:
448,192,40864,1,0,0:0:0:0:
320,192,41040,1,0,0:0:0:0:
64,192,41217,1,0,0:0:0:0:
192,192,41217,1,0,0:0:0:0:
320,192,41570,1,0,0:0:0:0:
448,192,41746,1,0,0:0:0:0:
320,192,41923,1,0,0:0:0:0:
448,192,42099,1,0,0:0:0:0:
320,192,42276,1,0,0:0:0:0:
64,192,42452,1,0,0:0:0:0:
192,192,42452,1,0,0:0:0:0:
320,192,42628,1,0,0:0:0:0:
448,192,42628,1,0,0:0:0:0:
192,192,42981,1,0,0:0:0:0:
64,192,43158,1,0,0:0:0:0:
192,192,43334,1,0,0:0:0:0:
64,192,43511,1,0,0:0:0:0:
192,192,43687,1,0,0:0:0:0:
320,192,43864,1,0,0:0:0:0:
448,192,43864,1,0,0:0:0:0:
64,192,44040,1,0,0:0:0:0:
192,192,44040,1,0,0:0:0:0:
64,192,44393,1,0,0:0:0:0:
448,192,44393,1,0,0:0:0:0:
192,192,44481,1,0,0:0:0:0:
320,192,44570,1,0,0:0:0:0:
448,192,44658,1,0,0:0:0:0:
192,192,44746,1,0,0:0:0:0:
64,192,44746,1,0,0:0:0:0:
320,192,44834,1,0,0:0:0:0:
448,192,44923,1,0,0:0:0:0:
64,192,45011,1,0,0:0:0:0:
192,192,45099,1,0,0:0:0:0:
320,192,45099,1,0,0:0:0:0:
448,192,45187,1,0,0:0:0:0:
320,192,45276,1,0,0:0:0:0:
192,192,45364,1,0,0:0:0:0:
64,192,45452,1,0,0:0:0:0:
448,192,45628,1,0,0:0:0:0:
64,192,45805,1,0,0:0:0:0:
192,192,45805,1,0,0:0:0:0:
320,192,45981,1,0,0:0:0:0:
448,192,46158,1,0,0:0:0:0:
64,192,46158,1,0,0:0:0:0:
192,192,46334,1,0,0:0:0:0:
320,192,46511,1,0,0:0:0:0:
448,192,46511,1,0,0:0:0:0:
192,192,46687,1,0,0:0:0:0:
320,192,46864,1,0,0:0:0:0:
64,192,46864,1,0,0:0:0:0:
320,192,47217,1,0,0:0:0:0:
448,192,47217,1,0,0:0:0:0:
192,192,47393,1,0,0:0:0:0:
320,192,47570,1,0,0:0:0:0:
64,192,47570,1,0,0:0:0:0:
448,192,47746,1,0,0:0:0:0:
320,192,47923,1,0,0:0:0:0:
192,192,47923,1,0,0:0:0:0:
64,192,48099,1,0,0:0:0:0:
192,192,48276,1,0,0:0:0:0:
448,192,48276,1,0,0:0:0:0:
192,192,48628,1,0,0:0:0:0:
64,192,48628,1,0,0:0:0:0:
320,192,48805,1,0,0:0:0:0:
448,192,48981,1,0,0:0:0:0:
64,192,48981,1,0,0:0:0:0:
320,192,49158,1,0,0:0:0:0:
192,192,49334,1,0,0:0:0:0:
448,192,49334,1,0,0:0:0:0:
320,192,49511,1,0,0:0:0:0:
192,192,49687,1,0,0:0:0:0:
64,192,49687,1,0,0:0:0:0:
448,192,50040,1,0,0:0:0:0:
320,192,50040,1,0,0:0:0:0:
64,192,50128,1,0,0:0:0:0:
192,192,50217,1,0,0:0:0:0:
320,192,50305,1,0,0:0:0:0:
448,192,50393,1,0,0:0:0:0:
64,192,50481,1,0,0:0:0:0:
192,192,50570,1,0,0:0:0:0:
320,192,50658,1,0,0:0:0:0:
192,192,50746,1,0,0:0:0:0:
64,192,50834,1,0,0:0:0:0:
448,192,50923,1,0,0:0:0:0:
320,192,51011,1,0,0:0:0:0:
448,192,51099,128,0,51452:0:0:0:0:
192,192,51099,1,0,0:0:0:0:
64,192,51099,1,0,0:0:0:0:
64,192,51452,1,0,0:0:0:0:
192,192,51628,1,0,0:0:0:0:
64,192,51805,1,0,0:0:0:0:
448,192,51981,1,0,0:0:0:0:
192,192,52158,1,0,0:0:0:0:
320,192,52334,1,0,0:0:0:0:
448,192,52511,1,0,0:0:0:0:
64,192,52511,1,0,0:0:0:0:
192,192,52864,1,0,0:0:0:0:
320,192,53040,1,0,0:0:0:0:
448,192,53217,1,0,0:0:0:0:
64,192,53217,1,0,0:0:0:0:
320,192,53393,1,0,0:0:0:0:
192,192,53570,1,0,0:0:0:0:
64,192,53570,1,0,0:0:0:0:
320,192,53746,1,0,0:0:0:0:
448,192,53923,1,0,0:0:0:0:
192,192,53923,1,0,0:0:0:0:
64,192,54276,128,0,54628:0:0:0:0:
192,192,54628,1,0,0:0:0:0:
448,192,54628,128,0,54981:0:0:0:0:
64,192,54981,128,0,55334:0:0:0:0:
320,192,54981,1,0,0:0:0:0:
192,192,55334,1,0,0:0:0:0:
448,192,55687,1,0,0:0:0:0:
64,192,55687,1,0,0:0:0:0:
320,192,55776,1,0,0:0:0:0:
192,192,55864,1,0,0:0:0:0:
320,192,55952,1,0,0:0:0:0:
64,192,56040,1,0,0:0:0:0:
448,192,56040,1,0,0:0:0:0:
192,192,56128,1,0,0:0:0:0:
320,192,56217,1,0,0:0:0:0:
192,192,56305,1,0,0:0:0:0:
64,192,56393,1,0,0:0:0:0:
448,192,56393,1,0,0:0:0:0:
320,192,56481,1,0,0:0:0:0:
192,192,56481,1,0,0:0:0:0:
64,192,56570,1,0,0:0:0:0:
448,192,56570,1,0,0:0:0:0:
320,192,56658,1,0,0:0:0:0:
192,192,56658,1,0,0:0:0:0:
64,192,56746,1,0,0:0:0:0:
448,192,56746,1,0,0:0:0:0:
448,192,57099,128,0,57452:0:0:0:0:
64,192,57099,1,0,0:0:0:0:
192,192,57452,128,0,57805:0:0:0:0:
320,192,57805,128,0,58158:0:0:0:0:
448,192,57805,1,0,0:0:0:0:
64,192,58158,128,0,58511:0:0:0:0:
448,192,58511,128,0,58864:0:0:0:0:
192,192,58511,1,0,0:0:0:0:
192,192,58864,128,0,59217:0:0:0:0:
448,192,59217,128,0,59570:0:0:0:0:
64,192,59217,1,0,0:0:0:0:
64,192,59570,128,0,59923:0:0:0:0:
448,192,59923,128,0,60276:0:0:0:0:
320,192,59923,1,0,0:0:0:0:
192,192,60276,128,0,60628:0:0:0:0:
320,192,60628,128,0,60981:0:0:0:0:
64,192,60628,1,0,0:0:0:0:
64,192,60981,128,0,61334:0:0:0:0:
448,192,61334,128,0,61687:0:0:0:0:
320,192,61334,1,0,0:0:0:0:
64,192,61687,1,0,0:0:0:0:
192,192,61864,1,0,0:0:0:0:
320,192,62040,1,0,0:0:0:0:
448,192,62217,128,0,62570:0:0:0:0:
192,192,62217,1,0,0:0:0:0:
64,192,62570,1,0,0:0:0:0:
320,192,62746,128,0,63099:0:0:0:0:
448,192,62746,1,0,0:0:0:0:
192,192,62923,1,0,0:0:0:0:
64,192,63099,1,0,0:0:0:0:
448,192,63099,1,0,0:0:0:0:
192,192,63276,1,0,0:0:0:0:
448,192,63452,1,0,0:0:0:0:
320,192,63452,1,0,0:0:0:0:
64,192,63628,1,0,0:0:0:0:
320,192,63805,1,0,0:0:0:0:
192,192,63981,1,0,0:0:0:0:
320,192,64158,1,0,0:0:0:0:
448,192,64158,1,0,0:0:0:0:
320,192,64334,1,0,0:0:0:0:
192,192,64511,1,0,0:0:0:0:
64,192,64511,1,0,0:0:0:0:
192,192,64687,1,0,0:0:0:0:
320,192,64864,1,0,0:0:0:0:
448,192,64864,1,0,0:0:0:0:
64,192,65040,1,0,0:0:0:0:
192,192,65217,1,0,0:0:0:0:
320,192,65217,1,0,0:0:0:0:
448,192,65393,1,0,0:0:0:0:
448,192,65570,1,0,0:0:0:0:
192,192,65570,1,0,0:0:0:0:
320,192,65746,1,0,0:0:0:0:
192,192,65923,1,0,0:0:0:0:
320,192,66099,1,0,0:0:0:0:
192,192,66276,1,0,0:0:0:0:
64,192,66276,1,0,0:0:0:0:
448,192,66452,1,0,0:0:0:0:
320,192,66628,1,0,0:0:0:0:
448,192,66628,1,0,0:0:0:0:
64,192,66805,1,0,0:0:0:0:
192,192,66981,1,0,0:0:0:0:
448,192,66981,128,0,67511:0:0:0:0:
320,192,67511,128,0,67687:0:0:0:0:
64,192,67687,128,0,68393:0:0:0:0:
448,192,68393,1,0,0:0:0:0:
320,192,68570,1,0,0:0:0:0:
64,192,68746,1,0,0:0:0:0:
448,192,68746,1,0,0:0:0:0:
192,192,68923,1,0,0:0:0:0:
320,192,69099,1,0,0:0:0:0:
448,192,69099,1,0,0:0:0:0:
192,192,69276,1,0,0:0:0:0:
64,192,69452,1,0,0:0:0:0:
448,192,69452,1,0,0:0:0:0:
192,192,69628,1,0,0:0:0:0:
64,192,69805,1,0,0:0:0:0:
448,192,69805,1,0,0:0:0:0:
320,192,69981,1,0,0:0:0:0:
192,192,70158,1,0,0:0:0:0:
448,192,70158,1,0,0:0:0:0:
64,192,70334,1,0,0:0:0:0:
320,192,70511,1,0,0:0:0:0:
448,192,70511,1,0,0:0:0:0:
448,192,70687,1,0,0:0:0:0:
192,192,70864,1,0,0:0:0:0:
64,192,71040,1,0,0:0:0:0:
192,192,71040,1,0,0:0:0:0:
448,192,71217,1,0,0:0:0:0:
320,192,71217,1,0,0:0:0:0:
192,192,71393,1,0,0:0:0:0:
64,192,71570,1,0,0:0:0:0:
448,192,71570,1,0,0:0:0:0:
320,192,71746,1,0,0:0:0:0:
192,192,71923,1,0,0:0:0:0:
448,192,71923,1,0,0:0:0:0:
64,192,72099,1,0,0:0:0:0:
448,192,72276,1,0,0:0:0:0:
320,192,72452,1,0,0:0:0:0:
192,192,72628,1,0,0:0:0:0:
64,192,72628,1,0,0:0:0:0:
448,192,72805,1,0,0:0:0:0:
192,192,72981,1,0,0:0:0:0:
64,192,73158,1,0,0:0:0:0:
448,192,73334,1,0,0:0:0:0:
320,192,73334,1,0,0:0:0:0:
192,192,73511,1,0,0:0:0:0:
64,192,73687,1,0,0:0:0:0:
320,192,73864,1,0,0:0:0:0:
192,192,74040,1,0,0:0:0:0:
448,192,74217,1,0,0:0:0:0:
192,192,74393,1,0,0:0:0:0:
320,192,74393,1,0,0:0:0:0:
64,192,74570,128,0,74746:0:0:0:0:
448,192,74746,128,0,75099:0:0:0:0:
320,192,74746,1,0,0:0:0:0:
192,192,75099,1,0,0:0:0:0:
64,192,75099,128,0,75276:0:0:0:0:
448,192,75276,128,0,75628:0:0:0:0:
320,192,75628,128,0,75805:0:0:0:0:
192,192,75628,1,0,0:0:0:0:
64,192,75805,128,0,76158:0:0:0:0:
320,192,76158,1,0,0:0:0:0:
448,192,76158,128,0,76511:0:0:0:0:
64,192,76621,1,0,0:0:0:0:
448,192,76731,1,0,0:0:0:0:
192,192,76864,1,0,0:0:0:0:
448,192,76974,1,0,0:0:0:0:
320,192,77084,1,0,0:0:0:0:
64,192,77217,1,0,0:0:0:0:
192,192,77217,1,0,0:0:0:0:
320,192,77305,1,0,0:0:0:0:
64,192,77437,1,0,0:0:0:0:
192,192,77437,1,0,0:0:0:0:
448,192,77570,1,0,0:0:0:0:
320,192,77570,1,0,0:0:0:0:
192,192,77790,1,0,0:0:0:0:
64,192,77790,1,0,0:0:0:0:
320,192,78011,1,0,0:0:0:0:
448,192,78011,1,0,0:0:0:0:
64,192,78276,1,0,0:0:0:0:
320,192,78452,1,0,0:0:0:0:
192,192,78628,1,0,0:0:0:0:
448,192,78805,1,0,0:0:0:0:
320,192,78981,1,0,0:0:0:0:
192,192,79158,1,0,0:0:0:0:
64,192,79334,128,0,79511:0:0:0:0:
448,192,79687,128,0,80217:0:0:0:0:
320,192,80217,128,0,80393:0:0:0:0:
64,192,80393,128,0,81011:0:0:0:0:
192,192,81099,128,0,81628:0:0:0:0:
320,192,81628,128,0,81805:0:0:0:0:
64,192,81805,128,0,82511:0:0:0:0:
448,192,82511,1,0,0:0:0:0:
320,192,82599,1,0,0:0:0:0:
192,192,82687,1,0,0:0:0:0:
320,192,82776,1,0,0:0:0:0:
192,192,82864,1,0,0:0:0:0:
64,192,82952,1,0,0:0:0:0:
448,192,83040,1,0,0:0:0:0:
320,192,83128,1,0,0:0:0:0:
192,192,83217,1,0,0:0:0:0:
320,192,83393,1,0,0:0:0:0:
192,192,83481,1,0,0:0:0:0:
320,192,83658,1,0,0:0:0:0:
192,192,83746,1,0,0:0:0:0:
320,192,83923,1,0,0:0:0:0:
448,192,83923,1,0,0:0:0:0:
320,192,84187,1,0,0:0:0:0:
448,192,84187,1,0,0:0:0:0:
64,192,84540,1,0,0:0:0:0:
192,192,84540,1,0,0:0:0:0:
320,192,84805,1,0,0:0:0:0:
448,192,84805,1,0,0:0:0:0:
320,192,85158,1,0,0:0:0:0:
192,192,85246,1,0,0:0:0:0:
64,192,85334,1,0,0:0:0:0:
448,192,85334,1,0,0:0:0:0:
320,192,85511,1,0,0:0:0:0:
192,192,85687,1,0,0:0:0:0:
448,192,85864,1,0,0:0:0:0:
320,192,85952,1,0,0:0:0:0:
64,192,86040,1,0,0:0:0:0:
192,192,86040,1,0,0:0:0:0:
320,192,86217,1,0,0:0:0:0:
448,192,86217,1,0,0:0:0:0:
192,192,86393,1,0,0:0:0:0:
448,192,86570,1,0,0:0:0:0:
64,192,86570,1,0,0:0:0:0:
192,192,86746,1,0,0:0:0:0:
320,192,86923,1,0,0:0:0:0:
64,192,86923,1,0,0:0:0:0:
448,192,87099,1,0,0:0:0:0:
64,192,87276,1,0,0:0:0:0:
192,192,87364,1,0,0:0:0:0:
448,192,87452,1,0,0:0:0:0:
320,192,87452,1,0,0:0:0:0:
192,192,87628,1,0,0:0:0:0:
64,192,87805,1,0,0:0:0:0:
320,192,87981,1,0,0:0:0:0:
192,192,88070,1,0,0:0:0:0:
64,192,88158,1,0,0:0:0:0:
448,192,88158,1,0,0:0:0:0:
192,192,88334,1,0,0:0:0:0:
320,192,88511,1,0,0:0:0:0:
448,192,88687,1,0,0:0:0:0:
64,192,88776,1,0,0:0:0:0:
192,192,88864,1,0,0:0:0:0:
320,192,88864,1,0,0:0:0:0:
448,192,89040,1,0,0:0:0:0:
320,192,89217,1,0,0:0:0:0:
192,192,89393,1,0,0:0:0:0:
64,192,89393,128,0,90099:0:0:0:0:
320,192,89746,1,0,0:0:0:0:
192,192,90099,1,0,0:0:0:0:
448,192,90099,128,0,90452:0:0:0:0:
64,192,90452,1,0,0:0:0:0:
192,192,90628,1,0,0:0:0:0:
448,192,90805,1,0,0:0:0:0:
192,192,90981,1,0,0:0:0:0:
64,192,90981,1,0,0:0:0:0:
320,192,91158,1,0,0:0:0:0:
448,192,91334,1,0,0:0:0:0:
192,192,91511,1,0,0:0:0:0:
320,192,91599,1,0,0:0:0:0:
448,192,91687,1,0,0:0:0:0:
64,192,91687,1,0,0:0:0:0:
320,192,91864,1,0,0:0:0:0:
192,192,91864,1,0,0:0:0:0:
448,192,92040,1,0,0:0:0:0:
320,192,92217,1,0,0:0:0:0:
192,192,92217,1,0,0:0:0:0:
64,192,92393,1,0,0:0:0:0:
192,192,92570,1,0,0:0:0:0:
448,192,92746,1,0,0:0:0:0:
64,192,92923,1,0,0:0:0:0:
320,192,92923,1,0,0:0:0:0:
192,192,93099,1,0,0:0:0:0:
448,192,93099,1,0,0:0:0:0:
64,192,93276,1,0,0:0:0:0:
192,192,93452,1,0,0:0:0:0:
320,192,93628,1,0,0:0:0:0:
320,192,93805,1,0,0:0:0:0:
448,192,93805,1,0,0:0:0:0:
192,192,93981,1,0,0:0:0:0:
320,192,94158,1,0,0:0:0:0:
192,192,94334,1,0,0:0:0:0:
320,192,94423,1,0,0:0:0:0:
448,192,94511,1,0,0:0:0:0:
64,192,94511,1,0,0:0:0:0:
192,192,94687,1,0,0:0:0:0:
320,192,94864,1,0,0:0:0:0:
64,192,94864,1,0,0:0:0:0:
192,192,95040,1,0,0:0:0:0:
320,192,95217,128,0,96628:0:0:0:0:
64,192,95217,1,0,0:0:0:0:
448,192,95393,1,0,0:0:0:0:
64,192,95570,1,0,0:0:0:0:
192,192,95746,1,0,0:0:0:0:
448,192,95923,1,0,0:0:0:0:
64,192,96099,1,0,0:0:0:0:
448,192,96276,1,0,0:0:0:0:
64,192,96452,1,0,0:0:0:0:
192,192,96628,1,0,0:0:0:0:
448,192,96628,1,0,0:0:0:0:
320,192,96805,1,0,0:0:0:0:
192,192,96981,1,0,0:0:0:0:
320,192,97158,1,0,0:0:0:0:
192,192,97246,1,0,0:0:0:0:
64,192,97334,1,0,0:0:0:0:
192,192,97511,1,0,0:0:0:0:
64,192,97687,1,0,0:0:0:0:
192,192,97864,1,0,0:0:0:0:
320,192,98040,1,0,0:0:0:0:
64,192,98217,1,0,0:0:0:0:
448,192,98217,1,0,0:0:0:0:
192,192,98393,1,0,0:0:0:0:
320,192,98570,1,0,0:0:0:0:
64,192,98570,1,0,0:0:0:0:
192,192,98746,1,0,0:0:0:0:
448,192,98746,1,0,0:0:0:0:
64,192,98923,1,0,0:0:0:0:
192,192,99099,1,0,0:0:0:0:
320,192,99187,1,0,0:0:0:0:
448,192,99276,1,0,0:0:0:0:
320,192,99364,1,0,0:0:0:0:
64,192,99452,1,0,0:0:0:0:
192,192,99452,1,0,0:0:0:0:
448,192,99628,1,0,0:0:0:0:
192,192,99717,1,0,0:0:0:0:
64,192,99981,1,0,0:0:0:0:
192,192,100070,1,0,0:0:0:0:
320,192,100158,1,0,0:0:0:0:
448,192,100158,1,0,0:0:0:0:
192,192,100334,1,0,0:0:0:0:
320,192,100511,1,0,0:0:0:0:
192,192,100687,1,0,0:0:0:0:
320,192,100776,1,0,0:0:0:0:
448,192,100864,1,0,0:0:0:0:
64,192,101040,1,0,0:0:0:0:
192,192,101128,1,0,0:0:0:0:
448,192,101305,1,0,0:0:0:0:
320,192,101393,1,0,0:0:0:0:
64,192,101481,1,0,0:0:0:0:
192,192,101570,1,0,0:0:0:0:
320,192,101658,1,0,0:0:0:0:
448,192,101746,1,0,0:0:0:0:
192,192,101923,1,0,0:0:0:0:
64,192,102099,1,0,0:0:0:0:
192,192,102276,1,0,0:0:0:0:
320,192,102276,1,0,0:0:0:0:
64,192,102452,1,0,0:0:0:0:
192,192,102628,1,0,0:0:0:0:
448,192,102805,1,0,0:0:0:0:
320,192,102893,1,0,0:0:0:0:
192,192,102981,1,0,0:0:0:0:
320,192,103158,1,0,0:0:0:0:
448,192,103334,1,0,0:0:0:0:
320,192,103511,1,0,0:0:0:0:
64,192,103687,1,0,0:0:0:0:
192,192,103687,1,0,0:0:0:0:
320,192,103864,1,0,0:0:0:0:
448,192,104040,1,0,0:0:0:0:
64,192,104217,1,0,0:0:0:0:
192,192,104305,1,0,0:0:0:0:
448,192,104393,1,0,0:0:0:0:
320,192,104393,1,0,0:0:0:0:
64,192,104570,1,0,0:0:0:0:
320,192,104746,1,0,0:0:0:0:
448,192,104923,1,0,0:0:0:0:
320,192,105011,1,0,0:0:0:0:
64,192,105099,1,0,0:0:0:0:
192,192,105099,1,0,0:0:0:0:
448,192,105276,1,0,0:0:0:0:
192,192,105364,1,0,0:0:0:0:
320,192,105452,1,0,0:0:0:0:
64,192,105628,1,0,0:0:0:0:
192,192,105717,1,0,0:0:0:0:
320,192,105805,1,0,0:0:0:0:
192,192,105981,1,0,0:0:0:0:
320,192,106158,1,0,0:0:0:0:
192,192,106334,1,0,0:0:0:0:
448,192,106511,128,0,107217:0:0:0:0:
64,192,106511,1,0,0:0:0:0:
192,192,106687,1,0,0:0:0:0:
64,192,106864,1,0,0:0:0:0:
192,192,107040,1,0,0:0:0:0:
64,192,107217,1,0,0:0:0:0:
192,192,107276,1,0,0:0:0:0:
320,192,107334,1,0,0:0:0:0:
448,192,107393,1,0,0:0:0:0:
64,192,107570,1,0,0:0:0:0:
192,192,107570,1,0,0:0:0:0:
448,192,107923,1,0,0:0:0:0:
192,192,107923,1,0,0:0:0:0:
320,192,108276,1,0,0:0:0:0:
448,192,108628,1,0,0:0:0:0:
192,192,108628,1,0,0:0:0:0:
64,192,108981,1,0,0:0:0:0:
448,192,109334,1,0,0:0:0:0:
320,192,109334,1,0,0:0:0:0:
192,192,109687,1,0,0:0:0:0:
64,192,110040,1,0,0:0:0:0:
448,192,110040,1,0,0:0:0:0:
320,192,110393,1,0,0:0:0:0:
320,192,110746,1,0,0:0:0:0:
192,192,110746,1,0,0:0:0:0:
448,192,111099,1,0,0:0:0:0:
320,192,111452,1,0,0:0:0:0:
64,192,111452,1,0,0:0:0:0:
192,192,111805,1,0,0:0:0:0:
64,192,112158,1,0,0:0:0:0:
320,192,112158,1,0,0:0:0:0:
192,192,112511,1,0,0:0:0:0:
64,192,112864,1,0,0:0:0:0:
320,192,112864,1,0,0:0:0:0:
448,192,113217,1,0,0:0:0:0:
192,192,113570,1,0,0:0:0:0:
64,192,113570,1,0,0:0:0:0:
320,192,113923,1,0,0:0:0:0:
192,192,114276,1,0,0:0:0:0:
448,192,114276,1,0,0:0:0:0:
64,192,114628,1,0,0:0:0:0:
320,192,114981,1,0,0:0:0:0:
192,192,114981,1,0,0:0:0:0:
448,192,115334,1,0,0:0:0:0:
192,192,115687,1,0,0:0:0:0:
64,192,115687,1,0,0:0:0:0:
448,192,116040,1,0,0:0:0:0:
320,192,116393,1,0,0:0:0:0:
64,192,116393,1,0,0:0:0:0:
192,192,116746,1,0,0:0:0:0:
448,192,117099,1,0,0:0:0:0:
64,192,117099,1,0,0:0:0:0:
192,192,117452,1,0,0:0:0:0:
448,192,117805,1,0,0:0:0:0:
320,192,117805,1,0,0:0:0:0:
192,192,118158,1,0,0:0:0:0:
64,192,118511,1,0,0:0:0:0:
448,192,118511,1,0,0:0:0:0:
320,192,118864,1,0,0:0:0:0:
448,192,119217,1,0,0:0:0:0:
64,192,119217,1,0,0:0:0:0:
192,192,119393,1,0,0:0:0:0:
64,192,119570,1,0,0:0:0:0:
320,192,119746,1,0,0:0:0:0:
192,192,119834,1,0,0:0:0:0:
320,192,119923,1,0,0:0:0:0:
64,192,119923,1,0,0:0:0:0:
448,192,120099,1,0,0:0:0:0:
192,192,120099,1,0,0:0:0:0:
320,192,120276,1,0,0:0:0:0:
64,192,120452,1,0,0:0:0:0:
192,192,120452,1,0,0:0:0:0:
448,192,120628,1,0,0:0:0:0:
64,192,120805,1,0,0:0:0:0:
192,192,120805,1,0,0:0:0:0:
320,192,120981,1,0,0:0:0:0:
64,192,121158,1,0,0:0:0:0:
448,192,121158,1,0,0:0:0:0:
320,192,121334,1,0,0:0:0:0:
192,192,121334,1,0,0:0:0:0:
448,192,121511,1,0,0:0:0:0:
64,192,121687,1,0,0:0:0:0:
192,192,121864,1,0,0:0:0:0:
320,192,121952,1,0,0:0:0:0:
448,192,122040,1,0,0:0:0:0:
192,192,122040,1,0,0:0:0:0:
320,192,122217,1,0,0:0:0:0:
64,192,122393,1,0,0:0:0:0:
448,192,122570,1,0,0:0:0:0:
320,192,122658,1,0,0:0:0:0:
192,192,122746,1,0,0:0:0:0:
64,192,122746,1,0,0:0:0:0:
320,192,122923,1,0,0:0:0:0:
448,192,122923,1,0,0:0:0:0:
64,192,123099,1,0,0:0:0:0:
448,192,123276,1,0,0:0:0:0:
192,192,123276,1,0,0:0:0:0:
320,192,123452,1,0,0:0:0:0:
192,192,123628,1,0,0:0:0:0:
64,192,123628,1,0,0:0:0:0:
320,192,123805,1,0,0:0:0:0:
192,192,123981,1,0,0:0:0:0:
448,192,123981,1,0,0:0:0:0:
320,192,124158,1,0,0:0:0:0:
64,192,124158,1,0,0:0:0:0:
448,192,124334,1,0,0:0:0:0:
192,192,124511,1,0,0:0:0:0:
320,192,124687,1,0,0:0:0:0:
192,192,124776,1,0,0:0:0:0:
64,192,124864,1,0,0:0:0:0:
448,192,124952,1,0,0:0:0:0:
320,192,125040,1,0,0:0:0:0:
64,192,125128,1,0,0:0:0:0:
192,192,125217,1,0,0:0:0:0:
320,192,125305,1,0,0:0:0:0:
448,192,125393,1,0,0:0:0:0:
320,192,125481,1,0,0:0:0:0:
192,192,125570,1,0,0:0:0:0:
448,192,125658,1,0,0:0:0:0:
320,192,125746,1,0,0:0:0:0:
192,192,125834,1,0,0:0:0:0:
64,192,125923,1,0,0:0:0:0:
192,192,126011,1,0,0:0:0:0:
320,192,126099,1,0,0:0:0:0:
448,192,126187,1,0,0:0:0:0:
64,192,126276,1,0,0:0:0:0:
192,192,126364,1,0,0:0:0:0:
320,192,126452,1,0,0:0:0:0:
448,192,126540,1,0,0:0:0:0:
64,192,126628,1,0,0:0:0:0:
192,192,126717,1,0,0:0:0:0:
320,192,126805,1,0,0:0:0:0:
448,192,126893,1,0,0:0:0:0:
320,192,126981,1,0,0:0:0:0:
192,192,127070,1,0,0:0:0:0:
64,192,127158,1,0,0:0:0:0:
448,192,127246,1,0,0:0:0:0:
320,192,127334,1,0,0:0:0:0:
192,192,127423,1,0,0:0:0:0:
64,192,127511,1,0,0:0:0:0:
192,192,127599,1,0,0:0:0:0:
320,192,127687,1,0,0:0:0:0:
448,192,127776,1,0,0:0:0:0:
64,192,127864,1,0,0:0:0:0:
192,192,127952,1,0,0:0:0:0:
320,192,128040,1,0,0:0:0:0:
448,192,128128,1,0,0:0:0:0:
192,192,128217,1,0,0:0:0:0:
320,192,128305,1,0,0:0:0:0:
448,192,128393,1,0,0:0:0:0:
320,192,128481,1,0,0:0:0:0:
192,192,128570,1,0,0:0:0:0:
64,192,128658,1,0,0:0:0:0:
192,192,128746,1,0,0:0:0:0:
320,192,128834,1,0,0:0:0:0:
448,192,128923,1,0,0:0:0:0:
320,192,129011,1,0,0:0:0:0:
192,192,129099,1,0,0:0:0:0:
64,192,129187,1,0,0:0:0:0:
192,192,129276,1,0,0:0:0:0:
320,192,129364,1,0,0:0:0:0:
448,192,129452,1,0,0:0:0:0:
320,192,129540,1,0,0:0:0:0:
192,192,129628,1,0,0:0:0:0:
64,192,129717,1,0,0:0:0:0:
448,192,129805,1,0,0:0:0:0:
320,192,129805,1,0,0:0:0:0:
320,192,130511,128,0,131570:0:0:0:0:
64,192,131040,1,0,0:0:0:0:
64,192,131217,1,0,0:0:0:0:
448,192,131393,1,0,0:0:0:0:
192,192,131570,128,0,131746:0:0:0:0:
320,192,131746,128,0,131923:0:0:0:0:
448,192,131923,128,0,132981:0:0:0:0:
192,192,132099,1,0,0:0:0:0:
64,192,132276,1,0,0:0:0:0:
64,192,132452,1,0,0:0:0:0:
320,192,132628,1,0,0:0:0:0:
320,192,132981,128,0,133158:0:0:0:0:
192,192,133158,128,0,133334:0:0:0:0:
64,192,133334,128,0,133864:0:0:0:0:
320,192,133864,1,0,0:0:0:0:
448,192,134040,128,0,135805:0:0:0:0:
192,192,134040,1,0,0:0:0:0:
192,192,134217,1,0,0:0:0:0:
192,192,134570,1,0,0:0:0:0:
64,192,134923,1,0,0:0:0:0:
320,192,135099,1,0,0:0:0:0:
320,192,135276,1,0,0:0:0:0:
192,192,135452,1,0,0:0:0:0:
320,192,135805,128,0,135981:0:0:0:0:
192,192,135981,128,0,136158:0:0:0:0:
64,192,136158,128,0,137393:0:0:0:0:
320,192,136687,1,0,0:0:0:0:
320,192,136864,1,0,0:0:0:0:
448,192,137040,1,0,0:0:0:0:
192,192,137393,128,0,137570:0:0:0:0:
448,192,137570,128,0,137746:0:0:0:0:
320,192,137746,128,0,137923:0:0:0:0:
448,192,137923,128,0,138099:0:0:0:0:
192,192,138099,128,0,138276:0:0:0:0:
320,192,138276,128,0,138540:0:0:0:0:
64,192,138540,128,0,138805:0:0:0:0:
192,192,138805,128,0,140393:0:0:0:0:
448,192,139511,1,0,0:0:0:0:
448,192,139687,1,0,0:0:0:0:
64,192,139864,1,0,0:0:0:0:
320,192,139864,1,0,0:0:0:0:
448,192,140393,128,0,140746:0:0:0:0:
192,192,140746,1,0,0:0:0:0:
320,192,141099,1,0,0:0:0:0:
192,192,141276,1,0,0:0:0:0:
64,192,141276,1,0,0:0:0:0:
192,192,141628,1,0,0:0:0:0:
64,192,141628,1,0,0:0:0:0:
320,192,141805,128,0,142864:0:0:0:0:
448,192,141805,1,0,0:0:0:0:
192,192,142334,1,0,0:0:0:0:
192,192,142511,1,0,0:0:0:0:
448,192,142687,1,0,0:0:0:0:
64,192,142687,1,0,0:0:0:0:
192,192,142864,128,0,143040:0:0:0:0:
320,192,143040,128,0,143217:0:0:0:0:
448,192,143217,128,0,144276:0:0:0:0:
192,192,143393,1,0,0:0:0:0:
320,192,143570,1,0,0:0:0:0:
192,192,143746,1,0,0:0:0:0:
64,192,143923,1,0,0:0:0:0:
64,192,144276,128,0,144452:0:0:0:0:
192,192,144452,128,0,144628:0:0:0:0:
320,192,144628,128,0,145158:0:0:0:0:
192,192,145158,1,0,0:0:0:0:
448,192,145334,128,0,147099:0:0:0:0:
64,192,145334,1,0,0:0:0:0:
192,192,145511,1,0,0:0:0:0:
320,192,145511,1,0,0:0:0:0:
192,192,145864,1,0,0:0:0:0:
64,192,146217,1,0,0:0:0:0:
320,192,146393,1,0,0:0:0:0:
320,192,146570,1,0,0:0:0:0:
64,192,146746,1,0,0:0:0:0:
320,192,147099,128,0,147276:0:0:0:0:
192,192,147276,128,0,147452:0:0:0:0:
64,192,147452,128,0,148687:0:0:0:0:
448,192,147981,1,0,0:0:0:0:
320,192,148158,1,0,0:0:0:0:
448,192,148334,1,0,0:0:0:0:
448,192,148687,1,0,0:0:0:0:
192,192,148687,128,0,148864:0:0:0:0:
320,192,148864,128,0,149040:0:0:0:0:
448,192,149040,128,0,149217:0:0:0:0:
320,192,149217,128,0,149393:0:0:0:0:
192,192,149393,128,0,149570:0:0:0:0:
64,192,149570,128,0,149834:0:0:0:0:
192,192,149834,128,0,150099:0:0:0:0:
448,192,150099,128,0,151687:0:0:0:0:
320,192,150276,1,0,0:0:0:0:
64,192,150805,1,0,0:0:0:0:
192,192,150805,1,0,0:0:0:0:
320,192,150981,1,0,0:0:0:0:
192,192,151158,1,0,0:0:0:0:
64,192,151511,1,0,0:0:0:0:
320,192,152040,1,0,0:0:0:0:
192,192,152040,1,0,0:0:0:0:
64,192,152393,1,0,0:0:0:0:
192,192,152481,1,0,0:0:0:0:
64,192,152570,1,0,0:0:0:0:
320,192,152570,1,0,0:0:0:0:
448,192,152570,1,0,0:0:0:0:
320,192,152923,1,0,0:0:0:0:
448,192,153099,1,0,0:0:0:0:
192,192,153099,128,0,154511:0:0:0:0:
320,192,153276,1,0,0:0:0:0:
448,192,153452,1,0,0:0:0:0:
320,192,153628,1,0,0:0:0:0:
64,192,153805,1,0,0:0:0:0:
448,192,153981,1,0,0:0:0:0:
320,192,154158,1,0,0:0:0:0:
64,192,154334,1,0,0:0:0:0:
320,192,154511,1,0,0:0:0:0:
448,192,154511,128,0,155923:0:0:0:0:
64,192,154687,1,0,0:0:0:0:
192,192,154864,1,0,0:0:0:0:
64,192,155040,1,0,0:0:0:0:
320,192,155217,1,0,0:0:0:0:
64,192,155393,1,0,0:0:0:0:
320,192,155570,1,0,0:0:0:0:
64,192,155746,1,0,0:0:0:0:
320,192,155923,1,0,0:0:0:0:
192,192,155923,128,0,158746:0:0:0:0:
64,192,156099,1,0,0:0:0:0:
448,192,156276,1,0,0:0:0:0:
64,192,156452,1,0,0:0:0:0:
320,192,156628,1,0,0:0:0:0:
64,192,156805,1,0,0:0:0:0:
448,192,156981,1,0,0:0:0:0:
64,192,157158,1,0,0:0:0:0:
320,192,157334,1,0,0:0:0:0:
448,192,157511,1,0,0:0:0:0:
64,192,157687,1,0,0:0:0:0:
448,192,157864,1,0,0:0:0:0:
64,192,158040,1,0,0:0:0:0:
448,192,158217,1,0,0:0:0:0:
320,192,158393,1,0,0:0:0:0:
448,192,158570,1,0,0:0:0:0:
320,192,158746,128,0,160158:0:0:0:0:
64,192,158746,1,0,0:0:0:0:
448,192,158923,1,0,0:0:0:0:
192,192,159099,1,0,0:0:0:0:
64,192,159276,1,0,0:0:0:0:
448,192,159452,1,0,0:0:0:0:
64,192,159628,1,0,0:0:0:0:
192,192,159805,1,0,0:0:0:0:
64,192,159981,1,0,0:0:0:0:
448,192,160158,128,0,161570:0:0:0:0:
192,192,160158,1,0,0:0:0:0:
320,192,160334,1,0,0:0:0:0:
192,192,160511,1,0,0:0:0:0:
320,192,160687,1,0,0:0:0:0:
64,192,160864,1,0,0:0:0:0:
320,192,161040,1,0,0:0:0:0:
192,192,161217,1,0,0:0:0:0:
320,192,161393,1,0,0:0:0:0:
64,192,161570,128,0,162981:0:0:0:0:
192,192,161570,1,0,0:0:0:0:
448,192,161746,1,0,0:0:0:0:
320,192,161923,1,0,0:0:0:0:
448,192,162099,1,0,0:0:0:0:
192,192,162276,1,0,0:0:0:0:
448,192,162452,1,0,0:0:0:0:
320,192,162628,1,0,0:0:0:0:
448,192,162805,1,0,0:0:0:0:
192,192,162981,128,0,164393:0:0:0:0:
320,192,162981,1,0,0:0:0:0:
448,192,163158,1,0,0:0:0:0:
320,192,163334,1,0,0:0:0:0:
448,192,163511,1,0,0:0:0:0:
64,192,163687,1,0,0:0:0:0:
448,192,163864,1,0,0:0:0:0:
320,192,164040,1,0,0:0:0:0:
448,192,164217,1,0,0:0:0:0:
320,192,164393,128,0,165805:0:0:0:0:
64,192,164393,1,0,0:0:0:0:
448,192,164570,1,0,0:0:0:0:
192,192,164746,1,0,0:0:0:0:
448,192,164923,1,0,0:0:0:0:
64,192,165099,1,0,0:0:0:0:
192,192,165276,1,0,0:0:0:0:
64,192,165452,1,0,0:0:0:0:
448,192,165628,1,0,0:0:0:0:
64,192,165805,128,0,167217:0:0:0:0:
192,192,165805,1,0,0:0:0:0:
448,192,165981,1,0,0:0:0:0:
320,192,166158,1,0,0:0:0:0:
448,192,166334,1,0,0:0:0:0:
192,192,166511,1,0,0:0:0:0:
320,192,166687,1,0,0:0:0:0:
448,192,166864,1,0,0:0:0:0:
320,192,167040,1,0,0:0:0:0:
448,192,167217,128,0,168628:0:0:0:0:
192,192,167217,1,0,0:0:0:0:
320,192,167393,1,0,0:0:0:0:
64,192,167570,1,0,0:0:0:0:
320,192,167746,1,0,0:0:0:0:
192,192,167923,1,0,0:0:0:0:
64,192,168099,1,0,0:0:0:0:
192,192,168276,1,0,0:0:0:0:
64,192,168452,1,0,0:0:0:0:
192,192,168628,128,0,170040:0:0:0:0:
320,192,168628,1,0,0:0:0:0:
64,192,168805,1,0,0:0:0:0:
448,192,168981,1,0,0:0:0:0:
64,192,169158,1,0,0:0:0:0:
448,192,169334,1,0,0:0:0:0:
64,192,169511,1,0,0:0:0:0:
320,192,169687,1,0,0:0:0:0:
448,192,169864,1,0,0:0:0:0:
320,192,170040,128,0,171452:0:0:0:0:
64,192,170040,1,0,0:0:0:0:
448,192,170217,1,0,0:0:0:0:
192,192,170393,1,0,0:0:0:0:
64,192,170393,1,0,0:0:0:0:
448,192,170746,1,0,0:0:0:0:
192,192,170746,1,0,0:0:0:0:
448,192,171099,1,0,0:0:0:0:
192,192,171099,1,0,0:0:0:0:
64,192,171452,128,0,172864:0:0:0:0:
192,192,171452,1,0,0:0:0:0:
448,192,171805,1,0,0:0:0:0:
192,192,171805,1,0,0:0:0:0:
448,192,172158,1,0,0:0:0:0:
320,192,172158,1,0,0:0:0:0:
448,192,172511,1,0,0:0:0:0:
192,192,172511,1,0,0:0:0:0:
448,192,172864,128,0,174276:0:0:0:0:
320,192,172864,1,0,0:0:0:0:
192,192,173040,1,0,0:0:0:0:
64,192,173217,1,0,0:0:0:0:
320,192,173393,1,0,0:0:0:0:
192,192,173570,1,0,0:0:0:0:
64,192,173746,1,0,0:0:0:0:
192,192,173923,1,0,0:0:0:0:
320,192,174099,1,0,0:0:0:0:
192,192,174276,1,0,0:0:0:0:
320,192,174452,1,0,0:0:0:0:
64,192,174452,1,0,0:0:0:0:
448,192,174628,1,0,0:0:0:0:
320,192,174717,1,0,0:0:0:0:
192,192,174805,1,0,0:0:0:0:
64,192,174893,1,0,0:0:0:0:
320,192,174981,1,0,0:0:0:0:
192,192,175070,1,0,0:0:0:0:
64,192,175158,1,0,0:0:0:0:
192,192,175246,1,0,0:0:0:0:
320,192,175334,1,0,0:0:0:0:
448,192,175423,1,0,0:0:0:0:
192,192,175511,1,0,0:0:0:0:
320,192,175599,1,0,0:0:0:0:
448,192,175687,1,0,0:0:0:0:
64,192,175687,128,0,176040:0:0:0:0:
320,192,176040,128,0,176393:0:0:0:0:
192,192,176393,128,0,176746:0:0:0:0:
320,192,176746,128,0,177099:0:0:0:0:
64,192,177099,128,0,177452:0:0:0:0:
448,192,177452,128,0,177805:0:0:0:0:
64,192,177805,128,0,178158:0:0:0:0:
448,192,178158,128,0,178511:0:0:0:0:
64,192,178687,1,0,0:0:0:0:
64,192,178776,1,0,0:0:0:0:
448,192,178864,128,0,179217:0:0:0:0:
192,192,179217,128,0,179570:0:0:0:0:
320,192,179570,128,0,179923:0:0:0:0:
64,192,179923,128,0,180276:0:0:0:0:
448,192,180276,128,0,180628:0:0:0:0:
64,192,180628,1,0,0:0:0:0:
192,192,180805,128,0,181070:0:0:0:0:
64,192,181334,128,0,181511:0:0:0:0:
448,192,181687,128,0,182040:0:0:0:0:
192,192,182040,128,0,182393:0:0:0:0:
320,192,182393,128,0,182746:0:0:0:0:
64,192,182746,128,0,183099:0:0:0:0:
448,192,183099,128,0,183452:0:0:0:0:
192,192,183452,128,0,183805:0:0:0:0:
320,192,183805,128,0,184158:0:0:0:0:
64,192,184158,1,0,0:0:0:0:
64,192,184334,1,0,0:0:0:0:
448,192,184511,128,0,184864:0:0:0:0:
192,192,184864,128,0,185217:0:0:0:0:
320,192,185217,128,0,185570:0:0:0:0:
64,192,185570,128,0,186099:0:0:0:0:
448,192,186276,128,0,186628:0:0:0:0:
64,192,186717,1,0,0:0:0:0:
192,192,186805,1,0,0:0:0:0:
320,192,186893,1,0,0:0:0:0:
448,192,186981,1,0,0:0:0:0:
64,192,186981,1,0,0:0:0:0:
320,192,187158,1,0,0:0:0:0:
192,192,187246,1,0,0:0:0:0:
448,192,187334,128,0,187687:0:0:0:0:
64,192,187334,1,0,0:0:0:0:
64,192,187687,128,0,188040:0:0:0:0:
448,192,188040,128,0,188393:0:0:0:0:
192,192,188393,128,0,188746:0:0:0:0:
320,192,188746,128,0,189099:0:0:0:0:
192,192,189099,128,0,189452:0:0:0:0:
320,192,189452,128,0,189805:0:0:0:0:
64,192,189981,1,0,0:0:0:0:
64,192,190070,1,0,0:0:0:0:
320,192,190158,128,0,190511:0:0:0:0:
192,192,190511,128,0,190864:0:0:0:0:
448,192,190864,128,0,191217:0:0:0:0:
64,192,191217,128,0,191570:0:0:0:0:
320,192,191570,128,0,191923:0:0:0:0:
64,192,191923,1,0,0:0:0:0:
192,192,191923,1,0,0:0:0:0:
64,192,192099,1,0,0:0:0:0:
192,192,192099,1,0,0:0:0:0:
320,192,192452,1,0,0:0:0:0:
448,192,192452,1,0,0:0:0:0:
64,192,192628,1,0,0:0:0:0:
192,192,192717,1,0,0:0:0:0:
320,192,192805,1,0,0:0:0:0:
192,192,192981,1,0,0:0:0:0:
64,192,192981,1,0,0:0:0:0:
64,192,193334,1,0,0:0:0:0:
320,192,193334,1,0,0:0:0:0:
448,192,193334,1,0,0:0:0:0:
192,192,193687,1,0,0:0:0:0:
320,192,193687,1,0,0:0:0:0:
64,192,193864,1,0,0:0:0:0:
320,192,193864,1,0,0:0:0:0:
448,192,193864,1,0,0:0:0:0:
192,192,194217,1,0,0:0:0:0:
320,192,194217,1,0,0:0:0:0:
64,192,194393,1,0,0:0:0:0:
192,192,194393,1,0,0:0:0:0:
448,192,194393,1,0,0:0:0:0:
64,192,194746,128,0,195099:0:0:0:0:
448,192,195099,1,0,0:0:0:0:
320,192,195187,1,0,0:0:0:0:
192,192,195276,1,0,0:0:0:0:
64,192,195364,1,0,0:0:0:0:
192,192,195452,1,0,0:0:0:0:
320,192,195540,1,0,0:0:0:0:
448,192,195628,1,0,0:0:0:0:
320,192,195717,1,0,0:0:0:0:
64,192,195805,1,0,0:0:0:0:
192,192,195893,1,0,0:0:0:0:
448,192,195981,1,0,0:0:0:0:
320,192,196026,1,0,0:0:0:0:
64,192,196158,1,0,0:0:0:0:
192,192,196158,1,0,0:0:0:0:
448,192,196393,1,0,0:0:0:0:
64,192,196393,1,0,0:0:0:0:
192,192,196393,1,0,0:0:0:0:
320,192,196628,1,0,0:0:0:0:
192,192,196628,1,0,0:0:0:0:
64,192,196864,1,0,0:0:0:0:
192,192,197040,1,0,0:0:0:0:
320,192,197217,1,0,0:0:0:0:
448,192,197217,1,0,0:0:0:0:
192,192,197393,1,0,0:0:0:0:
64,192,197393,1,0,0:0:0:0:
192,192,197570,1,0,0:0:0:0:
64,192,197746,1,0,0:0:0:0:
192,192,197834,1,0,0:0:0:0:
448,192,197923,128,0,198099:0:0:0:0:
320,192,197923,128,0,198099:0:0:0:0:
64,192,198276,128,0,198805:0:0:0:0:
192,192,198805,128,0,198981:0:0:0:0:
448,192,198981,128,0,199599:0:0:0:0:
64,192,199687,128,0,200217:0:0:0:0:
192,192,200217,128,0,200393:0:0:0:0:
448,192,200393,128,0,201011:0:0:0:0:
64,192,201099,1,0,0:0:0:0:
192,192,201187,1,0,0:0:0:0:
320,192,201276,1,0,0:0:0:0:
448,192,201364,1,0,0:0:0:0:
64,192,201452,1,0,0:0:0:0:
192,192,201540,1,0,0:0:0:0:
320,192,201628,1,0,0:0:0:0:
448,192,201717,1,0,0:0:0:0:
64,192,201805,1,0,0:0:0:0:
192,192,201805,1,0,0:0:0:0:
448,192,201981,1,0,0:0:0:0:
320,192,201981,1,0,0:0:0:0:
64,192,202070,1,0,0:0:0:0:
192,192,202070,1,0,0:0:0:0:
320,192,202246,1,0,0:0:0:0:
448,192,202246,1,0,0:0:0:0:
64,192,202334,1,0,0:0:0:0:
192,192,202334,1,0,0:0:0:0:
448,192,202511,1,0,0:0:0:0:
448,192,202776,1,0,0:0:0:0:
320,192,202776,1,0,0:0:0:0:
64,192,203128,1,0,0:0:0:0:
192,192,203393,1,0,0:0:0:0:
64,192,203393,1,0,0:0:0:0:
192,192,203614,1,0,0:0:0:0:
320,192,203746,1,0,0:0:0:0:
192,192,203834,1,0,0:0:0:0:
64,192,203923,1,0,0:0:0:0:
320,192,203923,1,0,0:0:0:0:
448,192,204099,1,0,0:0:0:0:
192,192,204276,1,0,0:0:0:0:
320,192,204452,1,0,0:0:0:0:
64,192,204628,1,0,0:0:0:0:
448,192,204628,1,0,0:0:0:0:
320,192,204805,1,0,0:0:0:0:
192,192,204981,1,0,0:0:0:0:
448,192,205158,1,0,0:0:0:0:
320,192,205158,1,0,0:0:0:0:
64,192,205334,1,0,0:0:0:0:
192,192,205511,1,0,0:0:0:0:
320,192,205687,1,0,0:0:0:0:
192,192,205864,1,0,0:0:0:0:
64,192,206040,1,0,0:0:0:0:
320,192,206040,1,0,0:0:0:0:
448,192,206040,1,0,0:0:0:0:
192,192,206217,1,0,0:0:0:0:
320,192,206393,1,0,0:0:0:0:
64,192,206393,1,0,0:0:0:0:
192,192,206570,1,0,0:0:0:0:
320,192,206658,1,0,0:0:0:0:
64,192,206746,1,0,0:0:0:0:
448,192,206746,1,0,0:0:0:0:
192,192,206923,1,0,0:0:0:0:
64,192,207099,1,0,0:0:0:0:
448,192,207276,1,0,0:0:0:0:
320,192,207364,1,0,0:0:0:0:
192,192,207452,1,0,0:0:0:0:
64,192,207452,1,0,0:0:0:0:
448,192,207628,1,0,0:0:0:0:
192,192,207805,1,0,0:0:0:0:
64,192,207805,1,0,0:0:0:0:
320,192,207981,1,0,0:0:0:0:
448,192,207981,1,0,0:0:0:0:
64,192,208158,1,0,0:0:0:0:
320,192,208334,1,0,0:0:0:0:
192,192,208511,1,0,0:0:0:0:
320,192,208687,1,0,0:0:0:0:
64,192,208864,1,0,0:0:0:0:
192,192,208864,1,0,0:0:0:0:
448,192,208864,1,0,0:0:0:0:
320,192,209040,1,0,0:0:0:0:
64,192,209217,1,0,0:0:0:0:
448,192,209217,1,0,0:0:0:0:
320,192,209393,1,0,0:0:0:0:
192,192,209570,1,0,0:0:0:0:
64,192,209570,1,0,0:0:0:0:
448,192,209570,1,0,0:0:0:0:
320,192,209746,1,0,0:0:0:0:
64,192,209923,1,0,0:0:0:0:
448,192,210099,1,0,0:0:0:0:
320,192,210187,1,0,0:0:0:0:
192,192,210276,1,0,0:0:0:0:
64,192,210276,1,0,0:0:0:0:
448,192,210452,1,0,0:0:0:0:
320,192,210452,1,0,0:0:0:0:
64,192,210628,1,0,0:0:0:0:
192,192,210805,1,0,0:0:0:0:
64,192,210981,1,0,0:0:0:0:
320,192,210981,1,0,0:0:0:0:
448,192,210981,1,0,0:0:0:0:
192,192,211158,1,0,0:0:0:0:
448,192,211334,1,0,0:0:0:0:
64,192,211511,1,0,0:0:0:0:
192,192,211687,1,0,0:0:0:0:
448,192,211687,1,0,0:0:0:0:
64,192,211864,1,0,0:0:0:0:
320,192,212040,1,0,0:0:0:0:
448,192,212217,1,0,0:0:0:0:
448,192,212305,1,0,0:0:0:0:
192,192,212393,1,0,0:0:0:0:
320,192,212393,1,0,0:0:0:0:
64,192,212570,1,0,0:0:0:0:
192,192,212746,1,0,0:0:0:0:
64,192,212923,1,0,0:0:0:0:
192,192,213011,1,0,0:0:0:0:
320,192,213099,1,0,0:0:0:0:
64,192,213099,1,0,0:0:0:0:
448,192,213276,1,0,0:0:0:0:
192,192,213452,1,0,0:0:0:0:
320,192,213628,1,0,0:0:0:0:
192,192,213805,1,0,0:0:0:0:
64,192,213805,1,0,0:0:0:0:
192,192,213981,1,0,0:0:0:0:
448,192,214158,1,0,0:0:0:0:
320,192,214334,1,0,0:0:0:0:
192,192,214334,1,0,0:0:0:0:
64,192,214511,1,0,0:0:0:0:
448,192,214511,1,0,0:0:0:0:
192,192,214687,1,0,0:0:0:0:
320,192,214864,1,0,0:0:0:0:
448,192,214864,1,0,0:0:0:0:
64,192,215040,1,0,0:0:0:0:
192,192,215128,1,0,0:0:0:0:
320,192,215217,1,0,0:0:0:0:
64,192,215217,1,0,0:0:0:0:
448,192,215393,1,0,0:0:0:0:
320,192,215481,1,0,0:0:0:0:
64,192,215658,1,0,0:0:0:0:
448,192,215746,1,0,0:0:0:0:
192,192,215923,1,0,0:0:0:0:
320,192,216011,1,0,0:0:0:0:
448,192,216099,1,0,0:0:0:0:
320,192,216276,1,0,0:0:0:0:
192,192,216364,1,0,0:0:0:0:
64,192,216452,1,0,0:0:0:0:
448,192,216540,1,0,0:0:0:0:
192,192,216628,1,0,0:0:0:0:
448,192,216805,1,0,0:0:0:0:
64,192,216893,1,0,0:0:0:0:
192,192,216981,1,0,0:0:0:0:
448,192,217070,1,0,0:0:0:0:
320,192,217158,1,0,0:0:0:0:
64,192,217334,1,0,0:0:0:0:
192,192,217423,1,0,0:0:0:0:
448,192,217511,1,0,0:0:0:0:
64,192,217687,1,0,0:0:0:0:
192,192,217776,1,0,0:0:0:0:
448,192,217864,1,0,0:0:0:0:
320,192,217952,1,0,0:0:0:0:
192,192,218040,1,0,0:0:0:0:
64,192,218040,1,0,0:0:0:0:
64,192,218217,1,0,0:0:0:0:
192,192,218305,1,0,0:0:0:0:
320,192,218481,1,0,0:0:0:0:
448,192,218570,1,0,0:0:0:0:
320,192,218658,1,0,0:0:0:0:
192,192,218746,1,0,0:0:0:0:
64,192,218834,1,0,0:0:0:0:
448,192,218923,1,0,0:0:0:0:
320,192,219011,1,0,0:0:0:0:
64,192,219187,1,0,0:0:0:0:
192,192,219276,1,0,0:0:0:0:
64,192,219364,1,0,0:0:0:0:
192,192,219452,1,0,0:0:0:0:
448,192,219628,1,0,0:0:0:0:
320,192,219717,1,0,0:0:0:0:
64,192,219893,1,0,0:0:0:0:
192,192,219981,1,0,0:0:0:0:
448,192,220070,1,0,0:0:0:0:
320,192,220158,1,0,0:0:0:0:
192,192,220246,1,0,0:0:0:0:
64,192,220334,1,0,0:0:0:0:
448,192,220423,1,0,0:0:0:0:
320,192,220511,1,0,0:0:0:0:
192,192,220599,1,0,0:0:0:0:
320,192,220687,1,0,0:0:0:0:
448,192,220776,1,0,0:0:0:0:
192,192,220864,1,0,0:0:0:0:
64,192,220864,1,0,0:0:0:0:
320,192,221040,1,0,0:0:0:0:
192,192,221217,1,0,0:0:0:0:
320,192,221393,1,0,0:0:0:0:
192,192,221481,1,0,0:0:0:0:
64,192,221570,1,0,0:0:0:0:
448,192,221570,1,0,0:0:0:0:
192,192,221746,1,0,0:0:0:0:
320,192,221746,1,0,0:0:0:0:
64,192,221923,1,0,0:0:0:0:
192,192,222099,1,0,0:0:0:0:
448,192,222276,1,0,0:0:0:0:
320,192,222276,1,0,0:0:0:0:
64,192,222276,1,0,0:0:0:0:
192,192,222452,1,0,0:0:0:0:
320,192,222628,1,0,0:0:0:0:
448,192,222805,1,0,0:0:0:0:
192,192,222981,1,0,0:0:0:0:
64,192,222981,1,0,0:0:0:0:
320,192,223158,1,0,0:0:0:0:
192,192,223246,1,0,0:0:0:0:
448,192,223334,1,0,0:0:0:0:
320,192,223334,1,0,0:0:0:0:
192,192,223423,1,0,0:0:0:0:
64,192,223511,1,0,0:0:0:0:
192,192,223599,1,0,0:0:0:0:
448,192,223687,1,0,0:0:0:0:
320,192,223687,128,0,224393:0:0:0:0:
64,192,223864,1,0,0:0:0:0:
64,192,224040,1,0,0:0:0:0:
192,192,224217,1,0,0:0:0:0:
64,192,224393,128,0,224923:0:0:0:0:
192,192,224393,1,0,0:0:0:0:
448,192,224570,1,0,0:0:0:0:
192,192,224746,1,0,0:0:0:0:
320,192,224923,128,0,225628:0:0:0:0:
448,192,224923,1,0,0:0:0:0:
192,192,225099,1,0,0:0:0:0:
64,192,225276,1,0,0:0:0:0:
448,192,225452,1,0,0:0:0:0:
64,192,225628,1,0,0:0:0:0:
448,192,225805,1,0,0:0:0:0:
320,192,225893,1,0,0:0:0:0:
192,192,225981,1,0,0:0:0:0:
320,192,226158,1,0,0:0:0:0:
192,192,226334,1,0,0:0:0:0:
448,192,226511,1,0,0:0:0:0:
320,192,226511,128,0,227923:0:0:0:0:
64,192,226687,1,0,0:0:0:0:
192,192,227040,1,0,0:0:0:0:
64,192,227217,1,0,0:0:0:0:
448,192,227570,1,0,0:0:0:0:
64,192,227658,1,0,0:0:0:0:
448,192,227746,1,0,0:0:0:0:
64,192,227834,1,0,0:0:0:0:
192,192,227923,128,0,229334:0:0:0:0:
448,192,227923,1,0,0:0:0:0:
64,192,228099,1,0,0:0:0:0:
448,192,228452,1,0,0:0:0:0:
64,192,228628,1,0,0:0:0:0:
64,192,228981,1,0,0:0:0:0:
448,192,229070,1,0,0:0:0:0:
64,192,229158,1,0,0:0:0:0:
448,192,229246,1,0,0:0:0:0:
64,192,229334,1,0,0:0:0:0:
320,192,229334,128,0,230746:0:0:0:0:
448,192,229511,1,0,0:0:0:0:
448,192,229864,1,0,0:0:0:0:
192,192,230040,1,0,0:0:0:0:
192,192,230393,1,0,0:0:0:0:
448,192,230481,1,0,0:0:0:0:
192,192,230570,1,0,0:0:0:0:
448,192,230658,1,0,0:0:0:0:
64,192,230746,128,0,232158:0:0:0:0:
192,192,230746,1,0,0:0:0:0:
448,192,230923,1,0,0:0:0:0:
192,192,231276,1,0,0:0:0:0:
448,192,231452,1,0,0:0:0:0:
320,192,231805,1,0,0:0:0:0:
192,192,231893,1,0,0:0:0:0:
320,192,231981,1,0,0:0:0:0:
192,192,232070,1,0,0:0:0:0:
448,192,232158,128,0,233570:0:0:0:0:
320,192,232158,1,0,0:0:0:0:
192,192,232334,1,0,0:0:0:0:
320,192,232687,1,0,0:0:0:0:
64,192,232864,1,0,0:0:0:0:
64,192,233217,1,0,0:0:0:0:
192,192,233305,1,0,0:0:0:0:
64,192,233393,1,0,0:0:0:0:
192,192,233481,1,0,0:0:0:0:
320,192,233570,128,0,234981:0:0:0:0:
64,192,233570,1,0,0:0:0:0:
192,192,233746,1,0,0:0:0:0:
448,192,234099,1,0,0:0:0:0:
64,192,234276,1,0,0:0:0:0:
192,192,234628,1,0,0:0:0:0:
448,192,234717,1,0,0:0:0:0:
192,192,234805,1,0,0:0:0:0:
448,192,234893,1,0,0:0:0:0:
64,192,234981,128,0,236393:0:0:0:0:
192,192,234981,1,0,0:0:0:0:
448,192,235158,1,0,0:0:0:0:
320,192,235511,1,0,0:0:0:0:
192,192,235687,1,0,0:0:0:0:
320,192,236040,1,0,0:0:0:0:
192,192,236128,1,0,0:0:0:0:
320,192,236217,1,0,0:0:0:0:
192,192,236305,1,0,0:0:0:0:
448,192,236393,128,0,237452:0:0:0:0:
320,192,236393,1,0,0:0:0:0:
192,192,236570,1,0,0:0:0:0:
192,192,236923,1,0,0:0:0:0:
64,192,237099,1,0,0:0:0:0:
320,192,237452,1,0,0:0:0:0:
192,192,237540,1,0,0:0:0:0:
320,192,237628,1,0,0:0:0:0:
192,192,237717,1,0,0:0:0:0:
64,192,237805,128,0,239217:0:0:0:0:
448,192,237805,1,0,0:0:0:0:
320,192,237981,1,0,0:0:0:0:
448,192,238158,1,0,0:0:0:0:
320,192,238246,1,0,0:0:0:0:
192,192,238334,1,0,0:0:0:0:
448,192,238511,1,0,0:0:0:0:
320,192,238687,1,0,0:0:0:0:
192,192,238864,1,0,0:0:0:0:
448,192,239040,1,0,0:0:0:0:
320,192,239217,128,0,240628:0:0:0:0:
192,192,239217,1,0,0:0:0:0:
448,192,239393,1,0,0:0:0:0:
64,192,239570,1,0,0:0:0:0:
192,192,239746,1,0,0:0:0:0:
448,192,239923,128,0,240628:0:0:0:0:
64,192,239923,1,0,0:0:0:0:
192,192,240099,1,0,0:0:0:0:
64,192,240276,1,0,0:0:0:0:
192,192,240452,1,0,0:0:0:0:
64,192,240628,1,0,0:0:0:0:
192,192,240628,128,0,242040:0:0:0:0:
320,192,240805,1,0,0:0:0:0:
64,192,240981,1,0,0:0:0:0:
320,192,241070,1,0,0:0:0:0:
448,192,241158,1,0,0:0:0:0:
64,192,241334,1,0,0:0:0:0:
448,192,241511,1,0,0:0:0:0:
64,192,241687,1,0,0:0:0:0:
320,192,241864,1,0,0:0:0:0:
64,192,242040,1,0,0:0:0:0:
448,192,242040,128,0,243452:0:0:0:0:
320,192,242217,1,0,0:0:0:0:
64,192,242393,1,0,0:0:0:0:
320,192,242570,1,0,0:0:0:0:
192,192,242658,1,0,0:0:0:0:
64,192,242746,1,0,0:0:0:0:
192,192,242923,1,0,0:0:0:0:
64,192,243099,1,0,0:0:0:0:
320,192,243276,1,0,0:0:0:0:
64,192,243452,128,0,244864:0:0:0:0:
192,192,243452,1,0,0:0:0:0:
320,192,243628,1,0,0:0:0:0:
448,192,243805,1,0,0:0:0:0:
320,192,243893,1,0,0:0:0:0:
192,192,243981,1,0,0:0:0:0:
320,192,244158,1,0,0:0:0:0:
448,192,244334,1,0,0:0:0:0:
320,192,244511,1,0,0:0:0:0:
192,192,244687,1,0,0:0:0:0:
192,192,244864,128,0,246276:0:0:0:0:
448,192,244864,1,0,0:0:0:0:
320,192,245040,1,0,0:0:0:0:
64,192,245217,1,0,0:0:0:0:
448,192,245393,1,0,0:0:0:0:
320,192,245570,128,0,246276:0:0:0:0:
64,192,245570,1,0,0:0:0:0:
448,192,245746,1,0,0:0:0:0:
64,192,245923,1,0,0:0:0:0:
448,192,246099,1,0,0:0:0:0:
64,192,246276,128,0,247687:0:0:0:0:
448,192,246276,128,0,247687:0:0:0:0:
320,192,246452,1,0,0:0:0:0:
192,192,246540,1,0,0:0:0:0:
320,192,246628,1,0,0:0:0:0:
192,192,246717,1,0,0:0:0:0:
320,192,246805,1,0,0:0:0:0:
192,192,246893,1,0,0:0:0:0:
320,192,246981,1,0,0:0:0:0:
192,192,247070,1,0,0:0:0:0:
320,192,247158,1,0,0:0:0:0:
192,192,247246,1,0,0:0:0:0:
320,192,247334,1,0,0:0:0:0:
192,192,247423,1,0,0:0:0:0:
320,192,247511,1,0,0:0:0:0:
192,192,247599,1,0,0:0:0:0:
320,192,247687,1,0,0:0:0:0:
448,192,247776,1,0,0:0:0:0:
320,192,247864,1,0,0:0:0:0:
192,192,247952,1,0,0:0:0:0:
64,192,248040,1,0,0:0:0:0:
448,192,248128,1,0,0:0:0:0:
320,192,248217,1,0,0:0:0:0:
192,192,248305,1,0,0:0:0:0:
64,192,248393,1,0,0:0:0:0:
64,192,248746,1,0,0:0:0:0:
192,192,248834,1,0,0:0:0:0:
320,192,248923,1,0,0:0:0:0:
448,192,249011,1,0,0:0:0:0:
64,192,249099,1,0,0:0:0:0:
320,192,249276,1,0,0:0:0:0:
448,192,249364,1,0,0:0:0:0:
192,192,249452,1,0,0:0:0:0:
448,192,249540,1,0,0:0:0:0:
320,192,249628,1,0,0:0:0:0:
192,192,249717,1,0,0:0:0:0:
64,192,249805,1,0,0:0:0:0:
192,192,249981,1,0,0:0:0:0:
64,192,250070,1,0,0:0:0:0:
448,192,250158,1,0,0:0:0:0:
64,192,250246,1,0,0:0:0:0:
192,192,250334,1,0,0:0:0:0:
320,192,250423,1,0,0:0:0:0:
448,192,250511,1,0,0:0:0:0:
64,192,250511,1,0,0:0:0:0:
320,192,250687,1,0,0:0:0:0:
192,192,250776,1,0,0:0:0:0:
448,192,250864,1,0,0:0:0:0:
192,192,250952,1,0,0:0:0:0:
320,192,251040,1,0,0:0:0:0:
448,192,251128,1,0,0:0:0:0:
192,192,251217,1,0,0:0:0:0:
64,192,251217,1,0,0:0:0:0:
448,192,251393,1,0,0:0:0:0:
64,192,251481,1,0,0:0:0:0:
448,192,251570,1,0,0:0:0:0:
64,192,251658,1,0,0:0:0:0:
320,192,251746,1,0,0:0:0:0:
192,192,251834,1,0,0:0:0:0:
448,192,251923,1,0,0:0:0:0:
64,192,251923,1,0,0:0:0:0:
320,192,252099,1,0,0:0:0:0:
448,192,252187,1,0,0:0:0:0:
192,192,252276,1,0,0:0:0:0:
448,192,252364,1,0,0:0:0:0:
320,192,252452,1,0,0:0:0:0:
192,192,252540,1,0,0:0:0:0:
64,192,252628,1,0,0:0:0:0:
448,192,252628,1,0,0:0:0:0:
192,192,252805,1,0,0:0:0:0:
64,192,252893,1,0,0:0:0:0:
448,192,252981,1,0,0:0:0:0:
64,192,253070,1,0,0:0:0:0:
192,192,253158,1,0,0:0:0:0:
320,192,253246,1,0,0:0:0:0:
448,192,253334,1,0,0:0:0:0:
320,192,253511,1,0,0:0:0:0:
192,192,253599,1,0,0:0:0:0:
64,192,253687,1,0,0:0:0:0:
192,192,253776,1,0,0:0:0:0:
320,192,253864,1,0,0:0:0:0:
448,192,253952,1,0,0:0:0:0:
320,192,254040,1,0,0:0:0:0:
64,192,254040,1,0,0:0:0:0:
64,192,254217,1,0,0:0:0:0:
448,192,254305,1,0,0:0:0:0:
192,192,254393,1,0,0:0:0:0:
448,192,254481,1,0,0:0:0:0:
192,192,254570,1,0,0:0:0:0:
320,192,254658,1,0,0:0:0:0:
448,192,254746,1,0,0:0:0:0:
64,192,254746,1,0,0:0:0:0:
320,192,254923,1,0,0:0:0:0:
448,192,255011,1,0,0:0:0:0:
64,192,255099,1,0,0:0:0:0:
448,192,255187,1,0,0:0:0:0:
320,192,255276,1,0,0:0:0:0:
192,192,255364,1,0,0:0:0:0:
64,192,255452,1,0,0:0:0:0:
192,192,255628,1,0,0:0:0:0:
64,192,255717,1,0,0:0:0:0:
192,192,255805,1,0,0:0:0:0:
320,192,255805,1,0,0:0:0:0:
448,192,255893,1,0,0:0:0:0:
320,192,255981,1,0,0:0:0:0:
192,192,256070,1,0,0:0:0:0:
448,192,256158,1,0,0:0:0:0:
64,192,256158,1,0,0:0:0:0:
320,192,256334,1,0,0:0:0:0:
192,192,256423,1,0,0:0:0:0:
320,192,256511,1,0,0:0:0:0:
192,192,256599,1,0,0:0:0:0:
320,192,256687,1,0,0:0:0:0:
64,192,256776,1,0,0:0:0:0:
320,192,256864,1,0,0:0:0:0:
448,192,256864,1,0,0:0:0:0:
448,192,257040,1,0,0:0:0:0:
64,192,257128,1,0,0:0:0:0:
448,192,257217,1,0,0:0:0:0:
64,192,257305,1,0,0:0:0:0:
448,192,257393,1,0,0:0:0:0:
320,192,257481,1,0,0:0:0:0:
192,192,257570,1,0,0:0:0:0:
64,192,257570,1,0,0:0:0:0:
320,192,257746,1,0,0:0:0:0:
192,192,257834,1,0,0:0:0:0:
320,192,257923,1,0,0:0:0:0:
64,192,257923,1,0,0:0:0:0:
448,192,258011,1,0,0:0:0:0:
320,192,258099,1,0,0:0:0:0:
192,192,258187,1,0,0:0:0:0:
64,192,258276,1,0,0:0:0:0:
448,192,258276,1,0,0:0:0:0:
320,192,258452,1,0,0:0:0:0:
448,192,258540,1,0,0:0:0:0:
192,192,258628,1,0,0:0:0:0:
320,192,258628,1,0,0:0:0:0:
64,192,258717,1,0,0:0:0:0:
192,192,258805,1,0,0:0:0:0:
320,192,258893,1,0,0:0:0:0:
448,192,258981,1,0,0:0:0:0:
64,192,258981,1,0,0:0:0:0:
320,192,259158,1,0,0:0:0:0:
192,192,259246,1,0,0:0:0:0:
320,192,259334,1,0,0:0:0:0:
448,192,259334,1,0,0:0:0:0:
192,192,259423,1,0,0:0:0:0:
64,192,259511,1,0,0:0:0:0:
192,192,259599,1,0,0:0:0:0:
320,192,259687,1,0,0:0:0:0:
64,192,259820,1,0,0:0:0:0:
192,192,259908,1,0,0:0:0:0:
448,192,260040,1,0,0:0:0:0:
320,192,260173,1,0,0:0:0:0:
448,192,260261,1,0,0:0:0:0:
192,192,260393,1,0,0:0:0:0:
320,192,260393,1,0,0:0:0:0:
64,192,260570,1,0,0:0:0:0:
192,192,260658,1,0,0:0:0:0:
320,192,260746,1,0,0:0:0:0:
448,192,260746,1,0,0:0:0:0:
64,192,260834,1,0,0:0:0:0:
192,192,260923,1,0,0:0:0:0:
320,192,261011,1,0,0:0:0:0:
64,192,261099,1,0,0:0:0:0:
448,192,261099,1,0,0:0:0:0:
448,192,261276,1,0,0:0:0:0:
320,192,261364,1,0,0:0:0:0:
64,192,261452,1,0,0:0:0:0:
192,192,261540,1,0,0:0:0:0:
320,192,261628,1,0,0:0:0:0:
448,192,261717,1,0,0:0:0:0:
64,192,261805,1,0,0:0:0:0:
192,192,261805,1,0,0:0:0:0:
64,192,261981,1,0,0:0:0:0:
192,192,262070,1,0,0:0:0:0:
320,192,262158,1,0,0:0:0:0:
448,192,262158,1,0,0:0:0:0:
192,192,262246,1,0,0:0:0:0:
320,192,262334,1,0,0:0:0:0:
192,192,262423,1,0,0:0:0:0:
64,192,262511,1,0,0:0:0:0:
448,192,262511,1,0,0:0:0:0:
320,192,262687,1,0,0:0:0:0:
192,192,262776,1,0,0:0:0:0:
448,192,262864,1,0,0:0:0:0:
64,192,262864,1,0,0:0:0:0:
320,192,262952,1,0,0:0:0:0:
192,192,263040,1,0,0:0:0:0:
64,192,263128,1,0,0:0:0:0:
448,192,263217,1,0,0:0:0:0:
320,192,263217,1,0,0:0:0:0:
64,192,263393,1,0,0:0:0:0:
192,192,263481,1,0,0:0:0:0:
320,192,263570,1,0,0:0:0:0:
448,192,263570,1,0,0:0:0:0:
192,192,263658,1,0,0:0:0:0:
320,192,263746,1,0,0:0:0:0:
448,192,263834,1,0,0:0:0:0:
64,192,263923,1,0,0:0:0:0:
192,192,263923,1,0,0:0:0:0:
448,192,264099,1,0,0:0:0:0:
320,192,264187,1,0,0:0:0:0:
192,192,264276,1,0,0:0:0:0:
64,192,264276,1,0,0:0:0:0:
320,192,264364,1,0,0:0:0:0:
192,192,264452,1,0,0:0:0:0:
64,192,264540,1,0,0:0:0:0:
192,192,264628,1,0,0:0:0:0:
320,192,264628,1,0,0:0:0:0:
64,192,264805,1,0,0:0:0:0:
192,192,264893,1,0,0:0:0:0:
320,192,264981,1,0,0:0:0:0:
448,192,264981,1,0,0:0:0:0:
192,192,265070,1,0,0:0:0:0:
320,192,265158,1,0,0:0:0:0:
448,192,265246,1,0,0:0:0:0:
320,192,265334,1,0,0:0:0:0:
64,192,265334,1,0,0:0:0:0:
320,192,265511,1,0,0:0:0:0:
192,192,265599,1,0,0:0:0:0:
320,192,265687,1,0,0:0:0:0:
448,192,265687,1,0,0:0:0:0:
64,192,265776,1,0,0:0:0:0:
192,192,265864,1,0,0:0:0:0:
320,192,265952,1,0,0:0:0:0:
64,192,266040,1,0,0:0:0:0:
448,192,266040,1,0,0:0:0:0:
64,192,266217,1,0,0:0:0:0:
192,192,266305,1,0,0:0:0:0:
320,192,266393,1,0,0:0:0:0:
448,192,266393,1,0,0:0:0:0:
64,192,266481,1,0,0:0:0:0:
192,192,266570,1,0,0:0:0:0:
320,192,266658,1,0,0:0:0:0:
448,192,266746,1,0,0:0:0:0:
64,192,266746,1,0,0:0:0:0:
448,192,266923,1,0,0:0:0:0:
320,192,267011,1,0,0:0:0:0:
192,192,267099,1,0,0:0:0:0:
64,192,267099,1,0,0:0:0:0:
320,192,267187,1,0,0:0:0:0:
192,192,267276,1,0,0:0:0:0:
320,192,267364,1,0,0:0:0:0:
448,192,267452,1,0,0:0:0:0:
64,192,267452,1,0,0:0:0:0:
64,192,267628,1,0,0:0:0:0:
192,192,267717,1,0,0:0:0:0:
320,192,267805,1,0,0:0:0:0:
448,192,267805,1,0,0:0:0:0:
192,192,267893,1,0,0:0:0:0:
320,192,267981,1,0,0:0:0:0:
448,192,268070,1,0,0:0:0:0:
320,192,268158,1,0,0:0:0:0:
64,192,268158,1,0,0:0:0:0:
448,192,268334,1,0,0:0:0:0:
320,192,268423,1,0,0:0:0:0:
192,192,268511,1,0,0:0:0:0:
64,192,268511,1,0,0:0:0:0:
320,192,268599,1,0,0:0:0:0:
448,192,268687,1,0,0:0:0:0:
320,192,268776,1,0,0:0:0:0:
192,192,268864,1,0,0:0:0:0:
448,192,268864,1,0,0:0:0:0:
192,192,269040,1,0,0:0:0:0:
320,192,269128,1,0,0:0:0:0:
448,192,269217,1,0,0:0:0:0:
64,192,269217,1,0,0:0:0:0:
192,192,269305,1,0,0:0:0:0:
320,192,269393,1,0,0:0:0:0:
448,192,269481,1,0,0:0:0:0:
192,192,269570,1,0,0:0:0:0:
320,192,269570,1,0,0:0:0:0:
64,192,269658,1,0,0:0:0:0:
192,192,269746,1,0,0:0:0:0:
320,192,269834,1,0,0:0:0:0:
448,192,269923,1,0,0:0:0:0:
64,192,269923,1,0,0:0:0:0:
320,192,270011,1,0,0:0:0:0:
192,192,270099,1,0,0:0:0:0:
64,192,270187,1,0,0:0:0:0:
192,192,270276,1,0,0:0:0:0:
320,192,270276,1,0,0:0:0:0:
192,192,270452,1,0,0:0:0:0:
320,192,270540,1,0,0:0:0:0:
448,192,270540,1,0,0:0:0:0:
320,192,270717,1,0,0:0:0:0:
448,192,270805,1,0,0:0:0:0:
64,192,270893,1,0,0:0:0:0:
192,192,270981,1,0,0:0:0:0:
64,192,271158,1,0,0:0:0:0:
448,192,271246,1,0,0:0:0:0:
448,192,271423,1,0,0:0:0:0:
320,192,271511,1,0,0:0:0:0:
192,192,271599,1,0,0:0:0:0:
64,192,271687,1,0,0:0:0:0:
448,192,271687,128,0,273805:0:0:0:0:
320,192,271864,1,0,0:0:0:0:
192,192,272040,1,0,0:0:0:0:
64,192,272217,1,0,0:0:0:0:
192,192,272393,1,0,0:0:0:0:
320,192,272570,1,0,0:0:0:0:
64,192,272746,1,0,0:0:0:0:
192,192,272923,1,0,0:0:0:0:
320,192,273099,1,0,0:0:0:0:
64,192,273276,1,0,0:0:0:0:
192,192,273452,1,0,0:0:0:0:
320,192,273628,1,0,0:0:0:0:
64,192,273805,1,0,0:0:0:0:
192,192,273981,1,0,0:0:0:0:
320,192,274158,1,0,0:0:0:0:
192,192,274334,1,0,0:0:0:0:
320,192,274511,1,0,0:0:0:0:
192,192,274599,1,0,0:0:0:0:
64,192,274687,1,0,0:0:0:0:
192,192,274864,1,0,0:0:0:0:
448,192,275040,1,0,0:0:0:0:
320,192,275217,1,0,0:0:0:0:
192,192,275393,1,0,0:0:0:0:
64,192,275570,1,0,0:0:0:0:
448,192,275746,1,0,0:0:0:0:
320,192,275923,1,0,0:0:0:0:
448,192,276099,1,0,0:0:0:0:
320,192,276276,1,0,0:0:0:0:
192,192,276452,1,0,0:0:0:0:
64,192,276628,1,0,0:0:0:0:
192,192,276805,1,0,0:0:0:0:
320,192,276981,1,0,0:0:0:0:
192,192,277158,1,0,0:0:0:0:
448,192,277334,1,0,0:0:0:0:
64,192,277511,1,0,0:0:0:0:
192,192,277687,1,0,0:0:0:0:
448,192,277864,1,0,0:0:0:0:
192,192,278040,1,0,0:0:0:0:
320,192,278217,1,0,0:0:0:0:
64,192,278393,1,0,0:0:0:0:
448,192,278570,1,0,0:0:0:0:
320,192,278746,1,0,0:0:0:0:
448,192,278923,1,0,0:0:0:0:
320,192,279099,1,0,0:0:0:0:
192,192,279276,1,0,0:0:0:0:
64,192,279452,1,0,0:0:0:0:
192,192,279628,1,0,0:0:0:0:
320,192,279805,1,0,0:0:0:0:
192,192,279981,1,0,0:0:0:0:
320,192,280158,1,0,0:0:0:0:
448,192,280334,1,0,0:0:0:0:
192,192,280511,1,0,0:0:0:0:
64,192,280687,1,0,0:0:0:0:
192,192,280864,1,0,0:0:0:0:
320,192,281040,1,0,0:0:0:0:
448,192,281217,1,0,0:0:0:0:
320,192,281393,1,0,0:0:0:0:
192,192,281570,1,0,0:0:0:0:
64,192,281746,1,0,0:0:0:0:
192,192,281923,1,0,0:0:0:0:
448,192,282099,1,0,0:0:0:0:
192,192,282276,1,0,0:0:0:0:
448,192,282452,1,0,0:0:0:0:
320,192,282628,1,0,0:0:0:0:
192,192,282805,1,0,0:0:0:0:
64,192,282981,1,0,0:0:0:0:
448,192,282981,1,0,0:0:0:0:
448,192,283423,1,0,0:0:0:0:
320,192,283511,1,0,0:0:0:0:
192,192,283599,1,0,0:0:0:0:
64,192,283687,1,0,0:0:0:0:
448,192,283864,1,0,0:0:0:0:
320,192,283864,1,0,0:0:0:0:
448,192,284217,1,0,0:0:0:0:
64,192,284217,1,0,0:0:0:0:
192,192,284217,1,0,0:0:0:0:
192,192,284570,1,0,0:0:0:0:
320,192,284570,1,0,0:0:0:0:
320,192,284923,1,0,0:0:0:0:
448,192,284923,1,0,0:0:0:0:
64,192,285099,1,0,0:0:0:0:
448,192,285805,1,0,0:0:0:0:
192,192,285805,1,0,0:0:0:0:
64,192,285805,1,0,0:0:0:0:
64,192,286334,1,0,0:0:0:0:
192,192,286423,1,0,0:0:0:0:
320,192,286511,1,0,0:0:0:0:
320,192,286687,1,0,0:0:0:0:
448,192,286687,1,0,0:0:0:0:
448,192,287040,1,0,0:0:0:0:
64,192,287040,1,0,0:0:0:0:
320,192,287040,1,0,0:0:0:0:
320,192,287393,1,0,0:0:0:0:
192,192,287746,1,0,0:0:0:0:
448,192,287746,1,0,0:0:0:0:
64,192,287923,1,0,0:0:0:0:
320,192,287923,1,0,0:0:0:0:
320,192,288628,1,0,0:0:0:0:
192,192,288628,1,0,0:0:0:0:
448,192,288628,1,0,0:0:0:0:
448,192,289158,1,0,0:0:0:0:
320,192,289246,1,0,0:0:0:0:
192,192,289334,1,0,0:0:0:0:
192,192,289511,1,0,0:0:0:0:
64,192,289511,1,0,0:0:0:0:
320,192,289864,1,0,0:0:0:0:
64,192,289864,1,0,0:0:0:0:
448,192,289864,1,0,0:0:0:0:
320,192,290217,1,0,0:0:0:0:
448,192,290217,1,0,0:0:0:0:
192,192,290570,1,0,0:0:0:0:
64,192,290570,1,0,0:0:0:0:
448,192,290746,1,0,0:0:0:0:
448,192,291452,1,0,0:0:0:0:
320,192,291452,1,0,0:0:0:0:
64,192,291452,1,0,0:0:0:0:
320,192,292070,1,0,0:0:0:0:
448,192,292158,1,0,0:0:0:0:
192,192,292246,1,0,0:0:0:0:
64,192,292246,1,0,0:0:0:0:
320,192,292334,1,0,0:0:0:0:
448,192,292334,1,0,0:0:0:0:
320,192,292423,1,0,0:0:0:0:
448,192,292423,1,0,0:0:0:0:
64,192,292511,1,0,0:0:0:0:
192,192,292511,1,0,0:0:0:0:
64,192,292599,1,0,0:0:0:0:
192,192,292599,1,0,0:0:0:0:
320,192,292687,1,0,0:0:0:0:
448,192,292687,1,0,0:0:0:0:
320,192,292776,1,0,0:0:0:0:
448,192,292776,1,0,0:0:0:0:
64,192,292952,128,0,293393:0:0:0:0:
64,192,295687,1,0,0:0:0:0:
320,192,295687,1,0,0:0:0:0:
192,192,296040,1,0,0:0:0:0:
320,192,296393,1,0,0:0:0:0:
448,192,296746,1,0,0:0:0:0:
192,192,296746,1,0,0:0:0:0:
64,192,297099,1,0,0:0:0:0:
320,192,297099,1,0,0:0:0:0:
320,192,297452,1,0,0:0:0:0:
192,192,297805,1,0,0:0:0:0:
64,192,298158,1,0,0:0:0:0:
320,192,298158,1,0,0:0:0:0:
448,192,298511,1,0,0:0:0:0:
192,192,298511,1,0,0:0:0:0:
64,192,298864,1,0,0:0:0:0:
192,192,299217,1,0,0:0:0:0:
448,192,299570,1,0,0:0:0:0:
64,192,299570,1,0,0:0:0:0:
320,192,299923,1,0,0:0:0:0:
192,192,299923,1,0,0:0:0:0:
64,192,300276,1,0,0:0:0:0:
448,192,300628,1,0,0:0:0:0:
64,192,300981,1,0,0:0:0:0:
192,192,301334,1,0,0:0:0:0:
448,192,301334,1,0,0:0:0:0:
320,192,301687,1,0,0:0:0:0:
192,192,302040,1,0,0:0:0:0:
64,192,302393,1,0,0:0:0:0:
448,192,302393,1,0,0:0:0:0:
320,192,302746,1,0,0:0:0:0:
192,192,302746,1,0,0:0:0:0:
64,192,303099,1,0,0:0:0:0:
448,192,303452,1,0,0:0:0:0:
64,192,303805,1,0,0:0:0:0:
320,192,303805,1,0,0:0:0:0:
448,192,304158,1,0,0:0:0:0:
192,192,304158,1,0,0:0:0:0:
320,192,304511,1,0,0:0:0:0:
192,192,304864,1,0,0:0:0:0:
64,192,305217,1,0,0:0:0:0:
448,192,305217,1,0,0:0:0:0:
320,192,305570,1,0,0:0:0:0:
192,192,305570,1,0,0:0:0:0:
64,192,305923,1,0,0:0:0:0:
320,192,306276,1,0,0:0:0:0:
448,192,306628,1,0,0:0:0:0:
192,192,306981,1,0,0:0:0:0:
64,192,306981,1,0,0:0:0:0:
320,192,307158,1,0,0:0:0:0:
192,192,307334,1,0,0:0:0:0:
448,192,307511,1,0,0:0:0:0:
320,192,307687,1,0,0:0:0:0:
192,192,307864,1,0,0:0:0:0:
320,192,308040,1,0,0:0:0:0:
448,192,308040,1,0,0:0:0:0:
320,192,308393,1,0,0:0:0:0:
64,192,308393,1,0,0:0:0:0:
192,192,308570,1,0,0:0:0:0:
320,192,308746,1,0,0:0:0:0:
64,192,308923,1,0,0:0:0:0:
192,192,309099,1,0,0:0:0:0:
320,192,309276,1,0,0:0:0:0:
192,192,309452,1,0,0:0:0:0:
64,192,309452,1,0,0:0:0:0:
192,192,309805,1,0,0:0:0:0:
448,192,309805,1,0,0:0:0:0:
320,192,309981,1,0,0:0:0:0:
192,192,310158,1,0,0:0:0:0:
448,192,310334,1,0,0:0:0:0:
320,192,310511,1,0,0:0:0:0:
192,192,310687,1,0,0:0:0:0:
320,192,310864,1,0,0:0:0:0:
64,192,310864,1,0,0:0:0:0:
192,192,311217,1,0,0:0:0:0:
448,192,311217,1,0,0:0:0:0:
320,192,311393,1,0,0:0:0:0:
192,192,311570,1,0,0:0:0:0:
64,192,311746,1,0,0:0:0:0:
192,192,311834,1,0,0:0:0:0:
320,192,311923,1,0,0:0:0:0:
448,192,312011,1,0,0:0:0:0:
320,192,312099,1,0,0:0:0:0:
192,192,312187,1,0,0:0:0:0:
64,192,312276,1,0,0:0:0:0:
64,192,312628,128,0,312981:0:0:0:0:
192,192,312981,128,0,313334:0:0:0:0:
320,192,313334,128,0,313687:0:0:0:0:
64,192,313687,1,0,0:0:0:0:
448,192,314040,128,0,314393:0:0:0:0:
320,192,314393,128,0,314746:0:0:0:0:
192,192,314746,128,0,315099:0:0:0:0:
448,192,315099,1,0,0:0:0:0:
320,192,315452,128,0,315805:0:0:0:0:
64,192,315805,128,0,316158:0:0:0:0:
448,192,316158,128,0,316511:0:0:0:0:
64,192,316511,1,0,0:0:0:0:
192,192,316864,1,0,0:0:0:0:
64,192,316864,1,0,0:0:0:0:
320,192,317040,1,0,0:0:0:0:
192,192,317217,1,0,0:0:0:0:
448,192,317393,1,0,0:0:0:0:
192,192,317570,1,0,0:0:0:0:
320,192,317570,1,0,0:0:0:0:
64,192,317746,1,0,0:0:0:0:
448,192,317746,1,0,0:0:0:0:
192,192,317923,1,0,0:0:0:0:
320,192,317923,1,0,0:0:0:0:
