osu file format v14

[General]
AudioFilename: audio.mp3
AudioLeadIn: 0
PreviewTime: 77978
Countdown: 0
SampleSet: Soft
StackLeniency: 0.7
Mode: 3
LetterboxInBreaks: 0
SpecialStyle: 0
WidescreenStoryboard: 1

[Editor]
Bookmarks: 10778,20378,39578,49178,58778,68378,77978,106778,116378,125978
DistanceSpacing: 4
BeatDivisor: 4
GridSize: 32
TimelineZoom: 1.8

[Metadata]
Title:Kanbu de Tomatte Sugu Tokeru ~ Kyouki no Udongein
TitleUnicode:患部で止まってすぐ溶ける ~ 狂気の優曇華院
Artist:IOSYS
ArtistUnicode:IOSYS
Creator:shizehao
Version:Normal
Source:東方永夜抄 ~ Imperishable Night.
Tags:Touhou toho 2hu 東方Project Team Shanghai Alice ZUN Overdrive Japanese Pop Electronic Video Game Touhou IN eiyashou 鈴仙・優曇華院・イナバ Reisen Udongein Inaba Rabbit ARM Hakase with "mad" YOUNO 狂気の瞳 Invisible Full Moon Lunatic Red Eyes 東方月燈籠セーフ! Moon Lantern Safe miko quim しゃちょう shatyou Stops at the Affected Area and Immediately Dissolves Grimoire of 東方BEST ALBUM vol.1はかせ cai_ji_ccc [GB]Luoxuan0327
BeatmapID:3940341
BeatmapSetID:1909936

[Difficulty]
HPDrainRate:7.5
CircleSize:4
OverallDifficulty:7.5
ApproachRate:5
SliderMultiplier:1.4
SliderTickRate:1

[Events]
//Background and Video events
Video,1007,"video.mp4"
0,0,"bg.png",0,0
//Break Periods
//Storyboard Layer 0 (Background)
//Storyboard Layer 1 (Fail)
//Storyboard Layer 2 (Pass)
//Storyboard Layer 3 (Foreground)
//Storyboard Layer 4 (Overlay)
//Storyboard Sound Samples
Sample,29828,0,"Hat Close.wav",40
Sample,43328,0,"Hat Close.wav",40
Sample,43628,0,"Hat Close.wav",40
Sample,43928,0,"Hat Close.wav",40
Sample,70778,0,"Hat Close.wav",40
Sample,72428,0,"Hat Open.wav",10
Sample,72578,0,"Hat Close.wav",40
Sample,72728,0,"Hat Open.wav",10
Sample,72878,0,"Hat Close.wav",40
Sample,73028,0,"Hat Open.wav",10
Sample,73178,0,"Hat Close.wav",40
Sample,74378,0,"Hat Close.wav",40
Sample,74978,0,"Hat Close.wav",40
Sample,75578,0,"Hat Close.wav",40
Sample,75728,0,"Hat Open.wav",10
Sample,75878,0,"Hat Close.wav",40
Sample,76028,0,"Hat Open.wav",10
Sample,76178,0,"Hat Close.wav",40
Sample,76478,0,"Hat Close.wav",40
Sample,76628,0,"Hat Open.wav",10
Sample,76778,0,"Hat Close.wav",40
Sample,77078,0,"Hat Close.wav",40
Sample,77228,0,"Hat Open.wav",10
Sample,77378,0,"Hat Close.wav",40
Sample,86528,0,"Hat Close.wav",40
Sample,86828,0,"Hat Close.wav",40
Sample,95828,0,"Hat Close.wav",40
Sample,105428,0,"Hat Close.wav",40
Sample,115028,0,"Hat Close.wav",40
Sample,124628,0,"Hat Close.wav",40

[TimingPoints]
1178,300.0,4,2,1,55,1,0
77978,-100.0,4,2,1,55,0,1
106778,-100.0,4,2,1,55,0,0
116378,-100.0,4,2,1,55,0,1
125978,-100.0,4,2,1,55,0,0

[HitObjects]
192,192,1178,1,0,0:0:0:0:
192,192,1478,1,0,0:0:0:0:
64,192,1778,1,0,0:0:0:0:
448,192,1928,1,0,0:0:0:0:
320,192,2228,1,0,0:0:0:0:
320,192,2528,1,0,0:0:0:0:
320,192,2678,1,0,0:0:0:0:
448,192,2978,1,0,0:0:0:0:
64,192,3128,1,0,0:0:0:0:
320,192,3578,1,0,0:0:0:0:
320,192,3878,1,0,0:0:0:0:
64,192,4178,1,0,0:0:0:0:
448,192,4328,1,0,0:0:0:0:
192,192,4628,1,0,0:0:0:0:
192,192,4928,1,0,0:0:0:0:
192,192,5078,1,0,0:0:0:0:
448,192,5378,128,0,5978:0:0:0:0:
64,192,5978,1,0,0:0:0:0:
64,192,6278,1,0,0:0:0:0:
192,192,6578,1,0,0:0:0:0:
448,192,6728,1,0,0:0:0:0:
320,192,7028,1,0,0:0:0:0:
320,192,7328,1,0,0:0:0:0:
320,192,7478,1,0,0:0:0:0:
448,192,7778,1,0,0:0:0:0:
192,192,7928,1,0,0:0:0:0:
192,192,8378,1,0,0:0:0:0:
192,192,8678,1,0,0:0:0:0:
64,192,8978,1,0,0:0:0:0:
320,192,9128,1,0,0:0:0:0:
448,192,9428,1,0,0:0:0:0:
448,192,9728,1,0,0:0:0:0:
448,192,9878,1,0,0:0:0:0:
192,192,10028,1,0,0:0:0:0:
64,192,10253,1,0,0:0:0:0:
320,192,10478,1,0,0:0:0:0:
192,192,10778,1,0,0:0:0:0:
448,192,10928,1,0,0:0:0:0:
192,192,11078,1,0,0:0:0:0:
64,192,11228,1,0,0:0:0:0:
448,192,11378,1,0,0:0:0:0:
320,192,11528,1,0,0:0:0:0:
192,192,11678,1,0,0:0:0:0:
64,192,11828,1,0,0:0:0:0:
192,192,11978,1,0,0:0:0:0:
448,192,12128,1,0,0:0:0:0:
64,192,12278,1,0,0:0:0:0:
320,192,12428,1,0,0:0:0:0:
192,192,12578,1,0,0:0:0:0:
64,192,12728,1,0,0:0:0:0:
320,192,12878,1,0,0:0:0:0:
192,192,13028,1,0,0:0:0:0:
448,192,13178,1,0,0:0:0:0:
64,192,13328,1,0,0:0:0:0:
192,192,13478,1,0,0:0:0:0:
320,192,13628,1,0,0:0:0:0:
448,192,13778,1,0,0:0:0:0:
192,192,13928,1,0,0:0:0:0:
320,192,14078,1,0,0:0:0:0:
64,192,14228,1,0,0:0:0:0:
192,192,14378,1,0,0:0:0:0:
448,192,14528,1,0,0:0:0:0:
64,192,14678,1,0,0:0:0:0:
320,192,14828,1,0,0:0:0:0:
192,192,14978,1,0,0:0:0:0:
448,192,15128,1,0,0:0:0:0:
192,192,15278,1,0,0:0:0:0:
320,192,15428,1,0,0:0:0:0:
64,192,15578,128,0,16778:0:0:0:0:
192,192,15728,1,0,0:0:0:0:
320,192,15878,1,0,0:0:0:0:
448,192,16028,1,0,0:0:0:0:
320,192,16178,1,0,0:0:0:0:
192,192,16328,1,0,0:0:0:0:
448,192,16478,1,0,0:0:0:0:
192,192,16628,1,0,0:0:0:0:
448,192,16778,128,0,17978:0:0:0:0:
320,192,16928,1,0,0:0:0:0:
64,192,17078,1,0,0:0:0:0:
192,192,17228,1,0,0:0:0:0:
320,192,17378,1,0,0:0:0:0:
64,192,17528,1,0,0:0:0:0:
320,192,17678,1,0,0:0:0:0:
192,192,17828,1,0,0:0:0:0:
64,192,17978,1,0,0:0:0:0:
192,192,18278,1,0,0:0:0:0:
320,192,18578,1,0,0:0:0:0:
448,192,18878,1,0,0:0:0:0:
320,192,19178,128,0,19778:0:0:0:0:
448,192,19778,128,0,20378:0:0:0:0:
64,192,20378,1,4,0:0:0:0:
320,192,20378,1,2,0:0:0:0:
192,192,20528,1,0,0:0:0:40:Hat Close.wav
320,192,20678,1,2,0:0:0:0:
448,192,20828,1,0,0:0:0:40:Hat Close.wav
192,192,20978,1,2,0:0:0:0:
64,192,21128,1,0,0:0:0:40:Hat Close.wav
448,192,21278,1,2,0:0:0:0:
320,192,21428,1,0,0:0:0:40:Hat Close.wav
64,192,21578,1,2,0:0:0:0:
192,192,21728,1,0,0:0:0:40:Hat Close.wav
448,192,21878,1,2,0:0:0:0:
320,192,22028,1,0,0:0:0:40:Hat Close.wav
192,192,22178,1,2,0:0:0:0:
64,192,22328,1,0,0:0:0:40:Hat Close.wav
320,192,22478,1,2,0:0:0:0:
448,192,22628,1,0,0:0:0:40:Hat Close.wav
320,192,22778,1,2,0:0:0:0:
192,192,22928,1,0,0:0:0:40:Hat Close.wav
448,192,23078,1,2,0:0:0:0:
64,192,23228,1,0,0:0:0:40:Hat Close.wav
448,192,23378,1,2,0:0:0:0:
192,192,23528,1,0,0:0:0:40:Hat Close.wav
320,192,23678,1,2,0:0:0:0:
64,192,23828,1,0,0:0:0:40:Hat Close.wav
320,192,23978,128,2,24278:0:0:0:0:
192,192,24278,1,2,0:0:0:0:
448,192,24578,128,2,24878:0:0:0:0:
64,192,24878,1,2,0:0:0:0:
320,192,25178,128,2,25328:0:0:0:0:
192,192,25328,1,0,0:0:0:40:Hat Close.wav
448,192,25478,128,2,25628:0:0:0:0:
64,192,25628,1,0,0:0:0:40:Hat Close.wav
192,192,25778,128,2,25928:0:0:0:0:
448,192,25928,1,0,0:0:0:40:Hat Close.wav
320,192,26078,128,2,26228:0:0:0:0:
192,192,26228,1,0,0:0:0:40:Hat Close.wav
64,192,26378,128,2,26528:0:0:0:0:
320,192,26528,1,0,0:0:0:40:Hat Close.wav
192,192,26678,128,2,26828:0:0:0:0:
448,192,26828,1,0,0:0:0:40:Hat Close.wav
320,192,26978,128,2,27128:0:0:0:0:
192,192,27128,1,0,0:0:0:40:Hat Close.wav
64,192,27278,128,2,27428:0:0:0:0:
320,192,27428,1,0,0:0:0:40:Hat Close.wav
448,192,27578,128,2,27728:0:0:0:0:
192,192,27728,1,0,0:0:0:40:Hat Close.wav
320,192,27878,128,2,28028:0:0:0:0:
64,192,28028,1,0,0:0:0:40:Hat Close.wav
192,192,28178,128,2,28328:0:0:0:0:
448,192,28328,1,0,0:0:0:40:Hat Close.wav
320,192,28478,128,2,28628:0:0:0:0:
64,192,28628,1,0,0:0:0:40:Hat Close.wav
448,192,28778,128,2,29078:0:0:0:0:
320,192,29078,1,2,0:0:0:0:
192,192,29378,128,2,29678:0:0:0:0:
64,192,29678,1,2,0:0:0:0:
320,192,29828,1,2,0:0:0:0:
192,192,29978,1,2,0:0:0:0:
448,192,29978,1,4,0:0:0:0:
64,192,30128,1,0,0:0:0:40:Hat Close.wav
192,192,30278,1,2,0:0:0:0:
448,192,30428,1,0,0:0:0:40:Hat Close.wav
320,192,30578,1,2,0:0:0:0:
192,192,30728,1,0,0:0:0:40:Hat Close.wav
448,192,30878,1,2,0:0:0:0:
64,192,31028,1,0,0:0:0:40:Hat Close.wav
192,192,31178,1,2,0:0:0:0:
448,192,31328,1,0,0:0:0:40:Hat Close.wav
320,192,31478,1,2,0:0:0:0:
64,192,31628,1,0,0:0:0:40:Hat Close.wav
192,192,31778,1,2,0:0:0:0:
448,192,31928,1,0,0:0:0:40:Hat Close.wav
320,192,32078,1,2,0:0:0:0:
192,192,32228,1,0,0:0:0:40:Hat Close.wav
64,192,32378,128,2,32528:0:0:0:0:
320,192,32528,1,0,0:0:0:40:Hat Close.wav
192,192,32678,128,2,32828:0:0:0:0:
448,192,32828,1,0,0:0:0:40:Hat Close.wav
320,192,32978,1,2,0:0:0:0:
64,192,33128,1,0,0:0:0:40:Hat Close.wav
448,192,33278,1,2,0:0:0:0:
320,192,33428,1,0,0:0:0:40:Hat Close.wav
192,192,33578,128,2,33878:0:0:0:0:
64,192,33878,1,2,0:0:0:0:
448,192,34178,128,2,34478:0:0:0:0:
320,192,34478,1,2,0:0:0:0:
64,192,34778,1,2,0:0:0:0:
192,192,34928,1,0,0:0:0:40:Hat Close.wav
448,192,35078,128,2,35228:0:0:0:0:
320,192,35228,1,0,0:0:0:40:Hat Close.wav
64,192,35378,128,2,35528:0:0:0:0:
192,192,35528,1,0,0:0:0:40:Hat Close.wav
320,192,35678,128,2,35828:0:0:0:0:
448,192,35828,1,0,0:0:0:40:Hat Close.wav
64,192,35978,1,2,0:0:0:0:
192,192,36128,1,0,0:0:0:40:Hat Close.wav
320,192,36278,128,2,36428:0:0:0:0:
448,192,36428,1,0,0:0:0:40:Hat Close.wav
192,192,36578,128,2,36728:0:0:0:0:
64,192,36728,1,0,0:0:0:40:Hat Close.wav
448,192,36878,1,2,0:0:0:0:
320,192,37028,1,0,0:0:0:40:Hat Close.wav
64,192,37178,128,2,37328:0:0:0:0:
448,192,37328,128,0,37478:0:0:0:40:Hat Close.wav
192,192,37478,128,2,37628:0:0:0:0:
320,192,37628,128,0,37778:0:0:0:40:Hat Close.wav
448,192,37778,128,2,38378:0:0:0:0:
320,192,38378,1,0,0:0:0:0:
320,192,38678,1,0,0:0:0:0:
192,192,38978,1,0,0:0:0:0:
192,192,39278,1,0,0:0:0:0:
64,192,39578,1,6,0:0:0:0:
448,192,39728,1,0,0:0:0:40:Hat Close.wav
320,192,39878,1,2,0:0:0:0:
64,192,40028,1,0,0:0:0:40:Hat Close.wav
192,192,40178,1,2,0:0:0:0:
320,192,40328,1,0,0:0:0:40:Hat Close.wav
448,192,40478,1,2,0:0:0:0:
64,192,40628,1,0,0:0:0:40:Hat Close.wav
320,192,40778,1,2,0:0:0:0:
448,192,40928,1,0,0:0:0:40:Hat Close.wav
192,192,41078,1,2,0:0:0:0:
320,192,41228,1,0,0:0:0:40:Hat Close.wav
64,192,41378,1,2,0:0:0:0:
192,192,41378,1,0,0:0:0:40:Hat Close.wav
320,192,41603,1,2,0:0:0:0:
448,192,41603,1,0,0:0:0:40:Hat Close.wav
64,192,41828,1,2,0:0:0:0:
192,192,41828,1,0,0:0:0:40:Hat Close.wav
320,192,41978,1,2,0:0:0:0:
448,192,42128,1,0,0:0:0:40:Hat Close.wav
192,192,42278,1,2,0:0:0:0:
320,192,42428,1,0,0:0:0:40:Hat Close.wav
64,192,42578,1,2,0:0:0:0:
192,192,42728,1,0,0:0:0:40:Hat Close.wav
448,192,42878,1,2,0:0:0:0:
192,192,43028,1,0,0:0:0:40:Hat Close.wav
320,192,43178,1,2,0:0:0:0:
64,192,43328,1,2,0:0:0:0:
192,192,43478,1,2,0:0:0:0:
320,192,43628,1,2,0:0:0:0:
64,192,43778,1,2,0:0:0:0:
448,192,43928,1,2,0:0:0:0:
192,192,44078,128,2,44378:0:0:0:0:
320,192,44378,1,2,0:0:0:0:
448,192,44378,1,4,0:0:0:0:
64,192,44678,1,2,0:0:0:0:
192,192,44828,1,0,0:0:0:40:Hat Close.wav
320,192,44978,1,2,0:0:0:0:
320,192,45278,1,2,0:0:0:0:
64,192,45578,128,2,46028:0:0:0:0:
192,192,46028,128,0,46478:0:0:0:40:Hat Close.wav
320,192,46478,128,2,46778:0:0:0:0:
448,192,46778,128,2,47078:0:0:0:0:
320,192,47078,1,2,0:0:0:0:
64,192,47228,1,0,0:0:0:40:Hat Close.wav
192,192,47378,1,2,0:0:0:0:
192,192,47678,1,2,0:0:0:0:
320,192,47978,128,2,48428:0:0:0:0:
192,192,48428,128,2,48878:0:0:0:0:
64,192,48878,128,2,49178:0:0:0:0:
192,192,49178,1,2,0:0:0:0:
448,192,49178,1,4,0:0:0:0:
448,192,49778,1,0,0:0:0:0:
320,192,50378,1,0,0:0:0:0:
320,192,50978,1,0,0:0:0:0:
192,192,51578,1,0,0:0:0:0:
192,192,52178,1,0,0:0:0:0:
64,192,52778,1,0,0:0:0:0:
64,192,53378,1,0,0:0:0:0:
448,192,53978,1,0,0:0:0:0:
448,192,54578,1,0,0:0:0:0:
320,192,55178,1,0,0:0:0:0:
320,192,55778,1,0,0:0:0:0:
192,192,56378,1,0,0:0:0:0:
192,192,56978,1,0,0:0:0:0:
64,192,57578,1,0,0:0:0:0:
64,192,58178,1,0,0:0:0:0:
64,192,58778,1,0,0:0:0:0:
192,192,59078,1,0,0:0:0:0:
320,192,59528,1,0,0:0:0:0:
448,192,59678,1,0,0:0:0:0:
64,192,59978,1,0,0:0:0:0:
192,192,60278,1,0,0:0:0:0:
320,192,60728,1,0,0:0:0:0:
448,192,60878,1,0,0:0:0:0:
64,192,61178,1,0,0:0:0:0:
192,192,61478,1,0,0:0:0:0:
320,192,61928,1,0,0:0:0:0:
448,192,62078,1,0,0:0:0:0:
64,192,62378,1,0,0:0:0:0:
192,192,62678,1,0,0:0:0:0:
320,192,63128,1,0,0:0:0:0:
448,192,63278,1,0,0:0:0:0:
64,192,63578,1,0,0:0:0:0:
448,192,63878,1,0,0:0:0:0:
64,192,64178,1,0,0:0:0:0:
448,192,64478,1,0,0:0:0:0:
64,192,64778,1,0,0:0:0:0:
448,192,64928,1,0,0:0:0:0:
64,192,65078,1,0,0:0:0:0:
448,192,65228,1,0,0:0:0:0:
64,192,65378,1,0,0:0:0:0:
448,192,65528,1,0,0:0:0:0:
64,192,65678,1,0,0:0:0:0:
448,192,65828,1,0,0:0:0:0:
64,192,65978,128,0,66578:0:0:0:0:
192,192,66128,1,0,0:0:0:0:
320,192,66278,1,0,0:0:0:0:
448,192,66428,1,0,0:0:0:0:
320,192,66578,128,0,67178:0:0:0:0:
192,192,66728,1,0,0:0:0:0:
64,192,66878,1,0,0:0:0:0:
192,192,67028,1,0,0:0:0:0:
448,192,67178,128,0,67628:0:0:0:0:
320,192,67628,1,2,0:0:0:0:
192,192,67703,1,2,0:0:0:0:
64,192,67778,1,2,0:0:0:0:
448,192,67928,1,2,0:0:0:0:
320,192,68078,1,2,0:0:0:0:
192,192,68228,1,2,0:0:0:0:
64,192,68378,1,4,0:0:0:0:
320,192,68378,1,2,0:0:0:0:
320,192,68678,1,0,0:0:0:40:Hat Close.wav
448,192,68978,1,0,0:0:0:40:Hat Close.wav
64,192,69278,1,0,0:0:0:40:Hat Close.wav
320,192,69428,1,0,0:0:0:10:Hat Open.wav
448,192,69578,1,0,0:0:0:40:Hat Close.wav
192,192,69728,1,0,0:0:0:10:Hat Open.wav
320,192,69878,1,0,0:0:0:40:Hat Close.wav
64,192,70028,1,0,0:0:0:10:Hat Open.wav
192,192,70178,128,0,70778:0:0:0:40:Hat Close.wav
448,192,70778,1,2,0:0:0:0:
320,192,70928,1,0,0:0:0:10:Hat Open.wav
64,192,71078,1,0,0:0:0:40:Hat Close.wav
448,192,71228,1,0,0:0:0:10:Hat Open.wav
320,192,71378,1,0,0:0:0:40:Hat Close.wav
192,192,71528,1,0,0:0:0:10:Hat Open.wav
64,192,71678,1,0,0:0:0:40:Hat Close.wav
192,192,71828,128,0,72128:0:0:0:10:Hat Open.wav
448,192,72128,1,0,0:0:0:10:Hat Open.wav
320,192,72278,1,0,0:0:0:40:Hat Close.wav
192,192,72428,1,2,0:0:0:0:
64,192,72578,128,2,73178:0:0:0:0:
320,192,72728,1,2,0:0:0:0:
448,192,72878,1,2,0:0:0:0:
320,192,73028,1,2,0:0:0:0:
192,192,73178,1,2,0:0:0:0:
320,192,73478,1,0,0:0:0:40:Hat Close.wav
448,192,73778,1,0,0:0:0:40:Hat Close.wav
64,192,74078,1,0,0:0:0:40:Hat Close.wav
448,192,74228,1,0,0:0:0:10:Hat Open.wav
320,192,74378,1,2,0:0:0:0:
192,192,74528,1,0,0:0:0:10:Hat Open.wav
320,192,74678,1,0,0:0:0:40:Hat Close.wav
192,192,74828,1,0,0:0:0:10:Hat Open.wav
64,192,74978,128,2,75578:0:0:0:0:
320,192,75578,1,2,0:0:0:0:
192,192,75728,1,2,0:0:0:0:
448,192,75878,1,2,0:0:0:0:
320,192,76028,1,2,0:0:0:0:
192,192,76178,128,2,76478:0:0:0:0:
64,192,76478,1,2,0:0:0:0:
320,192,76628,1,2,0:0:0:0:
448,192,76778,128,2,77978:0:0:0:0:
64,192,77078,1,2,0:0:0:0:
192,192,77228,1,2,0:0:0:0:
320,192,77378,128,2,77978:0:0:0:0:
64,192,77978,1,2,0:0:0:0:
192,192,77978,1,4,0:0:0:0:
192,192,78278,1,2,0:0:0:0:
448,192,78578,1,2,0:0:0:0:
64,192,78878,1,2,0:0:0:0:
320,192,79028,1,0,0:0:0:40:Hat Close.wav
448,192,79178,1,2,0:0:0:0:
192,192,79328,1,0,0:0:0:40:Hat Close.wav
320,192,79478,1,2,0:0:0:0:
64,192,79628,1,0,0:0:0:40:Hat Close.wav
192,192,79778,128,2,80378:0:0:0:0:
448,192,80378,1,2,0:0:0:0:
320,192,80528,1,0,0:0:0:40:Hat Close.wav
64,192,80678,1,2,0:0:0:0:
448,192,80828,1,0,0:0:0:40:Hat Close.wav
320,192,80978,1,2,0:0:0:0:
192,192,81128,1,0,0:0:0:40:Hat Close.wav
64,192,81278,1,2,0:0:0:0:
192,192,81428,128,0,81728:0:0:0:40:Hat Close.wav
448,192,81728,1,0,0:0:0:40:Hat Close.wav
320,192,81878,1,2,0:0:0:0:
192,192,82028,1,0,0:0:0:40:Hat Close.wav
64,192,82178,128,2,82778:0:0:0:0:
192,192,82778,1,2,0:0:0:0:
192,192,83078,1,2,0:0:0:0:
448,192,83378,1,2,0:0:0:0:
64,192,83678,1,2,0:0:0:0:
448,192,83828,1,0,0:0:0:40:Hat Close.wav
320,192,83978,1,2,0:0:0:0:
192,192,84128,1,0,0:0:0:40:Hat Close.wav
320,192,84278,1,2,0:0:0:0:
192,192,84428,1,0,0:0:0:40:Hat Close.wav
64,192,84578,128,2,85178:0:0:0:0:
320,192,85178,1,2,0:0:0:0:
192,192,85328,1,0,0:0:0:40:Hat Close.wav
64,192,85478,1,2,0:0:0:0:
192,192,85628,1,0,0:0:0:40:Hat Close.wav
448,192,85778,128,2,86003:0:0:0:0:
320,192,86003,1,0,0:0:0:0:
192,192,86228,1,0,0:0:0:40:Hat Close.wav
64,192,86378,128,2,87578:0:0:0:0:
448,192,86528,1,2,0:0:0:0:
192,192,86678,1,2,0:0:0:0:
448,192,86828,1,2,0:0:0:0:
320,192,86978,128,2,87578:0:0:0:0:
192,192,87578,1,2,0:0:0:0:
448,192,87578,1,4,0:0:0:0:
192,192,87878,1,2,0:0:0:0:
448,192,88178,1,2,0:0:0:0:
64,192,88478,1,2,0:0:0:0:
320,192,88628,1,0,0:0:0:40:Hat Close.wav
448,192,88778,1,2,0:0:0:0:
192,192,88928,1,0,0:0:0:40:Hat Close.wav
320,192,89078,1,2,0:0:0:0:
64,192,89228,1,0,0:0:0:40:Hat Close.wav
192,192,89378,128,2,89978:0:0:0:0:
448,192,89978,1,2,0:0:0:0:
320,192,90128,1,0,0:0:0:40:Hat Close.wav
64,192,90278,1,2,0:0:0:0:
448,192,90428,1,0,0:0:0:40:Hat Close.wav
320,192,90578,1,2,0:0:0:0:
192,192,90728,1,0,0:0:0:40:Hat Close.wav
64,192,90878,1,2,0:0:0:0:
192,192,91028,128,0,91328:0:0:0:40:Hat Close.wav
448,192,91328,1,0,0:0:0:40:Hat Close.wav
320,192,91478,1,2,0:0:0:0:
192,192,91628,1,0,0:0:0:40:Hat Close.wav
64,192,91778,128,2,92378:0:0:0:0:
192,192,92378,1,2,0:0:0:0:
192,192,92678,1,2,0:0:0:0:
448,192,92978,1,2,0:0:0:0:
64,192,93278,1,2,0:0:0:0:
448,192,93428,1,0,0:0:0:40:Hat Close.wav
320,192,93578,1,2,0:0:0:0:
192,192,93728,1,0,0:0:0:40:Hat Close.wav
320,192,93878,1,2,0:0:0:0:
192,192,94028,1,0,0:0:0:40:Hat Close.wav
64,192,94178,128,2,94778:0:0:0:0:
192,192,94778,1,2,0:0:0:0:
448,192,94928,1,0,0:0:0:40:Hat Close.wav
64,192,95078,1,2,0:0:0:0:
320,192,95228,1,0,0:0:0:40:Hat Close.wav
448,192,95378,128,2,95603:0:0:0:0:
320,192,95603,1,2,0:0:0:0:
192,192,95828,1,2,0:0:0:0:
64,192,95978,128,2,97178:0:0:0:0:
448,192,96278,1,2,0:0:0:0:
320,192,96428,1,0,0:0:0:40:Hat Close.wav
192,192,96578,128,2,97178:0:0:0:0:
320,192,97178,1,2,0:0:0:0:
448,192,97178,1,4,0:0:0:0:
320,192,97478,1,2,0:0:0:0:
448,192,97778,1,2,0:0:0:0:
64,192,98078,1,2,0:0:0:0:
320,192,98228,1,0,0:0:0:40:Hat Close.wav
448,192,98378,1,2,0:0:0:0:
192,192,98528,1,0,0:0:0:40:Hat Close.wav
320,192,98678,1,2,0:0:0:0:
64,192,98828,1,0,0:0:0:40:Hat Close.wav
192,192,98978,128,2,99503:0:0:0:0:
448,192,99503,1,0,0:0:0:0:
320,192,99728,1,0,0:0:0:40:Hat Close.wav
64,192,99878,1,2,0:0:0:0:
448,192,100028,1,0,0:0:0:40:Hat Close.wav
320,192,100178,1,2,0:0:0:0:
192,192,100328,1,0,0:0:0:40:Hat Close.wav
64,192,100478,1,2,0:0:0:0:
192,192,100628,128,0,100928:0:0:0:40:Hat Close.wav
448,192,100928,1,0,0:0:0:40:Hat Close.wav
320,192,101078,1,2,0:0:0:0:
192,192,101228,1,0,0:0:0:40:Hat Close.wav
64,192,101378,128,2,101978:0:0:0:0:
320,192,101978,1,2,0:0:0:0:
320,192,102278,1,2,0:0:0:0:
448,192,102578,1,2,0:0:0:0:
64,192,102878,1,2,0:0:0:0:
320,192,103028,1,0,0:0:0:40:Hat Close.wav
192,192,103178,1,2,0:0:0:0:
64,192,103328,1,0,0:0:0:40:Hat Close.wav
192,192,103478,1,2,0:0:0:0:
320,192,103628,1,0,0:0:0:40:Hat Close.wav
448,192,103778,128,2,104303:0:0:0:0:
320,192,104303,1,0,0:0:0:0:
448,192,104528,1,0,0:0:0:40:Hat Close.wav
64,192,104678,1,2,0:0:0:0:
192,192,104828,1,0,0:0:0:40:Hat Close.wav
320,192,104978,128,2,105203:0:0:0:0:
192,192,105203,1,2,0:0:0:0:
64,192,105428,1,2,0:0:0:0:
448,192,105578,128,2,106778:0:0:0:0:
64,192,105878,1,2,0:0:0:0:
192,192,106028,1,0,0:0:0:40:Hat Close.wav
320,192,106178,128,2,106778:0:0:0:0:
64,192,106778,1,4,0:0:0:0:
192,192,106778,1,0,0:0:0:0:
192,192,107078,1,0,0:0:0:0:
64,192,107378,1,0,0:0:0:0:
448,192,107528,1,0,0:0:0:40:Hat Close.wav
320,192,107828,1,0,0:0:0:40:Hat Close.wav
320,192,108128,1,0,0:0:0:40:Hat Close.wav
320,192,108278,1,0,0:0:0:0:
448,192,108578,1,0,0:0:0:0:
64,192,108728,1,0,0:0:0:40:Hat Close.wav
320,192,109178,1,0,0:0:0:0:
320,192,109478,1,0,0:0:0:0:
64,192,109778,1,0,0:0:0:0:
448,192,109928,1,0,0:0:0:40:Hat Close.wav
192,192,110228,1,0,0:0:0:40:Hat Close.wav
192,192,110528,1,0,0:0:0:40:Hat Close.wav
192,192,110678,1,0,0:0:0:0:
448,192,110978,128,0,111578:0:0:0:0:
64,192,111578,1,0,0:0:0:0:
64,192,111878,1,0,0:0:0:0:
192,192,112178,1,0,0:0:0:0:
448,192,112328,1,0,0:0:0:40:Hat Close.wav
320,192,112628,1,0,0:0:0:40:Hat Close.wav
320,192,112928,1,0,0:0:0:40:Hat Close.wav
320,192,113078,1,0,0:0:0:0:
448,192,113378,1,0,0:0:0:0:
192,192,113528,1,0,0:0:0:40:Hat Close.wav
192,192,113978,1,0,0:0:0:0:
192,192,114278,1,0,0:0:0:0:
64,192,114578,1,2,0:0:0:0:
320,192,114728,1,0,0:0:0:40:Hat Close.wav
448,192,115028,1,2,0:0:0:0:
448,192,115328,1,0,0:0:0:40:Hat Close.wav
448,192,115478,1,2,0:0:0:0:
192,192,115628,1,0,0:0:0:40:Hat Close.wav
64,192,115853,1,2,0:0:0:0:
320,192,116078,1,2,0:0:0:0:
192,192,116378,1,2,0:0:0:0:
448,192,116378,1,4,0:0:0:0:
192,192,116678,1,2,0:0:0:0:
448,192,116978,1,2,0:0:0:0:
64,192,117278,1,2,0:0:0:0:
192,192,117428,1,0,0:0:0:40:Hat Close.wav
320,192,117578,1,2,0:0:0:0:
448,192,117728,1,0,0:0:0:40:Hat Close.wav
320,192,117878,1,2,0:0:0:0:
192,192,118028,1,0,0:0:0:40:Hat Close.wav
64,192,118178,128,2,118703:0:0:0:0:
192,192,118703,1,0,0:0:0:0:
448,192,118928,1,0,0:0:0:40:Hat Close.wav
64,192,119078,1,2,0:0:0:0:
320,192,119228,1,0,0:0:0:40:Hat Close.wav
448,192,119378,1,2,0:0:0:0:
320,192,119528,1,0,0:0:0:40:Hat Close.wav
64,192,119678,1,2,0:0:0:0:
192,192,119828,128,0,120128:0:0:0:40:Hat Close.wav
448,192,120128,1,0,0:0:0:40:Hat Close.wav
320,192,120278,1,2,0:0:0:0:
192,192,120428,1,0,0:0:0:40:Hat Close.wav
64,192,120578,128,2,121178:0:0:0:0:
320,192,121178,1,2,0:0:0:0:
320,192,121478,1,2,0:0:0:0:
448,192,121778,1,2,0:0:0:0:
64,192,122078,1,2,0:0:0:0:
192,192,122228,1,0,0:0:0:40:Hat Close.wav
320,192,122378,1,2,0:0:0:0:
448,192,122528,1,0,0:0:0:40:Hat Close.wav
320,192,122678,1,2,0:0:0:0:
192,192,122828,1,0,0:0:0:40:Hat Close.wav
64,192,122978,128,2,123503:0:0:0:0:
320,192,123503,1,0,0:0:0:0:
64,192,123728,1,0,0:0:0:40:Hat Close.wav
192,192,123878,1,0,0:0:0:0:
448,192,124028,1,0,0:0:0:40:Hat Close.wav
320,192,124178,1,2,0:0:0:0:
192,192,124403,1,2,0:0:0:0:
320,192,124628,1,2,0:0:0:0:
448,192,124778,128,0,125978:0:0:0:0:
64,192,125078,1,2,0:0:0:0:
192,192,125228,1,0,0:0:0:40:Hat Close.wav
320,192,125378,128,2,125978:0:0:0:0:
64,192,125978,1,6,0:0:0:0:
