osu file format v14

[General]
AudioFilename: audio.mp3
AudioLeadIn: 0
PreviewTime: 77978
Countdown: 0
SampleSet: Soft
StackLeniency: 0.7
Mode: 3
LetterboxInBreaks: 0
SpecialStyle: 0
WidescreenStoryboard: 1

[Editor]
Bookmarks: 10778,20378,39578,49178,58778,68378,77978,106778,116378,125978
DistanceSpacing: 4
BeatDivisor: 2
GridSize: 32
TimelineZoom: 1.599999

[Metadata]
Title:Kanbu de Tomatte Sugu Tokeru ~ Kyouki no Udongein
TitleUnicode:患部で止まってすぐ溶ける ~ 狂気の優曇華院
Artist:IOSYS
ArtistUnicode:IOSYS
Creator:shizehao
Version:Collab Lunatic
Source:東方永夜抄 ~ Imperishable Night.
Tags:Touhou toho 2hu 東方Project Team Shanghai Alice ZUN Overdrive Japanese Pop Electronic Video Game Touhou IN eiyashou 鈴仙・優曇華院・イナバ Reisen Udongein Inaba Rabbit ARM Hakase with "mad" YOUNO 狂気の瞳 Invisible Full Moon Lunatic Red Eyes 東方月燈籠セーフ! Moon Lantern Safe miko quim しゃちょう shatyou Stops at the Affected Area and Immediately Dissolves Grimoire of 東方BEST ALBUM vol.1はかせ cai_ji_ccc [GB]Luoxuan0327
BeatmapID:3940514
BeatmapSetID:1909936

[Difficulty]
HPDrainRate:8.5
CircleSize:4
OverallDifficulty:8.5
ApproachRate:5
SliderMultiplier:1.4
SliderTickRate:1

[Events]
//Background and Video events
0,0,"bg.png",0,0
Video,1007,"video.mp4"
//Break Periods
//Storyboard Layer 0 (Background)
//Storyboard Layer 1 (Fail)
//Storyboard Layer 2 (Pass)
//Storyboard Layer 3 (Foreground)
//Storyboard Layer 4 (Overlay)
//Storyboard Sound Samples
Sample,43328,0,"Hat Close.wav",40
Sample,43628,0,"Hat Close.wav",40
Sample,43928,0,"Hat Close.wav",40
Sample,44228,0,"Hat Close.wav",40
Sample,72428,0,"Hat Open.wav",10
Sample,72578,0,"Hat Close.wav",40
Sample,72728,0,"Hat Open.wav",10
Sample,72878,0,"Hat Close.wav",40
Sample,73028,0,"Hat Open.wav",10
Sample,75578,0,"Hat Close.wav",40
Sample,75728,0,"Hat Open.wav",10
Sample,75878,0,"Hat Close.wav",40
Sample,76028,0,"Hat Open.wav",10
Sample,76178,0,"Hat Close.wav",40
Sample,76328,0,"Hat Open.wav",10
Sample,76478,0,"Hat Close.wav",40
Sample,76628,0,"Hat Open.wav",10
Sample,77378,0,"Hat Close.wav",40
Sample,77528,0,"Hat Open.wav",10
Sample,77678,0,"Hat Close.wav",40
Sample,77828,0,"Hat Open.wav",10
Sample,96728,0,"Hat Close.wav",40
Sample,106328,0,"Hat Close.wav",40
Sample,115928,0,"Hat Close.wav",40
Sample,125528,0,"Hat Close.wav",40

[TimingPoints]
1178,300.0,4,2,1,55,1,0
77978,-100.0,4,2,1,55,0,1
106778,-100.0,4,2,1,55,0,0
116378,-100.0,4,2,1,55,0,1
125978,-100.0,4,2,1,55,0,0

[HitObjects]
64,192,1178,1,0,0:0:0:0:
320,192,1178,1,0,0:0:0:0:
64,192,1478,1,0,0:0:0:0:
320,192,1478,1,0,0:0:0:0:
192,192,1628,1,0,0:0:0:0:
64,192,1778,128,0,1928:0:0:0:0:
448,192,1778,1,0,0:0:0:0:
448,192,1928,1,0,0:0:0:0:
192,192,2228,1,0,0:0:0:0:
448,192,2228,1,0,0:0:0:0:
64,192,2528,1,0,0:0:0:0:
192,192,2528,1,0,0:0:0:0:
64,192,2678,1,0,0:0:0:0:
192,192,2678,1,0,0:0:0:0:
320,192,2828,1,0,0:0:0:0:
192,192,2978,128,0,3128:0:0:0:0:
448,192,2978,1,0,0:0:0:0:
448,192,3128,1,0,0:0:0:0:
192,192,3578,1,0,0:0:0:0:
448,192,3578,1,0,0:0:0:0:
192,192,3878,1,0,0:0:0:0:
448,192,3878,1,0,0:0:0:0:
320,192,4028,1,0,0:0:0:0:
64,192,4178,1,0,0:0:0:0:
448,192,4178,128,0,4328:0:0:0:0:
64,192,4328,1,0,0:0:0:0:
320,192,4628,1,0,0:0:0:0:
448,192,4628,1,0,0:0:0:0:
320,192,4928,1,0,0:0:0:0:
448,192,4928,1,0,0:0:0:0:
320,192,5078,1,0,0:0:0:0:
448,192,5078,1,0,0:0:0:0:
192,192,5228,1,0,0:0:0:0:
448,192,5378,1,0,0:0:0:0:
64,192,5453,1,0,0:0:0:0:
448,192,5528,1,0,0:0:0:0:
64,192,5603,1,0,0:0:0:0:
448,192,5678,128,0,5978:0:0:0:0:
192,192,5978,1,0,0:0:0:0:
320,192,5978,1,0,0:0:0:0:
192,192,6278,1,0,0:0:0:0:
320,192,6278,1,0,0:0:0:0:
448,192,6428,1,0,0:0:0:0:
64,192,6578,1,0,0:0:0:0:
320,192,6578,128,0,6728:0:0:0:0:
64,192,6728,1,0,0:0:0:0:
320,192,7028,1,0,0:0:0:0:
448,192,7028,1,0,0:0:0:0:
192,192,7328,1,0,0:0:0:0:
320,192,7328,1,0,0:0:0:0:
192,192,7478,1,0,0:0:0:0:
320,192,7478,1,0,0:0:0:0:
448,192,7628,1,0,0:0:0:0:
64,192,7778,1,0,0:0:0:0:
320,192,7778,128,0,7928:0:0:0:0:
64,192,7928,1,0,0:0:0:0:
192,192,8378,1,0,0:0:0:0:
320,192,8378,1,0,0:0:0:0:
192,192,8678,1,0,0:0:0:0:
320,192,8678,1,0,0:0:0:0:
64,192,8828,1,0,0:0:0:0:
192,192,8978,128,0,9128:0:0:0:0:
448,192,8978,1,0,0:0:0:0:
448,192,9128,1,0,0:0:0:0:
192,192,9428,1,0,0:0:0:0:
320,192,9428,1,0,0:0:0:0:
64,192,9728,1,0,0:0:0:0:
320,192,9728,1,0,0:0:0:0:
64,192,9878,1,0,0:0:0:0:
320,192,9878,1,0,0:0:0:0:
192,192,10028,1,0,0:0:0:0:
448,192,10178,1,0,0:0:0:0:
64,192,10328,128,0,10478:0:0:0:0:
320,192,10403,1,0,0:0:0:0:
192,192,10478,128,0,10778:0:0:0:0:
64,192,10778,1,0,0:0:0:0:
320,192,10778,1,0,0:0:0:0:
448,192,10928,1,0,0:0:0:0:
192,192,11078,1,0,0:0:0:0:
64,192,11228,1,0,0:0:0:0:
448,192,11378,1,0,0:0:0:0:
320,192,11528,1,0,0:0:0:0:
192,192,11678,1,0,0:0:0:0:
64,192,11828,1,0,0:0:0:0:
192,192,11978,1,0,0:0:0:0:
448,192,12128,1,0,0:0:0:0:
64,192,12278,1,0,0:0:0:0:
320,192,12428,1,0,0:0:0:0:
192,192,12578,1,0,0:0:0:0:
64,192,12728,1,0,0:0:0:0:
320,192,12878,1,0,0:0:0:0:
192,192,13028,1,0,0:0:0:0:
320,192,13178,1,0,0:0:0:0:
448,192,13178,1,0,0:0:0:0:
64,192,13328,1,0,0:0:0:0:
192,192,13478,1,0,0:0:0:0:
320,192,13628,1,0,0:0:0:0:
448,192,13778,1,0,0:0:0:0:
192,192,13928,1,0,0:0:0:0:
320,192,14078,1,0,0:0:0:0:
64,192,14228,1,0,0:0:0:0:
192,192,14378,1,0,0:0:0:0:
448,192,14528,1,0,0:0:0:0:
64,192,14678,1,0,0:0:0:0:
320,192,14828,1,0,0:0:0:0:
192,192,14978,1,0,0:0:0:0:
448,192,15128,1,0,0:0:0:0:
320,192,15278,1,0,0:0:0:0:
192,192,15428,1,0,0:0:0:0:
64,192,15578,1,0,0:0:0:0:
448,192,15578,128,0,17978:0:0:0:0:
192,192,15728,1,0,0:0:0:0:
320,192,15878,1,0,0:0:0:0:
192,192,16028,1,0,0:0:0:0:
64,192,16178,1,0,0:0:0:0:
320,192,16328,1,0,0:0:0:0:
192,192,16478,1,0,0:0:0:0:
64,192,16628,1,0,0:0:0:0:
320,192,16778,1,0,0:0:0:0:
64,192,16928,1,0,0:0:0:0:
320,192,17078,1,0,0:0:0:0:
192,192,17228,1,0,0:0:0:0:
64,192,17378,1,0,0:0:0:0:
320,192,17528,1,0,0:0:0:0:
64,192,17678,1,0,0:0:0:0:
192,192,17828,1,0,0:0:0:0:
64,192,17978,128,0,18053:0:0:0:0:
320,192,17978,1,0,0:0:0:0:
192,192,18278,128,0,18353:0:0:0:0:
448,192,18278,1,0,0:0:0:0:
64,192,18578,1,0,0:0:0:0:
320,192,18578,128,0,18653:0:0:0:0:
192,192,18878,1,0,0:0:0:0:
448,192,18878,128,0,18953:0:0:0:0:
64,192,19178,1,0,0:0:0:0:
320,192,19253,1,0,0:0:0:0:
192,192,19328,1,0,0:0:0:0:
448,192,19403,1,0,0:0:0:0:
64,192,19478,1,0,0:0:0:0:
320,192,19553,1,0,0:0:0:0:
192,192,19628,1,0,0:0:0:0:
448,192,19703,1,0,0:0:0:0:
64,192,19778,128,0,19853:0:0:0:0:
192,192,19853,128,0,19928:0:0:0:0:
320,192,19928,128,0,20003:0:0:0:0:
448,192,20003,128,0,20078:0:0:0:0:
64,192,20078,128,0,20153:0:0:0:0:
192,192,20153,128,0,20228:0:0:0:0:
320,192,20228,128,0,20303:0:0:0:0:
448,192,20303,128,0,20378:0:0:0:0:
64,192,20378,1,4,0:0:0:0:
192,192,20378,1,2,0:0:0:0:
320,192,20378,1,0,0:0:0:0:
192,192,20528,1,0,0:0:0:40:Hat Close.wav
320,192,20678,1,2,0:0:0:0:
448,192,20678,1,0,0:0:0:0:
448,192,20828,1,0,0:0:0:40:Hat Close.wav
64,192,20978,1,2,0:0:0:0:
320,192,20978,1,0,0:0:0:0:
320,192,21128,1,0,0:0:0:40:Hat Close.wav
64,192,21278,1,2,0:0:0:0:
192,192,21278,1,0,0:0:0:0:
64,192,21428,1,0,0:0:0:40:Hat Close.wav
192,192,21578,1,2,0:0:0:0:
448,192,21578,1,0,0:0:0:0:
192,192,21728,1,0,0:0:0:40:Hat Close.wav
64,192,21878,1,2,0:0:0:0:
320,192,21878,1,0,0:0:0:0:
320,192,22028,1,0,0:0:0:40:Hat Close.wav
64,192,22178,1,2,0:0:0:0:
448,192,22178,1,0,0:0:0:0:
448,192,22328,1,0,0:0:0:40:Hat Close.wav
192,192,22478,1,2,0:0:0:0:
320,192,22478,1,0,0:0:0:0:
192,192,22628,1,0,0:0:0:40:Hat Close.wav
64,192,22778,1,2,0:0:0:0:
448,192,22778,1,0,0:0:0:0:
192,192,22853,1,0,0:0:0:0:
320,192,22928,1,0,0:0:0:40:Hat Close.wav
192,192,23003,1,0,0:0:0:0:
64,192,23078,1,2,0:0:0:0:
448,192,23078,1,0,0:0:0:0:
320,192,23153,1,0,0:0:0:0:
192,192,23228,1,0,0:0:0:40:Hat Close.wav
320,192,23303,1,0,0:0:0:0:
64,192,23378,1,2,0:0:0:0:
448,192,23378,1,0,0:0:0:0:
192,192,23453,1,0,0:0:0:0:
320,192,23528,1,0,0:0:0:40:Hat Close.wav
192,192,23603,1,0,0:0:0:0:
64,192,23678,1,2,0:0:0:0:
448,192,23678,1,0,0:0:0:0:
320,192,23753,1,0,0:0:0:0:
192,192,23828,1,0,0:0:0:40:Hat Close.wav
320,192,23903,1,0,0:0:0:0:
64,192,23978,1,2,0:0:0:0:
448,192,23978,1,0,0:0:0:0:
192,192,24128,1,0,0:0:0:40:Hat Close.wav
64,192,24278,1,2,0:0:0:0:
320,192,24278,1,0,0:0:0:0:
448,192,24428,1,0,0:0:0:40:Hat Close.wav
64,192,24578,1,2,0:0:0:0:
192,192,24578,1,0,0:0:0:0:
448,192,24728,1,0,0:0:0:40:Hat Close.wav
192,192,24878,1,2,0:0:0:0:
320,192,24878,1,0,0:0:0:0:
64,192,25028,1,0,0:0:0:40:Hat Close.wav
192,192,25178,1,2,0:0:0:0:
448,192,25178,1,0,0:0:0:0:
320,192,25253,1,0,0:0:0:0:
192,192,25328,1,0,0:0:0:40:Hat Close.wav
320,192,25478,1,2,0:0:0:0:
448,192,25478,1,0,0:0:0:0:
192,192,25553,1,0,0:0:0:0:
64,192,25628,1,0,0:0:0:40:Hat Close.wav
320,192,25778,1,2,0:0:0:0:
448,192,25778,1,0,0:0:0:0:
64,192,25853,1,0,0:0:0:0:
192,192,25928,1,0,0:0:0:40:Hat Close.wav
64,192,26078,1,2,0:0:0:0:
320,192,26078,1,0,0:0:0:0:
448,192,26153,1,0,0:0:0:0:
192,192,26228,1,0,0:0:0:40:Hat Close.wav
64,192,26378,1,2,0:0:0:0:
448,192,26378,1,0,0:0:0:0:
192,192,26453,1,0,0:0:0:0:
448,192,26528,1,0,0:0:0:40:Hat Close.wav
64,192,26678,1,2,0:0:0:0:
320,192,26678,1,0,0:0:0:0:
448,192,26753,1,0,0:0:0:0:
192,192,26828,1,0,0:0:0:40:Hat Close.wav
64,192,26978,1,2,0:0:0:0:
320,192,26978,1,0,0:0:0:0:
192,192,27053,1,0,0:0:0:0:
448,192,27128,1,0,0:0:0:40:Hat Close.wav
64,192,27278,1,2,0:0:0:0:
320,192,27278,1,0,0:0:0:0:
192,192,27353,1,0,0:0:0:0:
320,192,27428,1,0,0:0:0:40:Hat Close.wav
64,192,27578,1,2,0:0:0:0:
448,192,27578,1,0,0:0:0:0:
448,192,27728,1,0,0:0:0:40:Hat Close.wav
64,192,27803,1,0,0:0:0:0:
192,192,27878,1,2,0:0:0:0:
320,192,27878,1,0,0:0:0:0:
320,192,28028,1,0,0:0:0:40:Hat Close.wav
64,192,28103,1,0,0:0:0:0:
192,192,28178,1,2,0:0:0:0:
448,192,28178,1,0,0:0:0:0:
192,192,28328,1,0,0:0:0:40:Hat Close.wav
448,192,28403,1,0,0:0:0:0:
64,192,28478,1,2,0:0:0:0:
320,192,28478,1,0,0:0:0:0:
320,192,28628,1,0,0:0:0:40:Hat Close.wav
192,192,28703,1,0,0:0:0:0:
64,192,28778,1,2,0:0:0:0:
448,192,28778,1,0,0:0:0:0:
320,192,28853,1,0,0:0:0:0:
64,192,28928,1,0,0:0:0:40:Hat Close.wav
192,192,29003,1,0,0:0:0:0:
320,192,29078,1,2,0:0:0:0:
448,192,29078,1,0,0:0:0:0:
192,192,29228,1,0,0:0:0:40:Hat Close.wav
64,192,29378,1,2,0:0:0:0:
320,192,29378,1,0,0:0:0:0:
192,192,29453,1,0,0:0:0:0:
448,192,29528,1,0,0:0:0:40:Hat Close.wav
320,192,29603,1,2,0:0:0:0:
64,192,29678,1,2,0:0:0:0:
192,192,29678,1,0,0:0:0:0:
320,192,29828,1,2,0:0:0:0:
448,192,29828,1,0,0:0:0:40:Hat Close.wav
64,192,29978,1,2,0:0:0:0:
192,192,29978,1,4,0:0:0:0:
320,192,29978,1,0,0:0:0:0:
448,192,30053,1,0,0:0:0:0:
192,192,30128,1,0,0:0:0:40:Hat Close.wav
64,192,30278,1,2,0:0:0:0:
448,192,30278,1,0,0:0:0:0:
192,192,30353,1,0,0:0:0:0:
320,192,30428,1,0,0:0:0:40:Hat Close.wav
64,192,30578,1,2,0:0:0:0:
192,192,30578,1,0,0:0:0:0:
320,192,30653,1,0,0:0:0:0:
448,192,30728,1,0,0:0:0:40:Hat Close.wav
64,192,30878,1,2,0:0:0:0:
320,192,30878,1,0,0:0:0:0:
192,192,30953,1,0,0:0:0:0:
448,192,31028,1,0,0:0:0:40:Hat Close.wav
192,192,31178,1,2,0:0:0:0:
320,192,31178,1,0,0:0:0:0:
64,192,31253,1,0,0:0:0:0:
320,192,31328,1,0,0:0:0:40:Hat Close.wav
64,192,31478,1,2,0:0:0:0:
448,192,31478,1,0,0:0:0:0:
320,192,31553,1,0,0:0:0:0:
192,192,31628,1,0,0:0:0:40:Hat Close.wav
320,192,31778,1,2,0:0:0:0:
448,192,31778,1,0,0:0:0:0:
192,192,31853,1,0,0:0:0:0:
64,192,31928,1,0,0:0:0:40:Hat Close.wav
192,192,32078,1,2,0:0:0:0:
448,192,32078,1,0,0:0:0:0:
320,192,32153,1,0,0:0:0:0:
64,192,32228,1,0,0:0:0:40:Hat Close.wav
320,192,32378,1,2,0:0:0:0:
448,192,32378,1,0,0:0:0:0:
192,192,32453,1,0,0:0:0:0:
320,192,32528,1,0,0:0:0:40:Hat Close.wav
192,192,32603,1,0,0:0:0:0:
64,192,32678,1,2,0:0:0:0:
448,192,32678,1,0,0:0:0:0:
320,192,32753,1,0,0:0:0:0:
64,192,32828,1,0,0:0:0:40:Hat Close.wav
192,192,32903,1,0,0:0:0:0:
320,192,32978,1,2,0:0:0:0:
448,192,32978,1,0,0:0:0:0:
64,192,33090,1,0,0:0:0:0:
320,192,33165,1,0,0:0:0:0:
64,192,33278,1,2,0:0:0:0:
448,192,33278,1,0,0:0:0:0:
320,192,33390,1,0,0:0:0:0:
192,192,33465,1,0,0:0:0:0:
64,192,33578,1,2,0:0:0:0:
448,192,33578,1,0,0:0:0:0:
320,192,33728,1,0,0:0:0:40:Hat Close.wav
192,192,33878,1,2,0:0:0:0:
448,192,33878,1,0,0:0:0:0:
64,192,34028,1,0,0:0:0:40:Hat Close.wav
192,192,34178,1,2,0:0:0:0:
448,192,34178,1,0,0:0:0:0:
320,192,34328,1,0,0:0:0:40:Hat Close.wav
64,192,34478,1,2,0:0:0:0:
448,192,34478,1,0,0:0:0:0:
192,192,34628,1,0,0:0:0:40:Hat Close.wav
64,192,34778,1,2,0:0:0:0:
448,192,34778,1,0,0:0:0:0:
64,192,34928,1,0,0:0:0:40:Hat Close.wav
192,192,35078,1,2,0:0:0:0:
320,192,35078,1,0,0:0:0:0:
448,192,35190,1,0,0:0:0:0:
192,192,35265,1,0,0:0:0:0:
64,192,35378,1,2,0:0:0:0:
320,192,35378,1,0,0:0:0:0:
448,192,35453,1,0,0:0:0:0:
192,192,35528,1,0,0:0:0:40:Hat Close.wav
64,192,35678,1,2,0:0:0:0:
448,192,35678,1,0,0:0:0:0:
192,192,35790,1,0,0:0:0:0:
320,192,35865,1,0,0:0:0:0:
64,192,35978,1,2,0:0:0:0:
448,192,35978,1,0,0:0:0:0:
192,192,36053,1,0,0:0:0:0:
448,192,36128,1,0,0:0:0:40:Hat Close.wav
64,192,36203,1,0,0:0:0:0:
192,192,36278,1,2,0:0:0:0:
320,192,36278,1,0,0:0:0:0:
448,192,36390,1,0,0:0:0:0:
192,192,36465,1,0,0:0:0:0:
64,192,36578,1,2,0:0:0:0:
320,192,36578,1,0,0:0:0:0:
448,192,36690,1,0,0:0:0:0:
320,192,36765,1,0,0:0:0:0:
64,192,36878,1,2,0:0:0:0:
192,192,36878,1,0,0:0:0:0:
320,192,37028,1,0,0:0:0:40:Hat Close.wav
448,192,37028,1,0,0:0:0:0:
64,192,37178,1,2,0:0:0:0:
320,192,37178,1,0,0:0:0:0:
192,192,37253,1,0,0:0:0:0:
448,192,37328,1,0,0:0:0:40:Hat Close.wav
64,192,37403,1,0,0:0:0:0:
192,192,37478,1,2,0:0:0:0:
320,192,37478,1,0,0:0:0:0:
448,192,37553,1,0,0:0:0:0:
64,192,37628,1,0,0:0:0:40:Hat Close.wav
320,192,37703,1,0,0:0:0:0:
64,192,37778,128,2,37853:0:0:0:0:
192,192,37853,128,0,37928:0:0:0:0:
448,192,37928,128,0,38003:0:0:0:40:Hat Close.wav
320,192,38003,128,0,38078:0:0:0:0:
64,192,38078,128,2,38153:0:0:0:0:
192,192,38153,128,0,38228:0:0:0:0:
448,192,38228,128,0,38303:0:0:0:40:Hat Close.wav
320,192,38303,128,0,38378:0:0:0:0:
64,192,38378,1,0,0:0:0:0:
192,192,38378,1,0,0:0:0:0:
448,192,38528,1,0,0:0:0:40:Hat Close.wav
64,192,38678,1,0,0:0:0:0:
320,192,38678,1,0,0:0:0:0:
192,192,38828,1,0,0:0:0:40:Hat Close.wav
64,192,38978,1,0,0:0:0:0:
320,192,38978,1,0,0:0:0:0:
448,192,39128,1,0,0:0:0:40:Hat Close.wav
64,192,39278,1,0,0:0:0:0:
192,192,39278,1,0,0:0:0:0:
320,192,39428,1,0,0:0:0:40:Hat Close.wav
64,192,39578,1,2,0:0:0:0:
448,192,39578,1,4,0:0:0:0:
320,192,39653,1,0,0:0:0:0:
192,192,39728,1,0,0:0:0:40:Hat Close.wav
64,192,39878,1,2,0:0:0:0:
448,192,39878,1,0,0:0:0:0:
192,192,39953,1,0,0:0:0:0:
320,192,40028,1,0,0:0:0:40:Hat Close.wav
64,192,40178,1,2,0:0:0:0:
448,192,40178,1,0,0:0:0:0:
320,192,40253,1,0,0:0:0:0:
192,192,40328,1,0,0:0:0:40:Hat Close.wav
320,192,40478,1,2,0:0:0:0:
448,192,40478,1,0,0:0:0:0:
192,192,40553,1,0,0:0:0:0:
64,192,40628,1,0,0:0:0:40:Hat Close.wav
192,192,40778,1,2,0:0:0:0:
448,192,40778,1,0,0:0:0:0:
320,192,40853,1,0,0:0:0:0:
64,192,40928,1,0,0:0:0:40:Hat Close.wav
320,192,41078,1,2,0:0:0:0:
448,192,41078,1,0,0:0:0:0:
192,192,41153,1,0,0:0:0:0:
64,192,41228,1,0,0:0:0:40:Hat Close.wav
320,192,41378,1,2,0:0:0:0:
448,192,41378,1,0,0:0:0:40:Hat Close.wav
64,192,41603,1,2,0:0:0:0:
192,192,41603,1,0,0:0:0:40:Hat Close.wav
192,192,41828,1,2,0:0:0:0:
320,192,41828,1,0,0:0:0:40:Hat Close.wav
64,192,41978,1,2,0:0:0:0:
448,192,41978,1,0,0:0:0:0:
320,192,42053,1,0,0:0:0:0:
192,192,42128,1,0,0:0:0:40:Hat Close.wav
64,192,42278,1,2,0:0:0:0:
448,192,42278,1,0,0:0:0:0:
192,192,42353,1,0,0:0:0:0:
320,192,42428,1,0,0:0:0:40:Hat Close.wav
64,192,42578,1,2,0:0:0:0:
448,192,42578,1,0,0:0:0:0:
320,192,42653,1,0,0:0:0:0:
192,192,42728,1,0,0:0:0:40:Hat Close.wav
64,192,42878,1,2,0:0:0:0:
448,192,42878,1,0,0:0:0:0:
192,192,42953,1,0,0:0:0:0:
320,192,43028,1,0,0:0:0:40:Hat Close.wav
64,192,43178,1,2,0:0:0:0:
320,192,43178,1,0,0:0:0:0:
192,192,43253,1,0,0:0:0:0:
448,192,43328,1,2,0:0:0:0:
320,192,43403,1,2,0:0:0:0:
64,192,43478,1,2,0:0:0:0:
192,192,43478,1,0,0:0:0:0:
448,192,43553,1,0,0:0:0:0:
64,192,43628,1,2,0:0:0:0:
192,192,43703,1,2,0:0:0:0:
320,192,43778,1,2,0:0:0:0:
448,192,43778,1,0,0:0:0:0:
64,192,43853,1,0,0:0:0:0:
320,192,43928,1,2,0:0:0:0:
192,192,44003,1,2,0:0:0:0:
64,192,44078,1,2,0:0:0:0:
448,192,44078,1,0,0:0:0:0:
320,192,44153,1,2,0:0:0:0:
192,192,44228,1,2,0:0:0:0:
320,192,44303,1,2,0:0:0:0:
64,192,44378,1,2,0:0:0:0:
192,192,44378,1,4,0:0:0:0:
448,192,44378,1,0,0:0:0:0:
192,192,44528,1,0,0:0:0:40:Hat Close.wav
64,192,44678,128,2,44828:0:0:0:0:
320,192,44678,1,0,0:0:0:0:
192,192,44828,128,0,44978:0:0:0:40:Hat Close.wav
320,192,44978,128,2,45128:0:0:0:0:
448,192,44978,1,0,0:0:0:0:
64,192,45128,1,0,0:0:0:40:Hat Close.wav
320,192,45278,128,2,45428:0:0:0:0:
448,192,45278,1,0,0:0:0:0:
192,192,45428,1,0,0:0:0:40:Hat Close.wav
64,192,45578,128,2,46028:0:0:0:0:
448,192,45578,1,0,0:0:0:0:
192,192,45728,1,0,0:0:0:40:Hat Close.wav
448,192,45878,1,2,0:0:0:0:
192,192,46028,128,0,46478:0:0:0:40:Hat Close.wav
320,192,46028,1,0,0:0:0:0:
448,192,46178,1,2,0:0:0:0:
64,192,46328,1,0,0:0:0:40:Hat Close.wav
320,192,46478,128,2,46778:0:0:0:0:
448,192,46478,1,0,0:0:0:0:
64,192,46628,1,0,0:0:0:40:Hat Close.wav
192,192,46778,1,2,0:0:0:0:
448,192,46778,128,0,47078:0:0:0:0:
64,192,46928,1,0,0:0:0:40:Hat Close.wav
192,192,47078,1,2,0:0:0:0:
320,192,47078,128,0,47228:0:0:0:0:
64,192,47228,128,0,47378:0:0:0:40:Hat Close.wav
192,192,47378,128,2,47528:0:0:0:0:
448,192,47378,1,0,0:0:0:0:
320,192,47528,1,0,0:0:0:40:Hat Close.wav
192,192,47678,128,2,47828:0:0:0:0:
448,192,47678,1,0,0:0:0:0:
64,192,47828,1,0,0:0:0:40:Hat Close.wav
320,192,47978,128,2,48278:0:0:0:0:
448,192,47978,128,0,48428:0:0:0:0:
192,192,48428,128,2,48728:0:0:0:0:
320,192,48428,128,0,48878:0:0:0:0:
64,192,48728,128,2,49178:0:0:0:0:
192,192,48878,128,2,49178:0:0:0:0:
448,192,48878,1,0,0:0:0:0:
320,192,49178,1,2,0:0:0:0:
448,192,49178,1,4,0:0:0:0:
448,192,49778,1,0,0:0:0:0:
320,192,50378,1,0,0:0:0:0:
320,192,50978,1,0,0:0:0:0:
192,192,51578,1,0,0:0:0:0:
192,192,52178,1,0,0:0:0:0:
64,192,52778,1,0,0:0:0:0:
64,192,53378,1,0,0:0:0:0:
448,192,53978,1,0,0:0:0:0:
448,192,54578,1,0,0:0:0:0:
320,192,55178,1,0,0:0:0:0:
320,192,55778,1,0,0:0:0:0:
192,192,56378,1,0,0:0:0:0:
192,192,56978,1,0,0:0:0:0:
64,192,57578,1,0,0:0:0:0:
64,192,58178,1,0,0:0:0:0:
448,192,58778,1,0,0:0:0:0:
320,192,58928,128,0,59078:0:0:0:0:
64,192,59078,1,0,0:0:0:0:
192,192,59228,128,0,59378:0:0:0:0:
320,192,59378,128,0,59828:0:0:0:0:
448,192,59528,1,0,0:0:0:0:
64,192,59678,1,0,0:0:0:0:
192,192,59828,128,0,59978:0:0:0:0:
448,192,59978,1,0,0:0:0:0:
320,192,60128,128,0,60278:0:0:0:0:
64,192,60278,1,0,0:0:0:0:
192,192,60428,128,0,60578:0:0:0:0:
320,192,60578,128,0,61028:0:0:0:0:
448,192,60728,1,0,0:0:0:0:
64,192,60878,1,0,0:0:0:0:
192,192,61028,128,0,61178:0:0:0:0:
448,192,61178,1,0,0:0:0:0:
320,192,61328,128,0,61478:0:0:0:0:
64,192,61478,1,0,0:0:0:0:
192,192,61628,128,0,61778:0:0:0:0:
320,192,61778,128,0,62228:0:0:0:0:
448,192,61928,1,0,0:0:0:0:
64,192,62078,1,0,0:0:0:0:
192,192,62228,128,0,62378:0:0:0:0:
448,192,62378,1,0,0:0:0:0:
320,192,62528,128,0,62678:0:0:0:0:
64,192,62678,1,0,0:0:0:0:
192,192,62828,128,0,62978:0:0:0:0:
320,192,62978,128,0,63428:0:0:0:0:
448,192,63128,1,0,0:0:0:0:
64,192,63278,1,0,0:0:0:0:
192,192,63428,128,0,63578:0:0:0:0:
448,192,63578,1,0,0:0:0:0:
320,192,63728,128,0,63878:0:0:0:0:
64,192,63878,1,0,0:0:0:0:
192,192,64028,128,0,64178:0:0:0:0:
448,192,64178,1,0,0:0:0:0:
320,192,64328,128,0,64478:0:0:0:0:
64,192,64478,1,0,0:0:0:0:
192,192,64628,128,0,64778:0:0:0:0:
448,192,64778,1,0,0:0:0:0:
64,192,64928,1,0,0:0:0:0:
448,192,65078,1,0,0:0:0:0:
64,192,65228,1,0,0:0:0:0:
448,192,65378,1,0,0:0:0:0:
64,192,65528,1,0,0:0:0:0:
448,192,65678,1,0,0:0:0:0:
64,192,65828,1,0,0:0:0:0:
448,192,65978,1,0,0:0:0:0:
320,192,66053,1,0,0:0:0:0:
192,192,66128,1,0,0:0:0:0:
64,192,66203,1,0,0:0:0:0:
448,192,66278,1,0,0:0:0:0:
320,192,66353,1,0,0:0:0:0:
192,192,66428,1,0,0:0:0:0:
64,192,66503,1,0,0:0:0:0:
448,192,66578,1,0,0:0:0:0:
320,192,66653,1,0,0:0:0:0:
192,192,66728,1,0,0:0:0:0:
64,192,66803,1,0,0:0:0:0:
448,192,66878,1,0,0:0:0:0:
320,192,66953,1,0,0:0:0:0:
192,192,67028,1,0,0:0:0:0:
64,192,67103,1,0,0:0:0:0:
320,192,67178,1,0,0:0:0:0:
448,192,67178,1,0,0:0:0:0:
448,192,67628,1,2,0:0:0:0:
320,192,67703,1,2,0:0:0:0:
192,192,67778,1,2,0:0:0:0:
64,192,67928,1,2,0:0:0:0:
448,192,68078,1,2,0:0:0:0:
320,192,68228,1,2,0:0:0:0:
64,192,68378,128,4,68528:0:0:0:0:
192,192,68378,1,2,0:0:0:0:
448,192,68378,1,0,0:0:0:0:
320,192,68528,1,0,0:0:0:10:Hat Open.wav
64,192,68678,128,0,68828:0:0:0:40:Hat Close.wav
192,192,68828,1,0,0:0:0:10:Hat Open.wav
448,192,68978,128,0,69128:0:0:0:40:Hat Close.wav
320,192,69128,1,0,0:0:0:10:Hat Open.wav
192,192,69278,128,0,69428:0:0:0:40:Hat Close.wav
64,192,69428,128,0,69578:0:0:0:10:Hat Open.wav
320,192,69578,128,0,69728:0:0:0:40:Hat Close.wav
448,192,69728,128,0,69878:0:0:0:10:Hat Open.wav
192,192,69878,128,0,70028:0:0:0:40:Hat Close.wav
320,192,70028,128,0,70178:0:0:0:10:Hat Open.wav
64,192,70178,128,0,70478:0:0:0:40:Hat Close.wav
448,192,70328,1,0,0:0:0:10:Hat Open.wav
320,192,70478,1,0,0:0:0:40:Hat Close.wav
192,192,70628,1,0,0:0:0:10:Hat Open.wav
64,192,70703,128,0,70928:0:0:0:0:
320,192,70778,1,2,0:0:0:0:
448,192,70778,1,0,0:0:0:40:Hat Close.wav
192,192,70928,128,0,71078:0:0:0:10:Hat Open.wav
320,192,71078,128,0,71228:0:0:0:40:Hat Close.wav
448,192,71228,128,0,71378:0:0:0:10:Hat Open.wav
320,192,71378,128,0,71528:0:0:0:40:Hat Close.wav
192,192,71528,128,0,71678:0:0:0:10:Hat Open.wav
64,192,71678,128,0,71828:0:0:0:40:Hat Close.wav
320,192,71828,128,0,72128:0:0:0:10:Hat Open.wav
192,192,71978,1,0,0:0:0:40:Hat Close.wav
64,192,72128,128,0,72278:0:0:0:10:Hat Open.wav
192,192,72278,128,0,72428:0:0:0:40:Hat Close.wav
320,192,72428,128,2,72578:0:0:0:0:
64,192,72503,1,2,0:0:0:0:
448,192,72578,128,2,73178:0:0:0:0:
192,192,72728,1,2,0:0:0:0:
64,192,72878,128,2,73178:0:0:0:0:
320,192,73028,1,2,0:0:0:0:
192,192,73178,128,2,73328:0:0:0:0:
320,192,73178,1,0,0:0:0:40:Hat Close.wav
64,192,73328,1,0,0:0:0:10:Hat Open.wav
320,192,73478,128,0,73628:0:0:0:40:Hat Close.wav
448,192,73628,1,0,0:0:0:10:Hat Open.wav
64,192,73778,128,0,73928:0:0:0:40:Hat Close.wav
192,192,73928,1,0,0:0:0:10:Hat Open.wav
320,192,74078,128,0,74228:0:0:0:40:Hat Close.wav
448,192,74228,128,0,74378:0:0:0:10:Hat Open.wav
64,192,74378,1,2,0:0:0:0:
192,192,74378,128,0,74528:0:0:0:40:Hat Close.wav
320,192,74528,128,0,74678:0:0:0:10:Hat Open.wav
64,192,74678,128,0,74828:0:0:0:40:Hat Close.wav
192,192,74828,128,0,74978:0:0:0:10:Hat Open.wav
320,192,74978,1,2,0:0:0:0:
448,192,74978,128,0,75278:0:0:0:40:Hat Close.wav
192,192,75278,1,2,0:0:0:0:
320,192,75278,1,0,0:0:0:40:Hat Close.wav
64,192,75428,1,0,0:0:0:10:Hat Open.wav
192,192,75578,1,2,0:0:0:0:
320,192,75653,1,2,0:0:0:0:
192,192,75728,1,2,0:0:0:0:
448,192,75878,1,2,0:0:0:0:
64,192,75953,1,2,0:0:0:0:
448,192,76028,1,2,0:0:0:0:
192,192,76178,1,2,0:0:0:0:
320,192,76253,1,2,0:0:0:0:
192,192,76328,1,2,0:0:0:0:
448,192,76478,1,2,0:0:0:0:
64,192,76553,1,2,0:0:0:0:
448,192,76628,1,2,0:0:0:0:
64,192,76778,1,2,0:0:0:0:
192,192,76778,1,0,0:0:0:40:Hat Close.wav
192,192,76928,1,2,0:0:0:0:
448,192,76928,1,0,0:0:0:10:Hat Open.wav
320,192,77078,1,2,0:0:0:0:
448,192,77078,1,0,0:0:0:40:Hat Close.wav
64,192,77228,1,2,0:0:0:0:
320,192,77228,1,0,0:0:0:10:Hat Open.wav
192,192,77378,128,2,77453:0:0:0:0:
448,192,77453,128,2,77528:0:0:0:0:
64,192,77528,128,2,77603:0:0:0:0:
320,192,77603,128,2,77678:0:0:0:0:
192,192,77678,128,2,77753:0:0:0:0:
448,192,77753,128,2,77828:0:0:0:0:
64,192,77828,128,2,77903:0:0:0:0:
320,192,77903,128,2,77978:0:0:0:0:
192,192,77978,128,2,78128:0:0:0:0:
448,192,77978,1,4,0:0:0:0:
64,192,78128,1,0,0:0:0:40:Hat Close.wav
320,192,78278,128,2,78428:0:0:0:0:
448,192,78278,1,0,0:0:0:0:
192,192,78428,1,0,0:0:0:40:Hat Close.wav
64,192,78578,1,2,0:0:0:0:
448,192,78578,128,0,78728:0:0:0:0:
320,192,78728,1,0,0:0:0:40:Hat Close.wav
64,192,78878,128,2,79028:0:0:0:0:
192,192,78878,1,0,0:0:0:0:
448,192,79028,1,0,0:0:0:40:Hat Close.wav
192,192,79178,128,2,79328:0:0:0:0:
320,192,79178,1,0,0:0:0:0:
64,192,79328,1,0,0:0:0:40:Hat Close.wav
320,192,79478,128,2,79628:0:0:0:0:
448,192,79478,1,0,0:0:0:0:
192,192,79628,1,0,0:0:0:40:Hat Close.wav
64,192,79778,1,2,0:0:0:0:
448,192,79778,128,0,79928:0:0:0:0:
320,192,79928,1,0,0:0:0:40:Hat Close.wav
64,192,80078,128,2,80228:0:0:0:0:
448,192,80078,1,0,0:0:0:0:
192,192,80228,1,0,0:0:0:40:Hat Close.wav
320,192,80378,1,2,0:0:0:0:
448,192,80378,1,0,0:0:0:0:
64,192,80528,1,0,0:0:0:40:Hat Close.wav
192,192,80678,1,2,0:0:0:0:
320,192,80678,1,0,0:0:0:0:
448,192,80828,1,0,0:0:0:40:Hat Close.wav
64,192,80978,1,2,0:0:0:0:
192,192,80978,1,0,0:0:0:0:
320,192,81128,1,0,0:0:0:40:Hat Close.wav
64,192,81278,1,2,0:0:0:0:
448,192,81278,1,0,0:0:0:0:
320,192,81428,1,0,0:0:0:40:Hat Close.wav
64,192,81578,1,2,0:0:0:0:
192,192,81578,1,0,0:0:0:0:
448,192,81728,1,0,0:0:0:40:Hat Close.wav
192,192,81878,1,2,0:0:0:0:
320,192,81878,1,0,0:0:0:0:
64,192,82028,1,0,0:0:0:40:Hat Close.wav
320,192,82178,1,2,0:0:0:0:
448,192,82178,1,0,0:0:0:0:
192,192,82328,1,0,0:0:0:40:Hat Close.wav
64,192,82478,1,2,0:0:0:0:
448,192,82478,1,0,0:0:0:0:
320,192,82628,1,0,0:0:0:40:Hat Close.wav
192,192,82778,1,2,0:0:0:0:
448,192,82778,128,0,82928:0:0:0:0:
192,192,82928,1,0,0:0:0:40:Hat Close.wav
64,192,83078,1,2,0:0:0:0:
320,192,83078,128,0,83228:0:0:0:0:
64,192,83228,1,0,0:0:0:40:Hat Close.wav
192,192,83378,128,2,83528:0:0:0:0:
448,192,83378,1,0,0:0:0:0:
448,192,83528,1,0,0:0:0:40:Hat Close.wav
64,192,83678,128,2,83828:0:0:0:0:
320,192,83678,1,0,0:0:0:0:
320,192,83828,1,0,0:0:0:40:Hat Close.wav
192,192,83978,1,2,0:0:0:0:
448,192,83978,128,0,84128:0:0:0:0:
192,192,84128,1,0,0:0:0:40:Hat Close.wav
64,192,84278,1,2,0:0:0:0:
320,192,84278,128,0,84428:0:0:0:0:
64,192,84428,1,0,0:0:0:40:Hat Close.wav
192,192,84578,128,2,84728:0:0:0:0:
448,192,84578,1,0,0:0:0:0:
448,192,84728,1,0,0:0:0:40:Hat Close.wav
64,192,84878,128,2,85028:0:0:0:0:
320,192,84878,1,0,0:0:0:0:
320,192,85028,1,0,0:0:0:40:Hat Close.wav
64,192,85178,1,2,0:0:0:0:
192,192,85178,1,0,0:0:0:0:
448,192,85328,1,0,0:0:0:40:Hat Close.wav
192,192,85478,1,2,0:0:0:0:
320,192,85478,1,0,0:0:0:0:
64,192,85628,1,0,0:0:0:40:Hat Close.wav
320,192,85778,1,2,0:0:0:0:
448,192,85778,1,0,0:0:0:0:
192,192,85928,1,0,0:0:0:40:Hat Close.wav
64,192,86078,1,2,0:0:0:0:
448,192,86078,1,0,0:0:0:0:
320,192,86228,1,0,0:0:0:40:Hat Close.wav
192,192,86378,1,2,0:0:0:0:
448,192,86378,1,0,0:0:0:0:
192,192,86528,1,2,0:0:0:0:
320,192,86528,1,0,0:0:0:40:Hat Close.wav
64,192,86678,1,2,0:0:0:0:
448,192,86678,1,0,0:0:0:0:
320,192,86828,1,2,0:0:0:0:
448,192,86828,1,0,0:0:0:40:Hat Close.wav
64,192,86978,1,2,0:0:0:0:
192,192,86978,1,0,0:0:0:0:
64,192,87128,1,2,0:0:0:0:
320,192,87128,1,0,0:0:0:40:Hat Close.wav
320,192,87278,1,2,0:0:0:0:
448,192,87278,1,0,0:0:0:0:
64,192,87428,1,2,0:0:0:0:
192,192,87428,1,0,0:0:0:40:Hat Close.wav
192,192,87578,1,2,0:0:0:0:
320,192,87578,1,4,0:0:0:0:
448,192,87578,128,0,87728:0:0:0:0:
64,192,87728,1,0,0:0:0:40:Hat Close.wav
320,192,87878,128,2,88028:0:0:0:0:
448,192,87878,1,0,0:0:0:0:
64,192,88028,1,0,0:0:0:40:Hat Close.wav
192,192,88178,128,2,88328:0:0:0:0:
448,192,88178,1,0,0:0:0:0:
320,192,88328,1,0,0:0:0:40:Hat Close.wav
64,192,88478,128,2,88628:0:0:0:0:
448,192,88478,1,0,0:0:0:0:
192,192,88628,1,0,0:0:0:40:Hat Close.wav
320,192,88778,1,2,0:0:0:0:
448,192,88778,128,0,88928:0:0:0:0:
192,192,88928,1,0,0:0:0:40:Hat Close.wav
64,192,89078,1,2,0:0:0:0:
320,192,89078,128,0,89228:0:0:0:0:
448,192,89228,1,0,0:0:0:40:Hat Close.wav
64,192,89378,1,2,0:0:0:0:
192,192,89378,128,0,89528:0:0:0:0:
320,192,89528,1,0,0:0:0:40:Hat Close.wav
64,192,89678,128,2,89828:0:0:0:0:
448,192,89678,1,0,0:0:0:0:
192,192,89828,1,0,0:0:0:40:Hat Close.wav
320,192,89978,1,2,0:0:0:0:
448,192,89978,1,0,0:0:0:0:
64,192,90128,1,0,0:0:0:40:Hat Close.wav
192,192,90278,1,2,0:0:0:0:
320,192,90278,1,0,0:0:0:0:
448,192,90428,1,0,0:0:0:40:Hat Close.wav
64,192,90578,1,2,0:0:0:0:
192,192,90578,1,0,0:0:0:0:
320,192,90728,1,0,0:0:0:40:Hat Close.wav
64,192,90878,1,2,0:0:0:0:
448,192,90878,1,0,0:0:0:0:
320,192,91028,1,0,0:0:0:40:Hat Close.wav
64,192,91178,1,2,0:0:0:0:
192,192,91178,1,0,0:0:0:0:
448,192,91328,1,0,0:0:0:40:Hat Close.wav
192,192,91478,1,2,0:0:0:0:
320,192,91478,1,0,0:0:0:0:
64,192,91628,1,0,0:0:0:40:Hat Close.wav
320,192,91778,1,2,0:0:0:0:
448,192,91778,1,0,0:0:0:0:
192,192,91928,1,0,0:0:0:40:Hat Close.wav
64,192,92078,1,2,0:0:0:0:
448,192,92078,1,0,0:0:0:0:
320,192,92228,1,0,0:0:0:40:Hat Close.wav
64,192,92378,128,2,93578:0:0:0:0:
448,192,92378,1,0,0:0:0:0:
448,192,92528,1,0,0:0:0:40:Hat Close.wav
192,192,92678,1,2,0:0:0:0:
320,192,92678,1,0,0:0:0:0:
192,192,92828,1,0,0:0:0:40:Hat Close.wav
320,192,92978,1,2,0:0:0:0:
448,192,92978,1,0,0:0:0:0:
320,192,93128,1,0,0:0:0:40:Hat Close.wav
192,192,93278,1,2,0:0:0:0:
448,192,93278,1,0,0:0:0:0:
192,192,93428,1,0,0:0:0:40:Hat Close.wav
320,192,93578,1,2,0:0:0:0:
448,192,93578,128,0,94778:0:0:0:0:
320,192,93728,1,0,0:0:0:40:Hat Close.wav
64,192,93878,1,2,0:0:0:0:
192,192,93878,1,0,0:0:0:0:
64,192,94028,1,0,0:0:0:40:Hat Close.wav
192,192,94178,1,2,0:0:0:0:
320,192,94178,1,0,0:0:0:0:
320,192,94328,1,0,0:0:0:40:Hat Close.wav
64,192,94478,1,2,0:0:0:0:
192,192,94478,1,0,0:0:0:0:
64,192,94628,1,0,0:0:0:40:Hat Close.wav
192,192,94778,1,2,0:0:0:0:
320,192,94778,1,0,0:0:0:0:
448,192,94928,1,0,0:0:0:40:Hat Close.wav
64,192,95078,1,2,0:0:0:0:
320,192,95078,1,0,0:0:0:0:
192,192,95228,1,0,0:0:0:40:Hat Close.wav
64,192,95378,1,2,0:0:0:0:
448,192,95378,1,0,0:0:0:0:
320,192,95528,1,0,0:0:0:40:Hat Close.wav
64,192,95603,1,2,0:0:0:0:
192,192,95603,1,0,0:0:0:0:
448,192,95678,1,0,0:0:0:0:
64,192,95828,1,2,0:0:0:0:
320,192,95828,1,0,0:0:0:40:Hat Close.wav
192,192,95978,1,2,0:0:0:0:
448,192,95978,1,0,0:0:0:0:
448,192,96128,1,0,0:0:0:40:Hat Close.wav
64,192,96278,1,2,0:0:0:0:
320,192,96278,1,0,0:0:0:0:
64,192,96428,1,0,0:0:0:40:Hat Close.wav
448,192,96578,1,2,0:0:0:0:
320,192,96653,1,2,0:0:0:0:
64,192,96728,1,2,0:0:0:0:
192,192,96803,1,2,0:0:0:0:
320,192,96878,1,2,0:0:0:0:
448,192,96878,1,0,0:0:0:0:
64,192,97028,1,2,0:0:0:0:
192,192,97028,1,0,0:0:0:40:Hat Close.wav
64,192,97178,128,2,99278:0:0:0:0:
320,192,97178,1,4,0:0:0:0:
448,192,97178,1,0,0:0:0:0:
448,192,97328,1,0,0:0:0:40:Hat Close.wav
192,192,97478,1,2,0:0:0:0:
320,192,97478,1,0,0:0:0:0:
192,192,97628,1,0,0:0:0:40:Hat Close.wav
320,192,97778,1,2,0:0:0:0:
448,192,97778,1,0,0:0:0:0:
448,192,97928,1,0,0:0:0:40:Hat Close.wav
192,192,98078,1,2,0:0:0:0:
320,192,98078,1,0,0:0:0:0:
320,192,98228,1,0,0:0:0:40:Hat Close.wav
192,192,98378,1,2,0:0:0:0:
448,192,98378,1,0,0:0:0:0:
192,192,98528,1,0,0:0:0:40:Hat Close.wav
320,192,98678,1,2,0:0:0:0:
448,192,98678,1,0,0:0:0:0:
448,192,98828,1,0,0:0:0:40:Hat Close.wav
192,192,98978,1,2,0:0:0:0:
320,192,98978,1,0,0:0:0:0:
320,192,99128,1,0,0:0:0:40:Hat Close.wav
192,192,99278,1,2,0:0:0:0:
448,192,99278,1,0,0:0:0:0:
192,192,99428,1,0,0:0:0:40:Hat Close.wav
64,192,99578,1,2,0:0:0:0:
448,192,99578,128,0,101678:0:0:0:0:
64,192,99728,1,0,0:0:0:40:Hat Close.wav
192,192,99878,1,2,0:0:0:0:
320,192,99878,1,0,0:0:0:0:
320,192,100028,1,0,0:0:0:40:Hat Close.wav
64,192,100178,1,2,0:0:0:0:
192,192,100178,1,0,0:0:0:0:
192,192,100328,1,0,0:0:0:40:Hat Close.wav
64,192,100478,1,2,0:0:0:0:
320,192,100478,1,0,0:0:0:0:
64,192,100628,1,0,0:0:0:40:Hat Close.wav
192,192,100778,1,2,0:0:0:0:
320,192,100778,1,0,0:0:0:0:
320,192,100928,1,0,0:0:0:40:Hat Close.wav
64,192,101078,1,2,0:0:0:0:
192,192,101078,1,0,0:0:0:0:
192,192,101228,1,0,0:0:0:40:Hat Close.wav
64,192,101378,1,2,0:0:0:0:
320,192,101378,1,0,0:0:0:0:
320,192,101528,1,0,0:0:0:40:Hat Close.wav
64,192,101678,1,2,0:0:0:0:
192,192,101678,1,0,0:0:0:0:
64,192,101828,1,0,0:0:0:40:Hat Close.wav
192,192,101978,128,2,104078:0:0:0:0:
448,192,101978,1,0,0:0:0:0:
448,192,102128,1,0,0:0:0:40:Hat Close.wav
64,192,102278,1,2,0:0:0:0:
320,192,102278,1,0,0:0:0:0:
64,192,102428,1,0,0:0:0:40:Hat Close.wav
320,192,102578,1,2,0:0:0:0:
448,192,102578,1,0,0:0:0:0:
320,192,102728,1,0,0:0:0:40:Hat Close.wav
64,192,102878,1,2,0:0:0:0:
448,192,102878,1,0,0:0:0:0:
64,192,103028,1,0,0:0:0:40:Hat Close.wav
320,192,103178,1,2,0:0:0:0:
448,192,103178,1,0,0:0:0:0:
320,192,103328,1,0,0:0:0:40:Hat Close.wav
64,192,103478,1,2,0:0:0:0:
448,192,103478,1,0,0:0:0:0:
64,192,103628,1,0,0:0:0:40:Hat Close.wav
320,192,103778,1,2,0:0:0:0:
448,192,103778,1,0,0:0:0:0:
448,192,103928,1,0,0:0:0:40:Hat Close.wav
64,192,104078,1,2,0:0:0:0:
320,192,104078,1,0,0:0:0:0:
320,192,104228,1,0,0:0:0:40:Hat Close.wav
192,192,104303,1,0,0:0:0:0:
64,192,104378,1,2,0:0:0:0:
448,192,104378,1,0,0:0:0:0:
320,192,104528,1,0,0:0:0:40:Hat Close.wav
64,192,104678,1,2,0:0:0:0:
192,192,104678,1,0,0:0:0:0:
448,192,104828,1,0,0:0:0:40:Hat Close.wav
64,192,104978,1,2,0:0:0:0:
320,192,104978,1,0,0:0:0:0:
192,192,105128,1,0,0:0:0:40:Hat Close.wav
320,192,105203,1,2,0:0:0:0:
448,192,105203,1,0,0:0:0:0:
64,192,105278,1,0,0:0:0:0:
192,192,105428,1,2,0:0:0:0:
320,192,105428,1,0,0:0:0:40:Hat Close.wav
64,192,105578,1,2,0:0:0:0:
448,192,105578,1,0,0:0:0:0:
448,192,105728,1,0,0:0:0:40:Hat Close.wav
64,192,105878,1,2,0:0:0:0:
192,192,105878,1,0,0:0:0:0:
64,192,106028,1,0,0:0:0:40:Hat Close.wav
448,192,106178,1,2,0:0:0:0:
320,192,106253,1,2,0:0:0:0:
64,192,106328,1,2,0:0:0:0:
192,192,106403,1,2,0:0:0:0:
320,192,106478,1,2,0:0:0:0:
448,192,106478,1,0,0:0:0:0:
192,192,106628,1,2,0:0:0:0:
320,192,106628,1,0,0:0:0:40:Hat Close.wav
64,192,106778,1,4,0:0:0:0:
192,192,106778,1,0,0:0:0:0:
448,192,106778,128,0,106928:0:0:0:0:
64,192,106928,1,0,0:0:0:40:Hat Close.wav
320,192,107078,128,0,107228:0:0:0:0:
448,192,107228,1,0,0:0:0:40:Hat Close.wav
192,192,107378,128,0,107678:0:0:0:0:
320,192,107528,1,0,0:0:0:40:Hat Close.wav
448,192,107678,128,0,107828:0:0:0:0:
64,192,107828,128,0,107978:0:0:0:40:Hat Close.wav
320,192,107978,128,0,108128:0:0:0:0:
192,192,108128,128,0,108278:0:0:0:40:Hat Close.wav
448,192,108278,128,0,108428:0:0:0:0:
320,192,108428,128,0,108578:0:0:0:40:Hat Close.wav
192,192,108578,128,0,108728:0:0:0:0:
448,192,108728,1,0,0:0:0:40:Hat Close.wav
320,192,108878,1,0,0:0:0:0:
192,192,109028,128,0,109103:0:0:0:40:Hat Close.wav
64,192,109103,128,0,109328:0:0:0:0:
320,192,109178,1,0,0:0:0:0:
448,192,109328,128,0,109478:0:0:0:40:Hat Close.wav
320,192,109478,128,0,109628:0:0:0:0:
192,192,109628,128,0,109778:0:0:0:40:Hat Close.wav
448,192,109778,128,0,109928:0:0:0:0:
64,192,109928,128,0,110078:0:0:0:40:Hat Close.wav
320,192,110078,128,0,110228:0:0:0:0:
192,192,110228,128,0,110378:0:0:0:40:Hat Close.wav
64,192,110378,1,0,0:0:0:0:
448,192,110528,128,0,110678:0:0:0:40:Hat Close.wav
320,192,110678,128,0,110828:0:0:0:0:
192,192,110828,128,0,110978:0:0:0:40:Hat Close.wav
64,192,110978,128,0,111128:0:0:0:0:
448,192,111128,1,0,0:0:0:40:Hat Close.wav
320,192,111278,1,0,0:0:0:0:
192,192,111428,1,0,0:0:0:40:Hat Close.wav
448,192,111578,128,0,111728:0:0:0:0:
64,192,111728,1,0,0:0:0:40:Hat Close.wav
320,192,111878,128,0,112028:0:0:0:0:
448,192,112028,1,0,0:0:0:40:Hat Close.wav
192,192,112178,128,0,112478:0:0:0:0:
320,192,112328,1,0,0:0:0:40:Hat Close.wav
448,192,112478,128,0,112628:0:0:0:0:
64,192,112628,128,0,112778:0:0:0:40:Hat Close.wav
320,192,112778,128,0,112928:0:0:0:0:
192,192,112928,128,0,113078:0:0:0:40:Hat Close.wav
448,192,113078,128,0,113228:0:0:0:0:
64,192,113228,128,0,113378:0:0:0:40:Hat Close.wav
192,192,113378,128,0,113528:0:0:0:0:
320,192,113528,1,0,0:0:0:40:Hat Close.wav
64,192,113678,1,0,0:0:0:0:
192,192,113828,1,0,0:0:0:40:Hat Close.wav
448,192,113903,128,0,113978:0:0:0:0:
320,192,113978,128,0,114128:0:0:0:0:
192,192,114128,128,0,114278:0:0:0:40:Hat Close.wav
64,192,114278,128,0,114428:0:0:0:0:
448,192,114428,128,0,114578:0:0:0:40:Hat Close.wav
192,192,114578,1,2,0:0:0:0:
320,192,114578,1,0,0:0:0:0:
64,192,114728,128,0,114878:0:0:0:40:Hat Close.wav
192,192,114803,1,2,0:0:0:0:
320,192,114803,1,0,0:0:0:0:
320,192,115028,1,2,0:0:0:0:
448,192,115028,128,0,115178:0:0:0:40:Hat Close.wav
64,192,115178,1,2,0:0:0:0:
192,192,115178,1,0,0:0:0:0:
64,192,115328,1,0,0:0:0:40:Hat Close.wav
320,192,115478,1,2,0:0:0:0:
448,192,115478,1,0,0:0:0:0:
448,192,115628,1,0,0:0:0:40:Hat Close.wav
64,192,115778,1,2,0:0:0:0:
192,192,115853,1,2,0:0:0:0:
448,192,115928,1,2,0:0:0:0:
320,192,116003,1,2,0:0:0:0:
64,192,116078,1,2,0:0:0:0:
192,192,116078,1,0,0:0:0:0:
320,192,116228,1,2,0:0:0:0:
448,192,116228,1,0,0:0:0:40:Hat Close.wav
64,192,116378,1,2,0:0:0:0:
192,192,116378,1,4,0:0:0:0:
448,192,116378,128,0,116528:0:0:0:0:
192,192,116528,1,0,0:0:0:40:Hat Close.wav
64,192,116678,1,2,0:0:0:0:
320,192,116678,128,0,116828:0:0:0:0:
64,192,116828,1,0,0:0:0:40:Hat Close.wav
192,192,116978,128,2,117128:0:0:0:0:
448,192,116978,1,0,0:0:0:0:
448,192,117128,1,0,0:0:0:40:Hat Close.wav
64,192,117278,128,2,118178:0:0:0:0:
320,192,117278,1,0,0:0:0:0:
320,192,117428,1,0,0:0:0:40:Hat Close.wav
192,192,117578,1,2,0:0:0:0:
448,192,117578,1,0,0:0:0:0:
192,192,117728,1,0,0:0:0:40:Hat Close.wav
320,192,117878,1,2,0:0:0:0:
448,192,117878,1,0,0:0:0:0:
448,192,118028,1,0,0:0:0:40:Hat Close.wav
192,192,118178,1,2,0:0:0:0:
320,192,118178,1,0,0:0:0:0:
320,192,118328,1,0,0:0:0:40:Hat Close.wav
64,192,118478,1,2,0:0:0:0:
448,192,118478,1,0,0:0:0:0:
64,192,118628,1,0,0:0:0:40:Hat Close.wav
192,192,118778,1,2,0:0:0:0:
448,192,118778,128,0,119378:0:0:0:0:
192,192,118928,1,0,0:0:0:40:Hat Close.wav
64,192,119078,1,2,0:0:0:0:
320,192,119078,1,0,0:0:0:0:
64,192,119228,1,0,0:0:0:40:Hat Close.wav
192,192,119378,128,2,119678:0:0:0:0:
320,192,119378,1,0,0:0:0:0:
320,192,119528,1,0,0:0:0:40:Hat Close.wav
64,192,119678,1,2,0:0:0:0:
448,192,119678,1,0,0:0:0:0:
64,192,119828,128,0,120578:0:0:0:40:Hat Close.wav
320,192,119978,1,2,0:0:0:0:
448,192,119978,1,0,0:0:0:0:
448,192,120128,1,0,0:0:0:40:Hat Close.wav
192,192,120278,1,2,0:0:0:0:
320,192,120278,1,0,0:0:0:0:
320,192,120428,1,0,0:0:0:40:Hat Close.wav
192,192,120578,1,2,0:0:0:0:
448,192,120578,1,0,0:0:0:0:
448,192,120728,1,0,0:0:0:40:Hat Close.wav
192,192,120878,1,2,0:0:0:0:
320,192,120878,1,0,0:0:0:0:
192,192,121028,1,0,0:0:0:40:Hat Close.wav
64,192,121178,128,2,121328:0:0:0:0:
320,192,121178,1,0,0:0:0:0:
320,192,121328,1,0,0:0:0:40:Hat Close.wav
192,192,121478,128,2,121628:0:0:0:0:
448,192,121478,1,0,0:0:0:0:
448,192,121628,1,0,0:0:0:40:Hat Close.wav
64,192,121778,1,2,0:0:0:0:
320,192,121778,128,0,121928:0:0:0:0:
64,192,121928,1,0,0:0:0:40:Hat Close.wav
192,192,122078,1,2,0:0:0:0:
448,192,122078,128,0,122978:0:0:0:0:
192,192,122228,1,0,0:0:0:40:Hat Close.wav
64,192,122378,1,2,0:0:0:0:
320,192,122378,1,0,0:0:0:0:
320,192,122528,1,0,0:0:0:40:Hat Close.wav
64,192,122678,1,2,0:0:0:0:
192,192,122678,1,0,0:0:0:0:
64,192,122828,1,0,0:0:0:40:Hat Close.wav
192,192,122978,1,2,0:0:0:0:
320,192,122978,1,0,0:0:0:0:
192,192,123128,1,0,0:0:0:40:Hat Close.wav
64,192,123278,1,2,0:0:0:0:
320,192,123278,1,0,0:0:0:0:
320,192,123428,1,0,0:0:0:40:Hat Close.wav
64,192,123578,1,2,0:0:0:0:
448,192,123578,1,0,0:0:0:0:
192,192,123728,1,0,0:0:0:40:Hat Close.wav
320,192,123878,1,0,0:0:0:0:
448,192,124028,1,0,0:0:0:40:Hat Close.wav
64,192,124178,1,2,0:0:0:0:
192,192,124178,1,0,0:0:0:0:
320,192,124403,1,2,0:0:0:0:
448,192,124403,1,0,0:0:0:0:
64,192,124628,1,2,0:0:0:0:
192,192,124628,1,0,0:0:0:40:Hat Close.wav
448,192,124778,1,0,0:0:0:0:
320,192,124853,1,0,0:0:0:0:
64,192,124928,1,0,0:0:0:40:Hat Close.wav
192,192,125003,1,0,0:0:0:0:
448,192,125078,1,2,0:0:0:0:
320,192,125153,1,0,0:0:0:0:
64,192,125228,1,0,0:0:0:40:Hat Close.wav
192,192,125303,1,0,0:0:0:0:
448,192,125378,1,2,0:0:0:0:
320,192,125453,1,2,0:0:0:0:
192,192,125528,1,2,0:0:0:0:
64,192,125603,1,2,0:0:0:0:
320,192,125678,1,2,0:0:0:0:
448,192,125678,1,0,0:0:0:0:
64,192,125828,1,2,0:0:0:0:
320,192,125828,1,0,0:0:0:40:Hat Close.wav
64,192,125978,1,4,0:0:0:0:
192,192,125978,1,2,0:0:0:0:
448,192,125978,1,0,0:0:0:0:
