osu file format v14

[General]
AudioFilename: Homicide Moon.mp3
AudioLeadIn: 0
PreviewTime: 119220
Countdown: 0
SampleSet: Normal
StackLeniency: 0.7
Mode: 0
LetterboxInBreaks: 0
WidescreenStoryboard: 1

[Editor]
Bookmarks: 151720
DistanceSpacing: 1
BeatDivisor: 4
GridSize: 8
TimelineZoom: 2.4

[Metadata]
Title:Homicide Moon
TitleUnicode:Homicide Moon
Artist:IOSYS
ArtistUnicode:IOSYS
Creator:[ Scarlet Red ]
Version:Normal
Source:東方Project
Tags:
BeatmapID:859719
BeatmapSetID:381693

[Difficulty]
HPDrainRate:1
CircleSize:3
OverallDifficulty:2
ApproachRate:4
SliderMultiplier:1
SliderTickRate:1

[Events]
//Background and Video events
0,0,"Homicidal Maiden - Background.jpg",0,0
//Break Periods
2,65883,73904
2,132257,140571
//Storyboard Layer 0 (Background)
//Storyboard Layer 1 (Fail)
//Storyboard Layer 2 (Pass)
//Storyboard Layer 3 (Foreground)
//Storyboard Sound Samples

[TimingPoints]
558,333.333333333333,4,1,0,50,1,0
55224,-100,4,1,0,50,0,1
65891,-133.333333333333,4,1,0,50,0,0
66391,-100,4,1,0,50,0,0
121891,-100,4,1,0,50,0,1
132557,-100,4,1,0,50,0,0

[Colours]
Combo1 : 155,0,0
Combo2 : 37,31,97
Combo3 : 159,48,163

[HitObjects]
400,176,558,6,8,P|352:232|264:224,2,150
352,80,1891,6,0,P|304:64|232:64,1,100,0|8,0:0|0:0,0:0:0:0:
240,112,2391,2,0,L|192:224,1,100
152,232,2891,1,8,0:0:0:0:
240,296,3224,2,0,B|288:288|288:288|328:256,1,100,0|8,0:0|0:0,0:0:0:0:
344,144,3891,2,0,L|232:96,1,100,0|8,0:0|0:0,0:0:0:0:
232,216,4557,6,0,P|192:264|144:280,1,100,0|8,0:0|0:0,0:0:0:0:
112,248,5057,2,0,L|32:160,1,100
48,120,5557,1,8,0:0:0:0:
160,128,5891,2,0,P|200:176|256:192,1,100,0|8,0:0|0:0,0:0:0:0:
280,160,6391,2,0,L|368:96,1,100
416,104,6891,1,8,0:0:0:0:
424,216,7224,6,0,B|384:240|384:240|320:248,1,100,0|8,0:0|0:0,0:0:0:0:
288,224,7724,2,0,P|232:176|192:160,1,100
160,152,8224,1,8,0:0:0:0:
208,64,8557,2,0,P|272:80|312:112,1,100,0|8,0:0|0:0,0:0:0:0:
256,192,9224,2,0,P|320:256|336:264,1,100,0|8,0:0|0:0,0:0:0:0:
240,312,9891,6,0,B|208:304|184:280|168:240,1,100,0|8,0:0|0:0,0:0:0:0:
168,192,10391,2,0,B|168:136|168:136|152:96,1,100
192,56,10891,1,4,0:0:0:0:
288,104,11224,5,8,0:0:0:0:
312,264,11724,1,8,0:0:0:0:
168,184,12224,1,4,0:0:0:0:
256,120,12557,6,0,P|320:136|352:160,1,100,0|8,0:0|0:0,0:0:0:0:
264,224,13224,2,0,P|264:280|288:328,1,100,0|8,0:0|0:0,0:0:0:0:
176,296,13891,2,0,B|136:264|136:264|112:208,1,100,0|8,0:0|0:0,0:0:0:0:
136,168,14391,2,0,L|208:88,1,100
256,104,14891,1,8,0:0:0:0:
296,208,15224,6,0,L|400:248,1,100,0|8,0:0|0:0,0:0:0:0:
416,136,15891,2,0,P|360:88|328:80,1,100,0|8,0:0|0:0,0:0:0:0:
288,104,16391,1,0,0:0:0:0:
240,120,16557,2,0,P|208:128|120:120,1,100,0|8,0:0|0:0,0:0:0:0:
176,230,17224,5,0,0:0:0:0:
280,280,17557,1,8,0:0:0:0:
360,208,17891,6,0,L|304:112,1,100,0|8,0:0|0:0,0:0:0:0:
200,136,18557,2,0,B|176:184|176:184|176:240,1,100,0|8,0:0|0:0,0:0:0:0:
216,272,19057,1,0,0:0:0:0:
264,296,19224,2,0,P|328:328|376:320,1,100,0|8,0:0|0:0,0:0:0:0:
344,216,19891,2,0,L|312:104,1,100,0|8,0:0|0:0,0:0:0:0:
208,144,20557,2,0,L|112:216,1,100,0|8,0:0|0:0,0:0:0:0:
80,184,21057,2,0,P|64:144|88:88,1,100
136,72,21557,1,8,0:0:0:0:
224,144,21891,6,8,P|248:192|256:296,2,150
144,224,23224,5,0,0:0:0:0:
136,112,23557,1,8,0:0:0:0:
224,48,23891,1,8,0:0:0:0:
312,112,24224,1,8,0:0:0:0:
352,216,24557,2,8,L|288:312,1,100
224,216,25224,2,0,L|144:304,1,100,8|8,0:0|0:0,0:0:0:0:
120,184,25891,5,12,0:0:0:0:
200,112,26224,1,8,0:0:0:0:
288,40,26557,2,8,L|360:128,1,100
328,224,27224,2,8,P|368:280|416:304,1,100
296,344,27891,1,8,0:0:0:0:
296,344,28224,1,12,0:0:0:0:
232,256,28557,6,8,P|176:208|176:168,1,100
256,112,29224,2,8,L|336:176,1,100
352,56,29891,2,8,L|432:120,1,100
424,232,30557,1,8,0:0:0:0:
328,256,30891,1,8,0:0:0:0:
256,192,31224,12,0,33557,0:0:0:0:
376,192,33891,6,0,P|328:232|280:240,1,100,0|8,0:0|0:0,0:0:0:0:
248,208,34391,1,0,0:0:0:0:
192,208,34557,2,0,L|80:240,1,100,0|8,0:0|0:0,0:0:0:0:
160,328,35224,1,0,0:0:0:0:
264,296,35557,1,8,0:0:0:0:
360,248,35891,2,0,P|384:192|384:144,1,100,8|0,0:0|0:0,0:0:0:0:
280,120,36557,6,0,L|184:152,2,100,0|8|0,0:0|0:0|0:0,0:0:0:0:
192,56,37557,1,8,0:0:0:0:
112,136,37891,1,0,0:0:0:0:
176,224,38224,1,8,0:0:0:0:
280,248,38557,2,0,P|304:288|312:352,1,100,8|0,0:0|0:0,0:0:0:0:
392,264,39224,6,0,P|416:208|416:152,1,100,0|8,0:0|0:0,0:0:0:0:
384,128,39724,1,0,0:0:0:0:
328,128,39891,2,0,P|264:144|216:144,1,100,0|8,0:0|0:0,0:0:0:0:
128,192,40557,1,0,0:0:0:0:
232,240,40891,1,8,0:0:0:0:
128,288,41224,2,0,L|216:344,1,100,8|0,0:0|0:0,0:0:0:0:
304,280,41891,6,0,L|400:216,1,100,0|8,0:0|0:0,0:0:0:0:
392,112,42557,1,0,0:0:0:0:
288,152,42891,1,8,0:0:0:0:
248,48,43224,1,0,0:0:0:0:
152,104,43557,2,0,P|144:176|160:216,1,100,8|0,0:0|0:0,0:0:0:0:
256,232,44224,1,12,0:0:0:0:
288,128,44557,6,0,P|344:120|472:192,1,200,0|8,0:0|0:0,0:0:0:0:
408,280,45557,1,8,0:0:0:0:
280,280,45891,2,0,B|240:264|224:224|224:224|192:176|104:184,2,200
336,184,47557,1,8,0:0:0:0:
264,96,47891,1,0,0:0:0:0:
152,80,48224,1,8,0:0:0:0:
120,184,48557,6,0,B|152:232|152:232|208:240|256:272|240:304|272:320,2,200
64,280,50224,1,8,0:0:0:0:
152,344,50557,1,0,0:0:0:0:
261,312,50891,1,8,0:0:0:0:
368,296,51224,6,0,B|456:256|440:176|440:176|384:136,2,200
192,168,53224,1,0,0:0:0:0:
352,288,53891,6,8,L|296:320,3,50
232,248,54724,2,8,L|232:184,2,50
232,304,55224,6,0,P|192:360|152:376,1,100,0|8,0:0|0:0,0:0:0:0:
112,272,55891,1,0,0:0:0:0:
160,168,56224,1,8,0:0:0:0:
256,112,56557,2,0,P|304:160|352:176,1,100,0|8,0:0|0:0,0:0:0:0:
312,280,57224,1,0,0:0:0:0:
232,208,57557,1,8,0:0:0:0:
200,312,57891,2,0,B|144:304|144:304|96:264,1,100,0|8,0:0|0:0,0:0:0:0:
160,176,58557,1,0,0:0:0:0:
128,72,58891,1,8,0:0:0:0:
240,80,59224,2,0,P|304:96|352:88,1,100,0|8,0:0|0:0,0:0:0:0:
400,184,59891,5,0,0:0:0:0:
312,248,60224,1,12,0:0:0:0:
224,184,60557,6,8,P|168:208|112:200,1,100,0|8,0:0|0:0,0:0:0:0:
168,104,61224,2,0,P|216:80|280:80,1,100,0|8,0:0|0:0,0:0:0:0:
304,176,61891,1,0,0:0:0:0:
384,248,62224,1,8,0:0:0:0:
280,296,62557,2,0,P|240:280|168:280,1,100,0|8,0:0|0:0,0:0:0:0:
200,168,63224,2,0,P|144:136|112:104,1,100,0|8,0:0|0:0,0:0:0:0:
216,64,63891,1,0,0:0:0:0:
312,120,64224,1,8,0:0:0:0:
336,224,64557,2,0,P|288:264|240:280,2,100,0|0|8,0:0|0:0|0:0,0:0:0:0:
256,144,75224,6,0,L|256:88,1,50,8|0,0:0|0:0,0:0:0:0:
352,136,75724,6,0,L|392:184,1,50,8|0,0:0|0:0,0:0:0:0:
296,224,76224,6,0,L|328:280,1,50,8|0,0:0|0:0,0:0:0:0:
416,248,76724,6,0,L|472:216,1,50,8|0,0:0|0:0,0:0:0:0:
440,128,77224,6,0,L|432:56,1,50,8|0,0:0|0:0,0:0:0:0:
336,56,77724,5,8,0:0:0:0:
256,192,78057,12,0,79224,0:0:0:0:
352,256,79891,6,0,P|280:256|240:240,1,100,0|8,0:0|0:0,0:0:0:0:
192,168,80557,2,0,P|264:152|312:160,1,100,0|8,0:0|0:0,0:0:0:0:
352,72,81224,2,0,P|400:112|416:160,1,100,0|8,0:0|0:0,0:0:0:0:
336,208,81891,1,0,0:0:0:0:
400,288,82224,1,8,0:0:0:0:
304,296,82557,1,0,0:0:0:0:
256,208,82891,2,0,B|208:224|208:224|176:264,1,100,8|0,0:0|0:0,0:0:0:0:
112,184,83557,1,8,0:0:0:0:
168,104,83891,1,0,0:0:0:0:
240,32,84224,1,4,0:0:0:0:
304,104,84557,6,0,P|368:136|400:176,1,100,0|8,0:0|0:0,0:0:0:0:
296,192,85224,2,0,P|336:240|384:256,1,100,0|8,0:0|0:0,0:0:0:0:
280,296,85891,1,0,0:0:0:0:
224,216,86224,1,8,0:0:0:0:
240,120,86557,1,0,0:0:0:0:
152,72,86891,1,8,0:0:0:0:
120,176,87224,2,0,P|136:232|184:272,1,100,0|8,0:0|0:0,0:0:0:0:
248,208,87891,1,0,0:0:0:0:
232,112,88224,1,4,0:0:0:0:
328,88,88557,2,0,P|360:144|352:248,2,150,8|8|4,0:0|0:0|0:0,0:0:0:0:
240,136,89891,5,4,0:0:0:0:
176,216,90224,2,8,P|216:272|264:280,1,100
304,200,90891,2,8,P|352:192|408:200,1,100
368,104,91557,2,8,P|320:72|264:64,2,100
296,176,92557,5,4,0:0:0:0:
216,112,92891,1,8,0:0:0:0:
216,208,93224,1,8,0:0:0:0:
128,168,93557,1,8,0:0:0:0:
112,264,93891,2,8,P|160:304|208:320,1,100
256,240,94557,1,0,0:0:0:0:
256,240,94891,1,4,0:0:0:0:
208,152,95224,5,8,0:0:0:0:
120,208,95557,2,8,P|120:288|128:312,1,100
216,256,96224,2,8,P|272:232|328:240,1,100
312,136,96891,2,8,P|256:128|200:136,1,100
232,232,97557,2,0,P|304:264|328:264,1,100,4|0,0:0|0:0,0:0:0:0:
392,192,98224,1,8,0:0:0:0:
288,80,98724,1,8,0:0:0:0:
184,192,99224,1,4,0:0:0:0:
464,96,100224,5,8,0:0:0:0:
432,192,100557,2,0,P|400:232|336:248,1,100,0|8,0:0|0:0,0:0:0:0:
296,168,101224,1,0,0:0:0:0:
264,264,101557,1,8,0:0:0:0:
216,176,101891,2,0,P|160:208|120:208,1,100,0|8,0:0|0:0,0:0:0:0:
136,312,102557,2,0,L|200:344,1,50,8|4,0:0|0:0,0:0:0:0:
272,216,103224,6,0,P|240:168|240:112,1,100,0|8,0:0|0:0,0:0:0:0:
336,120,103891,1,0,0:0:0:0:
368,216,104224,1,8,0:0:0:0:
272,216,104557,2,0,P|256:264|256:328,1,100,0|8,0:0|0:0,0:0:0:0:
184,240,105224,2,0,L|144:200,1,50,8|4,0:0|0:0,0:0:0:0:
264,104,105891,6,0,P|320:128|368:168,1,100,0|8,0:0|0:0,0:0:0:0:
272,208,106557,1,0,0:0:0:0:
368,240,106891,1,8,0:0:0:0:
288,296,107224,2,0,P|216:304|168:296,1,100,0|8,0:0|0:0,0:0:0:0:
144,216,107891,2,0,L|88:256,1,50,8|4,0:0|0:0,0:0:0:0:
168,112,108557,6,0,P|240:128|272:144,1,100,0|8,0:0|0:0,0:0:0:0:
312,224,109224,2,0,P|288:280|256:320,1,100,0|8,0:0|0:0,0:0:0:0:
216,224,109891,2,0,P|248:152|264:136,1,100,0|8,0:0|0:0,0:0:0:0:
304,48,110557,2,0,P|344:80|360:128,1,100,0|8,0:0|0:0,0:0:0:0:
416,208,111224,6,0,B|392:248|320:256|320:256|272:264|232:280,1,200,0|8,0:0|0:0,0:0:0:0:
176,192,112224,1,0,0:0:0:0:
208,96,112557,2,0,B|160:64|160:64|96:64,1,100,0|8,0:0|0:0,0:0:0:0:
136,160,113224,2,0,P|152:216|192:248,1,100,0|8,0:0|0:0,0:0:0:0:
248,168,113891,6,0,B|288:128|336:112|336:112|440:128,1,200,0|8,0:0|0:0,0:0:0:0:
448,224,114891,1,0,0:0:0:0:
352,208,115224,2,0,P|336:264|344:320,1,100,0|8,0:0|0:0,0:0:0:0:
256,248,115891,2,0,P|200:200|192:168,1,100,0|8,0:0|0:0,0:0:0:0:
128,104,116557,6,0,B|80:144|88:208|88:208|128:248|136:280,1,200,0|8,0:0|0:0,0:0:0:0:
224,328,117557,1,0,0:0:0:0:
288,248,117891,2,0,P|264:184|272:144,1,100,0|8,0:0|0:0,0:0:0:0:
168,144,118557,2,0,P|168:208|184:256,1,100,0|8,0:0|0:0,0:0:0:0:
80,208,119224,6,0,P|80:256|112:312,1,100,0|8,0:0|0:0,0:0:0:0:
177,242,119891,2,0,P|241:234|297:250,1,100,0|8,0:0|0:0,0:0:0:0:
304,144,120557,2,8,L|368:160,3,50
408,240,121391,2,8,L|408:304,2,50
400,192,121891,6,0,P|376:144|328:112,1,100,0|8,0:0|0:0,0:0:0:0:
240,128,122557,1,0,0:0:0:0:
160,192,122891,1,8,0:0:0:0:
256,216,123224,2,0,P|224:264|176:280,1,100,0|8,0:0|0:0,0:0:0:0:
96,248,123891,1,0,0:0:0:0:
48,336,124224,1,8,0:0:0:0:
144,344,124557,6,0,L|264:344,1,100,0|8,0:0|0:0,0:0:0:0:
304,264,125224,1,0,0:0:0:0:
280,168,125557,1,8,0:0:0:0:
176,152,125891,1,0,0:0:0:0:
136,64,126224,1,8,0:0:0:0:
232,40,126557,2,0,P|272:80|328:104,1,100,0|8,0:0|0:0,0:0:0:0:
264,192,127224,5,0,0:0:0:0:
168,152,127557,1,8,0:0:0:0:
184,248,127891,2,0,P|208:304|256:336,1,100,0|8,0:0|0:0,0:0:0:0:
312,256,128557,1,0,0:0:0:0:
256,184,128891,1,8,0:0:0:0:
184,248,129224,2,0,P|120:232|96:200,1,100,0|8,0:0|0:0,0:0:0:0:
152,120,129891,5,0,0:0:0:0:
208,40,130224,1,8,0:0:0:0:
248,128,130557,2,0,P|288:176|328:192,1,100
184,256,131391,2,8,L|256:264,2,50
176,152,132057,1,4,0:0:0:0:
296,64,141891,6,0,L|352:104,1,50,8|0,0:0|0:0,0:0:0:0:
304,184,142391,6,0,L|256:152,1,50,8|0,0:0|0:0,0:0:0:0:
160,160,142891,6,0,L|160:224,1,50,8|0,0:0|0:0,0:0:0:0:
256,240,143391,6,0,L|216:296,1,50,8|0,0:0|0:0,0:0:0:0:
328,296,143891,6,0,L|376:248,1,50,8|0,0:0|0:0,0:0:0:0:
400,168,144391,5,0,0:0:0:0:
256,192,144891,12,0,145891,0:0:0:0:
216,176,146557,6,0,P|272:192|328:184,1,100,0|8,0:0|0:0,0:0:0:0:
288,96,147224,2,0,P|224:72|184:72,1,100,0|8,0:0|0:0,0:0:0:0:
216,176,147891,2,0,P|208:248|184:288,1,100,0|8,0:0|0:0,0:0:0:0:
128,200,148557,2,0,P|88:160|88:104,1,100,0|8,0:0|0:0,0:0:0:0:
160,56,149224,1,0,0:0:0:0:
256,88,149557,1,8,0:0:0:0:
352,112,149891,2,0,L|400:160,1,50
400,248,150391,2,0,P|320:240|256:184,1,150,0|4,0:0|0:0,0:0:0:0:
272,96,151224,5,0,0:0:0:0:
184,144,151557,2,0,P|144:192|104:216,1,100,8|0,0:0|0:0,0:0:0:0:
152,304,152224,1,8,0:0:0:0:
240,256,152557,1,0,0:0:0:0:
256,160,152891,2,0,P|296:128|352:112,1,100,8|0,0:0|0:0,0:0:0:0:
408,184,153557,1,8,0:0:0:0:
384,280,153891,6,0,P|352:296|240:296,2,150,0|0|4,0:0|0:0|0:0,0:0:0:0:
256,192,155224,12,0,156557,0:0:0:0:
328,120,157224,5,12,0:0:0:0:
128,120,157891,6,0,P|128:176|144:240,1,100
232,208,158557,1,12,0:0:0:0:
432,240,159224,6,0,P|392:280|344:288,1,100
312,192,159891,1,12,0:0:0:0:
128,272,160557,6,0,B|104:224|104:224|104:160,1,100
184,120,161224,1,12,0:0:0:0:
184,120,161557,1,12,0:0:0:0:
280,88,161891,6,0,P|280:144|264:200,1,100
184,240,162557,1,12,0:0:0:0:
384,264,163224,6,0,L|456:184,1,100
400,104,163891,1,12,0:0:0:0:
232,208,164557,6,0,P|184:176|128:168,1,100
120,264,165224,1,12,0:0:0:0:
256,192,165891,12,0,167224,0:0:0:0:
368,104,167891,6,8,L|320:208,1,100
248,128,168557,2,8,P|176:120|136:136,1,100
168,224,169224,2,8,L|248:288,1,100
328,232,169891,1,4,0:0:0:0:
264,160,170224,6,8,P|320:136|360:144,1,100
328,232,170891,2,8,L|248:320,1,100
208,216,171557,1,8,0:0:0:0:
272,144,171891,1,8,0:0:0:0:
208,72,172224,1,4,0:0:0:0:
304,56,172557,5,0,0:0:0:0:
384,120,172891,2,8,P|384:184|352:224,1,100
280,168,173557,2,8,L|280:272,1,100
192,216,174224,2,8,L|136:128,1,100
216,64,174891,1,8,0:0:0:0:
296,120,175224,5,12,0:0:0:0:
240,200,175557,2,8,P|288:256|320:272,1,100
384,200,176224,2,0,L|472:136,1,100,4|8,0:0|0:0,0:0:0:0:
408,56,176891,1,4,0:0:0:0:
320,112,177224,1,4,0:0:0:0:
256,192,177557,2,8,L|200:240,1,50
168,216,177891,6,0,L|72:160,1,100,0|8,0:0|0:0,0:0:0:0:
152,96,178557,2,8,L|264:104,1,100
304,192,179224,1,8,0:0:0:0:
376,120,179557,1,8,0:0:0:0:
416,216,179891,1,8,0:0:0:0:
336,280,180224,1,8,0:0:0:0:
240,264,180557,6,0,L|128:232,1,100,4|8,0:0|0:0,0:0:0:0:
160,136,181224,1,8,0:0:0:0:
248,184,181557,1,8,0:0:0:0:
312,112,181891,1,8,0:0:0:0:
376,192,182224,2,8,P|408:256|400:288,1,100
312,328,182891,1,4,0:0:0:0:
256,248,183224,5,0,0:0:0:0:
304,160,183557,1,8,0:0:0:0:
288,64,183891,2,8,P|224:32|176:24,1,100
208,152,184557,2,8,P|200:208|176:256,1,100
264,304,185224,1,8,0:0:0:0:
320,224,185557,1,0,0:0:0:0:
272,136,185891,6,8,P|336:112|384:112,1,100
400,200,186557,2,0,L|376:264,1,50,0|8,0:0|0:0,0:0:0:0:
232,248,187224,2,0,L|176:232,1,50
176,88,187891,1,8,0:0:0:0:
256,152,188224,1,8,0:0:0:0:
256,192,188557,12,0,193891,0:0:0:0:
